999
DXF file: 1095093_7_a.dxf
999
Pro/ENGINEER 2007160 by Parametric Technology Corporation
  0
SECTION
  2
HEADER
  9
$EXTMAX
 10
22.0
 20
17.0
 30
0.0
  9
$EXTMIN
 10
0.0
 20
0.0
 30
0.0
  9
$LIMMIN
 10
0.0
 20
0.0
  9
$LIMMAX
 10
22.0
 20
17.0
  9
$VIEWCTR
 10
11.0
 20
8.5
  9
$VIEWSIZE
 40
17.0
  9
$CLAYER
  8
0
  9
$LTSCALE
 40
1.21
  9
$CELTYPE
  6
BYLAYER
  9
$DIMSCALE
 40
1.0
  9
$DIMASZ
 40
0.1875
  9
$DIMEXO
 40
0.1375
  9
$DIMDLI
 40
0.836
  9
$DIMEXE
 40
0.396
  9
$DIMCEN
 40
0.198
  9
$DIMLFAC
 40
1.0
  9
$DIMBLK
  1
_FILLED
  9
$DIMTXT
 40
0.15625
  9
$PDMODE
 70
3
  9
$PDSIZE
 40
0.3125
  0
ENDSEC
  0
SECTION
  2
TABLES
  0
TABLE
  2
LTYPE
 70
6
  0
LTYPE
  2
BYBLOCK
 70
0
  3

 72
65
 73
0
 40
0.0
  0
LTYPE
  2
BYLAYER
 70
0
  3

 72
65
 73
0
 40
0.0
  0
LTYPE
  2
CONTINUOUS
 70
64
  3
Solid line
 72
65
 73
0
 40
0.0
  0
LTYPE
  2
CENTER
 70
64
  3
____ _ ____ _ ____ _ ____ _ ____ _ ____ _ ____
 72
65
 73
4
 40
0.6
 49
0.375
 49
-0.075
 49
0.075
 49
-0.075
  0
LTYPE
  2
HIDDEN
 70
64
  3
- - - - - - - - - - - - - - - - - - - -
 72
65
 73
2
 40
0.2
 49
0.1
 49
-0.1
  0
LTYPE
  2
PHANTOM
 70
64
  3
_____ _ _ _____ _ _ _____ _ _ _____
 72
65
 73
6
 40
0.8
 49
0.45
 49
-0.05
 49
0.1
 49
-0.05
 49
0.1
 49
-0.05
  0
LTYPE
  2
DOT
 70
64
  3
. . . . . . . . . . . . . . . . . . . .
 72
65
 73
2
 40
0.2
 49
0.1
 49
-0.1
  0
LTYPE
  2
DASHED
 70
64
  3
- - - - - - - - - - - - - - - - - - - -
 72
65
 73
2
 40
0.2
 49
0.1
 49
-0.1
  0
ENDTAB
  0
TABLE
  2
LAYER
 70
36
  0
LAYER
  2
0
 70
0
 62
7
  6
CONTINUOUS
  0
LAYER
  2
DEFAULT_1
 70
0
 62
7
  6
CENTER
  0
LAYER
  2
DEFAULT_2
 70
0
 62
8
  6
HIDDEN
  0
LAYER
  2
DEFAULT_3
 70
0
 62
7
  6
PHANTOM
  0
LAYER
  2
_2D_DELETED_OBJS
 70
0
 62
7
  6
CONTINUOUS
  0
LAYER
  2
0
 70
0
 62
7
  6
CONTINUOUS
  0
LAYER
  2
DATUMS
 70
0
 62
7
  6
CONTINUOUS
  0
LAYER
  2
DATUM_AXIS
 70
0
 62
7
  6
CONTINUOUS
  0
LAYER
  2
DATUM_CSYS
 70
0
 62
7
  6
CONTINUOUS
  0
LAYER
  2
DATUM_PLANE
 70
0
 62
7
  6
CONTINUOUS
  0
LAYER
  2
DATUM_POINT
 70
0
 62
7
  6
CONTINUOUS
  0
LAYER
  2
LAYER_1
 70
0
 62
7
  6
CONTINUOUS
  0
LAYER
  2
_CURVE
 70
0
 62
7
  6
CONTINUOUS
  0
LAYER
  2
_SURFACE
 70
0
 62
7
  6
CONTINUOUS
  0
LAYER
  2
__REF_CURVE
 70
0
 62
7
  6
CONTINUOUS
  0
LAYER
  2
__REF_SURFACE
 70
0
 62
7
  6
CONTINUOUS
  0
LAYER
  2
___NOTE
 70
0
 62
7
  6
CONTINUOUS
  0
LAYER
  2
___SYMBOL
 70
0
 62
7
  6
CONTINUOUS
  0
ENDTAB
  0
TABLE
  2
STYLE
 70
1
  0
STYLE
  2
STANDARD
 70
0
 40
0.0
 41
0.8
 50
0.0
 71
0
 42
0.2
  3
txt
  4

  0
ENDTAB
  0
ENDSEC
  0
SECTION
  2
BLOCKS
  0
BLOCK
  8
0
 62
2
  6
CONTINUOUS
  2
*D0
 70
65
 10
0.0
 20
0.0
  0
TEXT
  8
0
 62
2
  6
CONTINUOUS
 10
20.7267609263
 20
12.6898792745
  7
STANDARD
 40
0.15625
  1
11.50
 41
0.8
 72
0
  0
TEXT
  8
0
 62
2
  6
CONTINUOUS
 10
20.8517609263
 20
12.4555042745
  7
STANDARD
 40
0.15625
  1
292
 41
0.8
 72
0
  0
TEXT
  8
0
 62
2
  6
CONTINUOUS
 10
20.7267609263
 20
12.4555042745
  7
STANDARD
 40
0.15625
  1
[
 41
0.8
 72
0
  0
TEXT
  8
0
 62
2
  6
CONTINUOUS
 10
21.2267609263
 20
12.4555042745
  7
STANDARD
 40
0.15625
  1
]
 41
0.8
 72
0
  0
LINE
  8
0
 62
2
  6
CONTINUOUS
 10
13.4345259949
 20
16.3206134105
 11
21.1642609263
 21
16.3206134105
  0
LINE
  8
0
 62
2
  6
CONTINUOUS
 10
13.4345259949
 20
4.8204481265
 11
21.1642609263
 21
4.8204481265
  0
LINE
  8
0
 62
2
  6
CONTINUOUS
 10
21.0392609263
 20
16.3206134105
 11
21.0392609263
 21
12.9242542745
  0
LINE
  8
0
 62
2
  6
CONTINUOUS
 10
21.0392609263
 20
4.8204481265
 11
21.0392609263
 21
12.3773792745
  0
INSERT
  8
0
 62
2
  6
CONTINUOUS
  2
_FILLED
 10
21.0392609263
 20
16.3206134105
 41
0.1875
 42
0.1875
 43
0.1875
 50
90.0
  0
INSERT
  8
0
 62
2
  6
CONTINUOUS
  2
_FILLED
 10
21.0392609263
 20
4.8204481265
 41
0.1875
 42
0.1875
 43
0.1875
 50
270.0
  0
ENDBLK
  8
0
  6
BYBLOCK
 62
0
  0
BLOCK
  8
0
 62
2
  6
CONTINUOUS
  2
*D1
 70
65
 10
0.0
 20
0.0
  0
TEXT
  8
0
 62
2
  6
CONTINUOUS
 10
13.0595259949
 20
4.1686909479
  7
STANDARD
 40
0.15625
  1
14.56
 41
0.8
 72
0
  0
TEXT
  8
0
 62
2
  6
CONTINUOUS
 10
13.1845259949
 20
3.9343159479
  7
STANDARD
 40
0.15625
  1
370
 41
0.8
 72
0
  0
TEXT
  8
0
 62
2
  6
CONTINUOUS
 10
13.0595259949
 20
3.9343159479
  7
STANDARD
 40
0.15625
  1
[
 41
0.8
 72
0
  0
TEXT
  8
0
 62
2
  6
CONTINUOUS
 10
13.5595259949
 20
3.9343159479
  7
STANDARD
 40
0.15625
  1
]
 41
0.8
 72
0
  0
LINE
  8
0
 62
2
  6
CONTINUOUS
 10
20.6520259949
 20
9.5019481265
 11
20.6520259949
 21
4.1218159479
  0
LINE
  8
0
 62
2
  6
CONTINUOUS
 10
6.0920259949
 20
9.5019481265
 11
6.0920259949
 21
4.1218159479
  0
LINE
  8
0
 62
2
  6
CONTINUOUS
 10
20.6520259949
 20
4.2468159479
 11
13.7626509949
 21
4.2468159479
  0
LINE
  8
0
 62
2
  6
CONTINUOUS
 10
6.0920259949
 20
4.2468159479
 11
12.9814009949
 21
4.2468159479
  0
INSERT
  8
0
 62
2
  6
CONTINUOUS
  2
_FILLED
 10
20.6520259949
 20
4.2468159479
 41
0.1875
 42
0.1875
 43
0.1875
  0
INSERT
  8
0
 62
2
  6
CONTINUOUS
  2
_FILLED
 10
6.0920259949
 20
4.2468159479
 41
0.1875
 42
0.1875
 43
0.1875
 50
180.0
  0
ENDBLK
  8
0
  6
BYBLOCK
 62
0
  0
BLOCK
  8
___SYMBOL
 62
2
  6
CONTINUOUS
  2
COPYRIGHT_YEAR_BL0
 70
64
 10
17.1575841936
 20
5.9560358073
  0
TEXT
  8
___SYMBOL
 62
2
  6
CONTINUOUS
 10
16.783892568
 20
5.9207621825
  7
STANDARD
 40
0.0705
  1
2008
 41
0.8
 72
0
  0
TEXT
  8
___SYMBOL
 62
2
  6
CONTINUOUS
 10
17.009492568
 20
5.9207621825
  7
STANDARD
 40
0.0705
  1
 KOHLER CO.
 41
0.8
 72
0
  0
TEXT
  8
___SYMBOL
 62
7
  6
CONTINUOUS
 10
16.703866819
 20
5.9372471827
  7
STANDARD
 40
0.0421874995
  1
C
 41
1.0
 72
0
  0
CIRCLE
  8
___SYMBOL
 62
7
  6
CONTINUOUS
 10
16.7181018188
 20
5.9584834325
 40
0.0328259996
  0
ENDBLK
  8
0
  6
BYBLOCK
 62
0
  0
BLOCK
  8
___SYMBOL
 62
2
  6
CONTINUOUS
  2
TEMPLATE_NUMBER_BL1
 70
64
 10
11.4038018535
 20
5.4293307038
  0
TEXT
  8
___SYMBOL
 62
2
  6
CONTINUOUS
 10
11.0936018535
 20
5.3940807038
  7
STANDARD
 40
0.0705
  1
1095093-7
 41
0.8
 72
0
  0
TEXT
  8
___SYMBOL
 62
2
  6
CONTINUOUS
 10
11.6012018535
 20
5.3940807038
  7
STANDARD
 40
0.0705
  1
-
 41
0.8
 72
0
  0
TEXT
  8
___SYMBOL
 62
2
  6
CONTINUOUS
 10
11.6576018535
 20
5.3940807038
  7
STANDARD
 40
0.0705
  1
A
 41
0.8
 72
0
  0
ENDBLK
  8
0
  6
BYBLOCK
 62
0
  0
BLOCK
  8
___SYMBOL
 62
2
  6
CONTINUOUS
  2
TEMPLATE_NUMBER_BL2
 70
64
 10
11.472480294
 20
4.7428533479
  0
TEXT
  8
___SYMBOL
 62
2
  6
CONTINUOUS
 10
11.162280294
 20
4.7076033479
  7
STANDARD
 40
0.0705
  1
1095093-7
 41
0.8
 72
0
  0
TEXT
  8
___SYMBOL
 62
2
  6
CONTINUOUS
 10
11.669880294
 20
4.7076033479
  7
STANDARD
 40
0.0705
  1
-
 41
0.8
 72
0
  0
TEXT
  8
___SYMBOL
 62
2
  6
CONTINUOUS
 10
11.726280294
 20
4.7076033479
  7
STANDARD
 40
0.0705
  1
A
 41
0.8
 72
0
  0
ENDBLK
  8
0
  6
BYBLOCK
 62
0
  0
BLOCK
  8
___SYMBOL
 62
2
  6
CONTINUOUS
  2
PACKAGING_UPC_NOTE_BL3
 70
64
 10
3.920879459
 20
3.0113209677
  0
TEXT
  8
___SYMBOL
 62
7
  6
CONTINUOUS
 10
2.0743786635
 20
3.5383242597
  7
STANDARD
 40
0.0593587493
  1
XXXXX-XX-X-XX
 41
0.8258950223
 72
0
  0
TEXT
  8
___SYMBOL
 62
7
  6
CONTINUOUS
 10
3.7083586444
 20
3.4091592612
  7
STANDARD
 40
0.0445192495
  1
xxxxxx-xx
 41
0.6740211631
 72
0
  0
TEXT
  8
___SYMBOL
 62
2
  6
CONTINUOUS
 10
0.9440343682
 20
5.0819529215
  7
STANDARD
 40
0.1562500052
  1
PACKAGING/UPC LABEL ON BOX
 41
0.8
 72
0
  0
TEXT
  8
___SYMBOL
 62
2
  6
CONTINUOUS
 10
0.9440343682
 20
4.8475779137
  7
STANDARD
 40
0.1562500052
  1
EMBALLAGE/ÉTIQUETTE UPC SUR BOÎTE
 41
0.8
 72
0
  0
TEXT
  8
___SYMBOL
 62
2
  6
CONTINUOUS
 10
0.9440343682
 20
4.6132029058
  7
STANDARD
 40
0.1562500052
  1
ETIQUETA DE EMBALAJE/UPC EN LA CAJA
 41
0.8
 72
0
  0
TEXT
  8
___SYMBOL
 62
2
  6
CONTINUOUS
 10
0.920879459
 20
2.8938140086
  7
STANDARD
 40
0.15625
  1
The template and the label suffixes circled
 41
0.8
 72
0
  0
TEXT
  8
___SYMBOL
 62
2
  6
CONTINUOUS
 10
0.920879459
 20
2.6594390086
  7
STANDARD
 40
0.15625
  1
must match for proper cut-out.
 41
0.8
 72
0
  0
TEXT
  8
___SYMBOL
 62
2
  6
CONTINUOUS
 10
0.920879459
 20
2.4250640086
  7
STANDARD
 40
0.15625
  1
 
 41
0.8
 72
0
  0
TEXT
  8
___SYMBOL
 62
2
  6
CONTINUOUS
 10
0.920879459
 20
2.1906890086
  7
STANDARD
 40
0.15625
  1
Les suffixes du gabarit et de l'étiquette
 41
0.8
 72
0
  0
TEXT
  8
___SYMBOL
 62
2
  6
CONTINUOUS
 10
0.920879459
 20
1.9563140086
  7
STANDARD
 40
0.15625
  1
encerclés doivent correspondre pour une
 41
0.8
 72
0
  0
TEXT
  8
___SYMBOL
 62
2
  6
CONTINUOUS
 10
0.920879459
 20
1.7219390086
  7
STANDARD
 40
0.15625
  1
propre découpe.
 41
0.8
 72
0
  0
TEXT
  8
___SYMBOL
 62
2
  6
CONTINUOUS
 10
0.920879459
 20
1.4875640086
  7
STANDARD
 40
0.15625
  1
 
 41
0.8
 72
0
  0
TEXT
  8
___SYMBOL
 62
2
  6
CONTINUOUS
 10
0.920879459
 20
1.2531890086
  7
STANDARD
 40
0.15625
  1
A fin de realizar el corte correcto, los sufijos
 41
0.8
 72
0
  0
TEXT
  8
___SYMBOL
 62
2
  6
CONTINUOUS
 10
0.920879459
 20
1.0188140086
  7
STANDARD
 40
0.15625
  1
de la plantilla y de la etiqueta encerrados
 41
0.8
 72
0
  0
TEXT
  8
___SYMBOL
 62
2
  6
CONTINUOUS
 10
0.920879459
 20
0.7844390086
  7
STANDARD
 40
0.15625
  1
en un círculo deben ser iguales.
 41
0.8
 72
0
  0
LINE
  8
___SYMBOL
 62
7
  6
CONTINUOUS
 10
4.0631836403
 20
3.3824292615
 11
1.8781411658
 21
3.3824292615
  0
LINE
  8
___SYMBOL
 62
7
  6
CONTINUOUS
 10
1.8781411658
 20
3.3824292615
 11
1.8781411658
 21
4.3754592499
  0
LINE
  8
___SYMBOL
 62
7
  6
CONTINUOUS
 10
1.8781411658
 20
4.3754592499
 11
4.0631836403
 21
4.3754592499
  0
LINE
  8
___SYMBOL
 62
7
  6
CONTINUOUS
 10
4.0631836403
 20
4.3754592499
 11
4.0631836403
 21
3.3824292615
  0
LINE
  8
___SYMBOL
 62
7
  6
CONTINUOUS
 10
1.8447736662
 20
4.4079192495
 11
4.0973386399
 21
4.4079192495
  0
LINE
  8
___SYMBOL
 62
7
  6
CONTINUOUS
 10
4.0973386399
 20
4.4079192495
 11
4.0973386399
 21
3.3150117623
  0
LINE
  8
___SYMBOL
 62
7
  6
CONTINUOUS
 10
4.0973386399
 20
3.3150117623
 11
1.8447736662
 21
3.3150117623
  0
LINE
  8
___SYMBOL
 62
7
  6
CONTINUOUS
 10
1.8447736662
 20
3.3150117623
 11
1.8447736662
 21
4.4079192495
  0
LINE
  8
___SYMBOL
 62
7
  6
CONTINUOUS
 10
3.8579986427
 20
3.8140992565
 11
3.8579986427
 21
3.6924642579
  0
LINE
  8
___SYMBOL
 62
7
  6
CONTINUOUS
 10
3.8579986427
 20
3.6924642579
 11
3.5150461467
 21
3.6924642579
  0
LINE
  8
___SYMBOL
 62
7
  6
CONTINUOUS
 10
3.5150461467
 20
3.6924642579
 11
3.5150461467
 21
3.8140992565
  0
LINE
  8
___SYMBOL
 62
7
  6
CONTINUOUS
 10
3.5150461467
 20
3.8140992565
 11
3.8579986427
 21
3.8140992565
  0
SOLID
  8
___SYMBOL
 62
7
  6
CONTINUOUS
 10
3.5150461467
 20
3.6924642488
 11
3.5150461467
 21
3.8140992488
 12
3.8579986427
 22
3.8140992488
 13
3.8579986427
 23
3.8140992488
  0
SOLID
  8
___SYMBOL
 62
7
  6
CONTINUOUS
 10
3.8579986427
 20
3.8140992488
 11
3.8579986427
 21
3.6924642488
 12
3.5150461467
 22
3.6924642488
 13
3.5150461467
 23
3.6924642488
  0
LINE
  8
___SYMBOL
 62
7
  6
CONTINUOUS
 10
2.7825436552
 20
3.8140992565
 11
2.7825436552
 21
3.6924642579
  0
LINE
  8
___SYMBOL
 62
7
  6
CONTINUOUS
 10
2.7825436552
 20
3.6924642579
 11
1.9268386652
 21
3.6924642579
  0
LINE
  8
___SYMBOL
 62
7
  6
CONTINUOUS
 10
1.9268386652
 20
3.6924642579
 11
1.9268386652
 21
3.8140992565
  0
LINE
  8
___SYMBOL
 62
7
  6
CONTINUOUS
 10
1.9268386652
 20
3.8140992565
 11
2.7825436552
 21
3.8140992565
  0
SOLID
  8
___SYMBOL
 62
7
  6
CONTINUOUS
 10
1.9268386652
 20
3.6924642488
 11
1.9268386652
 21
3.8140992488
 12
2.7825436552
 22
3.8140992488
 13
2.7825436552
 23
3.8140992488
  0
SOLID
  8
___SYMBOL
 62
7
  6
CONTINUOUS
 10
2.7825436552
 20
3.8140992488
 11
2.7825436552
 21
3.6924642488
 12
1.9268386652
 22
3.6924642488
 13
1.9268386652
 23
3.6924642488
  0
LINE
  8
___SYMBOL
 62
7
  6
CONTINUOUS
 10
2.7825436552
 20
3.4408317608
 11
2.7825436552
 21
3.4058517612
  0
LINE
  8
___SYMBOL
 62
7
  6
CONTINUOUS
 10
2.7825436552
 20
3.4058517612
 11
1.9268386652
 21
3.4058517612
  0
LINE
  8
___SYMBOL
 62
7
  6
CONTINUOUS
 10
1.9268386652
 20
3.4058517612
 11
1.9268386652
 21
3.4408317608
  0
LINE
  8
___SYMBOL
 62
7
  6
CONTINUOUS
 10
1.9268386652
 20
3.4408317608
 11
2.7825436552
 21
3.4408317608
  0
SOLID
  8
___SYMBOL
 62
7
  6
CONTINUOUS
 10
1.9268386652
 20
3.4058517628
 11
1.9268386652
 21
3.4408317448
 12
2.7825436552
 22
3.4408317448
 13
2.7825436552
 23
3.4408317448
  0
SOLID
  8
___SYMBOL
 62
7
  6
CONTINUOUS
 10
2.7825436552
 20
3.4408317448
 11
2.7825436552
 21
3.4058517628
 12
1.9268386652
 22
3.4058517628
 13
1.9268386652
 23
3.4058517628
  0
POLYLINE
  8
___SYMBOL
 62
7
  6
CONTINUOUS
 66
1
 70
0
  0
VERTEX
  8
___SYMBOL
 62
7
  6
CONTINUOUS
 10
2.6485486088
 20
3.6526093786
  0
VERTEX
  8
___SYMBOL
 62
7
  6
CONTINUOUS
 10
2.6349533998
 20
3.6481322196
  0
VERTEX
  8
___SYMBOL
 62
7
  6
CONTINUOUS
 10
2.6223395577
 20
3.6413671271
  0
VERTEX
  8
___SYMBOL
 62
7
  6
CONTINUOUS
 10
2.6110886852
 20
3.6325187633
  0
VERTEX
  8
___SYMBOL
 62
7
  6
CONTINUOUS
 10
2.6015411512
 20
3.6218548149
  0
VERTEX
  8
___SYMBOL
 62
7
  6
CONTINUOUS
 10
2.5939857943
 20
3.6096978949
  0
VERTEX
  8
___SYMBOL
 62
7
  6
CONTINUOUS
 10
2.5886511843
 20
3.5964157829
  0
VERTEX
  8
___SYMBOL
 62
7
  6
CONTINUOUS
 10
2.5856987075
 20
3.5824102982
  0
VERTEX
  8
___SYMBOL
 62
7
  6
CONTINUOUS
 10
2.5852176842
 20
3.5681051444
  0
VERTEX
  8
___SYMBOL
 62
7
  6
CONTINUOUS
 10
2.5872226666
 20
3.5539330908
  0
VERTEX
  8
___SYMBOL
 62
7
  6
CONTINUOUS
 10
2.5916529987
 20
3.54032288
  0
VERTEX
  8
___SYMBOL
 62
7
  6
CONTINUOUS
 10
2.598374651
 20
3.5276862573
  0
VERTEX
  8
___SYMBOL
 62
7
  6
CONTINUOUS
 10
2.6071842755
 20
3.5164055145
  0
VERTEX
  8
___SYMBOL
 62
7
  6
CONTINUOUS
 10
2.6178153575
 20
3.5068219244
  0
VERTEX
  8
___SYMBOL
 62
7
  6
CONTINUOUS
 10
2.6299462782
 20
3.4992254161
  0
VERTEX
  8
___SYMBOL
 62
7
  6
CONTINUOUS
 10
2.6432100447
 20
3.4938458045
  0
VERTEX
  8
___SYMBOL
 62
7
  6
CONTINUOUS
 10
2.6572053925
 20
3.4908458373
  0
VERTEX
  8
___SYMBOL
 62
7
  6
CONTINUOUS
 10
2.6715089248
 20
3.4903162715
  0
VERTEX
  8
___SYMBOL
 62
7
  6
CONTINUOUS
 10
2.6856879214
 20
3.4922731278
  0
VERTEX
  8
___SYMBOL
 62
7
  6
CONTINUOUS
 10
2.6993134296
 20
3.4966572062
  0
VERTEX
  8
___SYMBOL
 62
7
  6
CONTINUOUS
 10
2.7119732412
 20
3.5033358765
  0
VERTEX
  8
___SYMBOL
 62
7
  6
CONTINUOUS
 10
2.723284363
 20
3.5121070911
  0
VERTEX
  8
___SYMBOL
 62
7
  6
CONTINUOUS
 10
2.7329046032
 20
3.522705497
  0
VERTEX
  8
___SYMBOL
 62
7
  6
CONTINUOUS
 10
2.7405429238
 20
3.5348104643
  0
VERTEX
  8
___SYMBOL
 62
7
  6
CONTINUOUS
 10
2.7459682451
 20
3.548055785
  0
VERTEX
  8
___SYMBOL
 62
7
  6
CONTINUOUS
 10
2.7490164364
 20
3.5620407528
  0
VERTEX
  8
___SYMBOL
 62
7
  6
CONTINUOUS
 10
2.749595282
 20
3.5763422849
  0
VERTEX
  8
___SYMBOL
 62
7
  6
CONTINUOUS
 10
2.7476872701
 20
3.5905277215
  0
VERTEX
  8
___SYMBOL
 62
7
  6
CONTINUOUS
 10
2.7433501232
 20
3.6041679151
  0
VERTEX
  8
___SYMBOL
 62
7
  6
CONTINUOUS
 10
2.7367150517
 20
3.6168502134
  0
VERTEX
  8
___SYMBOL
 62
7
  6
CONTINUOUS
 10
2.7279827842
 20
3.6281909428
  0
VERTEX
  8
___SYMBOL
 62
7
  6
CONTINUOUS
 10
2.7174174953
 20
3.6378470157
  0
VERTEX
  8
___SYMBOL
 62
7
  6
CONTINUOUS
 10
2.7053388133
 20
3.6455263102
  0
VERTEX
  8
___SYMBOL
 62
7
  6
CONTINUOUS
 10
2.6921121507
 20
3.6509965069
  0
VERTEX
  8
___SYMBOL
 62
7
  6
CONTINUOUS
 10
2.6781376496
 20
3.6540921176
  0
VERTEX
  8
___SYMBOL
 62
7
  6
CONTINUOUS
 10
2.663838076
 20
3.654719492
  0
VERTEX
  8
___SYMBOL
 62
7
  6
CONTINUOUS
 10
2.6496460305
 20
3.6528596502
  0
SEQEND
  0
LINE
  8
___SYMBOL
 62
7
  6
CONTINUOUS
 10
2.8291936547
 20
4.3473342502
 11
2.8291936547
 21
4.2856842509
  0
LINE
  8
___SYMBOL
 62
7
  6
CONTINUOUS
 10
2.8291936547
 20
4.2856842509
 11
1.9734886647
 21
4.2856842509
  0
LINE
  8
___SYMBOL
 62
7
  6
CONTINUOUS
 10
1.9734886647
 20
4.2856842509
 11
1.9734886647
 21
4.3473342502
  0
LINE
  8
___SYMBOL
 62
7
  6
CONTINUOUS
 10
1.9734886647
 20
4.3473342502
 11
2.8291936547
 21
4.3473342502
  0
SOLID
  8
___SYMBOL
 62
7
  6
CONTINUOUS
 10
1.9734886647
 20
4.2856842468
 11
1.9734886647
 21
4.3473342368
 12
2.8291936547
 22
4.3473342368
 13
2.8291936547
 23
4.3473342368
  0
SOLID
  8
___SYMBOL
 62
7
  6
CONTINUOUS
 10
2.8291936547
 20
4.3473342368
 11
2.8291936547
 21
4.2856842468
 12
1.9734886647
 22
4.2856842468
 13
1.9734886647
 23
4.2856842468
  0
LINE
  8
___SYMBOL
 62
7
  6
CONTINUOUS
 10
2.8291936547
 20
4.2473517514
 11
2.8291936547
 21
4.1857017521
  0
LINE
  8
___SYMBOL
 62
7
  6
CONTINUOUS
 10
2.8291936547
 20
4.1857017521
 11
1.9734886647
 21
4.1857017521
  0
LINE
  8
___SYMBOL
 62
7
  6
CONTINUOUS
 10
1.9734886647
 20
4.1857017521
 11
1.9734886647
 21
4.2473517514
  0
LINE
  8
___SYMBOL
 62
7
  6
CONTINUOUS
 10
1.9734886647
 20
4.2473517514
 11
2.8291936547
 21
4.2473517514
  0
SOLID
  8
___SYMBOL
 62
7
  6
CONTINUOUS
 10
1.9734886647
 20
4.1857017388
 11
1.9734886647
 21
4.2473517628
 12
2.8291936547
 22
4.2473517628
 13
2.8291936547
 23
4.2473517628
  0
SOLID
  8
___SYMBOL
 62
7
  6
CONTINUOUS
 10
2.8291936547
 20
4.2473517628
 11
2.8291936547
 21
4.1857017388
 12
1.9734886647
 22
4.1857017388
 13
1.9734886647
 23
4.1857017388
  0
LINE
  8
___SYMBOL
 62
7
  6
CONTINUOUS
 10
2.8291936547
 20
4.1473692526
 11
2.8291936547
 21
4.0857267533
  0
LINE
  8
___SYMBOL
 62
7
  6
CONTINUOUS
 10
2.8291936547
 20
4.0857267533
 11
1.9734886647
 21
4.0857267533
  0
LINE
  8
___SYMBOL
 62
7
  6
CONTINUOUS
 10
1.9734886647
 20
4.0857267533
 11
1.9734886647
 21
4.1473692526
  0
LINE
  8
___SYMBOL
 62
7
  6
CONTINUOUS
 10
1.9734886647
 20
4.1473692526
 11
2.8291936547
 21
4.1473692526
  0
SOLID
  8
___SYMBOL
 62
7
  6
CONTINUOUS
 10
1.9734886647
 20
4.0857267448
 11
1.9734886647
 21
4.1473692548
 12
2.8291936547
 22
4.1473692548
 13
2.8291936547
 23
4.1473692548
  0
SOLID
  8
___SYMBOL
 62
7
  6
CONTINUOUS
 10
2.8291936547
 20
4.1473692548
 11
2.8291936547
 21
4.0857267448
 12
1.9734886647
 22
4.0857267448
 13
1.9734886647
 23
4.0857267448
  0
LINE
  8
___SYMBOL
 62
7
  6
CONTINUOUS
 10
2.8291936547
 20
4.0473867537
 11
2.8291936547
 21
3.9857442544
  0
LINE
  8
___SYMBOL
 62
7
  6
CONTINUOUS
 10
2.8291936547
 20
3.9857442544
 11
1.9734886647
 21
3.9857442544
  0
LINE
  8
___SYMBOL
 62
7
  6
CONTINUOUS
 10
1.9734886647
 20
3.9857442544
 11
1.9734886647
 21
4.0473867537
  0
LINE
  8
___SYMBOL
 62
7
  6
CONTINUOUS
 10
1.9734886647
 20
4.0473867537
 11
2.8291936547
 21
4.0473867537
  0
SOLID
  8
___SYMBOL
 62
7
  6
CONTINUOUS
 10
1.9734886647
 20
3.9857442708
 11
1.9734886647
 21
4.0473867468
 12
2.8291936547
 22
4.0473867468
 13
2.8291936547
 23
4.0473867468
  0
SOLID
  8
___SYMBOL
 62
7
  6
CONTINUOUS
 10
2.8291936547
 20
4.0473867468
 11
2.8291936547
 21
3.9857442708
 12
1.9734886647
 22
3.9857442708
 13
1.9734886647
 23
3.9857442708
  0
LINE
  8
___SYMBOL
 62
7
  6
CONTINUOUS
 10
2.8291936547
 20
3.9207492552
 11
2.8291936547
 21
3.8590992559
  0
LINE
  8
___SYMBOL
 62
7
  6
CONTINUOUS
 10
2.8291936547
 20
3.8590992559
 11
1.9734886647
 21
3.8590992559
  0
LINE
  8
___SYMBOL
 62
7
  6
CONTINUOUS
 10
1.9734886647
 20
3.8590992559
 11
1.9734886647
 21
3.9207492552
  0
LINE
  8
___SYMBOL
 62
7
  6
CONTINUOUS
 10
1.9734886647
 20
3.9207492552
 11
2.8291936547
 21
3.9207492552
  0
SOLID
  8
___SYMBOL
 62
7
  6
CONTINUOUS
 10
1.9734886647
 20
3.8590992688
 11
1.9734886647
 21
3.9207492588
 12
2.8291936547
 22
3.9207492588
 13
2.8291936547
 23
3.9207492588
  0
SOLID
  8
___SYMBOL
 62
7
  6
CONTINUOUS
 10
2.8291936547
 20
3.9207492588
 11
2.8291936547
 21
3.8590992688
 12
1.9734886647
 22
3.8590992688
 13
1.9734886647
 23
3.8590992688
  0
ENDBLK
  8
0
  6
BYBLOCK
 62
0
  0
BLOCK
  8
___SYMBOL
 62
2
  6
CONTINUOUS
  2
PLOTTING_TEMPLATE_NOTE_BL4
 70
64
 10
16.3562798352
 20
7.842689063
  0
TEXT
  8
___SYMBOL
 62
2
  6
CONTINUOUS
 10
13.4812798352
 20
9.170814063
  7
STANDARD
 40
0.15625
  1
WHEN PLOTTING TEMPLATE FULL SIZE:
 41
0.8
 72
0
  0
TEXT
  8
___SYMBOL
 62
2
  6
CONTINUOUS
 10
13.4812798352
 20
8.936439063
  7
STANDARD
 40
0.15625
  1
Make sure horizontal and vertical dimensions
 41
0.8
 72
0
  0
TEXT
  8
___SYMBOL
 62
2
  6
CONTINUOUS
 10
13.4812798352
 20
8.702064063
  7
STANDARD
 40
0.15625
  1
match the dimensions labeled on the template.
 41
0.8
 72
0
  0
TEXT
  8
___SYMBOL
 62
2
  6
CONTINUOUS
 10
13.4812798352
 20
8.467689063
  7
STANDARD
 40
0.15625
  1
 
 41
0.8
 72
0
  0
TEXT
  8
___SYMBOL
 62
2
  6
CONTINUOUS
 10
13.4812798352
 20
8.233314063
  7
STANDARD
 40
0.15625
  1
LORS DU TRACÉ DU GABARIT À L'ÉCHELLE: 
 41
0.8
 72
0
  0
TEXT
  8
___SYMBOL
 62
2
  6
CONTINUOUS
 10
13.4812798352
 20
7.998939063
  7
STANDARD
 40
0.15625
  1
s'assurer que les dimensions horizontales et
 41
0.8
 72
0
  0
TEXT
  8
___SYMBOL
 62
2
  6
CONTINUOUS
 10
13.4812798352
 20
7.764564063
  7
STANDARD
 40
0.15625
  1
verticales correspondent à celles marquées sur
 41
0.8
 72
0
  0
TEXT
  8
___SYMBOL
 62
2
  6
CONTINUOUS
 10
13.4812798352
 20
7.530189063
  7
STANDARD
 40
0.15625
  1
le gabarit.
 41
0.8
 72
0
  0
TEXT
  8
___SYMBOL
 62
2
  6
CONTINUOUS
 10
13.4812798352
 20
7.295814063
  7
STANDARD
 40
0.15625
  1
 
 41
0.8
 72
0
  0
TEXT
  8
___SYMBOL
 62
2
  6
CONTINUOUS
 10
13.4812798352
 20
7.061439063
  7
STANDARD
 40
0.15625
  1
AL TRAZAR LA PLANTILLA A ESCALA COMPLETA:
 41
0.8
 72
0
  0
TEXT
  8
___SYMBOL
 62
2
  6
CONTINUOUS
 10
13.4812798352
 20
6.827064063
  7
STANDARD
 40
0.15625
  1
asegúrese de que la dimensión horizontal y
 41
0.8
 72
0
  0
TEXT
  8
___SYMBOL
 62
2
  6
CONTINUOUS
 10
13.4812798352
 20
6.592689063
  7
STANDARD
 40
0.15625
  1
la dimensión vertical sean iguales a las
 41
0.8
 72
0
  0
TEXT
  8
___SYMBOL
 62
2
  6
CONTINUOUS
 10
13.4812798352
 20
6.358314063
  7
STANDARD
 40
0.15625
  1
dimensiones indicadas en la plantilla.
 41
0.8
 72
0
  0
ENDBLK
  8
0
  6
BYBLOCK
 62
0
  0
BLOCK
  8
___SYMBOL
 62
2
  6
CONTINUOUS
  2
SKU_LAV_KOHLER_BL5
 70
64
 10
3.8298871789
 20
12.5680055723
  0
TEXT
  8
___SYMBOL
 62
2
  6
CONTINUOUS
 10
1.4298871789
 20
13.1943957659
  7
STANDARD
 40
0.25
  1
CUT-OUT TEMPLATE
 41
0.8
 72
0
  0
TEXT
  8
___SYMBOL
 62
2
  6
CONTINUOUS
 10
1.4298871789
 20
12.8193957659
  7
STANDARD
 40
0.25
  1
CARVED VESSELS LAVATORY
 41
0.8
 72
0
  0
TEXT
  8
___SYMBOL
 62
2
  6
CONTINUOUS
 10
1.4298871789
 20
12.4443957659
  7
STANDARD
 40
0.25
  1
GABARIT DE DÉCOUPE
 41
0.8
 72
0
  0
TEXT
  8
___SYMBOL
 62
2
  6
CONTINUOUS
 10
1.4298871789
 20
12.0693957659
  7
STANDARD
 40
0.25
  1
LAVABO À VASQUE SCULPTÉE
 41
0.8
 72
0
  0
TEXT
  8
___SYMBOL
 62
2
  6
CONTINUOUS
 10
1.4298871789
 20
11.6943957659
  7
STANDARD
 40
0.25
  1
PLANTILLA DE CORTE
 41
0.8
 72
0
  0
TEXT
  8
___SYMBOL
 62
2
  6
CONTINUOUS
 10
1.4298871789
 20
11.3193957659
  7
STANDARD
 40
0.25
  1
LAVABO VESSELS GRABADO
 41
0.8
 72
0
  0
TEXT
  8
___SYMBOL
 62
2
  6
CONTINUOUS
 10
1.4298871789
 20
10.9443957659
  7
STANDARD
 40
0.25
  1
LEAF
 41
0.8
 72
0
  0
TEXT
  8
___SYMBOL
 62
2
  6
CONTINUOUS
 10
2.2298871789
 20
10.9443957659
  7
STANDARD
 40
0.25
  1
   
 41
0.8
 72
0
  0
TEXT
  8
___SYMBOL
 62
2
  6
CONTINUOUS
 10
2.8298871789
 20
10.9443957659
  7
STANDARD
 40
0.25
  1
K2530
 41
0.8
 72
0
  0
TEXT
  8
___SYMBOL
 62
2
  6
CONTINUOUS
 10
3.8298871789
 20
10.9443957659
  7
STANDARD
 40
0.25
  1
-**-
 41
0.8
 72
0
  0
TEXT
  8
___SYMBOL
 62
2
  6
CONTINUOUS
 10
4.6298871789
 20
10.9443957659
  7
STANDARD
 40
0.25
  1
A
 41
0.8
 72
0
  0
LINE
  8
___SYMBOL
 62
2
  6
CONTINUOUS
 10
1.9365962146
 20
14.1876368642
 11
1.7232927628
 21
13.9339885913
  0
LINE
  8
___SYMBOL
 62
2
  6
CONTINUOUS
 10
1.7445344026
 20
14.1876368642
 11
1.9365962146
 21
14.1876368642
  0
LINE
  8
___SYMBOL
 62
2
  6
CONTINUOUS
 10
1.7445344026
 20
14.1876368642
 11
1.6067702359
 21
14.0238156745
  0
LINE
  8
___SYMBOL
 62
2
  6
CONTINUOUS
 10
1.6067702359
 20
14.1876368642
 11
1.6067702359
 21
14.0238156745
  0
LINE
  8
___SYMBOL
 62
2
  6
CONTINUOUS
 10
1.4322700089
 20
14.1876368642
 11
1.6067702359
 21
14.1876368642
  0
LINE
  8
___SYMBOL
 62
2
  6
CONTINUOUS
 10
1.4322700089
 20
14.1876368642
 11
1.4322700089
 21
13.6016992114
  0
LINE
  8
___SYMBOL
 62
2
  6
CONTINUOUS
 10
1.6067702359
 20
13.6017232148
 11
1.4322700089
 21
13.6016992114
  0
LINE
  8
___SYMBOL
 62
2
  6
CONTINUOUS
 10
1.6067702359
 20
13.8032230488
 11
1.6067702359
 21
13.6017232148
  0
LINE
  8
___SYMBOL
 62
2
  6
CONTINUOUS
 10
1.7605081759
 20
13.6017232148
 11
1.6067702359
 21
13.8032230488
  0
LINE
  8
___SYMBOL
 62
2
  6
CONTINUOUS
 10
1.7605081759
 20
13.6017232148
 11
1.9768005975
 21
13.6017232148
  0
LINE
  8
___SYMBOL
 62
2
  6
CONTINUOUS
 10
1.9768005975
 20
13.6017232148
 11
1.7232927628
 21
13.9339885913
  0
SOLID
  8
___SYMBOL
 62
2
  6
CONTINUOUS
 10
1.6067702359
 20
14.0238156745
 11
1.7445344026
 21
14.1876368642
 12
1.9365962146
 22
14.1876368642
 13
1.9365962146
 23
14.1876368642
  0
SOLID
  8
___SYMBOL
 62
2
  6
CONTINUOUS
 10
1.9365962146
 20
14.1876368642
 11
1.7232927628
 21
13.9339885913
 12
1.6067702359
 22
14.0238156745
 13
1.6067702359
 23
14.0238156745
  0
SOLID
  8
___SYMBOL
 62
2
  6
CONTINUOUS
 10
1.6067702359
 20
13.8032230488
 11
1.7232927628
 21
13.9339885913
 12
1.7605081759
 22
13.6017232148
 13
1.7605081759
 23
13.6017232148
  0
SOLID
  8
___SYMBOL
 62
2
  6
CONTINUOUS
 10
1.7232927628
 20
13.9339885913
 11
1.9768005975
 21
13.6017232148
 12
1.7605081759
 22
13.6017232148
 13
1.7605081759
 23
13.6017232148
  0
SOLID
  8
___SYMBOL
 62
2
  6
CONTINUOUS
 10
1.6067702359
 20
13.6017232148
 11
1.4322700089
 21
13.6016992114
 12
1.6067702359
 22
13.8032230488
 13
1.6067702359
 23
13.8032230488
  0
SOLID
  8
___SYMBOL
 62
2
  6
CONTINUOUS
 10
1.7232927628
 20
13.9339885913
 11
1.6067702359
 21
13.8032230488
 12
1.6067702359
 22
14.0238156745
 13
1.6067702359
 23
14.0238156745
  0
SOLID
  8
___SYMBOL
 62
2
  6
CONTINUOUS
 10
1.6067702359
 20
13.8032230488
 11
1.4322700089
 21
13.6016992114
 12
1.6067702359
 22
14.0238156745
 13
1.6067702359
 23
14.0238156745
  0
SOLID
  8
___SYMBOL
 62
2
  6
CONTINUOUS
 10
1.6067702359
 20
14.0238156745
 11
1.4322700089
 21
13.6016992114
 12
1.6067702359
 22
14.1876368642
 13
1.6067702359
 23
14.1876368642
  0
SOLID
  8
___SYMBOL
 62
2
  6
CONTINUOUS
 10
1.4322700089
 20
13.6016992114
 11
1.4322700089
 21
14.1876368642
 12
1.6067702359
 22
14.1876368642
 13
1.6067702359
 23
14.1876368642
  0
CIRCLE
  8
___SYMBOL
 62
2
  6
CONTINUOUS
 10
2.1533094341
 20
13.8935587877
 40
0.298056591
  0
CIRCLE
  8
___SYMBOL
 62
2
  6
CONTINUOUS
 10
2.1533094341
 20
13.8935587877
 40
0.1247694151
  0
SOLID
  8
___SYMBOL
 62
2
  6
CONTINUOUS
 10
2.0612048822
 20
14.1770274507
 11
2.1221540367
 21
14.1899825935
 12
2.1844648315
 22
14.1899825935
 13
2.1844648315
 23
14.1899825935
  0
SOLID
  8
___SYMBOL
 62
2
  6
CONTINUOUS
 10
2.1844648315
 20
14.1899825935
 11
2.245413986
 21
14.1770274507
 12
2.0612048822
 22
14.1770274507
 13
2.0612048822
 23
14.1770274507
  0
SOLID
  8
___SYMBOL
 62
2
  6
CONTINUOUS
 10
2.0042811386
 20
14.1516833672
 11
2.0612048822
 21
14.1770274507
 12
2.245413986
 22
14.1770274507
 13
2.245413986
 23
14.1770274507
  0
SOLID
  8
___SYMBOL
 62
2
  6
CONTINUOUS
 10
2.245413986
 20
14.1770274507
 11
2.3023377296
 21
14.1516833672
 12
2.0042811386
 22
14.1516833672
 13
2.0042811386
 23
14.1516833672
  0
SOLID
  8
___SYMBOL
 62
2
  6
CONTINUOUS
 10
1.9538706467
 20
14.115058001
 11
2.0042811386
 21
14.1516833672
 12
2.3023377296
 22
14.1516833672
 13
2.3023377296
 23
14.1516833672
  0
SOLID
  8
___SYMBOL
 62
2
  6
CONTINUOUS
 10
2.3023377296
 20
14.1516833672
 11
2.3527482216
 21
14.115058001
 12
1.9538706467
 22
14.115058001
 13
1.9538706467
 23
14.115058001
  0
SOLID
  8
___SYMBOL
 62
2
  6
CONTINUOUS
 10
1.9121765867
 20
14.0687520562
 11
1.9538706467
 21
14.115058001
 12
2.3527482216
 22
14.115058001
 13
2.3527482216
 23
14.115058001
  0
SOLID
  8
___SYMBOL
 62
2
  6
CONTINUOUS
 10
2.3527482216
 20
14.115058001
 11
2.3944422815
 21
14.0687520562
 12
1.9121765867
 22
14.0687520562
 13
1.9121765867
 23
14.0687520562
  0
SOLID
  8
___SYMBOL
 62
2
  6
CONTINUOUS
 10
2.1533094341
 20
14.0183282027
 11
1.8810211893
 21
14.0147893249
 12
2.3944422815
 22
14.0687520562
 13
2.3944422815
 23
14.0687520562
  0
SOLID
  8
___SYMBOL
 62
2
  6
CONTINUOUS
 10
1.8810211893
 20
14.0147893249
 11
1.9121765867
 21
14.0687520562
 12
2.3944422815
 22
14.0687520562
 13
2.3944422815
 23
14.0687520562
  0
SOLID
  8
___SYMBOL
 62
2
  6
CONTINUOUS
 10
2.3944422815
 20
14.0687520562
 11
2.4255976789
 21
14.0147893249
 12
2.1533094341
 22
14.0183282027
 13
2.1533094341
 23
14.0183282027
  0
SOLID
  8
___SYMBOL
 62
2
  6
CONTINUOUS
 10
2.1533094341
 20
14.0183282027
 11
2.1147535645
 21
14.0122215529
 12
1.8810211893
 22
14.0147893249
 13
1.8810211893
 23
14.0147893249
  0
SOLID
  8
___SYMBOL
 62
2
  6
CONTINUOUS
 10
2.1918653038
 20
14.0122215529
 11
2.1533094341
 21
14.0183282027
 12
2.4255976789
 22
14.0147893249
 13
2.4255976789
 23
14.0147893249
  0
SOLID
  8
___SYMBOL
 62
2
  6
CONTINUOUS
 10
2.0523688569
 20
13.9668964098
 11
1.8617660948
 21
13.9555282374
 12
2.079971812
 22
13.9944993648
 13
2.079971812
 23
13.9944993648
  0
SOLID
  8
___SYMBOL
 62
2
  6
CONTINUOUS
 10
2.079971812
 20
13.9944993648
 11
1.8617660948
 21
13.9555282374
 12
2.1147535645
 22
14.0122215529
 13
2.1147535645
 23
14.0122215529
  0
SOLID
  8
___SYMBOL
 62
2
  6
CONTINUOUS
 10
1.8617660948
 20
13.9555282374
 11
1.8810211893
 21
14.0147893249
 12
2.1147535645
 22
14.0122215529
 13
2.1147535645
 23
14.0122215529
  0
SOLID
  8
___SYMBOL
 62
2
  6
CONTINUOUS
 10
2.1918653038
 20
14.0122215529
 11
2.4255976789
 21
14.0147893249
 12
2.2266470562
 22
13.9944993648
 13
2.2266470562
 23
13.9944993648
  0
SOLID
  8
___SYMBOL
 62
2
  6
CONTINUOUS
 10
2.2266470562
 20
13.9944993648
 11
2.4255976789
 21
14.0147893249
 12
2.2542500113
 22
13.9668964098
 13
2.2542500113
 23
13.9668964098
  0
SOLID
  8
___SYMBOL
 62
2
  6
CONTINUOUS
 10
2.4255976789
 20
14.0147893249
 11
2.4448527735
 21
13.9555282374
 12
2.2542500113
 22
13.9668964098
 13
2.2542500113
 23
13.9668964098
  0
SOLID
  8
___SYMBOL
 62
2
  6
CONTINUOUS
 10
2.0523688569
 20
13.9668964098
 11
2.0346466689
 21
13.9321146573
 12
1.8617660948
 22
13.9555282374
 13
1.8617660948
 23
13.9555282374
  0
SOLID
  8
___SYMBOL
 62
2
  6
CONTINUOUS
 10
2.2719721994
 20
13.9321146573
 11
2.2542500113
 21
13.9668964098
 12
2.4448527735
 22
13.9555282374
 13
2.4448527735
 23
13.9555282374
  0
SOLID
  8
___SYMBOL
 62
2
  6
CONTINUOUS
 10
1.8552528431
 20
13.8935587877
 11
1.8617660948
 21
13.9555282374
 12
2.0346466689
 22
13.9321146573
 13
2.0346466689
 23
13.9321146573
  0
SOLID
  8
___SYMBOL
 62
2
  6
CONTINUOUS
 10
2.0346466689
 20
13.9321146573
 11
2.028540019
 21
13.8935587877
 12
1.8552528431
 22
13.8935587877
 13
1.8552528431
 23
13.8935587877
  0
SOLID
  8
___SYMBOL
 62
2
  6
CONTINUOUS
 10
2.2719721994
 20
13.9321146573
 11
2.4448527735
 21
13.9555282374
 12
2.2780788492
 22
13.8935587877
 13
2.2780788492
 23
13.8935587877
  0
SOLID
  8
___SYMBOL
 62
2
  6
CONTINUOUS
 10
2.4448527735
 20
13.9555282374
 11
2.4513660251
 21
13.8935587877
 12
2.2780788492
 22
13.8935587877
 13
2.2780788492
 23
13.8935587877
  0
SOLID
  8
___SYMBOL
 62
2
  6
CONTINUOUS
 10
2.2719721994
 20
13.855002918
 11
2.2780788492
 21
13.8935587877
 12
2.4513660251
 22
13.8935587877
 13
2.4513660251
 23
13.8935587877
  0
SOLID
  8
___SYMBOL
 62
2
  6
CONTINUOUS
 10
2.0346466689
 20
13.855002918
 11
1.8617660948
 21
13.8315893379
 12
2.028540019
 22
13.8935587877
 13
2.028540019
 23
13.8935587877
  0
SOLID
  8
___SYMBOL
 62
2
  6
CONTINUOUS
 10
1.8617660948
 20
13.8315893379
 11
1.8552528431
 21
13.8935587877
 12
2.028540019
 22
13.8935587877
 13
2.028540019
 23
13.8935587877
  0
SOLID
  8
___SYMBOL
 62
2
  6
CONTINUOUS
 10
2.4513660251
 20
13.8935587877
 11
2.4448527735
 21
13.8315893379
 12
2.2719721994
 22
13.855002918
 13
2.2719721994
 23
13.855002918
  0
SOLID
  8
___SYMBOL
 62
2
  6
CONTINUOUS
 10
2.0346466689
 20
13.855002918
 11
2.0523688569
 21
13.8202211655
 12
1.8617660948
 22
13.8315893379
 13
1.8617660948
 23
13.8315893379
  0
SOLID
  8
___SYMBOL
 62
2
  6
CONTINUOUS
 10
2.2542500113
 20
13.8202211655
 11
2.2719721994
 21
13.855002918
 12
2.4448527735
 22
13.8315893379
 13
2.4448527735
 23
13.8315893379
  0
SOLID
  8
___SYMBOL
 62
2
  6
CONTINUOUS
 10
2.1147535645
 20
13.7748960224
 11
1.8810211893
 21
13.7723282504
 12
2.079971812
 22
13.7926182105
 13
2.079971812
 23
13.7926182105
  0
SOLID
  8
___SYMBOL
 62
2
  6
CONTINUOUS
 10
2.079971812
 20
13.7926182105
 11
1.8810211893
 21
13.7723282504
 12
2.0523688569
 22
13.8202211655
 13
2.0523688569
 23
13.8202211655
  0
SOLID
  8
___SYMBOL
 62
2
  6
CONTINUOUS
 10
1.8810211893
 20
13.7723282504
 11
1.8617660948
 21
13.8315893379
 12
2.0523688569
 22
13.8202211655
 13
2.0523688569
 23
13.8202211655
  0
SOLID
  8
___SYMBOL
 62
2
  6
CONTINUOUS
 10
2.2542500113
 20
13.8202211655
 11
2.4448527735
 21
13.8315893379
 12
2.2266470562
 22
13.7926182105
 13
2.2266470562
 23
13.7926182105
  0
SOLID
  8
___SYMBOL
 62
2
  6
CONTINUOUS
 10
2.2266470562
 20
13.7926182105
 11
2.4448527735
 21
13.8315893379
 12
2.1918653038
 22
13.7748960224
 13
2.1918653038
 23
13.7748960224
  0
SOLID
  8
___SYMBOL
 62
2
  6
CONTINUOUS
 10
2.4448527735
 20
13.8315893379
 11
2.4255976789
 21
13.7723282504
 12
2.1918653038
 22
13.7748960224
 13
2.1918653038
 23
13.7748960224
  0
SOLID
  8
___SYMBOL
 62
2
  6
CONTINUOUS
 10
2.1147535645
 20
13.7748960224
 11
2.1533094341
 21
13.7687893726
 12
1.8810211893
 22
13.7723282504
 13
1.8810211893
 23
13.7723282504
  0
SOLID
  8
___SYMBOL
 62
2
  6
CONTINUOUS
 10
2.1533094341
 20
13.7687893726
 11
2.1918653038
 21
13.7748960224
 12
2.4255976789
 22
13.7723282504
 13
2.4255976789
 23
13.7723282504
  0
SOLID
  8
___SYMBOL
 62
2
  6
CONTINUOUS
 10
1.9121765867
 20
13.7183655191
 11
1.8810211893
 21
13.7723282504
 12
2.1533094341
 22
13.7687893726
 13
2.1533094341
 23
13.7687893726
  0
SOLID
  8
___SYMBOL
 62
2
  6
CONTINUOUS
 10
2.1533094341
 20
13.7687893726
 11
2.4255976789
 21
13.7723282504
 12
1.9121765867
 22
13.7183655191
 13
1.9121765867
 23
13.7183655191
  0
SOLID
  8
___SYMBOL
 62
2
  6
CONTINUOUS
 10
2.4255976789
 20
13.7723282504
 11
2.3944422815
 21
13.7183655191
 12
1.9121765867
 22
13.7183655191
 13
1.9121765867
 23
13.7183655191
  0
SOLID
  8
___SYMBOL
 62
2
  6
CONTINUOUS
 10
1.9538706467
 20
13.6720595744
 11
1.9121765867
 21
13.7183655191
 12
2.3944422815
 22
13.7183655191
 13
2.3944422815
 23
13.7183655191
  0
SOLID
  8
___SYMBOL
 62
2
  6
CONTINUOUS
 10
2.3944422815
 20
13.7183655191
 11
2.3527482216
 21
13.6720595744
 12
1.9538706467
 22
13.6720595744
 13
1.9538706467
 23
13.6720595744
  0
SOLID
  8
___SYMBOL
 62
2
  6
CONTINUOUS
 10
2.0042811386
 20
13.6354342081
 11
1.9538706467
 21
13.6720595744
 12
2.3527482216
 22
13.6720595744
 13
2.3527482216
 23
13.6720595744
  0
SOLID
  8
___SYMBOL
 62
2
  6
CONTINUOUS
 10
2.3527482216
 20
13.6720595744
 11
2.3023377296
 21
13.6354342081
 12
2.0042811386
 22
13.6354342081
 13
2.0042811386
 23
13.6354342081
  0
SOLID
  8
___SYMBOL
 62
2
  6
CONTINUOUS
 10
2.0612048822
 20
13.6100901246
 11
2.0042811386
 21
13.6354342081
 12
2.3023377296
 22
13.6354342081
 13
2.3023377296
 23
13.6354342081
  0
SOLID
  8
___SYMBOL
 62
2
  6
CONTINUOUS
 10
2.3023377296
 20
13.6354342081
 11
2.245413986
 21
13.6100901246
 12
2.0612048822
 22
13.6100901246
 13
2.0612048822
 23
13.6100901246
  0
SOLID
  8
___SYMBOL
 62
2
  6
CONTINUOUS
 10
2.1221540367
 20
13.5971349819
 11
2.0612048822
 21
13.6100901246
 12
2.245413986
 22
13.6100901246
 13
2.245413986
 23
13.6100901246
  0
SOLID
  8
___SYMBOL
 62
2
  6
CONTINUOUS
 10
2.245413986
 20
13.6100901246
 11
2.1844648315
 21
13.5971349819
 12
2.1221540367
 22
13.5971349819
 13
2.1221540367
 23
13.5971349819
  0
LINE
  8
___SYMBOL
 62
2
  6
CONTINUOUS
 10
2.9459454433
 20
14.1876368642
 11
2.9459454433
 21
13.6017232148
  0
LINE
  8
___SYMBOL
 62
2
  6
CONTINUOUS
 10
2.9459454433
 20
13.6017232148
 11
2.7812117635
 21
13.6017232148
  0
LINE
  8
___SYMBOL
 62
2
  6
CONTINUOUS
 10
2.7812117635
 20
13.8300478246
 11
2.7812117635
 21
13.6017232148
  0
LINE
  8
___SYMBOL
 62
2
  6
CONTINUOUS
 10
2.6332149524
 20
13.8300478246
 11
2.7812117635
 21
13.8300478246
  0
LINE
  8
___SYMBOL
 62
2
  6
CONTINUOUS
 10
2.6332149524
 20
13.8300478246
 11
2.6332149524
 21
13.6017232148
  0
LINE
  8
___SYMBOL
 62
2
  6
CONTINUOUS
 10
2.6332149524
 20
13.6017232148
 11
2.4684812725
 21
13.6017232148
  0
LINE
  8
___SYMBOL
 62
2
  6
CONTINUOUS
 10
2.4684812725
 20
14.1876368642
 11
2.4684812725
 21
13.6017232148
  0
LINE
  8
___SYMBOL
 62
2
  6
CONTINUOUS
 10
2.4684812725
 20
14.1876368642
 11
2.6332149524
 21
14.1876368642
  0
LINE
  8
___SYMBOL
 62
2
  6
CONTINUOUS
 10
2.6332149524
 20
14.1876368642
 11
2.6332149524
 21
13.9672531046
  0
LINE
  8
___SYMBOL
 62
2
  6
CONTINUOUS
 10
2.6332149524
 20
13.9672531046
 11
2.7812117635
 21
13.9672531046
  0
LINE
  8
___SYMBOL
 62
2
  6
CONTINUOUS
 10
2.7812117635
 20
14.1876368642
 11
2.7812117635
 21
13.9672531046
  0
LINE
  8
___SYMBOL
 62
2
  6
CONTINUOUS
 10
2.7812117635
 20
14.1876368642
 11
2.9459454433
 21
14.1876368642
  0
SOLID
  8
___SYMBOL
 62
2
  6
CONTINUOUS
 10
2.7812117635
 20
13.9672531046
 11
2.7812117635
 21
14.1876368642
 12
2.9459454433
 22
14.1876368642
 13
2.9459454433
 23
14.1876368642
  0
SOLID
  8
___SYMBOL
 62
2
  6
CONTINUOUS
 10
2.7812117635
 20
13.9672531046
 11
2.6332149524
 21
13.8300478246
 12
2.6332149524
 22
13.9672531046
 13
2.6332149524
 23
13.9672531046
  0
SOLID
  8
___SYMBOL
 62
2
  6
CONTINUOUS
 10
2.6332149524
 20
13.8300478246
 11
2.4684812725
 21
13.6017232148
 12
2.6332149524
 22
13.9672531046
 13
2.6332149524
 23
13.9672531046
  0
SOLID
  8
___SYMBOL
 62
2
  6
CONTINUOUS
 10
2.6332149524
 20
13.9672531046
 11
2.4684812725
 21
13.6017232148
 12
2.6332149524
 22
14.1876368642
 13
2.6332149524
 23
14.1876368642
  0
SOLID
  8
___SYMBOL
 62
2
  6
CONTINUOUS
 10
2.4684812725
 20
13.6017232148
 11
2.4684812725
 21
14.1876368642
 12
2.6332149524
 22
14.1876368642
 13
2.6332149524
 23
14.1876368642
  0
SOLID
  8
___SYMBOL
 62
2
  6
CONTINUOUS
 10
2.6332149524
 20
13.8300478246
 11
2.6332149524
 21
13.6017232148
 12
2.4684812725
 22
13.6017232148
 13
2.4684812725
 23
13.6017232148
  0
SOLID
  8
___SYMBOL
 62
2
  6
CONTINUOUS
 10
2.6332149524
 20
13.8300478246
 11
2.7812117635
 21
13.9672531046
 12
2.7812117635
 22
13.8300478246
 13
2.7812117635
 23
13.8300478246
  0
SOLID
  8
___SYMBOL
 62
2
  6
CONTINUOUS
 10
2.7812117635
 20
13.9672531046
 11
2.9459454433
 21
14.1876368642
 12
2.7812117635
 22
13.8300478246
 13
2.7812117635
 23
13.8300478246
  0
SOLID
  8
___SYMBOL
 62
2
  6
CONTINUOUS
 10
2.7812117635
 20
13.8300478246
 11
2.9459454433
 21
14.1876368642
 12
2.7812117635
 22
13.6017232148
 13
2.7812117635
 23
13.6017232148
  0
SOLID
  8
___SYMBOL
 62
2
  6
CONTINUOUS
 10
2.9459454433
 20
14.1876368642
 11
2.9459454433
 21
13.6017232148
 12
2.7812117635
 22
13.6017232148
 13
2.7812117635
 23
13.6017232148
  0
LINE
  8
___SYMBOL
 62
2
  6
CONTINUOUS
 10
3.1410363503
 20
13.6017232148
 11
3.3037204202
 21
13.6017232148
  0
LINE
  8
___SYMBOL
 62
2
  6
CONTINUOUS
 10
3.1410363503
 20
13.6017232148
 11
2.9909902875
 21
13.6017232148
  0
LINE
  8
___SYMBOL
 62
2
  6
CONTINUOUS
 10
2.9909902875
 20
13.6017232148
 11
2.9909902875
 21
14.1876368642
  0
LINE
  8
___SYMBOL
 62
2
  6
CONTINUOUS
 10
2.9909902875
 20
14.1876368642
 11
3.1410363503
 21
14.1876368642
  0
LINE
  8
___SYMBOL
 62
2
  6
CONTINUOUS
 10
3.1410363503
 20
14.1876368642
 11
3.1410363503
 21
13.742949972
  0
LINE
  8
___SYMBOL
 62
2
  6
CONTINUOUS
 10
3.1410363503
 20
13.742949972
 11
3.3037204202
 21
13.742949972
  0
LINE
  8
___SYMBOL
 62
2
  6
CONTINUOUS
 10
3.3037204202
 20
13.742949972
 11
3.3037204202
 21
13.6017232148
  0
SOLID
  8
___SYMBOL
 62
2
  6
CONTINUOUS
 10
3.3037204202
 20
13.742949972
 11
2.9909902875
 21
13.6017232148
 12
3.1410363503
 22
13.742949972
 13
3.1410363503
 23
13.742949972
  0
SOLID
  8
___SYMBOL
 62
2
  6
CONTINUOUS
 10
3.1410363503
 20
13.742949972
 11
2.9909902875
 21
13.6017232148
 12
3.1410363503
 22
14.1876368642
 13
3.1410363503
 23
14.1876368642
  0
SOLID
  8
___SYMBOL
 62
2
  6
CONTINUOUS
 10
2.9909902875
 20
13.6017232148
 11
2.9909902875
 21
14.1876368642
 12
3.1410363503
 22
14.1876368642
 13
3.1410363503
 23
14.1876368642
  0
SOLID
  8
___SYMBOL
 62
2
  6
CONTINUOUS
 10
2.9909902875
 20
13.6017232148
 11
3.3037204202
 21
13.742949972
 12
3.1410363503
 22
13.6017232148
 13
3.1410363503
 23
13.6017232148
  0
SOLID
  8
___SYMBOL
 62
2
  6
CONTINUOUS
 10
3.3037204202
 20
13.742949972
 11
3.3037204202
 21
13.6017232148
 12
3.1410363503
 22
13.6017232148
 13
3.1410363503
 23
13.6017232148
  0
LINE
  8
___SYMBOL
 62
2
  6
CONTINUOUS
 10
3.6419723343
 20
13.822871503
 11
3.6419723343
 21
13.9672531046
  0
LINE
  8
___SYMBOL
 62
2
  6
CONTINUOUS
 10
3.4911148109
 20
13.9672531046
 11
3.6419723343
 21
13.9672531046
  0
LINE
  8
___SYMBOL
 62
2
  6
CONTINUOUS
 10
3.4911148109
 20
14.0448774674
 11
3.4911148109
 21
13.9672531046
  0
LINE
  8
___SYMBOL
 62
2
  6
CONTINUOUS
 10
3.4911148109
 20
14.0448774674
 11
3.6419723343
 21
14.0448774674
  0
LINE
  8
___SYMBOL
 62
2
  6
CONTINUOUS
 10
3.6419723343
 20
14.0448774674
 11
3.6419723343
 21
14.1876368642
  0
LINE
  8
___SYMBOL
 62
2
  6
CONTINUOUS
 10
3.5053191342
 20
14.1876368642
 11
3.6419723343
 21
14.1876368642
  0
LINE
  8
___SYMBOL
 62
2
  6
CONTINUOUS
 10
3.3328681589
 20
14.1876368642
 11
3.5053191342
 21
14.1876368642
  0
LINE
  8
___SYMBOL
 62
2
  6
CONTINUOUS
 10
3.3328681589
 20
13.6017232148
 11
3.3328681589
 21
14.1876368642
  0
LINE
  8
___SYMBOL
 62
2
  6
CONTINUOUS
 10
3.3328681589
 20
13.6017232148
 11
3.6419723343
 21
13.6017232148
  0
LINE
  8
___SYMBOL
 62
2
  6
CONTINUOUS
 10
3.6419723343
 20
13.6017232148
 11
3.6419723343
 21
13.742949972
  0
LINE
  8
___SYMBOL
 62
2
  6
CONTINUOUS
 10
3.4911148109
 20
13.742949972
 11
3.6419723343
 21
13.742949972
  0
LINE
  8
___SYMBOL
 62
2
  6
CONTINUOUS
 10
3.4911148109
 20
13.822871503
 11
3.4911148109
 21
13.742949972
  0
LINE
  8
___SYMBOL
 62
2
  6
CONTINUOUS
 10
3.4911148109
 20
13.822871503
 11
3.6419723343
 21
13.822871503
  0
SOLID
  8
___SYMBOL
 62
2
  6
CONTINUOUS
 10
3.6419723343
 20
14.1876368642
 11
3.6419723343
 21
14.0448774674
 12
3.4911148109
 22
14.0448774674
 13
3.4911148109
 23
14.0448774674
  0
SOLID
  8
___SYMBOL
 62
2
  6
CONTINUOUS
 10
3.6419723343
 20
13.9672531046
 11
3.6419723343
 21
13.822871503
 12
3.4911148109
 22
13.822871503
 13
3.4911148109
 23
13.822871503
  0
SOLID
  8
___SYMBOL
 62
2
  6
CONTINUOUS
 10
3.6419723343
 20
13.742949972
 11
3.3328681589
 21
13.6017232148
 12
3.4911148109
 22
13.742949972
 13
3.4911148109
 23
13.742949972
  0
SOLID
  8
___SYMBOL
 62
2
  6
CONTINUOUS
 10
3.4911148109
 20
13.742949972
 11
3.3328681589
 21
13.6017232148
 12
3.4911148109
 22
13.822871503
 13
3.4911148109
 23
13.822871503
  0
SOLID
  8
___SYMBOL
 62
2
  6
CONTINUOUS
 10
3.6419723343
 20
13.9672531046
 11
3.4911148109
 21
13.822871503
 12
3.4911148109
 22
13.9672531046
 13
3.4911148109
 23
13.9672531046
  0
SOLID
  8
___SYMBOL
 62
2
  6
CONTINUOUS
 10
3.4911148109
 20
13.822871503
 11
3.3328681589
 21
13.6017232148
 12
3.4911148109
 22
13.9672531046
 13
3.4911148109
 23
13.9672531046
  0
SOLID
  8
___SYMBOL
 62
2
  6
CONTINUOUS
 10
3.4911148109
 20
13.9672531046
 11
3.3328681589
 21
13.6017232148
 12
3.4911148109
 22
14.0448774674
 13
3.4911148109
 23
14.0448774674
  0
SOLID
  8
___SYMBOL
 62
2
  6
CONTINUOUS
 10
3.6419723343
 20
14.1876368642
 11
3.4911148109
 21
14.0448774674
 12
3.5053191342
 22
14.1876368642
 13
3.5053191342
 23
14.1876368642
  0
SOLID
  8
___SYMBOL
 62
2
  6
CONTINUOUS
 10
3.4911148109
 20
14.0448774674
 11
3.3328681589
 21
13.6017232148
 12
3.5053191342
 22
14.1876368642
 13
3.5053191342
 23
14.1876368642
  0
SOLID
  8
___SYMBOL
 62
2
  6
CONTINUOUS
 10
3.3328681589
 20
13.6017232148
 11
3.3328681589
 21
14.1876368642
 12
3.5053191342
 22
14.1876368642
 13
3.5053191342
 23
14.1876368642
  0
SOLID
  8
___SYMBOL
 62
2
  6
CONTINUOUS
 10
3.6419723343
 20
13.742949972
 11
3.6419723343
 21
13.6017232148
 12
3.3328681589
 22
13.6017232148
 13
3.3328681589
 23
13.6017232148
  0
LINE
  8
___SYMBOL
 62
2
  6
CONTINUOUS
 10
4.1522227402
 20
13.6017232148
 11
3.9927794973
 21
13.8533057561
  0
ARC
  8
___SYMBOL
 62
2
  6
CONTINUOUS
 10
3.9203402496
 20
14.0126273535
 40
0.1750166163
 50
294.4500166359
 51
90.0
  0
LINE
  8
___SYMBOL
 62
2
  6
CONTINUOUS
 10
3.6867925489
 20
14.1876368642
 11
3.9203402496
 21
14.1876368642
  0
LINE
  8
___SYMBOL
 62
2
  6
CONTINUOUS
 10
3.6867925489
 20
13.6017232148
 11
3.6867925489
 21
14.1876368642
  0
LINE
  8
___SYMBOL
 62
2
  6
CONTINUOUS
 10
3.6867925489
 20
13.6017232148
 11
3.8374483715
 21
13.6017232148
  0
LINE
  8
___SYMBOL
 62
2
  6
CONTINUOUS
 10
3.8374483715
 20
13.7986795857
 11
3.8374483715
 21
13.6017232148
  0
LINE
  8
___SYMBOL
 62
2
  6
CONTINUOUS
 10
3.9622718007
 20
13.6017232148
 11
3.8374483715
 21
13.7986795857
  0
LINE
  8
___SYMBOL
 62
2
  6
CONTINUOUS
 10
3.9622718007
 20
13.6017232148
 11
4.1522227402
 21
13.6017232148
  0
LINE
  8
___SYMBOL
 62
2
  6
CONTINUOUS
 10
3.8374483715
 20
13.9379548963
 11
3.8897881217
 21
13.9379548963
  0
ARC
  8
___SYMBOL
 62
2
  6
CONTINUOUS
 10
3.893378151
 20
13.9914462958
 40
0.053611735
 50
266.1604009902
 51
89.9998910512
  0
LINE
  8
___SYMBOL
 62
2
  6
CONTINUOUS
 10
3.893378253
 20
14.0450580309
 11
3.8374483715
 21
14.0450580309
  0
LINE
  8
___SYMBOL
 62
2
  6
CONTINUOUS
 10
3.8374483715
 20
14.0450580309
 11
3.8374483715
 21
13.9379548963
  0
SOLID
  8
___SYMBOL
 62
2
  6
CONTINUOUS
 10
3.9203402496
 20
14.1876439698
 11
3.9672732731
 21
14.1812337214
 12
3.6867925489
 22
14.1876368642
 13
3.6867925489
 23
14.1876368642
  0
SOLID
  8
___SYMBOL
 62
2
  6
CONTINUOUS
 10
3.8374483715
 20
14.0450580309
 11
4.0913881126
 21
14.0496873664
 12
3.893378253
 22
14.0450580309
 13
3.893378253
 23
14.0450580309
  0
SOLID
  8
___SYMBOL
 62
2
  6
CONTINUOUS
 10
3.893378253
 20
14.0450580309
 11
4.0913881126
 21
14.0496873664
 12
3.9171008346
 22
14.0395238625
 13
3.9171008346
 23
14.0395238625
  0
SOLID
  8
___SYMBOL
 62
2
  6
CONTINUOUS
 10
3.9171008346
 20
14.0395238625
 11
4.0913881126
 21
14.0496873664
 12
3.9359258222
 22
14.0240639875
 13
3.9359258222
 23
14.0240639875
  0
SOLID
  8
___SYMBOL
 62
2
  6
CONTINUOUS
 10
4.0913881126
 20
14.0496873664
 11
4.095061359
 21
14.0024612376
 12
3.9359258222
 22
14.0240639875
 13
3.9359258222
 23
14.0240639875
  0
SOLID
  8
___SYMBOL
 62
2
  6
CONTINUOUS
 10
3.9459667608
 20
14.0018701269
 11
3.9359258222
 21
14.0240639875
 12
4.095061359
 22
14.0024612376
 13
4.095061359
 23
14.0024612376
  0
SOLID
  8
___SYMBOL
 62
2
  6
CONTINUOUS
 10
3.9459667608
 20
14.0018701269
 11
4.095061359
 21
14.0024612376
 12
3.9451506791
 22
13.9775242462
 13
3.9451506791
 23
13.9775242462
  0
SOLID
  8
___SYMBOL
 62
2
  6
CONTINUOUS
 10
3.9451506791
 20
13.9775242462
 11
4.095061359
 21
14.0024612376
 12
3.9336460588
 22
13.9560525996
 13
3.9336460588
 23
13.9560525996
  0
SOLID
  8
___SYMBOL
 62
2
  6
CONTINUOUS
 10
4.095061359
 20
14.0024612376
 11
4.0859357554
 21
13.9559798075
 12
3.9336460588
 22
13.9560525996
 13
3.9336460588
 23
13.9560525996
  0
SOLID
  8
___SYMBOL
 62
2
  6
CONTINUOUS
 10
3.913828051
 20
13.9418880501
 11
3.9336460588
 21
13.9560525996
 12
4.0859357554
 22
13.9559798075
 13
4.0859357554
 23
13.9559798075
  0
SOLID
  8
___SYMBOL
 62
2
  6
CONTINUOUS
 10
3.913828051
 20
13.9418880501
 11
4.0859357554
 21
13.9559798075
 12
3.8897881217
 22
13.9379548963
 13
3.8897881217
 23
13.9379548963
  0
SOLID
  8
___SYMBOL
 62
2
  6
CONTINUOUS
 10
4.0859357554
 20
13.9559798075
 11
4.0646797797
 21
13.9136479816
 12
3.8897881217
 22
13.9379548963
 13
3.8897881217
 23
13.9379548963
  0
SOLID
  8
___SYMBOL
 62
2
  6
CONTINUOUS
 10
3.9927794973
 20
13.8533057561
 11
3.8374483715
 21
13.7986795857
 12
4.0328504965
 22
13.8785666944
 13
4.0328504965
 23
13.8785666944
  0
SOLID
  8
___SYMBOL
 62
2
  6
CONTINUOUS
 10
4.0328504965
 20
13.8785666944
 11
3.8374483715
 21
13.7986795857
 12
4.0646797797
 22
13.9136479816
 13
4.0646797797
 23
13.9136479816
  0
SOLID
  8
___SYMBOL
 62
2
  6
CONTINUOUS
 10
4.0646797797
 20
13.9136479816
 11
3.8374483715
 21
13.7986795857
 12
3.8897881217
 22
13.9379548963
 13
3.8897881217
 23
13.9379548963
  0
SOLID
  8
___SYMBOL
 62
2
  6
CONTINUOUS
 10
3.8374483715
 20
13.7986795857
 11
3.6867925489
 21
13.6017232148
 12
3.8897881217
 22
13.9379548963
 13
3.8897881217
 23
13.9379548963
  0
SOLID
  8
___SYMBOL
 62
2
  6
CONTINUOUS
 10
3.8897881217
 20
13.9379548963
 11
3.6867925489
 21
13.6017232148
 12
3.8374483715
 22
13.9379548963
 13
3.8374483715
 23
13.9379548963
  0
SOLID
  8
___SYMBOL
 62
2
  6
CONTINUOUS
 10
3.8374483715
 20
13.9379548963
 11
3.6867925489
 21
13.6017232148
 12
3.8374483715
 22
14.0450580309
 13
3.8374483715
 23
14.0450580309
  0
SOLID
  8
___SYMBOL
 62
2
  6
CONTINUOUS
 10
4.0913881126
 20
14.0496873664
 11
3.8374483715
 21
14.0450580309
 12
4.0751850925
 22
14.0941987371
 13
4.0751850925
 23
14.0941987371
  0
SOLID
  8
___SYMBOL
 62
2
  6
CONTINUOUS
 10
4.0751850925
 20
14.0941987371
 11
3.8374483715
 21
14.0450580309
 12
4.047639219
 22
14.132734757
 13
4.047639219
 23
14.132734757
  0
SOLID
  8
___SYMBOL
 62
2
  6
CONTINUOUS
 10
4.047639219
 20
14.132734757
 11
3.8374483715
 21
14.0450580309
 12
4.0107683106
 22
14.1624725462
 13
4.0107683106
 23
14.1624725462
  0
SOLID
  8
___SYMBOL
 62
2
  6
CONTINUOUS
 10
4.0107683106
 20
14.1624725462
 11
3.8374483715
 21
14.0450580309
 12
3.9672732731
 22
14.1812337214
 13
3.9672732731
 23
14.1812337214
  0
SOLID
  8
___SYMBOL
 62
2
  6
CONTINUOUS
 10
3.9672732731
 20
14.1812337214
 11
3.8374483715
 21
14.0450580309
 12
3.6867925489
 22
14.1876368642
 13
3.6867925489
 23
14.1876368642
  0
SOLID
  8
___SYMBOL
 62
2
  6
CONTINUOUS
 10
3.6867925489
 20
13.6017232148
 11
3.6867925489
 21
14.1876368642
 12
3.8374483715
 22
14.0450580309
 13
3.8374483715
 23
14.0450580309
  0
SOLID
  8
___SYMBOL
 62
2
  6
CONTINUOUS
 10
3.8374483715
 20
13.7986795857
 11
3.8374483715
 21
13.6017232148
 12
3.6867925489
 22
13.6017232148
 13
3.6867925489
 23
13.6017232148
  0
SOLID
  8
___SYMBOL
 62
2
  6
CONTINUOUS
 10
3.8374483715
 20
13.7986795857
 11
3.9927794973
 21
13.8533057561
 12
3.9622718007
 22
13.6017232148
 13
3.9622718007
 23
13.6017232148
  0
SOLID
  8
___SYMBOL
 62
2
  6
CONTINUOUS
 10
3.9927794973
 20
13.8533057561
 11
4.1522227402
 21
13.6017232148
 12
3.9622718007
 22
13.6017232148
 13
3.9622718007
 23
13.6017232148
  0
CIRCLE
  8
___SYMBOL
 62
2
  6
CONTINUOUS
 10
4.2929927149
 20
13.6017232148
 40
0.0653578721
  0
LINE
  8
___SYMBOL
 62
2
  6
CONTINUOUS
 10
4.2887046916
 20
13.6011854654
 11
4.3205727044
 21
13.5688825241
  0
LINE
  8
___SYMBOL
 62
2
  6
CONTINUOUS
 10
4.2771067154
 20
13.5688825241
 11
4.2771067154
 21
13.6348487229
  0
LINE
  8
___SYMBOL
 62
2
  6
CONTINUOUS
 10
4.2771067154
 20
13.6348487229
 11
4.3013860484
 21
13.6348487229
  0
ARC
  8
___SYMBOL
 62
2
  6
CONTINUOUS
 10
4.3013860484
 20
13.6180172733
 40
0.0168314496
 50
270.0
 51
90.0
  0
LINE
  8
___SYMBOL
 62
2
  6
CONTINUOUS
 10
4.3013860484
 20
13.6011854654
 11
4.2771067154
 21
13.6011854654
  0
ENDBLK
  8
0
  6
BYBLOCK
 62
0
  0
BLOCK
  8
0
  2
_FILLED
 70
64
 10
0.0
 20
0.0
  0
SOLID
  8
0
  6
BYBLOCK
 62
0
 10
0.0
 20
0.0
 11
-1.0
 21
0.1666666667
 12
-1.0
 22
-0.1666666667
 13
-1.0
 23
-0.1666666667
  0
ENDBLK
  8
0
  6
BYBLOCK
 62
0
  0
ENDSEC
  0
SECTION
  2
ENTITIES
  0
DIMENSION
  8
0
 62
2
  6
CONTINUOUS
  2
*D0
 10
21.0392609263
 20
4.8204481265
 11
21.0392609263
 21
12.6508167745
 70
128
 13
13.4345259949
 23
16.3206134105
 14
13.4345259949
 24
4.8204481265
 50
270.0
  0
DIMENSION
  8
0
 62
2
  6
CONTINUOUS
  2
*D1
 10
6.0920259949
 20
4.2468159479
 11
13.3720259949
 21
4.1296284479
 70
128
 13
20.6520259949
 23
9.5019481265
 14
6.0920259949
 24
9.5019481265
 50
180.0
  0
TEXT
  8
___NOTE
 62
2
  6
CONTINUOUS
 10
14.2193407477
 20
10.8166627994
  7
STANDARD
 40
0.15625
  1
SELF-RIMMING INSTALLATION
 41
0.8
 72
0
  0
TEXT
  8
___NOTE
 62
2
  6
CONTINUOUS
 10
14.2193407477
 20
10.5822877994
  7
STANDARD
 40
0.15625
  1
INSTALACIÓN DE BORDE TERMINADO
 41
0.8
 72
0
  0
TEXT
  8
___NOTE
 62
2
  6
CONTINUOUS
 10
14.2193407477
 20
10.3479127994
  7
STANDARD
 40
0.15625
  1
INSTALLATIONS À REBORD INTÉGRÉ
 41
0.8
 72
0
  0
TEXT
  8
___NOTE
 62
2
  6
CONTINUOUS
 10
7.6483594009
 20
12.0038906067
  7
STANDARD
 40
0.15625
  1
JOINT MASTIC SILICONE
 41
0.8
 72
0
  0
TEXT
  8
___NOTE
 62
2
  6
CONTINUOUS
 10
7.2733594009
 20
11.7695156067
  7
STANDARD
 40
0.15625
  1
SILICONE COMPOUND FILLER
 41
0.8
 72
0
  0
TEXT
  8
___NOTE
 62
2
  6
CONTINUOUS
 10
8.3983594009
 20
11.5351406067
  7
STANDARD
 40
0.15625
  1
SILIKONDICHTUNG
 41
0.8
 72
0
  0
TEXT
  8
___NOTE
 62
2
  6
CONTINUOUS
 10
7.2733594009
 20
11.3007656067
  7
STANDARD
 40
0.15625
  1
JUNTA DE MASTIC SILICONA
 41
0.8
 72
0
  0
LINE
  8
___NOTE
 62
2
  6
CONTINUOUS
 10
11.5296699355
 20
10.7858822557
 11
10.5233594009
 21
12.0820156067
  0
LINE
  8
___NOTE
 62
2
  6
CONTINUOUS
 10
10.5233594009
 20
12.0820156067
 11
10.2733594009
 21
12.0820156067
  0
SOLID
  8
___NOTE
 62
2
  6
CONTINUOUS
 10
11.3899999835
 20
10.9148206791
 11
11.5296699355
 21
10.7858822557
 12
11.4393675777
 22
10.9531493974
 13
11.4393675777
 23
10.9531493974
  0
TEXT
  8
___NOTE
 62
2
  6
CONTINUOUS
 10
6.1802364399
 20
15.8512319642
  7
STANDARD
 40
0.15625
  1
FOR SELF-RIMMING INSTALLATION,
 41
0.8
 72
0
  0
TEXT
  8
___NOTE
 62
2
  6
CONTINUOUS
 10
7.4302364399
 20
15.6168569642
  7
STANDARD
 40
0.15625
  1
CUT ALONG THIS LINE.
 41
0.8
 72
0
  0
TEXT
  8
___NOTE
 62
2
  6
CONTINUOUS
 10
9.8052364399
 20
15.3824819642
  7
STANDARD
 40
0.15625
  1
 
 41
0.8
 72
0
  0
TEXT
  8
___NOTE
 62
2
  6
CONTINUOUS
 10
5.1802364399
 20
15.1481069642
  7
STANDARD
 40
0.15625
  1
PARA INSTALACIONES DE BORDE TERMINADO,
 41
0.8
 72
0
  0
TEXT
  8
___NOTE
 62
2
  6
CONTINUOUS
 10
6.0552364399
 20
14.9137319642
  7
STANDARD
 40
0.15625
  1
CORTE A LO LARGO DE ESTA LÍNEA.
 41
0.8
 72
0
  0
TEXT
  8
___NOTE
 62
2
  6
CONTINUOUS
 10
9.8052364399
 20
14.6793569642
  7
STANDARD
 40
0.15625
  1
 
 41
0.8
 72
0
  0
TEXT
  8
___NOTE
 62
2
  6
CONTINUOUS
 10
4.9302364399
 20
14.4449819642
  7
STANDARD
 40
0.15625
  1
POUR DES INSTALLATIONS À REBORD INTÉGRÉ,
 41
0.8
 72
0
  0
TEXT
  8
___NOTE
 62
2
  6
CONTINUOUS
 10
5.9302364399
 20
14.2106069642
  7
STANDARD
 40
0.15625
  1
DÉCOUPER AU LONG DE CETTE LIGNE.
 41
0.8
 72
0
  0
LINE
  8
___NOTE
 62
2
  6
CONTINUOUS
 10
11.0467012091
 20
14.0599369654
 11
10.1802364399
 21
15.9293569642
  0
LINE
  8
___NOTE
 62
2
  6
CONTINUOUS
 10
10.1802364399
 20
15.9293569642
 11
9.9302364399
 21
15.9293569642
  0
SOLID
  8
___NOTE
 62
2
  6
CONTINUOUS
 10
10.9395010696
 20
14.2169113028
 11
11.0467012091
 21
14.0599369654
 12
10.9962062677
 22
14.2431938162
 13
10.9962062677
 23
14.2431938162
  0
INSERT
  8
___SYMBOL
 62
2
  6
CONTINUOUS
  2
COPYRIGHT_YEAR_BL0
 10
17.1575841936
 20
5.9560358073
  0
INSERT
  8
___SYMBOL
 62
2
  6
CONTINUOUS
  2
TEMPLATE_NUMBER_BL1
 10
11.4038018535
 20
5.4293307038
  0
INSERT
  8
___SYMBOL
 62
2
  6
CONTINUOUS
  2
TEMPLATE_NUMBER_BL2
 10
11.472480294
 20
4.7428533479
  0
INSERT
  8
___SYMBOL
 62
2
  6
CONTINUOUS
  2
PACKAGING_UPC_NOTE_BL3
 10
3.920879459
 20
3.0113209677
  0
INSERT
  8
___SYMBOL
 62
2
  6
CONTINUOUS
  2
PLOTTING_TEMPLATE_NOTE_BL4
 10
16.3562798352
 20
7.842689063
  0
INSERT
  8
___SYMBOL
 62
2
  6
CONTINUOUS
  2
SKU_LAV_KOHLER_BL5
 10
3.8298871789
 20
12.5680055723
  0
LINE
  8
0
 62
7
  6
CONTINUOUS
 10
14.7036308996
 20
12.5465474719
 11
14.6986267438
 21
12.5444535674
  0
LINE
  8
0
 62
7
  6
CONTINUOUS
 10
14.7088297744
 20
12.5481425032
 11
14.7036308996
 21
12.5465474719
  0
LINE
  8
0
 62
7
  6
CONTINUOUS
 10
14.6986267438
 20
12.5444535674
 11
14.6938568947
 21
12.5418800288
  0
LINE
  8
0
 62
7
  6
CONTINUOUS
 10
16.7092608798
 20
12.4964379059
 11
16.7071382728
 21
12.4955442646
  0
LINE
  8
0
 62
7
  6
CONTINUOUS
 10
16.710717633
 20
12.4970433417
 11
16.7092608798
 21
12.4964379059
  0
LINE
  8
0
 62
7
  6
CONTINUOUS
 10
14.6893606612
 20
12.5388500288
 11
14.68518735
 21
12.5353976842
  0
LINE
  8
0
 62
7
  6
CONTINUOUS
 10
14.6938568947
 20
12.5418800288
 11
14.6893606612
 21
12.5388500288
  0
LINE
  8
0
 62
7
  6
CONTINUOUS
 10
16.6864158602
 20
12.4855254638
 11
16.6844594097
 21
12.4844394126
  0
LINE
  8
0
 62
7
  6
CONTINUOUS
 10
16.688474792
 20
12.4866398122
 11
16.6864158602
 21
12.4855254638
  0
LINE
  8
0
 62
7
  6
CONTINUOUS
 10
16.690553788
 20
12.4877360501
 11
16.688474792
 21
12.4866398122
  0
LINE
  8
0
 62
7
  6
CONTINUOUS
 10
16.6926504849
 20
12.4888127989
 11
16.690553788
 21
12.4877360501
  0
LINE
  8
0
 62
7
  6
CONTINUOUS
 10
16.6947664814
 20
12.4898714687
 11
16.6926504849
 21
12.4888127989
  0
LINE
  8
0
 62
7
  6
CONTINUOUS
 10
16.6968220576
 20
12.4908739426
 11
16.6947664814
 21
12.4898714687
  0
LINE
  8
0
 62
7
  6
CONTINUOUS
 10
16.9172204807
 20
12.4980192565
 11
16.9164368686
 21
12.4976444771
  0
LINE
  8
0
 62
7
  6
CONTINUOUS
 10
16.6988052647
 20
12.4918173775
 11
16.6968220576
 21
12.4908739426
  0
LINE
  8
0
 62
7
  6
CONTINUOUS
 10
16.7007234463
 20
12.4927084478
 11
16.6988052647
 21
12.4918173775
  0
LINE
  8
0
 62
7
  6
CONTINUOUS
 10
16.7025238191
 20
12.4935262575
 11
16.7007234463
 21
12.4927084478
  0
LINE
  8
0
 62
7
  6
CONTINUOUS
 10
16.7042080636
 20
12.4942754092
 11
16.7025238191
 21
12.4935262575
  0
LINE
  8
0
 62
7
  6
CONTINUOUS
 10
16.7057686063
 20
12.4949564328
 11
16.7042080636
 21
12.4942754092
  0
LINE
  8
0
 62
7
  6
CONTINUOUS
 10
16.7071382728
 20
12.4955442646
 11
16.7057686063
 21
12.4949564328
  0
LINE
  8
0
 62
7
  6
CONTINUOUS
 10
10.8191380204
 20
10.7716815965
 11
10.8176057549
 21
10.4820834053
  0
LINE
  8
0
 62
7
  6
CONTINUOUS
 10
14.68518735
 20
12.5353976842
 11
14.6813856494
 21
12.5315638872
  0
LINE
  8
0
 62
7
  6
CONTINUOUS
 10
16.672031943
 20
12.4768299132
 11
16.6719204466
 21
12.4767508477
  0
LINE
  8
0
 62
7
  6
CONTINUOUS
 10
16.6589395755
 20
12.4678960659
 11
16.6653746102
 21
12.4724295869
  0
LINE
  8
0
 62
7
  6
CONTINUOUS
 10
16.6599246884
 20
12.4686017675
 11
16.6698017701
 21
12.4753796087
  0
LINE
  8
0
 62
7
  6
CONTINUOUS
 10
16.6723221807
 20
12.4770268249
 11
16.672031943
 21
12.4768299132
  0
LINE
  8
0
 62
7
  6
CONTINUOUS
 10
16.6727925737
 20
12.4773407061
 11
16.6723221807
 21
12.4770268249
  0
LINE
  8
0
 62
7
  6
CONTINUOUS
 10
16.6653746102
 20
12.4724295869
 11
16.671920436
 21
12.4767508491
  0
LINE
  8
0
 62
7
  6
CONTINUOUS
 10
16.6734543754
 20
12.4777763892
 11
16.6727925737
 21
12.4773407061
  0
LINE
  8
0
 62
7
  6
CONTINUOUS
 10
16.6743002367
 20
12.4783259701
 11
16.6734543754
 21
12.4777763892
  0
LINE
  8
0
 62
7
  6
CONTINUOUS
 10
16.6698017701
 20
12.4753796087
 11
16.6719980105
 21
12.4767975624
  0
LINE
  8
0
 62
7
  6
CONTINUOUS
 10
16.6753043387
 20
12.4789691531
 11
16.6743002367
 21
12.4783259701
  0
LINE
  8
0
 62
7
  6
CONTINUOUS
 10
16.6764712018
 20
12.4797047547
 11
16.6753043387
 21
12.4789691531
  0
LINE
  8
0
 62
7
  6
CONTINUOUS
 10
16.6778022196
 20
12.4805293106
 11
16.6764712018
 21
12.4797047547
  0
LINE
  8
0
 62
7
  6
CONTINUOUS
 10
16.671920436
 20
12.4767508491
 11
16.6720163896
 21
12.4768092954
  0
LINE
  8
0
 62
7
  6
CONTINUOUS
 10
16.6792670336
 20
12.4814195431
 11
16.6778022196
 21
12.4805293106
  0
LINE
  8
0
 62
7
  6
CONTINUOUS
 10
16.6808718699
 20
12.4823749227
 11
16.6792670336
 21
12.4814195431
  0
LINE
  8
0
 62
7
  6
CONTINUOUS
 10
16.682616379
 20
12.4833908938
 11
16.6808718699
 21
12.4823749227
  0
LINE
  8
0
 62
7
  6
CONTINUOUS
 10
16.6844594097
 20
12.4844394126
 11
16.682616379
 21
12.4833908938
  0
LINE
  8
0
 62
7
  6
CONTINUOUS
 10
11.5276210287
 20
10.8268232212
 11
11.5288700782
 21
11.0628935804
  0
LINE
  8
0
 62
7
  6
CONTINUOUS
 10
14.6779844817
 20
12.5273797286
 11
14.6750068594
 21
12.5228741668
  0
LINE
  8
0
 62
7
  6
CONTINUOUS
 10
14.6813856494
 20
12.5315638872
 11
14.6779844817
 21
12.5273797286
  0
LINE
  8
0
 62
7
  6
CONTINUOUS
 10
16.6345253995
 20
12.4477789787
 11
16.6404108327
 21
12.4530936958
  0
LINE
  8
0
 62
7
  6
CONTINUOUS
 10
16.4014742485
 20
12.1777826576
 11
16.4113825667
 21
12.1865059624
  0
LINE
  8
0
 62
7
  6
CONTINUOUS
 10
16.3914633227
 20
12.1691773026
 11
16.4014742485
 21
12.1777826576
  0
LINE
  8
0
 62
7
  6
CONTINUOUS
 10
16.6404108327
 20
12.4530936958
 11
16.64644601
 21
12.4582202315
  0
LINE
  8
0
 62
7
  6
CONTINUOUS
 10
16.3813512311
 20
12.1606910567
 11
16.3914633227
 21
12.1691773026
  0
LINE
  8
0
 62
7
  6
CONTINUOUS
 10
16.6410428135
 20
12.4536372825
 11
16.6503259658
 21
12.4613463986
  0
LINE
  8
0
 62
7
  6
CONTINUOUS
 10
16.3711394162
 20
12.1523250796
 11
16.3813512311
 21
12.1606910567
  0
LINE
  8
0
 62
7
  6
CONTINUOUS
 10
16.3608293191
 20
12.1440805298
 11
16.3711394162
 21
12.1523250796
  0
LINE
  8
0
 62
7
  6
CONTINUOUS
 10
16.64644601
 20
12.4582202315
 11
16.6526254634
 21
12.4631564716
  0
LINE
  8
0
 62
7
  6
CONTINUOUS
 10
16.3504223787
 20
12.1359585645
 11
16.3608293191
 21
12.1440805298
  0
LINE
  8
0
 62
7
  6
CONTINUOUS
 10
16.3399200361
 20
12.1279603421
 11
16.3504223787
 21
12.1359585645
  0
LINE
  8
0
 62
7
  6
CONTINUOUS
 10
16.6503259658
 20
12.4613463986
 11
16.6599246884
 21
12.4686017675
  0
LINE
  8
0
 62
7
  6
CONTINUOUS
 10
16.6526254634
 20
12.4631564716
 11
16.6589395755
 21
12.4678960659
  0
LINE
  8
0
 62
7
  6
CONTINUOUS
 10
16.3293237337
 20
12.1200870227
 11
16.3399200361
 21
12.1279603421
  0
LINE
  8
0
 62
7
  6
CONTINUOUS
 10
16.3186349132
 20
12.1123397655
 11
16.3293237337
 21
12.1200870227
  0
LINE
  8
0
 62
7
  6
CONTINUOUS
 10
16.9179639204
 20
12.4985429805
 11
16.9172204807
 21
12.4980192565
  0
LINE
  8
0
 62
7
  6
CONTINUOUS
 10
12.2339683919
 20
10.4783279161
 11
12.2354808776
 21
10.7641877189
  0
LINE
  8
0
 62
7
  6
CONTINUOUS
 10
14.6750068594
 20
12.5228741668
 11
14.6724791133
 21
12.5180837699
  0
LINE
  8
0
 62
7
  6
CONTINUOUS
 10
16.6144910171
 20
12.427094039
 11
16.6133516188
 21
12.4258066937
  0
LINE
  8
0
 62
7
  6
CONTINUOUS
 10
16.6154848315
 20
12.4281975287
 11
16.6144910171
 21
12.427094039
  0
LINE
  8
0
 62
7
  6
CONTINUOUS
 10
16.6163321248
 20
12.4291239978
 11
16.6154848315
 21
12.4281975287
  0
LINE
  8
0
 62
7
  6
CONTINUOUS
 10
16.6179102459
 20
12.4308008829
 11
16.623258702
 21
12.4366200337
  0
LINE
  8
0
 62
7
  6
CONTINUOUS
 10
16.6178448848
 20
12.4307240981
 11
16.6233771183
 21
12.4367402808
  0
LINE
  8
0
 62
7
  6
CONTINUOUS
 10
16.617004396
 20
12.4298492741
 11
16.6163321248
 21
12.4291239978
  0
LINE
  8
0
 62
7
  6
CONTINUOUS
 10
16.6174896778
 20
12.4303659163
 11
16.617004396
 21
12.4298492741
  0
LINE
  8
0
 62
7
  6
CONTINUOUS
 10
16.6177924508
 20
12.4306831375
 11
16.6174896778
 21
12.4303659163
  0
LINE
  8
0
 62
7
  6
CONTINUOUS
 10
16.623258702
 20
12.4366200337
 11
16.628801984
 21
12.4422833814
  0
LINE
  8
0
 62
7
  6
CONTINUOUS
 10
16.6179102682
 20
12.4308015039
 11
16.6177924508
 21
12.4306831375
  0
LINE
  8
0
 62
7
  6
CONTINUOUS
 10
16.6233771183
 20
12.4367402808
 11
16.6321270253
 21
12.4455107174
  0
LINE
  8
0
 62
7
  6
CONTINUOUS
 10
16.9186228266
 20
12.4992018867
 11
16.9179639204
 21
12.4985429805
  0
LINE
  8
0
 62
7
  6
CONTINUOUS
 10
16.628801984
 20
12.4422833814
 11
16.6345253995
 21
12.4477789787
  0
LINE
  8
0
 62
7
  6
CONTINUOUS
 10
16.6321270253
 20
12.4455107174
 11
16.6410428135
 21
12.4536372825
  0
LINE
  8
0
 62
7
  6
CONTINUOUS
 10
14.6718123741
 20
12.5165012097
 11
14.6712633152
 21
12.5148757896
  0
LINE
  8
0
 62
7
  6
CONTINUOUS
 10
14.6724791133
 20
12.5180837699
 11
14.6718123741
 21
12.5165012097
  0
LINE
  8
0
 62
7
  6
CONTINUOUS
 10
16.6000620768
 20
12.4088457739
 11
16.5986690278
 21
12.4068220859
  0
LINE
  8
0
 62
7
  6
CONTINUOUS
 10
16.6015133849
 20
12.4108978444
 11
16.6000620768
 21
12.4088457739
  0
LINE
  8
0
 62
7
  6
CONTINUOUS
 10
16.6030271299
 20
12.4129789584
 11
16.6015133849
 21
12.4108978444
  0
LINE
  8
0
 62
7
  6
CONTINUOUS
 10
16.6046035583
 20
12.4150867705
 11
16.6030271299
 21
12.4129789584
  0
LINE
  8
0
 62
7
  6
CONTINUOUS
 10
16.6061710397
 20
12.4171257913
 11
16.6046035583
 21
12.4150867705
  0
LINE
  8
0
 62
7
  6
CONTINUOUS
 10
16.607721309
 20
12.4190881063
 11
16.6061710397
 21
12.4171257913
  0
LINE
  8
0
 62
7
  6
CONTINUOUS
 10
16.6092564941
 20
12.4209814542
 11
16.607721309
 21
12.4190881063
  0
LINE
  8
0
 62
7
  6
CONTINUOUS
 10
16.6107132552
 20
12.4227349685
 11
16.6092564941
 21
12.4209814542
  0
LINE
  8
0
 62
7
  6
CONTINUOUS
 10
16.6120777771
 20
12.4243399115
 11
16.6107132552
 21
12.4227349685
  0
LINE
  8
0
 62
7
  6
CONTINUOUS
 10
16.617833019
 20
12.4307107659
 11
16.617909943
 21
12.4308004474
  0
LINE
  8
0
 62
7
  6
CONTINUOUS
 10
16.6133516188
 20
12.4258066937
 11
16.6120777771
 21
12.4243399115
  0
LINE
  8
0
 62
7
  6
CONTINUOUS
 10
16.9164368686
 20
12.4976444771
 11
16.9156305811
 21
12.4974164764
  0
LINE
  8
0
 62
7
  6
CONTINUOUS
 10
10.8176255347
 20
10.4858217937
 11
12.2339683919
 21
10.4783279161
  0
LINE
  8
0
 62
7
  6
CONTINUOUS
 10
12.2354808776
 20
10.7641877189
 11
10.8191380204
 21
10.7716815965
  0
LINE
  8
0
 62
7
  6
CONTINUOUS
 10
12.3153251988
 20
10.8226554743
 11
11.5276210287
 21
10.8268232212
  0
LINE
  8
0
 62
7
  6
CONTINUOUS
 10
12.8502904165
 20
9.9612803641
 11
12.3153251988
 21
10.8226554743
  0
LINE
  8
0
 62
7
  6
CONTINUOUS
 10
14.6704808735
 20
12.5114989646
 11
14.6702223782
 21
12.5097496804
  0
LINE
  8
0
 62
7
  6
CONTINUOUS
 10
14.6708232813
 20
12.5132083518
 11
14.6704808735
 21
12.5114989646
  0
LINE
  8
0
 62
7
  6
CONTINUOUS
 10
14.6712633152
 20
12.5148757896
 11
14.6708232813
 21
12.5132083518
  0
LINE
  8
0
 62
7
  6
CONTINUOUS
 10
16.5806976884
 20
12.3763435056
 11
16.5823735952
 21
12.3795747346
  0
LINE
  8
0
 62
7
  6
CONTINUOUS
 10
16.5557781065
 20
12.3280652707
 11
16.5545494634
 21
12.3256980058
  0
LINE
  8
0
 62
7
  6
CONTINUOUS
 10
16.5070166183
 20
12.2324445104
 11
16.5057727885
 21
12.2300478076
  0
LINE
  8
0
 62
7
  6
CONTINUOUS
 10
16.5569760493
 20
12.3303555849
 11
16.5557781065
 21
12.3280652707
  0
LINE
  8
0
 62
7
  6
CONTINUOUS
 10
16.5082365684
 20
12.2347751571
 11
16.5070166183
 21
12.2324445104
  0
LINE
  8
0
 62
7
  6
CONTINUOUS
 10
16.5806983199
 20
12.3763444842
 11
16.5835130386
 21
12.3817085239
  0
LINE
  8
0
 62
7
  6
CONTINUOUS
 10
16.5580941722
 20
12.3324797259
 11
16.5569760493
 21
12.3303555849
  0
LINE
  8
0
 62
7
  6
CONTINUOUS
 10
16.5093770729
 20
12.2369383915
 11
16.5082365684
 21
12.2347751571
  0
LINE
  8
0
 62
7
  6
CONTINUOUS
 10
16.5104271796
 20
12.238915767
 11
16.5093770729
 21
12.2369383915
  0
LINE
  8
0
 62
7
  6
CONTINUOUS
 10
16.5600608372
 20
12.3361810714
 11
16.5580941722
 21
12.3324797259
  0
LINE
  8
0
 62
7
  6
CONTINUOUS
 10
16.563331027
 20
12.3422593186
 11
16.5632510805
 21
12.3421090771
  0
LINE
  8
0
 62
7
  6
CONTINUOUS
 10
16.5122588096
 20
12.2423335059
 11
16.5104271796
 21
12.238915767
  0
LINE
  8
0
 62
7
  6
CONTINUOUS
 10
16.5823735952
 20
12.3795747346
 11
16.5841073469
 21
12.3828028219
  0
LINE
  8
0
 62
7
  6
CONTINUOUS
 10
16.5632510805
 20
12.3421090771
 11
16.5600608372
 21
12.3361810714
  0
LINE
  8
0
 62
7
  6
CONTINUOUS
 10
16.5148618239
 20
12.2471333801
 11
16.5122588096
 21
12.2423335059
  0
LINE
  8
0
 62
7
  6
CONTINUOUS
 10
16.5841073469
 20
12.3828028219
 11
16.5858979718
 21
12.3860247445
  0
LINE
  8
0
 62
7
  6
CONTINUOUS
 10
16.5835130386
 20
12.3817085239
 11
16.586951408
 21
12.3878704453
  0
LINE
  8
0
 62
7
  6
CONTINUOUS
 10
16.5858979718
 20
12.3860247445
 11
16.5877444852
 21
12.3892375958
  0
LINE
  8
0
 62
7
  6
CONTINUOUS
 10
16.586951408
 20
12.3878704453
 11
16.5889268216
 21
12.3912400776
  0
LINE
  8
0
 62
7
  6
CONTINUOUS
 10
16.5922903642
 20
12.3967928738
 11
16.5916012037
 21
12.395625033
  0
LINE
  8
0
 62
7
  6
CONTINUOUS
 10
16.5877444852
 20
12.3892375958
 11
16.5889265598
 21
12.3912398853
  0
LINE
  8
0
 62
7
  6
CONTINUOUS
 10
16.5928065795
 20
12.3976558152
 11
16.5922903642
 21
12.3967928738
  0
LINE
  8
0
 62
7
  6
CONTINUOUS
 10
16.5889265598
 20
12.3912398853
 11
16.5896458899
 21
12.3924385827
  0
LINE
  8
0
 62
7
  6
CONTINUOUS
 10
16.5934684973
 20
12.3987482147
 11
16.5928065795
 21
12.3976558152
  0
LINE
  8
0
 62
7
  6
CONTINUOUS
 10
16.5896458899
 20
12.3924385827
 11
16.5916011768
 21
12.3956250242
  0
LINE
  8
0
 62
7
  6
CONTINUOUS
 10
16.5942544665
 20
12.4000254505
 11
16.5934684973
 21
12.3987482147
  0
LINE
  8
0
 62
7
  6
CONTINUOUS
 10
16.5951744214
 20
12.4014930879
 11
16.5942544665
 21
12.4000254505
  0
LINE
  8
0
 62
7
  6
CONTINUOUS
 10
16.5962312642
 20
12.4031449597
 11
16.5951744214
 21
12.4014930879
  0
LINE
  8
0
 62
7
  6
CONTINUOUS
 10
16.597391911
 20
12.4049183648
 11
16.5962312642
 21
12.4031449597
  0
LINE
  8
0
 62
7
  6
CONTINUOUS
 10
16.5986690278
 20
12.4068220859
 11
16.597391911
 21
12.4049183648
  0
LINE
  8
0
 62
7
  6
CONTINUOUS
 10
16.9191465505
 20
12.4999453264
 11
16.9186228266
 21
12.4992018867
  0
LINE
  8
0
 62
7
  6
CONTINUOUS
 10
14.7263512239
 20
12.5520494716
 11
14.7088297744
 21
12.5481425032
  0
LINE
  8
0
 62
7
  6
CONTINUOUS
 10
11.5288700782
 20
11.0628935804
 11
12.4384189597
 21
11.0580811525
  0
LINE
  8
0
 62
7
  6
CONTINUOUS
 10
12.4384189597
 20
11.0580811525
 11
13.0451312328
 21
10.0811824049
  0
LINE
  8
0
 62
7
  6
CONTINUOUS
 10
14.6698459292
 20
12.5042630837
 11
14.6698260416
 21
12.5023397655
  0
LINE
  8
0
 62
7
  6
CONTINUOUS
 10
14.6699125884
 20
12.5061357863
 11
14.6698459292
 21
12.5042630837
  0
LINE
  8
0
 62
7
  6
CONTINUOUS
 10
14.6700353888
 20
12.5079628608
 11
14.6699125884
 21
12.5061357863
  0
LINE
  8
0
 62
7
  6
CONTINUOUS
 10
14.6702223782
 20
12.5097496804
 11
14.6700353888
 21
12.5079628608
  0
LINE
  8
0
 62
7
  6
CONTINUOUS
 10
16.4953101555
 20
12.2089833847
 11
16.4937516916
 21
12.205702413
  0
LINE
  8
0
 62
7
  6
CONTINUOUS
 10
16.9195213299
 20
12.5007289385
 11
16.9191465505
 21
12.4999453264
  0
LINE
  8
0
 62
7
  6
CONTINUOUS
 10
16.5439118969
 20
12.3043568139
 11
16.5423119368
 21
12.3010153418
  0
LINE
  8
0
 62
7
  6
CONTINUOUS
 10
16.4967254292
 20
12.2119308891
 11
16.4953101555
 21
12.2089833847
  0
LINE
  8
0
 62
7
  6
CONTINUOUS
 10
16.5454008047
 20
12.3074382838
 11
16.5439118969
 21
12.3043568139
  0
LINE
  8
0
 62
7
  6
CONTINUOUS
 10
16.4975933443
 20
12.2137235772
 11
16.4967254292
 21
12.2119308891
  0
LINE
  8
0
 62
7
  6
CONTINUOUS
 10
16.5423119368
 20
12.3010153418
 11
16.5422244778
 21
12.300835612
  0
LINE
  8
0
 62
7
  6
CONTINUOUS
 10
16.5463024501
 20
12.30928924
 11
16.5454008047
 21
12.3074382838
  0
LINE
  8
0
 62
7
  6
CONTINUOUS
 10
16.4985509634
 20
12.2156871122
 11
16.4975933443
 21
12.2137235772
  0
LINE
  8
0
 62
7
  6
CONTINUOUS
 10
16.5472869354
 20
12.3112969538
 11
16.5463024501
 21
12.30928924
  0
LINE
  8
0
 62
7
  6
CONTINUOUS
 10
16.4996091626
 20
12.2178395646
 11
16.4985509634
 21
12.2156871122
  0
LINE
  8
0
 62
7
  6
CONTINUOUS
 10
16.5483657293
 20
12.3134810274
 11
16.5472869354
 21
12.3112969538
  0
LINE
  8
0
 62
7
  6
CONTINUOUS
 10
16.5007584482
 20
12.2201594738
 11
16.4996091626
 21
12.2178395646
  0
LINE
  8
0
 62
7
  6
CONTINUOUS
 10
16.5633353833
 20
12.3422680974
 11
16.563331027
 21
12.3422593186
  0
LINE
  8
0
 62
7
  6
CONTINUOUS
 10
16.549533095
 20
12.3158274469
 11
16.5483657293
 21
12.3134810274
  0
LINE
  8
0
 62
7
  6
CONTINUOUS
 10
16.5019531368
 20
12.222549598
 11
16.5007584482
 21
12.2201594738
  0
LINE
  8
0
 62
7
  6
CONTINUOUS
 10
16.5507391488
 20
12.3182319112
 11
16.549533095
 21
12.3158274469
  0
LINE
  8
0
 62
7
  6
CONTINUOUS
 10
16.5032029579
 20
12.2250251526
 11
16.5019531368
 21
12.222549598
  0
LINE
  8
0
 62
7
  6
CONTINUOUS
 10
16.5519907869
 20
12.3207045486
 11
16.5507391488
 21
12.3182319112
  0
LINE
  8
0
 62
7
  6
CONTINUOUS
 10
16.563333558
 20
12.3422642859
 11
16.5806983507
 21
12.3763445455
  0
LINE
  8
0
 62
7
  6
CONTINUOUS
 10
16.5422244778
 20
12.300835612
 11
16.5148618239
 21
12.2471333801
  0
LINE
  8
0
 62
7
  6
CONTINUOUS
 10
16.4937516847
 20
12.2057023996
 11
16.4859967959
 21
12.1904825731
  0
LINE
  8
0
 62
7
  6
CONTINUOUS
 10
16.5044999099
 20
12.2275711407
 11
16.5032029579
 21
12.2250251526
  0
LINE
  8
0
 62
7
  6
CONTINUOUS
 10
16.5532839682
 20
12.3232382826
 11
16.5519907869
 21
12.3207045486
  0
LINE
  8
0
 62
7
  6
CONTINUOUS
 10
16.5057727885
 20
12.2300478076
 11
16.5044999099
 21
12.2275711407
  0
LINE
  8
0
 62
7
  6
CONTINUOUS
 10
16.5545494634
 20
12.3256980058
 11
16.5532839682
 21
12.3232382826
  0
LINE
  8
0
 62
7
  6
CONTINUOUS
 10
14.7443800508
 20
12.5549788492
 11
14.7263512239
 21
12.5520494716
  0
LINE
  8
0
 62
7
  6
CONTINUOUS
 10
14.762696901
 20
12.5568481145
 11
14.7443800508
 21
12.5549788492
  0
LINE
  8
0
 62
7
  6
CONTINUOUS
 10
16.9156305811
 20
12.4974164764
 11
16.9148260416
 21
12.4973397655
  0
LINE
  8
0
 62
7
  6
CONTINUOUS
 10
14.7809824739
 20
12.5576235402
 11
14.762696901
 21
12.5568481145
  0
LINE
  8
0
 62
7
  6
CONTINUOUS
 10
15.6456104482
 20
11.763529127
 11
15.944041635
 21
11.763529127
  0
LINE
  8
0
 62
7
  6
CONTINUOUS
 10
15.6378407458
 20
11.7705249984
 11
15.9518113373
 21
11.7705249984
  0
LINE
  8
0
 62
7
  6
CONTINUOUS
 10
15.6238239864
 20
11.9038855565
 11
15.9658280967
 21
11.9038855565
  0
LINE
  8
0
 62
7
  6
CONTINUOUS
 10
15.5806865879
 20
11.9568880735
 11
16.0089654952
 21
11.9568880735
  0
LINE
  8
0
 62
7
  6
CONTINUOUS
 10
15.2710171699
 20
12.1123397655
 11
16.3186349132
 21
12.1123397655
  0
LINE
  8
0
 62
7
  6
CONTINUOUS
 10
15.1782695164
 20
12.1865059624
 11
16.4113825667
 21
12.1865059624
  0
LINE
  8
0
 62
7
  6
CONTINUOUS
 10
16.4859967958
 20
12.190482573
 11
15.7948260412
 21
12.1904792466
  0
LINE
  8
0
 62
7
  6
CONTINUOUS
 10
15.1795164137
 20
12.1904647655
 11
16.410135657
 21
12.1904647655
  0
LINE
  8
0
 62
7
  6
CONTINUOUS
 10
15.7948260412
 20
12.1904792466
 11
15.1678752647
 21
12.1904806769
  0
LINE
  8
0
 62
7
  6
CONTINUOUS
 10
15.1678752647
 20
12.1904806769
 11
15.1036552873
 21
12.190482573
  0
LINE
  8
0
 62
7
  6
CONTINUOUS
 10
15.0123058342
 20
12.3715397655
 11
14.2823450978
 21
12.3715397655
  0
LINE
  8
0
 62
7
  6
CONTINUOUS
 10
16.5785968895
 20
12.3723397655
 11
17.2173748437
 21
12.3723397655
  0
LINE
  8
0
 62
7
  6
CONTINUOUS
 10
14.6698260416
 20
12.5023397655
 11
14.6699027525
 21
12.501535226
  0
LINE
  8
0
 62
7
  6
CONTINUOUS
 10
15.9518113373
 20
11.7705249984
 11
15.9658280967
 21
11.9038855565
  0
LINE
  8
0
 62
7
  6
CONTINUOUS
 10
16.9197493306
 20
12.501535226
 11
16.9195213299
 21
12.5007289385
  0
LINE
  8
0
 62
7
  6
CONTINUOUS
 10
16.8627345023
 20
12.5480278497
 11
16.8808223087
 21
12.5481425032
  0
LINE
  8
0
 62
7
  6
CONTINUOUS
 10
16.8406201385
 20
12.5478939152
 11
16.8627345023
 21
12.5480278497
  0
LINE
  8
0
 62
7
  6
CONTINUOUS
 10
16.7919803703
 20
12.547612939
 11
16.8406201385
 21
12.5478939152
  0
LINE
  8
0
 62
7
  6
CONTINUOUS
 10
16.7498469305
 20
12.5473806587
 11
16.7919803703
 21
12.547612939
  0
LINE
  8
0
 62
7
  6
CONTINUOUS
 10
16.7256689416
 20
12.5472512572
 11
16.7498469305
 21
12.5473806587
  0
LINE
  8
0
 62
7
  6
CONTINUOUS
 10
16.6704948709
 20
12.5469655258
 11
16.7256689416
 21
12.5472512572
  0
LINE
  8
0
 62
7
  6
CONTINUOUS
 10
14.7858410336
 20
12.5576487339
 11
14.7809824739
 21
12.5576235402
  0
LINE
  8
0
 62
7
  6
CONTINUOUS
 10
16.6398221773
 20
12.5468121062
 11
16.6704948709
 21
12.5469655258
  0
LINE
  8
0
 62
7
  6
CONTINUOUS
 10
16.5728033887
 20
12.5464898286
 11
16.6398221773
 21
12.5468121062
  0
LINE
  8
0
 62
7
  6
CONTINUOUS
 10
16.536556418
 20
12.5463228451
 11
16.5728033887
 21
12.5464898286
  0
LINE
  8
0
 62
7
  6
CONTINUOUS
 10
16.4986361518
 20
12.5461536913
 11
16.536556418
 21
12.5463228451
  0
LINE
  8
0
 62
7
  6
CONTINUOUS
 10
16.4590780484
 20
12.5459833735
 11
16.4986361518
 21
12.5461536913
  0
LINE
  8
0
 62
7
  6
CONTINUOUS
 10
16.4178274533
 20
12.5458126278
 11
16.4590780484
 21
12.5459833735
  0
LINE
  8
0
 62
7
  6
CONTINUOUS
 10
16.3751370788
 20
12.5456435566
 11
16.4178274533
 21
12.5458126278
  0
LINE
  8
0
 62
7
  6
CONTINUOUS
 10
16.3309232373
 20
12.5454769907
 11
16.3751370788
 21
12.5456435566
  0
LINE
  8
0
 62
7
  6
CONTINUOUS
 10
16.2845823264
 20
12.5453122088
 11
16.3309232373
 21
12.5454769907
  0
LINE
  8
0
 62
7
  6
CONTINUOUS
 10
16.2357643186
 20
12.5451500914
 11
16.2845823264
 21
12.5453122088
  0
LINE
  8
0
 62
7
  6
CONTINUOUS
 10
16.1849333873
 20
12.5449946087
 11
16.2357643186
 21
12.5451500914
  0
LINE
  8
0
 62
7
  6
CONTINUOUS
 10
16.1327010202
 20
12.5448499956
 11
16.1849333873
 21
12.5449946087
  0
LINE
  8
0
 62
7
  6
CONTINUOUS
 10
16.0793754285
 20
12.5447193957
 11
16.1327010202
 21
12.5448499956
  0
LINE
  8
0
 62
7
  6
CONTINUOUS
 10
16.8038110496
 20
12.5576487339
 11
16.802840555
 21
12.5576464147
  0
LINE
  8
0
 62
7
  6
CONTINUOUS
 10
16.802840555
 20
12.5576464147
 11
16.7998236313
 21
12.5576393444
  0
LINE
  8
0
 62
7
  6
CONTINUOUS
 10
16.0248339813
 20
12.5446050247
 11
16.0793754285
 21
12.5447193957
  0
LINE
  8
0
 62
7
  6
CONTINUOUS
 10
16.7998248847
 20
12.5576393472
 11
16.7669996533
 21
12.5575691312
  0
LINE
  8
0
 62
7
  6
CONTINUOUS
 10
16.7670225519
 20
12.5575691769
 11
16.7381360127
 21
12.5575144753
  0
LINE
  8
0
 62
7
  6
CONTINUOUS
 10
15.969052681
 20
12.5445097652
 11
16.0248339813
 21
12.5446050247
  0
LINE
  8
0
 62
7
  6
CONTINUOUS
 10
16.7381771778
 20
12.5575145492
 11
16.7010723554
 21
12.5574522671
  0
LINE
  8
0
 62
7
  6
CONTINUOUS
 10
16.7011370728
 20
12.5574523684
 11
16.6795313169
 21
12.5574199176
  0
LINE
  8
0
 62
7
  6
CONTINUOUS
 10
15.9120679304
 20
12.5444369806
 11
15.969052681
 21
12.5445097652
  0
LINE
  8
0
 62
7
  6
CONTINUOUS
 10
16.6796097123
 20
12.5574200304
 11
16.630572527
 21
12.5573562479
  0
LINE
  8
0
 62
7
  6
CONTINUOUS
 10
16.6306818539
 20
12.5573563752
 11
16.5740926536
 21
12.5572991976
  0
LINE
  8
0
 62
7
  6
CONTINUOUS
 10
15.5894173689
 20
12.5575381379
 11
15.3965054088
 21
12.5573345697
  0
LINE
  8
0
 62
7
  6
CONTINUOUS
 10
15.6408552936
 20
12.5575884369
 11
15.5889462237
 21
12.5575376459
  0
LINE
  8
0
 62
7
  6
CONTINUOUS
 10
15.4423133926
 20
12.5573788857
 11
15.3961436469
 21
12.5573342419
  0
LINE
  8
0
 62
7
  6
CONTINUOUS
 10
15.3965054088
 20
12.5573345697
 11
15.3513182582
 21
12.55729685
  0
LINE
  8
0
 62
7
  6
CONTINUOUS
 10
15.8539761465
 20
12.5443904002
 11
15.9120679304
 21
12.5444369806
  0
LINE
  8
0
 62
7
  6
CONTINUOUS
 10
16.5742372229
 20
12.5572993216
 11
16.5431606023
 21
12.557275219
  0
LINE
  8
0
 62
7
  6
CONTINUOUS
 10
15.6935058557
 20
12.5576297999
 11
15.6403532529
 21
12.5575879858
  0
LINE
  8
0
 62
7
  6
CONTINUOUS
 10
15.3516554482
 20
12.5572971056
 11
15.3079263462
 21
12.557267569
  0
LINE
  8
0
 62
7
  6
CONTINUOUS
 10
16.5433242214
 20
12.5572753324
 11
16.5105189613
 21
12.5572554075
  0
LINE
  8
0
 62
7
  6
CONTINUOUS
 10
15.3082398243
 20
12.5572677536
 11
15.2660218005
 21
12.5572466755
  0
LINE
  8
0
 62
7
  6
CONTINUOUS
 10
15.7472890122
 20
12.5576569251
 11
15.6929711909
 21
12.5576294462
  0
LINE
  8
0
 62
7
  6
CONTINUOUS
 10
16.5107024508
 20
12.5572555032
 11
16.4761963929
 21
12.5572405907
  0
LINE
  8
0
 62
7
  6
CONTINUOUS
 10
15.2663124528
 20
12.5572467938
 11
15.2255389621
 21
12.5572340046
  0
LINE
  8
0
 62
7
  6
CONTINUOUS
 10
15.7948260416
 20
12.544373954
 11
15.8539761465
 21
12.5443904002
  0
LINE
  8
0
 62
7
  6
CONTINUOUS
 10
16.4764003944
 20
12.5572406607
 11
16.440289717
 21
12.5572316018
  0
LINE
  8
0
 62
7
  6
CONTINUOUS
 10
15.7948260416
 20
12.5576651032
 11
15.746720163
 21
12.5576567326
  0
LINE
  8
0
 62
7
  6
CONTINUOUS
 10
14.2823450978
 20
12.4973397655
 11
17.2173748437
 21
12.4973397655
  0
LINE
  8
0
 62
7
  6
CONTINUOUS
 10
14.6698260416
 20
12.5023397655
 11
16.9198260416
 21
12.5023397655
  0
LINE
  8
0
 62
7
  6
CONTINUOUS
 10
14.6724791133
 20
12.5180837699
 11
16.9171729698
 21
12.5180837699
  0
LINE
  8
0
 62
7
  6
CONTINUOUS
 10
15.2258072197
 20
12.5572340632
 11
15.1865521813
 21
12.5572291881
  0
LINE
  8
0
 62
7
  6
CONTINUOUS
 10
16.440514656
 20
12.5572316376
 11
16.4028535991
 21
12.5572291951
  0
LINE
  8
0
 62
7
  6
CONTINUOUS
 10
15.186798484
 20
12.5572291951
 11
15.1491374271
 21
12.5572316376
  0
LINE
  8
0
 62
7
  6
CONTINUOUS
 10
16.4030999019
 20
12.5572291881
 11
16.3638448634
 21
12.5572340632
  0
LINE
  8
0
 62
7
  6
CONTINUOUS
 10
15.8429319201
 20
12.5576567326
 11
15.7948260416
 21
12.5576651035
  0
LINE
  8
0
 62
7
  6
CONTINUOUS
 10
15.7366196416
 20
12.544389886
 11
15.7948260416
 21
12.544373954
  0
LINE
  8
0
 62
7
  6
CONTINUOUS
 10
15.1493623661
 20
12.5572316018
 11
15.1132516887
 21
12.5572406607
  0
LINE
  8
0
 62
7
  6
CONTINUOUS
 10
16.364113121
 20
12.5572340046
 11
16.3233396303
 21
12.5572467938
  0
LINE
  8
0
 62
7
  6
CONTINUOUS
 10
15.1134556902
 20
12.5572405907
 11
15.0789496323
 21
12.5572555032
  0
LINE
  8
0
 62
7
  6
CONTINUOUS
 10
16.3236302827
 20
12.5572466755
 11
16.2814122588
 21
12.5572677536
  0
LINE
  8
0
 62
7
  6
CONTINUOUS
 10
15.8966808922
 20
12.5576294462
 11
15.8423630709
 21
12.5576569251
  0
LINE
  8
0
 62
7
  6
CONTINUOUS
 10
15.0791331218
 20
12.5572554075
 11
15.0463278617
 21
12.5572753324
  0
LINE
  8
0
 62
7
  6
CONTINUOUS
 10
16.2817257369
 20
12.557267569
 11
16.2379966349
 21
12.5572971056
  0
LINE
  8
0
 62
7
  6
CONTINUOUS
 10
15.6792782741
 20
12.5444352168
 11
15.7366196416
 21
12.544389886
  0
LINE
  8
0
 62
7
  6
CONTINUOUS
 10
15.0464914808
 20
12.557275219
 11
14.9862727886
 21
12.5573266212
  0
LINE
  8
0
 62
7
  6
CONTINUOUS
 10
15.9492988303
 20
12.5575879858
 11
15.8961462274
 21
12.5576297999
  0
LINE
  8
0
 62
7
  6
CONTINUOUS
 10
16.2383338249
 20
12.55729685
 11
16.1931466743
 21
12.5573345697
  0
LINE
  8
0
 62
7
  6
CONTINUOUS
 10
16.1935084362
 20
12.5573342419
 11
16.1469515596
 21
12.5573792813
  0
LINE
  8
0
 62
7
  6
CONTINUOUS
 10
16.0007058594
 20
12.5575376459
 11
15.9487967895
 21
12.5575884369
  0
LINE
  8
0
 62
7
  6
CONTINUOUS
 10
16.1473386905
 20
12.5573788857
 11
16.0002347142
 21
12.5575381379
  0
LINE
  8
0
 62
7
  6
CONTINUOUS
 10
15.6228494007
 20
12.5445064085
 11
15.6792782741
 21
12.5444352168
  0
LINE
  8
0
 62
7
  6
CONTINUOUS
 10
14.9863992393
 20
12.5573264928
 11
14.9335427441
 21
12.5573877779
  0
LINE
  8
0
 62
7
  6
CONTINUOUS
 10
14.9336360281
 20
12.5573876561
 11
14.8885150104
 21
12.5574523684
  0
LINE
  8
0
 62
7
  6
CONTINUOUS
 10
15.5674132771
 20
12.5446000927
 11
15.6228494007
 21
12.5445064085
  0
LINE
  8
0
 62
7
  6
CONTINUOUS
 10
14.8885797277
 20
12.5574522671
 11
14.8360225932
 21
12.5575430907
  0
LINE
  8
0
 62
7
  6
CONTINUOUS
 10
14.8515160704
 20
12.5575144753
 11
14.8113069021
 21
12.5575922917
  0
LINE
  8
0
 62
7
  6
CONTINUOUS
 10
15.5130221515
 20
12.5447131619
 11
15.5674132771
 21
12.5446000927
  0
LINE
  8
0
 62
7
  6
CONTINUOUS
 10
14.8113228742
 20
12.5575922584
 11
14.7858410336
 21
12.5576487339
  0
LINE
  8
0
 62
7
  6
CONTINUOUS
 10
15.4596994705
 20
12.5448428328
 11
15.5130221515
 21
12.5447131619
  0
LINE
  8
0
 62
7
  6
CONTINUOUS
 10
15.4073257547
 20
12.5449870175
 11
15.4596994705
 21
12.5448428328
  0
LINE
  8
0
 62
7
  6
CONTINUOUS
 10
15.3562129689
 20
12.5451426757
 11
15.4073257547
 21
12.5449870175
  0
LINE
  8
0
 62
7
  6
CONTINUOUS
 10
15.3070212857
 20
12.5453054976
 11
15.3562129689
 21
12.5451426757
  0
LINE
  8
0
 62
7
  6
CONTINUOUS
 10
15.260216495
 20
12.5454715423
 11
15.3070212857
 21
12.5453054976
  0
LINE
  8
0
 62
7
  6
CONTINUOUS
 10
15.215461105
 20
12.5456399
 11
15.260216495
 21
12.5454715423
  0
LINE
  8
0
 62
7
  6
CONTINUOUS
 10
15.1722140899
 20
12.5458110498
 11
15.215461105
 21
12.5456399
  0
LINE
  8
0
 62
7
  6
CONTINUOUS
 10
15.1304057305
 20
12.5459840847
 11
15.1722140899
 21
12.5458110498
  0
LINE
  8
0
 62
7
  6
CONTINUOUS
 10
15.0902881518
 20
12.546156884
 11
15.1304057305
 21
12.5459840847
  0
LINE
  8
0
 62
7
  6
CONTINUOUS
 10
15.051842883
 20
12.5463285305
 11
15.0902881518
 21
12.546156884
  0
LINE
  8
0
 62
7
  6
CONTINUOUS
 10
14.9472856525
 20
12.546824689
 11
15.051842883
 21
12.5463285305
  0
LINE
  8
0
 62
7
  6
CONTINUOUS
 10
14.8875509051
 20
12.5471276287
 11
14.9472856525
 21
12.546824689
  0
LINE
  8
0
 62
7
  6
CONTINUOUS
 10
16.8038110496
 20
12.5576487339
 11
16.8086696092
 21
12.5576235402
  0
LINE
  8
0
 62
7
  6
CONTINUOUS
 10
14.8148787496
 20
12.5475169748
 11
14.8875509051
 21
12.5471276287
  0
LINE
  8
0
 62
7
  6
CONTINUOUS
 10
14.7472382883
 20
12.5479046032
 11
14.8148787496
 21
12.5475169748
  0
LINE
  8
0
 62
7
  6
CONTINUOUS
 10
14.7088297744
 20
12.5481425032
 11
14.7472382883
 21
12.5479046032
  0
LINE
  8
0
 62
7
  6
CONTINUOUS
 10
16.8086696092
 20
12.5576235402
 11
16.8269551821
 21
12.5568481145
  0
LINE
  8
0
 62
7
  6
CONTINUOUS
 10
14.6740215021
 20
12.4974164764
 11
14.6748260416
 21
12.4973397655
  0
LINE
  8
0
 62
7
  6
CONTINUOUS
 10
16.8269551821
 20
12.5568481145
 11
16.8452720323
 21
12.5549788492
  0
LINE
  8
0
 62
7
  6
CONTINUOUS
 10
14.6699027525
 20
12.501535226
 11
14.6701307532
 21
12.5007289385
  0
LINE
  8
0
 62
7
  6
CONTINUOUS
 10
15.6378407458
 20
11.7705249984
 11
15.6238239864
 21
11.9038855565
  0
LINE
  8
0
 62
7
  6
CONTINUOUS
 10
16.8452720323
 20
12.5549788492
 11
16.8633008592
 21
12.5520494716
  0
LINE
  8
0
 62
7
  6
CONTINUOUS
 10
16.8633008592
 20
12.5520494716
 11
16.8808223087
 21
12.5481425032
  0
LINE
  8
0
 62
7
  6
CONTINUOUS
 10
14.6732152145
 20
12.4976444771
 11
14.6740215021
 21
12.4974164764
  0
LINE
  8
0
 62
7
  6
CONTINUOUS
 10
14.8779275187
 20
12.4973397655
 11
14.879686073
 21
12.4966383095
  0
LINE
  8
0
 62
7
  6
CONTINUOUS
 10
14.8820251897
 20
12.4956424058
 11
14.8777774013
 21
12.4973397655
  0
LINE
  8
0
 62
7
  6
CONTINUOUS
 10
14.879686073
 20
12.4966383095
 11
14.8886804591
 21
12.4926449073
  0
LINE
  8
0
 62
7
  6
CONTINUOUS
 10
14.8954443879
 20
12.489364582
 11
14.8820251897
 21
12.4956424058
  0
LINE
  8
0
 62
7
  6
CONTINUOUS
 10
14.6724316024
 20
12.4980192565
 11
14.6732152145
 21
12.4976444771
  0
LINE
  8
0
 62
7
  6
CONTINUOUS
 10
14.8886804591
 20
12.4926449073
 11
14.8972967618
 21
12.488420927
  0
LINE
  8
0
 62
7
  6
CONTINUOUS
 10
14.9027181662
 20
12.4855495689
 11
14.8954443879
 21
12.489364582
  0
LINE
  8
0
 62
7
  6
CONTINUOUS
 10
14.8972967618
 20
12.488420927
 11
14.9058910664
 21
12.4837885381
  0
LINE
  8
0
 62
7
  6
CONTINUOUS
 10
14.9058910664
 20
12.4837885381
 11
14.9027181662
 21
12.4855495689
  0
LINE
  8
0
 62
7
  6
CONTINUOUS
 10
14.9027180329
 20
12.4855496483
 11
14.9091477839
 21
12.4819178506
  0
LINE
  8
0
 62
7
  6
CONTINUOUS
 10
14.9084488057
 20
12.48232501
 11
14.9058910664
 21
12.4837885381
  0
LINE
  8
0
 62
7
  6
CONTINUOUS
 10
14.9091477839
 20
12.4819178506
 11
14.9196621335
 21
12.4754261589
  0
LINE
  8
0
 62
7
  6
CONTINUOUS
 10
14.921074191
 20
12.4745042482
 11
14.9084488057
 21
12.48232501
  0
LINE
  8
0
 62
7
  6
CONTINUOUS
 10
14.6716881627
 20
12.4985429805
 11
14.6724316024
 21
12.4980192565
  0
LINE
  8
0
 62
7
  6
CONTINUOUS
 10
15.2710171699
 20
12.1123397655
 11
15.2603283494
 21
12.1200870227
  0
LINE
  8
0
 62
7
  6
CONTINUOUS
 10
15.2603283494
 20
12.1200870227
 11
15.249732047
 21
12.1279603421
  0
LINE
  8
0
 62
7
  6
CONTINUOUS
 10
15.249732047
 20
12.1279603421
 11
15.2392297044
 21
12.1359585645
  0
LINE
  8
0
 62
7
  6
CONTINUOUS
 10
15.2392297044
 20
12.1359585645
 11
15.2288227641
 21
12.1440805298
  0
LINE
  8
0
 62
7
  6
CONTINUOUS
 10
14.6710292565
 20
12.4992018867
 11
14.6716881627
 21
12.4985429805
  0
LINE
  8
0
 62
7
  6
CONTINUOUS
 10
14.6705055326
 20
12.4999453264
 11
14.6710292565
 21
12.4992018867
  0
LINE
  8
0
 62
7
  6
CONTINUOUS
 10
15.0007856424
 20
12.3911222363
 11
14.9943521602
 21
12.4013609432
  0
LINE
  8
0
 62
7
  6
CONTINUOUS
 10
14.9987380991
 20
12.3944969905
 11
15.0038039416
 21
12.3859253545
  0
LINE
  8
0
 62
7
  6
CONTINUOUS
 10
15.0007856424
 20
12.3911222363
 11
15.0023151524
 21
12.3885233788
  0
LINE
  8
0
 62
7
  6
CONTINUOUS
 10
15.0038046745
 20
12.3859237959
 11
15.0021098778
 21
12.3888762309
  0
LINE
  8
0
 62
7
  6
CONTINUOUS
 10
15.0023151524
 20
12.3885233788
 11
15.0059339543
 21
12.382080566
  0
LINE
  8
0
 62
7
  6
CONTINUOUS
 10
15.0090123912
 20
12.3762296811
 11
15.0038046745
 21
12.3859237959
  0
LINE
  8
0
 62
7
  6
CONTINUOUS
 10
15.0059339543
 20
12.382080566
 11
15.0090117532
 21
12.3762306724
  0
LINE
  8
0
 62
7
  6
CONTINUOUS
 10
15.0090124286
 20
12.3762296425
 11
15.1036552873
 21
12.1904825731
  0
LINE
  8
0
 62
7
  6
CONTINUOUS
 10
14.6701307532
 20
12.5007289385
 11
14.6705055326
 21
12.4999453264
  0
LINE
  8
0
 62
7
  6
CONTINUOUS
 10
16.9196166943
 20
12.5079628608
 11
16.9197394948
 21
12.5061357863
  0
LINE
  8
0
 62
7
  6
CONTINUOUS
 10
16.9197394948
 20
12.5061357863
 11
16.9198061539
 21
12.5042630837
  0
LINE
  8
0
 62
7
  6
CONTINUOUS
 10
16.9198061539
 20
12.5042630837
 11
16.9198260416
 21
12.5023397655
  0
LINE
  8
0
 62
7
  6
CONTINUOUS
 10
16.9198260416
 20
12.5023397655
 11
16.9197493306
 21
12.501535226
  0
LINE
  8
0
 62
7
  6
CONTINUOUS
 10
16.8808223087
 20
12.5481425032
 11
16.8860211835
 21
12.5465474719
  0
LINE
  8
0
 62
7
  6
CONTINUOUS
 10
16.8860211835
 20
12.5465474719
 11
16.8910253394
 21
12.5444535674
  0
LINE
  8
0
 62
7
  6
CONTINUOUS
 10
14.9196621335
 20
12.4754261589
 11
14.9295751449
 21
12.4686391241
  0
LINE
  8
0
 62
7
  6
CONTINUOUS
 10
14.9332442774
 20
12.4659606231
 11
14.921074191
 21
12.4745042482
  0
LINE
  8
0
 62
7
  6
CONTINUOUS
 10
14.9295751449
 20
12.4686391241
 11
14.9392087492
 21
12.4613712933
  0
LINE
  8
0
 62
7
  6
CONTINUOUS
 10
14.9449025097
 20
12.456745063
 11
14.9332442774
 21
12.4659606231
  0
LINE
  8
0
 62
7
  6
CONTINUOUS
 10
15.2288227641
 20
12.1440805298
 11
15.2185126669
 21
12.1523250796
  0
LINE
  8
0
 62
7
  6
CONTINUOUS
 10
15.2185126669
 20
12.1523250796
 11
15.208300852
 21
12.1606910567
  0
LINE
  8
0
 62
7
  6
CONTINUOUS
 10
14.9392087492
 20
12.4613712933
 11
14.9485256899
 21
12.4536464435
  0
LINE
  8
0
 62
7
  6
CONTINUOUS
 10
15.208300852
 20
12.1606910567
 11
15.1981887604
 21
12.1691773026
  0
LINE
  8
0
 62
7
  6
CONTINUOUS
 10
15.1981887604
 20
12.1691773026
 11
15.1881778346
 21
12.1777826576
  0
LINE
  8
0
 62
7
  6
CONTINUOUS
 10
15.1881778346
 20
12.1777826576
 11
15.1782695164
 21
12.1865059624
  0
LINE
  8
0
 62
7
  6
CONTINUOUS
 10
14.9560755273
 20
12.4468311058
 11
14.9449025097
 21
12.456745063
  0
LINE
  8
0
 62
7
  6
CONTINUOUS
 10
14.9485256899
 20
12.4536464435
 11
14.9574735682
 21
12.4455013114
  0
LINE
  8
0
 62
7
  6
CONTINUOUS
 10
14.9666581096
 20
12.4362879295
 11
14.9560755273
 21
12.4468311058
  0
LINE
  8
0
 62
7
  6
CONTINUOUS
 10
14.9574735682
 20
12.4455013114
 11
14.9662545012
 21
12.43670896
  0
LINE
  8
0
 62
7
  6
CONTINUOUS
 10
14.9662545012
 20
12.43670896
 11
14.9747004878
 21
12.4273698125
  0
LINE
  8
0
 62
7
  6
CONTINUOUS
 10
14.9765573776
 20
12.4251899235
 11
14.9666581096
 21
12.4362879295
  0
LINE
  8
0
 62
7
  6
CONTINUOUS
 10
14.9747004878
 20
12.4273698125
 11
14.9828049983
 21
12.4174562888
  0
LINE
  8
0
 62
7
  6
CONTINUOUS
 10
14.9858027476
 20
12.4135228581
 11
14.9765573776
 21
12.4251899235
  0
LINE
  8
0
 62
7
  6
CONTINUOUS
 10
14.9828049983
 20
12.4174562888
 11
14.9908467909
 21
12.4065256219
  0
LINE
  8
0
 62
7
  6
CONTINUOUS
 10
14.9943521602
 20
12.4013609432
 11
14.9858027476
 21
12.4135228581
  0
LINE
  8
0
 62
7
  6
CONTINUOUS
 10
14.9908467909
 20
12.4065256219
 11
14.9987380991
 21
12.3944969905
  0
LINE
  8
0
 62
7
  6
CONTINUOUS
 10
16.9194297049
 20
12.5097496804
 11
16.9196166943
 21
12.5079628608
  0
LINE
  8
0
 62
7
  6
CONTINUOUS
 10
16.8910253394
 20
12.5444535674
 11
16.8957951884
 21
12.5418800288
  0
LINE
  8
0
 62
7
  6
CONTINUOUS
 10
16.8957951884
 20
12.5418800288
 11
16.9002914219
 21
12.5388500288
  0
LINE
  8
0
 62
7
  6
CONTINUOUS
 10
16.9002914219
 20
12.5388500288
 11
16.9044647331
 21
12.5353976842
  0
LINE
  8
0
 62
7
  6
CONTINUOUS
 10
16.917839709
 20
12.5165012097
 11
16.9183887679
 21
12.5148757896
  0
LINE
  8
0
 62
7
  6
CONTINUOUS
 10
16.9183887679
 20
12.5148757896
 11
16.9188288018
 21
12.5132083518
  0
LINE
  8
0
 62
7
  6
CONTINUOUS
 10
16.9188288018
 20
12.5132083518
 11
16.9191712096
 21
12.5114989646
  0
LINE
  8
0
 62
7
  6
CONTINUOUS
 10
16.9191712096
 20
12.5114989646
 11
16.9194297049
 21
12.5097496804
  0
LINE
  8
0
 62
7
  6
CONTINUOUS
 10
16.9044647331
 20
12.5353976842
 11
16.9082664338
 21
12.5315638872
  0
LINE
  8
0
 62
7
  6
CONTINUOUS
 10
16.9082664338
 20
12.5315638872
 11
16.9116676014
 21
12.5273797286
  0
LINE
  8
0
 62
7
  6
CONTINUOUS
 10
16.9116676014
 20
12.5273797286
 11
16.9146452237
 21
12.5228741668
  0
LINE
  8
0
 62
7
  6
CONTINUOUS
 10
16.9146452237
 20
12.5228741668
 11
16.9171729698
 21
12.5180837699
  0
LINE
  8
0
 62
7
  6
CONTINUOUS
 10
16.9171729698
 20
12.5180837699
 11
16.917839709
 21
12.5165012097
  0
POLYLINE
  8
_CURVE
 62
7
  6
CONTINUOUS
 66
1
 70
0
  0
VERTEX
  8
_CURVE
 62
7
  6
CONTINUOUS
 10
15.2671824289
 20
4.9840145935
  0
VERTEX
  8
_CURVE
 62
7
  6
CONTINUOUS
 10
15.589805542
 20
5.0459420505
  0
VERTEX
  8
_CURVE
 62
7
  6
CONTINUOUS
 10
15.9076951532
 20
5.1175135488
  0
VERTEX
  8
_CURVE
 62
7
  6
CONTINUOUS
 10
16.220172777
 20
5.1985763302
  0
VERTEX
  8
_CURVE
 62
7
  6
CONTINUOUS
 10
16.526571479
 20
5.288957379
  0
VERTEX
  8
_CURVE
 62
7
  6
CONTINUOUS
 10
16.8262372993
 20
5.388463791
  0
VERTEX
  8
_CURVE
 62
7
  6
CONTINUOUS
 10
17.1185306483
 20
5.4968831853
  0
VERTEX
  8
_CURVE
 62
7
  6
CONTINUOUS
 10
17.4028276719
 20
5.613984158
  0
VERTEX
  8
_CURVE
 62
7
  6
CONTINUOUS
 10
17.6785215826
 20
5.7395167752
  0
VERTEX
  8
_CURVE
 62
7
  6
CONTINUOUS
 10
17.9450239551
 20
5.8732131074
  0
VERTEX
  8
_CURVE
 62
7
  6
CONTINUOUS
 10
18.201765982
 20
6.0147878008
  0
VERTEX
  8
_CURVE
 62
7
  6
CONTINUOUS
 10
18.4481996878
 20
6.1639386864
  0
VERTEX
  8
_CURVE
 62
7
  6
CONTINUOUS
 10
18.6837990985
 20
6.3203474251
  0
VERTEX
  8
_CURVE
 62
7
  6
CONTINUOUS
 10
18.9080613641
 20
6.483680187
  0
VERTEX
  8
_CURVE
 62
7
  6
CONTINUOUS
 10
19.120507832
 20
6.6535883639
  0
VERTEX
  8
_CURVE
 62
7
  6
CONTINUOUS
 10
19.3206850687
 20
6.8297093137
  0
VERTEX
  8
_CURVE
 62
7
  6
CONTINUOUS
 10
19.5081658273
 20
7.0116671338
  0
VERTEX
  8
_CURVE
 62
7
  6
CONTINUOUS
 10
19.6825499596
 20
7.1990734638
  0
VERTEX
  8
_CURVE
 62
7
  6
CONTINUOUS
 10
19.8434652701
 20
7.3915283143
  0
VERTEX
  8
_CURVE
 62
7
  6
CONTINUOUS
 10
19.9905683102
 20
7.5886209208
  0
VERTEX
  8
_CURVE
 62
7
  6
CONTINUOUS
 10
20.1235451117
 20
7.78993062
  0
VERTEX
  8
_CURVE
 62
7
  6
CONTINUOUS
 10
20.2421118565
 20
7.9950277479
  0
VERTEX
  8
_CURVE
 62
7
  6
CONTINUOUS
 10
20.3460154826
 20
8.2034745571
  0
VERTEX
  8
_CURVE
 62
7
  6
CONTINUOUS
 10
20.4350342238
 20
8.4148261505
  0
VERTEX
  8
_CURVE
 62
7
  6
CONTINUOUS
 10
20.5089780838
 20
8.6286314314
  0
VERTEX
  8
_CURVE
 62
7
  6
CONTINUOUS
 10
20.5676892409
 20
8.844434066
  0
VERTEX
  8
_CURVE
 62
7
  6
CONTINUOUS
 10
20.6110423855
 20
9.0617734574
  0
VERTEX
  8
_CURVE
 62
7
  6
CONTINUOUS
 10
20.638944987
 20
9.280185729
  0
VERTEX
  8
_CURVE
 62
7
  6
CONTINUOUS
 10
20.6513374918
 20
9.499204714
  0
VERTEX
  8
_CURVE
 62
7
  6
CONTINUOUS
 10
20.6481934499
 20
9.7183629507
  0
VERTEX
  8
_CURVE
 62
7
  6
CONTINUOUS
 10
20.6295195719
 20
9.9371926805
  0
VERTEX
  8
_CURVE
 62
7
  6
CONTINUOUS
 10
20.5953557142
 20
10.1552268456
  0
VERTEX
  8
_CURVE
 62
7
  6
CONTINUOUS
 10
20.5457747942
 20
10.3720000864
  0
VERTEX
  8
_CURVE
 62
7
  6
CONTINUOUS
 10
20.4808826346
 20
10.5870497343
  0
VERTEX
  8
_CURVE
 62
7
  6
CONTINUOUS
 10
20.4008177375
 20
10.7999167999
  0
VERTEX
  8
_CURVE
 62
7
  6
CONTINUOUS
 10
20.3057509888
 20
11.0101469516
  0
VERTEX
  8
_CURVE
 62
7
  6
CONTINUOUS
 10
20.1958852936
 20
11.2172914864
  0
VERTEX
  8
_CURVE
 62
7
  6
CONTINUOUS
 10
20.0714551429
 20
11.4209082867
  0
VERTEX
  8
_CURVE
 62
7
  6
CONTINUOUS
 10
19.9327261133
 20
11.6205627646
  0
VERTEX
  8
_CURVE
 62
7
  6
CONTINUOUS
 10
19.7799943002
 20
11.8158287888
  0
VERTEX
  8
_CURVE
 62
7
  6
CONTINUOUS
 10
19.6135856857
 20
12.0062895947
  0
VERTEX
  8
_CURVE
 62
7
  6
CONTINUOUS
 10
19.4338554427
 20
12.1915386737
  0
VERTEX
  8
_CURVE
 62
7
  6
CONTINUOUS
 10
19.2411871772
 20
12.3711806407
  0
VERTEX
  8
_CURVE
 62
7
  6
CONTINUOUS
 10
19.0359921093
 20
12.5448320781
  0
VERTEX
  8
_CURVE
 62
7
  6
CONTINUOUS
 10
18.8187081958
 20
12.7121223543
  0
VERTEX
  8
_CURVE
 62
7
  6
CONTINUOUS
 10
18.5897991949
 20
12.8726944145
  0
VERTEX
  8
_CURVE
 62
7
  6
CONTINUOUS
 10
18.3497536769
 20
13.0262055428
  0
VERTEX
  8
_CURVE
 62
7
  6
CONTINUOUS
 10
18.0990839814
 20
13.1723280938
  0
VERTEX
  8
_CURVE
 62
7
  6
CONTINUOUS
 10
17.8383251234
 20
13.3107501919
  0
VERTEX
  8
_CURVE
 62
7
  6
CONTINUOUS
 10
17.5680336516
 20
13.4411763969
  0
VERTEX
  8
_CURVE
 62
7
  6
CONTINUOUS
 10
17.2887864608
 20
13.5633283345
  0
VERTEX
  8
_CURVE
 62
7
  6
CONTINUOUS
 10
17.0011795602
 20
13.6769452907
  0
VERTEX
  8
_CURVE
 62
7
  6
CONTINUOUS
 10
16.7058268015
 20
13.7817847678
  0
VERTEX
  8
_CURVE
 62
7
  6
CONTINUOUS
 10
16.4033585689
 20
13.8776230026
  0
VERTEX
  8
_CURVE
 62
7
  6
CONTINUOUS
 10
16.0944204331
 20
13.9642554433
  0
VERTEX
  8
_CURVE
 62
7
  6
CONTINUOUS
 10
15.7796717743
 20
14.0414971865
  0
VERTEX
  8
_CURVE
 62
7
  6
CONTINUOUS
 10
15.4597843738
 20
14.1091833721
  0
VERTEX
  8
_CURVE
 62
7
  6
CONTINUOUS
 10
15.135440981
 20
14.1671695343
  0
SEQEND
  0
LINE
  8
_CURVE
 62
7
  6
CONTINUOUS
 10
11.7470259949
 20
14.2700417006
 11
12.4732319486
 21
15.7589845573
  0
LINE
  8
DEFAULT_1
 62
7
  6
CENTER
 10
13.3720259949
 20
9.5644481265
 11
5.733518502
 21
9.5644481265
  0
LINE
  8
DEFAULT_1
 62
7
  6
CENTER
 10
13.3720259949
 20
9.5644481265
 11
20.9583563708
 21
9.5644481265
  0
LINE
  8
DEFAULT_1
 62
7
  6
CENTER
 10
13.3720259949
 20
9.5644481265
 11
13.3720259949
 21
4.7183863174
  0
LINE
  8
DEFAULT_1
 62
7
  6
CENTER
 10
13.3720259949
 20
9.5644481265
 11
13.3720259949
 21
16.496859073
  0
LINE
  8
_CURVE
 62
7
  6
CONTINUOUS
 10
14.9970259949
 20
14.2700417006
 11
14.2708200412
 21
15.7589845573
  0
POLYLINE
  8
_CURVE
 62
7
  6
CONTINUOUS
 66
1
 70
0
  0
VERTEX
  8
_CURVE
 62
7
  6
CONTINUOUS
 10
11.6086110087
 20
14.1671695343
  0
VERTEX
  8
_CURVE
 62
7
  6
CONTINUOUS
 10
11.2870697847
 20
14.1097296012
  0
VERTEX
  8
_CURVE
 62
7
  6
CONTINUOUS
 10
10.9699015305
 20
14.0427564324
  0
VERTEX
  8
_CURVE
 62
7
  6
CONTINUOUS
 10
10.6577714723
 20
13.9663904969
  0
VERTEX
  8
_CURVE
 62
7
  6
CONTINUOUS
 10
10.3513342691
 20
13.8807919639
  0
VERTEX
  8
_CURVE
 62
7
  6
CONTINUOUS
 10
10.0512326396
 20
13.7861403671
  0
VERTEX
  8
_CURVE
 62
7
  6
CONTINUOUS
 10
9.7580960146
 20
13.6826342279
  0
VERTEX
  8
_CURVE
 62
7
  6
CONTINUOUS
 10
9.4725392164
 20
13.5704906394
  0
VERTEX
  8
_CURVE
 62
7
  6
CONTINUOUS
 10
9.1951611695
 20
13.4499448105
  0
VERTEX
  8
_CURVE
 62
7
  6
CONTINUOUS
 10
8.9265436443
 20
13.321249573
  0
VERTEX
  8
_CURVE
 62
7
  6
CONTINUOUS
 10
8.6672500369
 20
13.1846748513
  0
VERTEX
  8
_CURVE
 62
7
  6
CONTINUOUS
 10
8.4178241876
 20
13.0405070961
  0
VERTEX
  8
_CURVE
 62
7
  6
CONTINUOUS
 10
8.1787892401
 20
12.8890486835
  0
VERTEX
  8
_CURVE
 62
7
  6
CONTINUOUS
 10
7.9506465444
 20
12.7306172814
  0
VERTEX
  8
_CURVE
 62
7
  6
CONTINUOUS
 10
7.733874605
 20
12.5655451822
  0
VERTEX
  8
_CURVE
 62
7
  6
CONTINUOUS
 10
7.5289280776
 20
12.394178607
  0
VERTEX
  8
_CURVE
 62
7
  6
CONTINUOUS
 10
7.3362368154
 20
12.2168769785
  0
VERTEX
  8
_CURVE
 62
7
  6
CONTINUOUS
 10
7.1562049675
 20
12.0340121677
  0
VERTEX
  8
_CURVE
 62
7
  6
CONTINUOUS
 10
6.989210131
 20
11.8459677137
  0
VERTEX
  8
_CURVE
 62
7
  6
CONTINUOUS
 10
6.8356025596
 20
11.6531380195
  0
VERTEX
  8
_CURVE
 62
7
  6
CONTINUOUS
 10
6.6957044286
 20
11.4559275244
  0
VERTEX
  8
_CURVE
 62
7
  6
CONTINUOUS
 10
6.5698091592
 20
11.2547498561
  0
VERTEX
  8
_CURVE
 62
7
  6
CONTINUOUS
 10
6.4581808029
 20
11.0500269629
  0
VERTEX
  8
_CURVE
 62
7
  6
CONTINUOUS
 10
6.3610534883
 20
10.842188229
  0
VERTEX
  8
_CURVE
 62
7
  6
CONTINUOUS
 10
6.2786309294
 20
10.6316695735
  0
VERTEX
  8
_CURVE
 62
7
  6
CONTINUOUS
 10
6.2110859985
 20
10.4189125367
  0
VERTEX
  8
_CURVE
 62
7
  6
CONTINUOUS
 10
6.1585603638
 20
10.2043633533
  0
VERTEX
  8
_CURVE
 62
7
  6
CONTINUOUS
 10
6.1211641921
 20
9.988472017
  0
VERTEX
  8
_CURVE
 62
7
  6
CONTINUOUS
 10
6.0989759179
 20
9.7716913365
  0
VERTEX
  8
_CURVE
 62
7
  6
CONTINUOUS
 10
6.0920420787
 20
9.5544759858
  0
VERTEX
  8
_CURVE
 62
7
  6
CONTINUOUS
 10
6.1003772174
 20
9.3372815506
  0
VERTEX
  8
_CURVE
 62
7
  6
CONTINUOUS
 10
6.1239638521
 20
9.1205635726
  0
VERTEX
  8
_CURVE
 62
7
  6
CONTINUOUS
 10
6.1627525122
 20
8.9047765945
  0
VERTEX
  8
_CURVE
 62
7
  6
CONTINUOUS
 10
6.2166618428
 20
8.690373206
  0
VERTEX
  8
_CURVE
 62
7
  6
CONTINUOUS
 10
6.2855787749
 20
8.4778030949
  0
VERTEX
  8
_CURVE
 62
7
  6
CONTINUOUS
 10
6.3693587627
 20
8.2675121042
  0
VERTEX
  8
_CURVE
 62
7
  6
CONTINUOUS
 10
6.4678260867
 20
8.0599412963
  0
VERTEX
  8
_CURVE
 62
7
  6
CONTINUOUS
 10
6.5807742224
 20
7.8555260286
  0
VERTEX
  8
_CURVE
 62
7
  6
CONTINUOUS
 10
6.7079662733
 20
7.6546950399
  0
VERTEX
  8
_CURVE
 62
7
  6
CONTINUOUS
 10
6.8491354678
 20
7.4578695516
  0
VERTEX
  8
_CURVE
 62
7
  6
CONTINUOUS
 10
7.0039857189
 20
7.2654623837
  0
VERTEX
  8
_CURVE
 62
7
  6
CONTINUOUS
 10
7.1721922449
 20
7.0778770894
  0
VERTEX
  8
_CURVE
 62
7
  6
CONTINUOUS
 10
7.3534022508
 20
6.8955071086
  0
VERTEX
  8
_CURVE
 62
7
  6
CONTINUOUS
 10
7.5472356683
 20
6.7187349426
  0
VERTEX
  8
_CURVE
 62
7
  6
CONTINUOUS
 10
7.7532859528
 20
6.5479313519
  0
VERTEX
  8
_CURVE
 62
7
  6
CONTINUOUS
 10
7.9711209361
 20
6.3834545784
  0
VERTEX
  8
_CURVE
 62
7
  6
CONTINUOUS
 10
8.2002837329
 20
6.2256495945
  0
VERTEX
  8
_CURVE
 62
7
  6
CONTINUOUS
 10
8.4402936991
 20
6.0748473789
  0
VERTEX
  8
_CURVE
 62
7
  6
CONTINUOUS
 10
8.6906474398
 20
5.931364223
  0
VERTEX
  8
_CURVE
 62
7
  6
CONTINUOUS
 10
8.950819865
 20
5.7955010673
  0
VERTEX
  8
_CURVE
 62
7
  6
CONTINUOUS
 10
9.2202652914
 20
5.6675428698
  0
VERTEX
  8
_CURVE
 62
7
  6
CONTINUOUS
 10
9.4984185862
 20
5.5477580092
  0
VERTEX
  8
_CURVE
 62
7
  6
CONTINUOUS
 10
9.7846963531
 20
5.4363977211
  0
VERTEX
  8
_CURVE
 62
7
  6
CONTINUOUS
 10
10.0784981555
 20
5.3336955717
  0
VERTEX
  8
_CURVE
 62
7
  6
CONTINUOUS
 10
10.3792077759
 20
5.2398669677
  0
VERTEX
  8
_CURVE
 62
7
  6
CONTINUOUS
 10
10.6861945085
 20
5.1551087044
  0
VERTEX
  8
_CURVE
 62
7
  6
CONTINUOUS
 10
10.9988144817
 20
5.079598553
  0
VERTEX
  8
_CURVE
 62
7
  6
CONTINUOUS
 10
11.3164120091
 20
5.013494888
  0
VERTEX
  8
_CURVE
 62
7
  6
CONTINUOUS
 10
11.6383209643
 20
4.9569363546
  0
VERTEX
  8
_CURVE
 62
7
  6
CONTINUOUS
 10
11.963866178
 20
4.9100415783
  0
VERTEX
  8
_CURVE
 62
7
  6
CONTINUOUS
 10
12.2923648545
 20
4.8729089156
  0
VERTEX
  8
_CURVE
 62
7
  6
CONTINUOUS
 10
12.6231280033
 20
4.8456162484
  0
VERTEX
  8
_CURVE
 62
7
  6
CONTINUOUS
 10
12.9554618845
 20
4.8282208202
  0
VERTEX
  8
_CURVE
 62
7
  6
CONTINUOUS
 10
13.2886694638
 20
4.8207591158
  0
VERTEX
  8
_CURVE
 62
7
  6
CONTINUOUS
 10
13.6220518745
 20
4.8232467854
  0
VERTEX
  8
_CURVE
 62
7
  6
CONTINUOUS
 10
13.9549098829
 20
4.8356786115
  0
VERTEX
  8
_CURVE
 62
7
  6
CONTINUOUS
 10
14.2865453555
 20
4.8580285196
  0
VERTEX
  8
_CURVE
 62
7
  6
CONTINUOUS
 10
14.6162627228
 20
4.8902496331
  0
VERTEX
  8
_CURVE
 62
7
  6
CONTINUOUS
 10
14.9433704382
 20
4.9322743719
  0
VERTEX
  8
_CURVE
 62
7
  6
CONTINUOUS
 10
15.2671824289
 20
4.9840145935
  0
SEQEND
  0
ARC
  8
0
 62
7
  6
CONTINUOUS
 10
15.6696447698
 20
13.019002213
 40
1.115
 50
287.7174699212
 51
305.595135907
  0
ARC
  8
0
 62
7
  6
CONTINUOUS
 10
15.9200073134
 20
13.019002213
 40
1.115
 50
234.404864093
 51
252.2825300788
  0
ARC
  8
0
 62
7
  6
CONTINUOUS
 10
16.0279857152
 20
11.8973525276
 40
0.0625
 50
107.7174699212
 51
174.0
  0
ARC
  8
0
 62
7
  6
CONTINUOUS
 10
15.5616663679
 20
11.8973525276
 40
0.0625
 50
6.0
 51
72.2825300788
  0
ARC
  8
0
 62
7
  6
CONTINUOUS
 10
11.5842314023
 20
10.7695772499
 40
0.0569456485
 50
357.7407801291
 51
181.6529209835
  0
ARC
  8
0
 62
7
  6
CONTINUOUS
 10
16.4217768188
 20
12.1748397655
 40
0.015625
 50
90.0
 51
131.7001364708
  0
ARC
  8
0
 62
7
  6
CONTINUOUS
 10
15.1678752644
 20
12.1748397655
 40
0.015625
 50
48.2998635292
 51
90.0
  0
ARC
  8
0
 62
7
  6
CONTINUOUS
 10
15.6456104482
 20
11.771341627
 40
0.0078125
 50
186.0
 51
270.0
  0
ARC
  8
0
 62
7
  6
CONTINUOUS
 10
15.944041635
 20
11.771341627
 40
0.0078125
 50
270.0
 51
354.0
  0
ARC
  8
_CURVE
 62
7
  6
CONTINUOUS
 10
13.3720259949
 20
15.3206134105
 40
1.0
 50
26.0
 51
154.0
  0
ARC
  8
_CURVE
 62
7
  6
CONTINUOUS
 10
11.5785021112
 20
14.3522362906
 40
0.1875
 50
279.2406087614
 51
334.0
  0
ARC
  8
_CURVE
 62
7
  6
CONTINUOUS
 10
15.1655498786
 20
14.3522362906
 40
0.1875
 50
206.0
 51
260.7593912386
  0
ENDSEC
  0
EOF
