999
DXF file: 1046630_7_c.dxf
999
Pro/ENGINEER 2008250 by Parametric Technology Corporation
  0
SECTION
  2
HEADER
  9
$EXTMAX
 10
34.0
 20
22.0
 30
0.0
  9
$EXTMIN
 10
0.0
 20
0.0
 30
0.0
  9
$LIMMIN
 10
0.0
 20
0.0
  9
$LIMMAX
 10
34.0
 20
22.0
  9
$VIEWCTR
 10
17.0
 20
11.0
  9
$VIEWSIZE
 40
22.0
  9
$CLAYER
  8
0
  9
$LTSCALE
 40
1.87
  9
$CELTYPE
  6
BYLAYER
  9
$DIMSCALE
 40
1.0
  9
$DIMASZ
 40
0.1875
  9
$DIMEXO
 40
0.2125
  9
$DIMDLI
 40
1.292
  9
$DIMEXE
 40
0.612
  9
$DIMCEN
 40
0.306
  9
$DIMLFAC
 40
1.0
  9
$DIMBLK
  1
_CLOSED
  9
$DIMTXT
 40
0.15625
  9
$PDMODE
 70
3
  9
$PDSIZE
 40
0.3125
  0
ENDSEC
  0
SECTION
  2
TABLES
  0
TABLE
  2
LTYPE
 70
6
  0
LTYPE
  2
BYBLOCK
 70
0
  3

 72
65
 73
0
 40
0.0
  0
LTYPE
  2
BYLAYER
 70
0
  3

 72
65
 73
0
 40
0.0
  0
LTYPE
  2
CONTINUOUS
 70
64
  3
Solid line
 72
65
 73
0
 40
0.0
  0
LTYPE
  2
CENTER
 70
64
  3
____ _ ____ _ ____ _ ____ _ ____ _ ____ _ ____
 72
65
 73
4
 40
0.6
 49
0.375
 49
-0.075
 49
0.075
 49
-0.075
  0
LTYPE
  2
HIDDEN
 70
64
  3
- - - - - - - - - - - - - - - - - - - -
 72
65
 73
2
 40
0.2
 49
0.1
 49
-0.1
  0
LTYPE
  2
PHANTOM
 70
64
  3
_____ _ _ _____ _ _ _____ _ _ _____
 72
65
 73
6
 40
0.8
 49
0.45
 49
-0.05
 49
0.1
 49
-0.05
 49
0.1
 49
-0.05
  0
LTYPE
  2
DOT
 70
64
  3
. . . . . . . . . . . . . . . . . . . .
 72
65
 73
2
 40
0.2
 49
0.1
 49
-0.1
  0
LTYPE
  2
DASHED
 70
64
  3
- - - - - - - - - - - - - - - - - - - -
 72
65
 73
2
 40
0.2
 49
0.1
 49
-0.1
  0
ENDTAB
  0
TABLE
  2
LAYER
 70
36
  0
LAYER
  2
0
 70
0
 62
7
  6
CONTINUOUS
  0
LAYER
  2
DEFAULT_1
 70
0
 62
7
  6
CENTER
  0
LAYER
  2
DEFAULT_2
 70
0
 62
8
  6
HIDDEN
  0
LAYER
  2
DEFAULT_3
 70
0
 62
7
  6
PHANTOM
  0
LAYER
  2
_2D_DELETED_OBJS
 70
0
 62
7
  6
CONTINUOUS
  0
LAYER
  2
_BLACK_HOLE
 70
0
 62
7
  6
CONTINUOUS
  0
LAYER
  2
3_ALL_SYMBOLS
 70
0
 62
7
  6
CONTINUOUS
  0
LAYER
  2
DATUMS
 70
0
 62
7
  6
CONTINUOUS
  0
LAYER
  2
DATUM_AXIS
 70
0
 62
7
  6
CONTINUOUS
  0
LAYER
  2
DATUM_CSYS
 70
0
 62
7
  6
CONTINUOUS
  0
LAYER
  2
DATUM_PLANE
 70
0
 62
7
  6
CONTINUOUS
  0
LAYER
  2
DATUM_POINT
 70
0
 62
7
  6
CONTINUOUS
  0
LAYER
  2
_CURVE
 70
0
 62
7
  6
CONTINUOUS
  0
LAYER
  2
_SURFACE
 70
0
 62
7
  6
CONTINUOUS
  0
LAYER
  2
__REF_CURVE
 70
0
 62
7
  6
CONTINUOUS
  0
LAYER
  2
__REF_SURFACE
 70
0
 62
7
  6
CONTINUOUS
  0
LAYER
  2
___NOTE
 70
0
 62
7
  6
CONTINUOUS
  0
LAYER
  2
___SYMBOL
 70
0
 62
7
  6
CONTINUOUS
  0
ENDTAB
  0
TABLE
  2
STYLE
 70
1
  0
STYLE
  2
STANDARD
 70
0
 40
0.0
 41
0.8
 50
0.0
 71
0
 42
0.2
  3
txt
  4

  0
STYLE
  2
TEXTSTYLE_1
 70
0
 40
0.0
 41
1.0
 50
0.0
 71
0
 42
0.2
  3
txt
  4

  0
STYLE
  2
TEXTSTYLE_2
 70
0
 40
0.0
 41
0.8258950223
 50
0.0
 71
0
 42
0.2
  3
txt
  4

  0
STYLE
  2
TEXTSTYLE_3
 70
0
 40
0.0
 41
0.6740211631
 50
0.0
 71
0
 42
0.2
  3
txt
  4

  0
ENDTAB
  0
ENDSEC
  0
SECTION
  2
BLOCKS
  0
BLOCK
  8
0
 62
2
  6
CONTINUOUS
  2
*D0
 70
65
 10
0.0
 20
0.0
  0
TEXT
  8
0
 62
2
  6
CONTINUOUS
 10
13.0104456206
 20
13.1987758219
  7
STANDARD
 40
0.15625
  1
14-1/8"
 41
0.8
 72
0
  0
TEXT
  8
0
 62
2
  6
CONTINUOUS
 10
12.9479456206
 20
12.9644008219
  7
STANDARD
 40
0.15625
  1
[359 cm]
 41
0.8
 72
0
  0
LINE
  8
0
 62
2
  6
CONTINUOUS
 10
13.2214285407
 20
19.0375230066
 11
13.5729456206
 21
19.0375230066
  0
LINE
  8
0
 62
2
  6
CONTINUOUS
 10
13.2214287527
 20
4.9031272532
 11
13.5729456206
 21
4.9031272532
  0
LINE
  8
0
 62
2
  6
CONTINUOUS
 10
13.4479456206
 20
19.0375230066
 11
13.4479456206
 21
13.4331508219
  0
LINE
  8
0
 62
2
  6
CONTINUOUS
 10
13.4479456206
 20
4.9031272532
 11
13.4479456206
 21
12.8862758219
  0
INSERT
  8
0
 62
2
  6
CONTINUOUS
  2
_CLOSED
 10
13.4479456206
 20
19.0375230066
 41
0.1875
 42
0.1875
 43
0.1875
 50
90.0
  0
INSERT
  8
0
 62
2
  6
CONTINUOUS
  2
_CLOSED
 10
13.4479456206
 20
4.9031272532
 41
0.1875
 42
0.1875
 43
0.1875
 50
270.0
  0
ENDBLK
  8
0
  6
BYBLOCK
 62
0
  0
BLOCK
  8
0
 62
2
  6
CONTINUOUS
  2
*D1
 70
65
 10
0.0
 20
0.0
  0
TEXT
  8
0
 62
2
  6
CONTINUOUS
 10
9.0186689498
 20
12.1554881507
  7
STANDARD
 40
0.15625
  1
16-15/16"
 41
0.8
 72
0
  0
TEXT
  8
0
 62
2
  6
CONTINUOUS
 10
9.0811689498
 20
11.9211131507
  7
STANDARD
 40
0.15625
  1
[430 cm]
 41
0.8
 72
0
  0
LINE
  8
0
 62
2
  6
CONTINUOUS
 10
21.6307002765
 20
12.0363579434
 11
21.6307002765
 21
12.3586131507
  0
LINE
  8
0
 62
2
  6
CONTINUOUS
 10
4.6843680895
 20
12.0363579412
 11
4.6843680895
 21
12.3586131507
  0
LINE
  8
0
 62
2
  6
CONTINUOUS
 10
21.6307002765
 20
12.2336131507
 11
10.2217939498
 21
12.2336131507
  0
LINE
  8
0
 62
2
  6
CONTINUOUS
 10
4.6843680895
 20
12.2336131507
 11
8.9405439498
 21
12.2336131507
  0
INSERT
  8
0
 62
2
  6
CONTINUOUS
  2
_CLOSED
 10
21.6307002765
 20
12.2336131507
 41
0.1875
 42
0.1875
 43
0.1875
  0
INSERT
  8
0
 62
2
  6
CONTINUOUS
  2
_CLOSED
 10
4.6843680895
 20
12.2336131507
 41
0.1875
 42
0.1875
 43
0.1875
 50
180.0
  0
ENDBLK
  8
0
  6
BYBLOCK
 62
0
  0
BLOCK
  8
___SYMBOL
 62
2
  6
CONTINUOUS
  2
WHEN_PLOTTING_TEMPLATE_N_BL0
 70
64
 10
17.0928277202
 20
9.2495238303
  0
TEXT
  8
___SYMBOL
 62
2
  6
CONTINUOUS
 10
13.7803274878
 20
10.4604614153
  7
STANDARD
 40
0.156250011
  1
WHEN PLOTTING TEMPLATE FULL SIZE:
 41
0.8
 72
0
  0
TEXT
  8
___SYMBOL
 62
2
  6
CONTINUOUS
 10
13.7803274878
 20
10.2260863988
  7
STANDARD
 40
0.156250011
  1
Make sure horizontal and vertical dimensions
 41
0.8
 72
0
  0
TEXT
  8
___SYMBOL
 62
2
  6
CONTINUOUS
 10
13.7803274878
 20
9.9917113824
  7
STANDARD
 40
0.156250011
  1
match the dimensions labeled on the template.
 41
0.8
 72
0
  0
TEXT
  8
___SYMBOL
 62
2
  6
CONTINUOUS
 10
13.7803274878
 20
9.7573363659
  7
STANDARD
 40
0.156250011
  1
 
 41
0.8
 72
0
  0
TEXT
  8
___SYMBOL
 62
2
  6
CONTINUOUS
 10
13.7803274878
 20
9.5229613495
  7
STANDARD
 40
0.156250011
  1
AL TRAZAR LA PLANTILLA A ESCALA,
 41
0.8
 72
0
  0
TEXT
  8
___SYMBOL
 62
2
  6
CONTINUOUS
 10
13.7803274878
 20
9.288586333
  7
STANDARD
 40
0.156250011
  1
asegúrese de que las dimensiones horizontales
 41
0.8
 72
0
  0
TEXT
  8
___SYMBOL
 62
2
  6
CONTINUOUS
 10
13.7803274878
 20
9.0542113166
  7
STANDARD
 40
0.156250011
  1
y verticales concuerden con las dimensiones marcadas
 41
0.8
 72
0
  0
TEXT
  8
___SYMBOL
 62
2
  6
CONTINUOUS
 10
13.7803274878
 20
8.8198363002
  7
STANDARD
 40
0.156250011
  1
en la plantilla.
 41
0.8
 72
0
  0
TEXT
  8
___SYMBOL
 62
2
  6
CONTINUOUS
 10
13.7803274878
 20
8.5854612837
  7
STANDARD
 40
0.156250011
  1
 
 41
0.8
 72
0
  0
TEXT
  8
___SYMBOL
 62
2
  6
CONTINUOUS
 10
13.7803274878
 20
8.3510862673
  7
STANDARD
 40
0.156250011
  1
AU MOMENT DE TRACER LA DÉCOUPE À L'ÉCHELLE,
 41
0.8
 72
0
  0
TEXT
  8
___SYMBOL
 62
2
  6
CONTINUOUS
 10
13.7803274878
 20
8.1167112508
  7
STANDARD
 40
0.156250011
  1
Assurez vos que les dimensions horizotales et
 41
0.8
 72
0
  0
TEXT
  8
___SYMBOL
 62
2
  6
CONTINUOUS
 10
13.7803274878
 20
7.8823362344
  7
STANDARD
 40
0.156250011
  1
verticales correspondent avec les dimensions du plan.
 41
0.8
 72
0
  0
ENDBLK
  8
0
  6
BYBLOCK
 62
0
  0
BLOCK
  8
___SYMBOL
 62
2
  6
CONTINUOUS
  2
PACKAGING_UPC_BL1
 70
64
 10
9.5171361953
 20
9.0039287286
  0
TEXT
  8
___SYMBOL
 62
7
  6
CONTINUOUS
 10
7.983135307
 20
9.53093203
  7
TEXTSTYLE_2
 40
0.0593587494
  1
XXXXX-XX-X-XX
 41
0.8258950223
 72
0
  0
TEXT
  8
___SYMBOL
 62
7
  6
CONTINUOUS
 10
9.6171152911
 20
9.4017670312
  7
TEXTSTYLE_3
 40
0.0445192496
  1
xxxxxx-xx
 41
0.6740211631
 72
0
  0
TEXT
  8
___SYMBOL
 62
2
  6
CONTINUOUS
 10
6.8527910095
 20
11.0745606948
  7
STANDARD
 40
0.1562500055
  1
PACKAGING/UPC LABEL ON BOX
 41
0.8
 72
0
  0
TEXT
  8
___SYMBOL
 62
2
  6
CONTINUOUS
 10
6.8527910095
 20
10.8401856865
  7
STANDARD
 40
0.1562500055
  1
ETIQUETA DE EMBALAJE/UPC EN LA CAJA
 41
0.8
 72
0
  0
TEXT
  8
___SYMBOL
 62
2
  6
CONTINUOUS
 10
6.8527910095
 20
10.6058106851
  7
STANDARD
 40
0.1562500003
  1
ETIQUETTE D'EMBALLAGE/UPC SUR LA BOÎTE
 41
0.7999999985
 72
0
  0
TEXT
  8
___SYMBOL
 62
2
  6
CONTINUOUS
 10
6.8296361003
 20
8.8864217749
  7
STANDARD
 40
0.1562500055
  1
The template and the label suffixes circled
 41
0.8
 72
0
  0
TEXT
  8
___SYMBOL
 62
2
  6
CONTINUOUS
 10
6.8296361003
 20
8.6520467666
  7
STANDARD
 40
0.1562500055
  1
must match for proper cut-out.
 41
0.8
 72
0
  0
TEXT
  8
___SYMBOL
 62
2
  6
CONTINUOUS
 10
6.8296361003
 20
8.4176717652
  7
STANDARD
 40
0.1562500003
  1
 
 41
0.7999999985
 72
0
  0
TEXT
  8
___SYMBOL
 62
2
  6
CONTINUOUS
 10
6.8296361003
 20
8.1832967583
  7
STANDARD
 40
0.1562500055
  1
A fin de realizar el corte apropiado, la
 41
0.8
 72
0
  0
TEXT
  8
___SYMBOL
 62
2
  6
CONTINUOUS
 10
6.8296361003
 20
7.9489217569
  7
STANDARD
 40
0.1562500003
  1
plantilla y los sufijos de la etiqueta
 41
0.7999999985
 72
0
  0
TEXT
  8
___SYMBOL
 62
2
  6
CONTINUOUS
 10
6.8296361003
 20
7.7145467569
  7
STANDARD
 40
0.1562500003
  1
demarcados deben concordar.
 41
0.7999999985
 72
0
  0
TEXT
  8
___SYMBOL
 62
2
  6
CONTINUOUS
 10
6.8296361003
 20
7.4801717569
  7
STANDARD
 40
0.1562500003
  1
 
 41
0.7999999985
 72
0
  0
TEXT
  8
___SYMBOL
 62
2
  6
CONTINUOUS
 10
6.8296361003
 20
7.2457967569
  7
STANDARD
 40
0.1562500003
  1
Afin de découper l'ouverture correctement,
 41
0.7999999985
 72
0
  0
TEXT
  8
___SYMBOL
 62
2
  6
CONTINUOUS
 10
6.8296361003
 20
7.0114217569
  7
STANDARD
 40
0.1562500003
  1
le gabarit et les suffixes encerclés
 41
0.7999999985
 72
0
  0
TEXT
  8
___SYMBOL
 62
2
  6
CONTINUOUS
 10
6.8296361003
 20
6.7770467569
  7
STANDARD
 40
0.1562500003
  1
doivent correspondre
 41
0.7999999985
 72
0
  0
LINE
  8
___SYMBOL
 62
7
  6
CONTINUOUS
 10
9.9719402876
 20
9.3750370315
 11
7.7868978089
 21
9.3750370315
  0
LINE
  8
___SYMBOL
 62
7
  6
CONTINUOUS
 10
7.7868978089
 20
9.3750370315
 11
7.7868978089
 21
10.3680670218
  0
LINE
  8
___SYMBOL
 62
7
  6
CONTINUOUS
 10
7.7868978089
 20
10.3680670218
 11
9.9719402876
 21
10.3680670218
  0
LINE
  8
___SYMBOL
 62
7
  6
CONTINUOUS
 10
9.9719402876
 20
10.3680670218
 11
9.9719402876
 21
9.3750370315
  0
LINE
  8
___SYMBOL
 62
7
  6
CONTINUOUS
 10
7.7535303093
 20
10.4005270215
 11
10.0060952873
 21
10.4005270215
  0
LINE
  8
___SYMBOL
 62
7
  6
CONTINUOUS
 10
10.0060952873
 20
10.4005270215
 11
10.0060952873
 21
9.3076195322
  0
LINE
  8
___SYMBOL
 62
7
  6
CONTINUOUS
 10
10.0060952873
 20
9.3076195322
 11
7.7535303093
 21
9.3076195322
  0
LINE
  8
___SYMBOL
 62
7
  6
CONTINUOUS
 10
7.7535303093
 20
9.3076195322
 11
7.7535303093
 21
10.4005270215
  0
LINE
  8
___SYMBOL
 62
7
  6
CONTINUOUS
 10
9.7667552896
 20
9.8067070273
 11
9.7667552896
 21
9.6850720285
  0
LINE
  8
___SYMBOL
 62
7
  6
CONTINUOUS
 10
9.7667552896
 20
9.6850720285
 11
9.4238027929
 21
9.6850720285
  0
LINE
  8
___SYMBOL
 62
7
  6
CONTINUOUS
 10
9.4238027929
 20
9.6850720285
 11
9.4238027929
 21
9.8067070273
  0
LINE
  8
___SYMBOL
 62
7
  6
CONTINUOUS
 10
9.4238027929
 20
9.8067070273
 11
9.7667552896
 21
9.8067070273
  0
SOLID
  8
___SYMBOL
 62
7
  6
CONTINUOUS
 10
9.4238027929
 20
9.6850720194
 11
9.4238027929
 21
9.8067070196
 12
9.7667552896
 22
9.8067070196
 13
9.7667552896
 23
9.8067070196
  0
SOLID
  8
___SYMBOL
 62
7
  6
CONTINUOUS
 10
9.7667552896
 20
9.8067070196
 11
9.7667552896
 21
9.6850720194
 12
9.4238027929
 22
9.6850720194
 13
9.4238027929
 23
9.6850720194
  0
LINE
  8
___SYMBOL
 62
7
  6
CONTINUOUS
 10
8.6913003001
 20
9.8067070273
 11
8.6913003001
 21
9.6850720285
  0
LINE
  8
___SYMBOL
 62
7
  6
CONTINUOUS
 10
8.6913003001
 20
9.6850720285
 11
7.8355953085
 21
9.6850720285
  0
LINE
  8
___SYMBOL
 62
7
  6
CONTINUOUS
 10
7.8355953085
 20
9.6850720285
 11
7.8355953085
 21
9.8067070273
  0
LINE
  8
___SYMBOL
 62
7
  6
CONTINUOUS
 10
7.8355953085
 20
9.8067070273
 11
8.6913003001
 21
9.8067070273
  0
SOLID
  8
___SYMBOL
 62
7
  6
CONTINUOUS
 10
7.8355953085
 20
9.6850720194
 11
7.8355953085
 21
9.8067070196
 12
8.6913003001
 22
9.8067070196
 13
8.6913003001
 23
9.8067070196
  0
SOLID
  8
___SYMBOL
 62
7
  6
CONTINUOUS
 10
8.6913003001
 20
9.8067070196
 11
8.6913003001
 21
9.6850720194
 12
7.8355953085
 22
9.6850720194
 13
7.8355953085
 23
9.6850720194
  0
LINE
  8
___SYMBOL
 62
7
  6
CONTINUOUS
 10
8.6913003001
 20
9.4334395309
 11
8.6913003001
 21
9.3984595313
  0
LINE
  8
___SYMBOL
 62
7
  6
CONTINUOUS
 10
8.6913003001
 20
9.3984595313
 11
7.8355953085
 21
9.3984595313
  0
LINE
  8
___SYMBOL
 62
7
  6
CONTINUOUS
 10
7.8355953085
 20
9.3984595313
 11
7.8355953085
 21
9.4334395309
  0
LINE
  8
___SYMBOL
 62
7
  6
CONTINUOUS
 10
7.8355953085
 20
9.4334395309
 11
8.6913003001
 21
9.4334395309
  0
SOLID
  8
___SYMBOL
 62
7
  6
CONTINUOUS
 10
7.8355953085
 20
9.3984595328
 11
7.8355953085
 21
9.4334395149
 12
8.6913003001
 22
9.4334395149
 13
8.6913003001
 23
9.4334395149
  0
SOLID
  8
___SYMBOL
 62
7
  6
CONTINUOUS
 10
8.6913003001
 20
9.4334395149
 11
8.6913003001
 21
9.3984595328
 12
7.8355953085
 22
9.3984595328
 13
7.8355953085
 23
9.3984595328
  0
POLYLINE
  8
___SYMBOL
 62
7
  6
CONTINUOUS
 66
1
 70
0
  0
VERTEX
  8
___SYMBOL
 62
7
  6
CONTINUOUS
 10
8.5573052534
 20
9.6452171491
  0
VERTEX
  8
___SYMBOL
 62
7
  6
CONTINUOUS
 10
8.5453234591
 20
9.6414118633
  0
VERTEX
  8
___SYMBOL
 62
7
  6
CONTINUOUS
 10
8.5340610544
 20
9.6358259485
  0
VERTEX
  8
___SYMBOL
 62
7
  6
CONTINUOUS
 10
8.5237808745
 20
9.6285897656
  0
VERTEX
  8
___SYMBOL
 62
7
  6
CONTINUOUS
 10
8.5147228322
 20
9.6198721884
  0
VERTEX
  8
___SYMBOL
 62
7
  6
CONTINUOUS
 10
8.507098319
 20
9.6098766624
  0
VERTEX
  8
___SYMBOL
 62
7
  6
CONTINUOUS
 10
8.501085271
 20
9.5988364575
  0
VERTEX
  8
___SYMBOL
 62
7
  6
CONTINUOUS
 10
8.4968240174
 20
9.5870092234
  0
VERTEX
  8
___SYMBOL
 62
7
  6
CONTINUOUS
 10
8.4944140047
 20
9.5746709772
  0
VERTEX
  8
___SYMBOL
 62
7
  6
CONTINUOUS
 10
8.4939114764
 20
9.5621096615
  0
VERTEX
  8
___SYMBOL
 62
7
  6
CONTINUOUS
 10
8.4953281602
 20
9.549618425
  0
VERTEX
  8
___SYMBOL
 62
7
  6
CONTINUOUS
 10
8.4986309944
 20
9.5374887808
  0
VERTEX
  8
___SYMBOL
 62
7
  6
CONTINUOUS
 10
8.5037428993
 20
9.5260038034
  0
VERTEX
  8
___SYMBOL
 62
7
  6
CONTINUOUS
 10
8.5105445764
 20
9.5154315225
  0
VERTEX
  8
___SYMBOL
 62
7
  6
CONTINUOUS
 10
8.5188772921
 20
9.5060186676
  0
VERTEX
  8
___SYMBOL
 62
7
  6
CONTINUOUS
 10
8.5285465824
 20
9.4979849104
  0
VERTEX
  8
___SYMBOL
 62
7
  6
CONTINUOUS
 10
8.5393267911
 20
9.4915177382
  0
VERTEX
  8
___SYMBOL
 62
7
  6
CONTINUOUS
 10
8.550966336
 20
9.4867680778
  0
VERTEX
  8
___SYMBOL
 62
7
  6
CONTINUOUS
 10
8.5631935803
 20
9.4838467742
  0
VERTEX
  8
___SYMBOL
 62
7
  6
CONTINUOUS
 10
8.5757231718
 20
9.4828220029
  0
VERTEX
  8
___SYMBOL
 62
7
  6
CONTINUOUS
 10
8.5882627021
 20
9.4837176794
  0
VERTEX
  8
___SYMBOL
 62
7
  6
CONTINUOUS
 10
8.6005195313
 20
9.4865129011
  0
VERTEX
  8
___SYMBOL
 62
7
  6
CONTINUOUS
 10
8.6122076165
 20
9.4911424346
  0
VERTEX
  8
___SYMBOL
 62
7
  6
CONTINUOUS
 10
8.6230541881
 20
9.4974982386
  0
VERTEX
  8
___SYMBOL
 62
7
  6
CONTINUOUS
 10
8.6328061153
 20
9.5054319852
  0
VERTEX
  8
___SYMBOL
 62
7
  6
CONTINUOUS
 10
8.6412358132
 20
9.5147585212
  0
VERTEX
  8
___SYMBOL
 62
7
  6
CONTINUOUS
 10
8.6481465547
 20
9.5252601893
  0
VERTEX
  8
___SYMBOL
 62
7
  6
CONTINUOUS
 10
8.6533770608
 20
9.536691908
  0
VERTEX
  8
___SYMBOL
 62
7
  6
CONTINUOUS
 10
8.656805265
 20
9.5487868903
  0
VERTEX
  8
___SYMBOL
 62
7
  6
CONTINUOUS
 10
8.6583511621
 20
9.5612628708
  0
VERTEX
  8
___SYMBOL
 62
7
  6
CONTINUOUS
 10
8.6579786746
 20
9.5738286924
  0
VERTEX
  8
___SYMBOL
 62
7
  6
CONTINUOUS
 10
8.6556964956
 20
9.5861911014
  0
VERTEX
  8
___SYMBOL
 62
7
  6
CONTINUOUS
 10
8.6515578852
 20
9.598061591
  0
VERTEX
  8
___SYMBOL
 62
7
  6
CONTINUOUS
 10
8.6456594278
 20
9.6091631348
  0
VERTEX
  8
___SYMBOL
 62
7
  6
CONTINUOUS
 10
8.6381387781
 20
9.6192366515
  0
VERTEX
  8
___SYMBOL
 62
7
  6
CONTINUOUS
 10
8.6291714487
 20
9.6280470514
  0
VERTEX
  8
___SYMBOL
 62
7
  6
CONTINUOUS
 10
8.6189667138
 20
9.6353887224
  0
VERTEX
  8
___SYMBOL
 62
7
  6
CONTINUOUS
 10
8.6077627255
 20
9.641090329
  0
VERTEX
  8
___SYMBOL
 62
7
  6
CONTINUOUS
 10
8.5958209559
 20
9.6450188105
  0
VERTEX
  8
___SYMBOL
 62
7
  6
CONTINUOUS
 10
8.583420095
 20
9.6470824862
  0
VERTEX
  8
___SYMBOL
 62
7
  6
CONTINUOUS
 10
8.5708495467
 20
9.6472331954
  0
VERTEX
  8
___SYMBOL
 62
7
  6
CONTINUOUS
 10
8.5584026751
 20
9.6454674208
  0
SEQEND
  0
LINE
  8
___SYMBOL
 62
7
  6
CONTINUOUS
 10
8.7379502996
 20
10.3399420221
 11
8.7379502996
 21
10.2782920227
  0
LINE
  8
___SYMBOL
 62
7
  6
CONTINUOUS
 10
8.7379502996
 20
10.2782920227
 11
7.882245308
 21
10.2782920227
  0
LINE
  8
___SYMBOL
 62
7
  6
CONTINUOUS
 10
7.882245308
 20
10.2782920227
 11
7.882245308
 21
10.3399420221
  0
LINE
  8
___SYMBOL
 62
7
  6
CONTINUOUS
 10
7.882245308
 20
10.3399420221
 11
8.7379502996
 21
10.3399420221
  0
SOLID
  8
___SYMBOL
 62
7
  6
CONTINUOUS
 10
7.882245308
 20
10.2782920185
 11
7.882245308
 21
10.3399420086
 12
8.7379502996
 22
10.3399420086
 13
8.7379502996
 23
10.3399420086
  0
SOLID
  8
___SYMBOL
 62
7
  6
CONTINUOUS
 10
8.7379502996
 20
10.3399420086
 11
8.7379502996
 21
10.2782920185
 12
7.882245308
 22
10.2782920185
 13
7.882245308
 23
10.2782920185
  0
LINE
  8
___SYMBOL
 62
7
  6
CONTINUOUS
 10
8.7379502996
 20
10.2399595231
 11
8.7379502996
 21
10.1783095237
  0
LINE
  8
___SYMBOL
 62
7
  6
CONTINUOUS
 10
8.7379502996
 20
10.1783095237
 11
7.882245308
 21
10.1783095237
  0
LINE
  8
___SYMBOL
 62
7
  6
CONTINUOUS
 10
7.882245308
 20
10.1783095237
 11
7.882245308
 21
10.2399595231
  0
LINE
  8
___SYMBOL
 62
7
  6
CONTINUOUS
 10
7.882245308
 20
10.2399595231
 11
8.7379502996
 21
10.2399595231
  0
SOLID
  8
___SYMBOL
 62
7
  6
CONTINUOUS
 10
7.882245308
 20
10.1783095103
 11
7.882245308
 21
10.2399595345
 12
8.7379502996
 22
10.2399595345
 13
8.7379502996
 23
10.2399595345
  0
SOLID
  8
___SYMBOL
 62
7
  6
CONTINUOUS
 10
8.7379502996
 20
10.2399595345
 11
8.7379502996
 21
10.1783095103
 12
7.882245308
 22
10.1783095103
 13
7.882245308
 23
10.1783095103
  0
LINE
  8
___SYMBOL
 62
7
  6
CONTINUOUS
 10
8.7379502996
 20
10.139977024
 11
8.7379502996
 21
10.0783345246
  0
LINE
  8
___SYMBOL
 62
7
  6
CONTINUOUS
 10
8.7379502996
 20
10.0783345246
 11
7.882245308
 21
10.0783345246
  0
LINE
  8
___SYMBOL
 62
7
  6
CONTINUOUS
 10
7.882245308
 20
10.0783345246
 11
7.882245308
 21
10.139977024
  0
LINE
  8
___SYMBOL
 62
7
  6
CONTINUOUS
 10
7.882245308
 20
10.139977024
 11
8.7379502996
 21
10.139977024
  0
SOLID
  8
___SYMBOL
 62
7
  6
CONTINUOUS
 10
7.882245308
 20
10.0783345161
 11
7.882245308
 21
10.1399770263
 12
8.7379502996
 22
10.1399770263
 13
8.7379502996
 23
10.1399770263
  0
SOLID
  8
___SYMBOL
 62
7
  6
CONTINUOUS
 10
8.7379502996
 20
10.1399770263
 11
8.7379502996
 21
10.0783345161
 12
7.882245308
 22
10.0783345161
 13
7.882245308
 23
10.0783345161
  0
LINE
  8
___SYMBOL
 62
7
  6
CONTINUOUS
 10
8.7379502996
 20
10.039994525
 11
8.7379502996
 21
9.9783520256
  0
LINE
  8
___SYMBOL
 62
7
  6
CONTINUOUS
 10
8.7379502996
 20
9.9783520256
 11
7.882245308
 21
9.9783520256
  0
LINE
  8
___SYMBOL
 62
7
  6
CONTINUOUS
 10
7.882245308
 20
9.9783520256
 11
7.882245308
 21
10.039994525
  0
LINE
  8
___SYMBOL
 62
7
  6
CONTINUOUS
 10
7.882245308
 20
10.039994525
 11
8.7379502996
 21
10.039994525
  0
SOLID
  8
___SYMBOL
 62
7
  6
CONTINUOUS
 10
7.882245308
 20
9.978352042
 11
7.882245308
 21
10.0399945181
 12
8.7379502996
 22
10.0399945181
 13
8.7379502996
 23
10.0399945181
  0
SOLID
  8
___SYMBOL
 62
7
  6
CONTINUOUS
 10
8.7379502996
 20
10.0399945181
 11
8.7379502996
 21
9.978352042
 12
7.882245308
 22
9.978352042
 13
7.882245308
 23
9.978352042
  0
LINE
  8
___SYMBOL
 62
7
  6
CONTINUOUS
 10
8.7379502996
 20
9.9133570262
 11
8.7379502996
 21
9.8517070268
  0
LINE
  8
___SYMBOL
 62
7
  6
CONTINUOUS
 10
8.7379502996
 20
9.8517070268
 11
7.882245308
 21
9.8517070268
  0
LINE
  8
___SYMBOL
 62
7
  6
CONTINUOUS
 10
7.882245308
 20
9.8517070268
 11
7.882245308
 21
9.9133570262
  0
LINE
  8
___SYMBOL
 62
7
  6
CONTINUOUS
 10
7.882245308
 20
9.9133570262
 11
8.7379502996
 21
9.9133570262
  0
SOLID
  8
___SYMBOL
 62
7
  6
CONTINUOUS
 10
7.882245308
 20
9.8517070397
 11
7.882245308
 21
9.9133570298
 12
8.7379502996
 22
9.9133570298
 13
8.7379502996
 23
9.9133570298
  0
SOLID
  8
___SYMBOL
 62
7
  6
CONTINUOUS
 10
8.7379502996
 20
9.9133570298
 11
8.7379502996
 21
9.8517070397
 12
7.882245308
 22
9.8517070397
 13
7.882245308
 23
9.8517070397
  0
ENDBLK
  8
0
  6
BYBLOCK
 62
0
  0
BLOCK
  8
___SYMBOL
 62
2
  6
CONTINUOUS
  2
TEMPLATE_NUMBER_BL2
 70
64
 10
12.357506676
 20
5.1943050819
  0
TEXT
  8
___SYMBOL
 62
2
  6
CONTINUOUS
 10
12.0473067735
 20
5.1590550929
  7
STANDARD
 40
0.0704999778
  1
1046630-7
 41
0.8
 72
0
  0
TEXT
  8
___SYMBOL
 62
2
  6
CONTINUOUS
 10
12.554906614
 20
5.1590550929
  7
STANDARD
 40
0.0704999778
  1
-
 41
0.8
 72
0
  0
TEXT
  8
___SYMBOL
 62
2
  6
CONTINUOUS
 10
12.6113065962
 20
5.1590550929
  7
STANDARD
 40
0.0704999778
  1
C
 41
0.8
 72
0
  0
ENDBLK
  8
0
  6
BYBLOCK
 62
0
  0
BLOCK
  8
___SYMBOL
 62
2
  6
CONTINUOUS
  2
TEMPLATE_NUMBER_BL3
 70
64
 10
12.3031587791
 20
3.8133291229
  0
TEXT
  8
___SYMBOL
 62
2
  6
CONTINUOUS
 10
11.9929588766
 20
3.778079134
  7
STANDARD
 40
0.0704999778
  1
1046630-7
 41
0.8
 72
0
  0
TEXT
  8
___SYMBOL
 62
2
  6
CONTINUOUS
 10
12.500558717
 20
3.778079134
  7
STANDARD
 40
0.0704999778
  1
-
 41
0.8
 72
0
  0
TEXT
  8
___SYMBOL
 62
2
  6
CONTINUOUS
 10
12.5569586993
 20
3.778079134
  7
STANDARD
 40
0.0704999778
  1
C
 41
0.8
 72
0
  0
ENDBLK
  8
0
  6
BYBLOCK
 62
0
  0
BLOCK
  8
___SYMBOL
 62
2
  6
CONTINUOUS
  2
COPYRIGHT_YEAR_BL4
 70
64
 10
14.2141355509
 20
5.1958677864
  0
TEXT
  8
___SYMBOL
 62
2
  6
CONTINUOUS
 10
13.8404452474
 20
5.1605942864
  7
STANDARD
 40
0.0704997506
  1
2006
 41
0.8
 72
0
  0
TEXT
  8
___SYMBOL
 62
2
  6
CONTINUOUS
 10
14.0660444493
 20
5.1605942864
  7
STANDARD
 40
0.0704997506
  1
 KOHLER CO.
 41
0.8
 72
0
  0
TEXT
  8
___SYMBOL
 62
7
  6
CONTINUOUS
 10
13.7604197815
 20
5.1770792283
  7
TEXTSTYLE_1
 40
0.0421873503
  1
C
 41
1.0
 72
0
  0
CIRCLE
  8
___SYMBOL
 62
7
  6
CONTINUOUS
 10
13.7746547309
 20
5.1983154029
 40
0.0328258835
  0
ENDBLK
  8
0
  6
BYBLOCK
 62
0
  0
BLOCK
  8
0
  2
_CLOSED
 70
64
 10
0.0
 20
0.0
  0
LINE
  8
0
  6
BYBLOCK
 62
0
 10
0.0
 20
0.0
 11
-1.0
 21
0.1666666667
  0
LINE
  8
0
  6
BYBLOCK
 62
0
 10
-1.0
 20
0.1666666667
 11
-1.0
 21
-0.1666666667
  0
LINE
  8
0
  6
BYBLOCK
 62
0
 10
-1.0
 20
-0.1666666667
 11
0.0
 21
0.0
  0
LINE
  8
0
  6
BYBLOCK
 62
0
 10
-1.0
 20
0.0
 11
0.0
 21
0.0
  0
ENDBLK
  8
0
  6
BYBLOCK
 62
0
  0
ENDSEC
  0
SECTION
  2
ENTITIES
  0
SOLID
  8
0
 62
2
  6
CONTINUOUS
 10
5.025606481
 20
17.4116937572
 11
5.1633706478
 21
17.5755149469
 12
5.3554324598
 22
17.5755149469
 13
5.3554324598
 23
17.5755149469
  0
SOLID
  8
0
 62
2
  6
CONTINUOUS
 10
5.3554324598
 20
17.5755149469
 11
5.1421290079
 21
17.321866674
 12
5.025606481
 22
17.4116937572
 13
5.025606481
 23
17.4116937572
  0
SOLID
  8
0
 62
2
  6
CONTINUOUS
 10
5.025606481
 20
17.1911011316
 11
5.1421290079
 21
17.321866674
 12
5.1793444211
 22
16.9896012975
 13
5.1793444211
 23
16.9896012975
  0
SOLID
  8
0
 62
2
  6
CONTINUOUS
 10
5.1421290079
 20
17.321866674
 11
5.3956368426
 21
16.9896012975
 12
5.1793444211
 22
16.9896012975
 13
5.1793444211
 23
16.9896012975
  0
SOLID
  8
0
 62
2
  6
CONTINUOUS
 10
5.025606481
 20
16.9896012975
 11
4.8511062541
 21
16.9895772941
 12
5.025606481
 22
17.1911011316
 13
5.025606481
 23
17.1911011316
  0
SOLID
  8
0
 62
2
  6
CONTINUOUS
 10
5.1421290079
 20
17.321866674
 11
5.025606481
 21
17.1911011316
 12
5.025606481
 22
17.4116937572
 13
5.025606481
 23
17.4116937572
  0
SOLID
  8
0
 62
2
  6
CONTINUOUS
 10
5.025606481
 20
17.1911011316
 11
4.8511062541
 21
16.9895772941
 12
5.025606481
 22
17.4116937572
 13
5.025606481
 23
17.4116937572
  0
SOLID
  8
0
 62
2
  6
CONTINUOUS
 10
5.025606481
 20
17.4116937572
 11
4.8511062541
 21
16.9895772941
 12
5.025606481
 22
17.5755149469
 13
5.025606481
 23
17.5755149469
  0
SOLID
  8
0
 62
2
  6
CONTINUOUS
 10
4.8511062541
 20
16.9895772941
 11
4.8511062541
 21
17.5755149469
 12
5.025606481
 22
17.5755149469
 13
5.025606481
 23
17.5755149469
  0
SOLID
  8
0
 62
2
  6
CONTINUOUS
 10
5.4800411274
 20
17.5649055334
 11
5.5409902819
 21
17.5778606762
 12
5.6033010767
 22
17.5778606762
 13
5.6033010767
 23
17.5778606762
  0
SOLID
  8
0
 62
2
  6
CONTINUOUS
 10
5.6033010767
 20
17.5778606762
 11
5.6642502312
 21
17.5649055334
 12
5.4800411274
 22
17.5649055334
 13
5.4800411274
 23
17.5649055334
  0
SOLID
  8
0
 62
2
  6
CONTINUOUS
 10
5.4231173838
 20
17.5395614499
 11
5.4800411274
 21
17.5649055334
 12
5.6642502312
 22
17.5649055334
 13
5.6642502312
 23
17.5649055334
  0
SOLID
  8
0
 62
2
  6
CONTINUOUS
 10
5.6642502312
 20
17.5649055334
 11
5.7211739748
 21
17.5395614499
 12
5.4231173838
 22
17.5395614499
 13
5.4231173838
 23
17.5395614499
  0
SOLID
  8
0
 62
2
  6
CONTINUOUS
 10
5.3727068918
 20
17.5029360837
 11
5.4231173838
 21
17.5395614499
 12
5.7211739748
 22
17.5395614499
 13
5.7211739748
 23
17.5395614499
  0
SOLID
  8
0
 62
2
  6
CONTINUOUS
 10
5.7211739748
 20
17.5395614499
 11
5.7715844667
 21
17.5029360837
 12
5.3727068918
 22
17.5029360837
 13
5.3727068918
 23
17.5029360837
  0
SOLID
  8
0
 62
2
  6
CONTINUOUS
 10
5.3310128319
 20
17.4566301389
 11
5.3727068918
 21
17.5029360837
 12
5.7715844667
 22
17.5029360837
 13
5.7715844667
 23
17.5029360837
  0
SOLID
  8
0
 62
2
  6
CONTINUOUS
 10
5.7715844667
 20
17.5029360837
 11
5.8132785267
 21
17.4566301389
 12
5.3310128319
 22
17.4566301389
 13
5.3310128319
 23
17.4566301389
  0
SOLID
  8
0
 62
2
  6
CONTINUOUS
 10
5.5721456793
 20
17.4062062854
 11
5.2998574345
 21
17.4026674076
 12
5.8132785267
 22
17.4566301389
 13
5.8132785267
 23
17.4566301389
  0
SOLID
  8
0
 62
2
  6
CONTINUOUS
 10
5.2998574345
 20
17.4026674076
 11
5.3310128319
 21
17.4566301389
 12
5.8132785267
 22
17.4566301389
 13
5.8132785267
 23
17.4566301389
  0
SOLID
  8
0
 62
2
  6
CONTINUOUS
 10
5.8132785267
 20
17.4566301389
 11
5.8444339241
 21
17.4026674076
 12
5.5721456793
 22
17.4062062854
 13
5.5721456793
 23
17.4062062854
  0
SOLID
  8
0
 62
2
  6
CONTINUOUS
 10
5.5721456793
 20
17.4062062854
 11
5.5335898097
 21
17.4000996356
 12
5.2998574345
 22
17.4026674076
 13
5.2998574345
 23
17.4026674076
  0
SOLID
  8
0
 62
2
  6
CONTINUOUS
 10
5.6107015489
 20
17.4000996356
 11
5.5721456793
 21
17.4062062854
 12
5.8444339241
 22
17.4026674076
 13
5.8444339241
 23
17.4026674076
  0
SOLID
  8
0
 62
2
  6
CONTINUOUS
 10
5.4712051021
 20
17.3547744925
 11
5.2806023399
 21
17.3434063202
 12
5.4988080572
 22
17.3823774475
 13
5.4988080572
 23
17.3823774475
  0
SOLID
  8
0
 62
2
  6
CONTINUOUS
 10
5.4988080572
 20
17.3823774475
 11
5.2806023399
 21
17.3434063202
 12
5.5335898097
 22
17.4000996356
 13
5.5335898097
 23
17.4000996356
  0
SOLID
  8
0
 62
2
  6
CONTINUOUS
 10
5.2806023399
 20
17.3434063202
 11
5.2998574345
 21
17.4026674076
 12
5.5335898097
 22
17.4000996356
 13
5.5335898097
 23
17.4000996356
  0
SOLID
  8
0
 62
2
  6
CONTINUOUS
 10
5.6107015489
 20
17.4000996356
 11
5.8444339241
 21
17.4026674076
 12
5.6454833014
 22
17.3823774475
 13
5.6454833014
 23
17.3823774475
  0
SOLID
  8
0
 62
2
  6
CONTINUOUS
 10
5.6454833014
 20
17.3823774475
 11
5.8444339241
 21
17.4026674076
 12
5.6730862565
 22
17.3547744925
 13
5.6730862565
 23
17.3547744925
  0
SOLID
  8
0
 62
2
  6
CONTINUOUS
 10
5.8444339241
 20
17.4026674076
 11
5.8636890187
 21
17.3434063202
 12
5.6730862565
 22
17.3547744925
 13
5.6730862565
 23
17.3547744925
  0
SOLID
  8
0
 62
2
  6
CONTINUOUS
 10
5.4712051021
 20
17.3547744925
 11
5.453482914
 21
17.31999274
 12
5.2806023399
 22
17.3434063202
 13
5.2806023399
 23
17.3434063202
  0
SOLID
  8
0
 62
2
  6
CONTINUOUS
 10
5.6908084445
 20
17.31999274
 11
5.6730862565
 21
17.3547744925
 12
5.8636890187
 22
17.3434063202
 13
5.8636890187
 23
17.3434063202
  0
SOLID
  8
0
 62
2
  6
CONTINUOUS
 10
5.2740890883
 20
17.2814368704
 11
5.2806023399
 21
17.3434063202
 12
5.453482914
 22
17.31999274
 13
5.453482914
 23
17.31999274
  0
SOLID
  8
0
 62
2
  6
CONTINUOUS
 10
5.453482914
 20
17.31999274
 11
5.4473762642
 21
17.2814368704
 12
5.2740890883
 22
17.2814368704
 13
5.2740890883
 23
17.2814368704
  0
SOLID
  8
0
 62
2
  6
CONTINUOUS
 10
5.6908084445
 20
17.31999274
 11
5.8636890187
 21
17.3434063202
 12
5.6969150944
 22
17.2814368704
 13
5.6969150944
 23
17.2814368704
  0
SOLID
  8
0
 62
2
  6
CONTINUOUS
 10
5.8636890187
 20
17.3434063202
 11
5.8702022703
 21
17.2814368704
 12
5.6969150944
 22
17.2814368704
 13
5.6969150944
 23
17.2814368704
  0
SOLID
  8
0
 62
2
  6
CONTINUOUS
 10
5.6908084445
 20
17.2428810007
 11
5.6969150944
 21
17.2814368704
 12
5.8702022703
 22
17.2814368704
 13
5.8702022703
 23
17.2814368704
  0
SOLID
  8
0
 62
2
  6
CONTINUOUS
 10
5.453482914
 20
17.2428810007
 11
5.2806023399
 21
17.2194674206
 12
5.4473762642
 22
17.2814368704
 13
5.4473762642
 23
17.2814368704
  0
SOLID
  8
0
 62
2
  6
CONTINUOUS
 10
5.2806023399
 20
17.2194674206
 11
5.2740890883
 21
17.2814368704
 12
5.4473762642
 22
17.2814368704
 13
5.4473762642
 23
17.2814368704
  0
SOLID
  8
0
 62
2
  6
CONTINUOUS
 10
5.8702022703
 20
17.2814368704
 11
5.8636890187
 21
17.2194674206
 12
5.6908084445
 22
17.2428810007
 13
5.6908084445
 23
17.2428810007
  0
SOLID
  8
0
 62
2
  6
CONTINUOUS
 10
5.453482914
 20
17.2428810007
 11
5.4712051021
 21
17.2080992482
 12
5.2806023399
 22
17.2194674206
 13
5.2806023399
 23
17.2194674206
  0
SOLID
  8
0
 62
2
  6
CONTINUOUS
 10
5.6730862565
 20
17.2080992482
 11
5.6908084445
 21
17.2428810007
 12
5.8636890187
 22
17.2194674206
 13
5.8636890187
 23
17.2194674206
  0
SOLID
  8
0
 62
2
  6
CONTINUOUS
 10
5.5335898097
 20
17.1627741051
 11
5.2998574345
 21
17.1602063331
 12
5.4988080572
 22
17.1804962932
 13
5.4988080572
 23
17.1804962932
  0
SOLID
  8
0
 62
2
  6
CONTINUOUS
 10
5.4988080572
 20
17.1804962932
 11
5.2998574345
 21
17.1602063331
 12
5.4712051021
 22
17.2080992482
 13
5.4712051021
 23
17.2080992482
  0
SOLID
  8
0
 62
2
  6
CONTINUOUS
 10
5.2998574345
 20
17.1602063331
 11
5.2806023399
 21
17.2194674206
 12
5.4712051021
 22
17.2080992482
 13
5.4712051021
 23
17.2080992482
  0
SOLID
  8
0
 62
2
  6
CONTINUOUS
 10
5.6730862565
 20
17.2080992482
 11
5.8636890187
 21
17.2194674206
 12
5.6454833014
 22
17.1804962932
 13
5.6454833014
 23
17.1804962932
  0
SOLID
  8
0
 62
2
  6
CONTINUOUS
 10
5.6454833014
 20
17.1804962932
 11
5.8636890187
 21
17.2194674206
 12
5.6107015489
 22
17.1627741051
 13
5.6107015489
 23
17.1627741051
  0
SOLID
  8
0
 62
2
  6
CONTINUOUS
 10
5.8636890187
 20
17.2194674206
 11
5.8444339241
 21
17.1602063331
 12
5.6107015489
 22
17.1627741051
 13
5.6107015489
 23
17.1627741051
  0
SOLID
  8
0
 62
2
  6
CONTINUOUS
 10
5.5335898097
 20
17.1627741051
 11
5.5721456793
 21
17.1566674553
 12
5.2998574345
 22
17.1602063331
 13
5.2998574345
 23
17.1602063331
  0
SOLID
  8
0
 62
2
  6
CONTINUOUS
 10
5.5721456793
 20
17.1566674553
 11
5.6107015489
 21
17.1627741051
 12
5.8444339241
 22
17.1602063331
 13
5.8444339241
 23
17.1602063331
  0
SOLID
  8
0
 62
2
  6
CONTINUOUS
 10
5.3310128319
 20
17.1062436018
 11
5.2998574345
 21
17.1602063331
 12
5.5721456793
 22
17.1566674553
 13
5.5721456793
 23
17.1566674553
  0
SOLID
  8
0
 62
2
  6
CONTINUOUS
 10
5.5721456793
 20
17.1566674553
 11
5.8444339241
 21
17.1602063331
 12
5.3310128319
 22
17.1062436018
 13
5.3310128319
 23
17.1062436018
  0
SOLID
  8
0
 62
2
  6
CONTINUOUS
 10
5.8444339241
 20
17.1602063331
 11
5.8132785267
 21
17.1062436018
 12
5.3310128319
 22
17.1062436018
 13
5.3310128319
 23
17.1062436018
  0
SOLID
  8
0
 62
2
  6
CONTINUOUS
 10
5.3727068918
 20
17.0599376571
 11
5.3310128319
 21
17.1062436018
 12
5.8132785267
 22
17.1062436018
 13
5.8132785267
 23
17.1062436018
  0
SOLID
  8
0
 62
2
  6
CONTINUOUS
 10
5.8132785267
 20
17.1062436018
 11
5.7715844667
 21
17.0599376571
 12
5.3727068918
 22
17.0599376571
 13
5.3727068918
 23
17.0599376571
  0
SOLID
  8
0
 62
2
  6
CONTINUOUS
 10
5.4231173838
 20
17.0233122908
 11
5.3727068918
 21
17.0599376571
 12
5.7715844667
 22
17.0599376571
 13
5.7715844667
 23
17.0599376571
  0
SOLID
  8
0
 62
2
  6
CONTINUOUS
 10
5.7715844667
 20
17.0599376571
 11
5.7211739748
 21
17.0233122908
 12
5.4231173838
 22
17.0233122908
 13
5.4231173838
 23
17.0233122908
  0
SOLID
  8
0
 62
2
  6
CONTINUOUS
 10
5.4800411274
 20
16.9979682073
 11
5.4231173838
 21
17.0233122908
 12
5.7211739748
 22
17.0233122908
 13
5.7211739748
 23
17.0233122908
  0
SOLID
  8
0
 62
2
  6
CONTINUOUS
 10
5.7211739748
 20
17.0233122908
 11
5.6642502312
 21
16.9979682073
 12
5.4800411274
 22
16.9979682073
 13
5.4800411274
 23
16.9979682073
  0
SOLID
  8
0
 62
2
  6
CONTINUOUS
 10
5.5409902819
 20
16.9850130646
 11
5.4800411274
 21
16.9979682073
 12
5.6642502312
 22
16.9979682073
 13
5.6642502312
 23
16.9979682073
  0
SOLID
  8
0
 62
2
  6
CONTINUOUS
 10
5.6642502312
 20
16.9979682073
 11
5.6033010767
 21
16.9850130646
 12
5.5409902819
 22
16.9850130646
 13
5.5409902819
 23
16.9850130646
  0
SOLID
  8
0
 62
2
  6
CONTINUOUS
 10
6.2000480086
 20
17.3551311873
 11
6.2000480086
 21
17.5755149469
 12
6.3647816885
 22
17.5755149469
 13
6.3647816885
 23
17.5755149469
  0
SOLID
  8
0
 62
2
  6
CONTINUOUS
 10
6.2000480086
 20
17.3551311873
 11
6.0520511975
 21
17.2179259073
 12
6.0520511975
 22
17.3551311873
 13
6.0520511975
 23
17.3551311873
  0
SOLID
  8
0
 62
2
  6
CONTINUOUS
 10
6.0520511975
 20
17.2179259073
 11
5.8873175177
 21
16.9896012975
 12
6.0520511975
 22
17.3551311873
 13
6.0520511975
 23
17.3551311873
  0
SOLID
  8
0
 62
2
  6
CONTINUOUS
 10
6.0520511975
 20
17.3551311873
 11
5.8873175177
 21
16.9896012975
 12
6.0520511975
 22
17.5755149469
 13
6.0520511975
 23
17.5755149469
  0
SOLID
  8
0
 62
2
  6
CONTINUOUS
 10
5.8873175177
 20
16.9896012975
 11
5.8873175177
 21
17.5755149469
 12
6.0520511975
 22
17.5755149469
 13
6.0520511975
 23
17.5755149469
  0
SOLID
  8
0
 62
2
  6
CONTINUOUS
 10
6.0520511975
 20
17.2179259073
 11
6.0520511975
 21
16.9896012975
 12
5.8873175177
 22
16.9896012975
 13
5.8873175177
 23
16.9896012975
  0
SOLID
  8
0
 62
2
  6
CONTINUOUS
 10
6.0520511975
 20
17.2179259073
 11
6.2000480086
 21
17.3551311873
 12
6.2000480086
 22
17.2179259073
 13
6.2000480086
 23
17.2179259073
  0
SOLID
  8
0
 62
2
  6
CONTINUOUS
 10
6.2000480086
 20
17.3551311873
 11
6.3647816885
 21
17.5755149469
 12
6.2000480086
 22
17.2179259073
 13
6.2000480086
 23
17.2179259073
  0
SOLID
  8
0
 62
2
  6
CONTINUOUS
 10
6.2000480086
 20
17.2179259073
 11
6.3647816885
 21
17.5755149469
 12
6.2000480086
 22
16.9896012975
 13
6.2000480086
 23
16.9896012975
  0
SOLID
  8
0
 62
2
  6
CONTINUOUS
 10
6.3647816885
 20
17.5755149469
 11
6.3647816885
 21
16.9896012975
 12
6.2000480086
 22
16.9896012975
 13
6.2000480086
 23
16.9896012975
  0
SOLID
  8
0
 62
2
  6
CONTINUOUS
 10
6.7225566654
 20
17.1308280547
 11
6.4098265327
 21
16.9896012975
 12
6.5598725954
 22
17.1308280547
 13
6.5598725954
 23
17.1308280547
  0
SOLID
  8
0
 62
2
  6
CONTINUOUS
 10
6.5598725954
 20
17.1308280547
 11
6.4098265327
 21
16.9896012975
 12
6.5598725954
 22
17.5755149469
 13
6.5598725954
 23
17.5755149469
  0
SOLID
  8
0
 62
2
  6
CONTINUOUS
 10
6.4098265327
 20
16.9896012975
 11
6.4098265327
 21
17.5755149469
 12
6.5598725954
 22
17.5755149469
 13
6.5598725954
 23
17.5755149469
  0
SOLID
  8
0
 62
2
  6
CONTINUOUS
 10
6.4098265327
 20
16.9896012975
 11
6.7225566654
 21
17.1308280547
 12
6.5598725954
 22
16.9896012975
 13
6.5598725954
 23
16.9896012975
  0
SOLID
  8
0
 62
2
  6
CONTINUOUS
 10
6.7225566654
 20
17.1308280547
 11
6.7225566654
 21
16.9896012975
 12
6.5598725954
 22
16.9896012975
 13
6.5598725954
 23
16.9896012975
  0
SOLID
  8
0
 62
2
  6
CONTINUOUS
 10
7.0608085794
 20
17.5755149469
 11
7.0608085794
 21
17.4327555501
 12
6.909951056
 22
17.4327555501
 13
6.909951056
 23
17.4327555501
  0
SOLID
  8
0
 62
2
  6
CONTINUOUS
 10
7.0608085794
 20
17.3551311873
 11
7.0608085794
 21
17.2107495857
 12
6.909951056
 22
17.2107495857
 13
6.909951056
 23
17.2107495857
  0
SOLID
  8
0
 62
2
  6
CONTINUOUS
 10
7.0608085794
 20
17.1308280547
 11
6.7517044041
 21
16.9896012975
 12
6.909951056
 22
17.1308280547
 13
6.909951056
 23
17.1308280547
  0
SOLID
  8
0
 62
2
  6
CONTINUOUS
 10
6.909951056
 20
17.1308280547
 11
6.7517044041
 21
16.9896012975
 12
6.909951056
 22
17.2107495857
 13
6.909951056
 23
17.2107495857
  0
SOLID
  8
0
 62
2
  6
CONTINUOUS
 10
7.0608085794
 20
17.3551311873
 11
6.909951056
 21
17.2107495857
 12
6.909951056
 22
17.3551311873
 13
6.909951056
 23
17.3551311873
  0
SOLID
  8
0
 62
2
  6
CONTINUOUS
 10
6.909951056
 20
17.2107495857
 11
6.7517044041
 21
16.9896012975
 12
6.909951056
 22
17.3551311873
 13
6.909951056
 23
17.3551311873
  0
SOLID
  8
0
 62
2
  6
CONTINUOUS
 10
6.909951056
 20
17.3551311873
 11
6.7517044041
 21
16.9896012975
 12
6.909951056
 22
17.4327555501
 13
6.909951056
 23
17.4327555501
  0
SOLID
  8
0
 62
2
  6
CONTINUOUS
 10
7.0608085794
 20
17.5755149469
 11
6.909951056
 21
17.4327555501
 12
6.9241553794
 22
17.5755149469
 13
6.9241553794
 23
17.5755149469
  0
SOLID
  8
0
 62
2
  6
CONTINUOUS
 10
6.909951056
 20
17.4327555501
 11
6.7517044041
 21
16.9896012975
 12
6.9241553794
 22
17.5755149469
 13
6.9241553794
 23
17.5755149469
  0
SOLID
  8
0
 62
2
  6
CONTINUOUS
 10
6.7517044041
 20
16.9896012975
 11
6.7517044041
 21
17.5755149469
 12
6.9241553794
 22
17.5755149469
 13
6.9241553794
 23
17.5755149469
  0
SOLID
  8
0
 62
2
  6
CONTINUOUS
 10
7.0608085794
 20
17.1308280547
 11
7.0608085794
 21
16.9896012975
 12
6.7517044041
 22
16.9896012975
 13
6.7517044041
 23
16.9896012975
  0
SOLID
  8
0
 62
2
  6
CONTINUOUS
 10
7.3391764948
 20
17.5755220525
 11
7.3861095183
 21
17.5691118041
 12
7.1056287941
 22
17.5755149469
 13
7.1056287941
 23
17.5755149469
  0
SOLID
  8
0
 62
2
  6
CONTINUOUS
 10
7.2562846167
 20
17.4329361136
 11
7.5102243578
 21
17.4375654491
 12
7.3122144981
 22
17.4329361136
 13
7.3122144981
 23
17.4329361136
  0
SOLID
  8
0
 62
2
  6
CONTINUOUS
 10
7.3122144981
 20
17.4329361136
 11
7.5102243578
 21
17.4375654491
 12
7.3359370797
 22
17.4274019452
 13
7.3359370797
 23
17.4274019452
  0
SOLID
  8
0
 62
2
  6
CONTINUOUS
 10
7.3359370797
 20
17.4274019452
 11
7.5102243578
 21
17.4375654491
 12
7.3547620674
 22
17.4119420702
 13
7.3547620674
 23
17.4119420702
  0
SOLID
  8
0
 62
2
  6
CONTINUOUS
 10
7.5102243578
 20
17.4375654491
 11
7.5138976042
 21
17.3903393203
 12
7.3547620674
 22
17.4119420702
 13
7.3547620674
 23
17.4119420702
  0
SOLID
  8
0
 62
2
  6
CONTINUOUS
 10
7.364803006
 20
17.3897482096
 11
7.3547620674
 21
17.4119420702
 12
7.5138976042
 22
17.3903393203
 13
7.5138976042
 23
17.3903393203
  0
SOLID
  8
0
 62
2
  6
CONTINUOUS
 10
7.364803006
 20
17.3897482096
 11
7.5138976042
 21
17.3903393203
 12
7.3639869243
 22
17.3654023289
 13
7.3639869243
 23
17.3654023289
  0
SOLID
  8
0
 62
2
  6
CONTINUOUS
 10
7.3639869243
 20
17.3654023289
 11
7.5138976042
 21
17.3903393203
 12
7.352482304
 22
17.3439306823
 13
7.352482304
 23
17.3439306823
  0
SOLID
  8
0
 62
2
  6
CONTINUOUS
 10
7.5138976042
 20
17.3903393203
 11
7.5047720005
 21
17.3438578902
 12
7.352482304
 22
17.3439306823
 13
7.352482304
 23
17.3439306823
  0
SOLID
  8
0
 62
2
  6
CONTINUOUS
 10
7.3326642961
 20
17.3297661328
 11
7.352482304
 21
17.3439306823
 12
7.5047720005
 22
17.3438578902
 13
7.5047720005
 23
17.3438578902
  0
SOLID
  8
0
 62
2
  6
CONTINUOUS
 10
7.3326642961
 20
17.3297661328
 11
7.5047720005
 21
17.3438578902
 12
7.3086243669
 22
17.3258329791
 13
7.3086243669
 23
17.3258329791
  0
SOLID
  8
0
 62
2
  6
CONTINUOUS
 10
7.5047720005
 20
17.3438578902
 11
7.4835160248
 21
17.3015260643
 12
7.3086243669
 22
17.3258329791
 13
7.3086243669
 23
17.3258329791
  0
SOLID
  8
0
 62
2
  6
CONTINUOUS
 10
7.4116157424
 20
17.2411838388
 11
7.2562846167
 21
17.1865576684
 12
7.4516867417
 22
17.2664447771
 13
7.4516867417
 23
17.2664447771
  0
SOLID
  8
0
 62
2
  6
CONTINUOUS
 10
7.4516867417
 20
17.2664447771
 11
7.2562846167
 21
17.1865576684
 12
7.4835160248
 22
17.3015260643
 13
7.4835160248
 23
17.3015260643
  0
SOLID
  8
0
 62
2
  6
CONTINUOUS
 10
7.4835160248
 20
17.3015260643
 11
7.2562846167
 21
17.1865576684
 12
7.3086243669
 22
17.3258329791
 13
7.3086243669
 23
17.3258329791
  0
SOLID
  8
0
 62
2
  6
CONTINUOUS
 10
7.2562846167
 20
17.1865576684
 11
7.1056287941
 21
16.9896012975
 12
7.3086243669
 22
17.3258329791
 13
7.3086243669
 23
17.3258329791
  0
SOLID
  8
0
 62
2
  6
CONTINUOUS
 10
7.3086243669
 20
17.3258329791
 11
7.1056287941
 21
16.9896012975
 12
7.2562846167
 22
17.3258329791
 13
7.2562846167
 23
17.3258329791
  0
SOLID
  8
0
 62
2
  6
CONTINUOUS
 10
7.2562846167
 20
17.3258329791
 11
7.1056287941
 21
16.9896012975
 12
7.2562846167
 22
17.4329361136
 13
7.2562846167
 23
17.4329361136
  0
SOLID
  8
0
 62
2
  6
CONTINUOUS
 10
7.5102243578
 20
17.4375654491
 11
7.2562846167
 21
17.4329361136
 12
7.4940213377
 22
17.4820768198
 13
7.4940213377
 23
17.4820768198
  0
SOLID
  8
0
 62
2
  6
CONTINUOUS
 10
7.4940213377
 20
17.4820768198
 11
7.2562846167
 21
17.4329361136
 12
7.4664754641
 22
17.5206128398
 13
7.4664754641
 23
17.5206128398
  0
SOLID
  8
0
 62
2
  6
CONTINUOUS
 10
7.4664754641
 20
17.5206128398
 11
7.2562846167
 21
17.4329361136
 12
7.4296045558
 22
17.5503506289
 13
7.4296045558
 23
17.5503506289
  0
SOLID
  8
0
 62
2
  6
CONTINUOUS
 10
7.4296045558
 20
17.5503506289
 11
7.2562846167
 21
17.4329361136
 12
7.3861095183
 22
17.5691118041
 13
7.3861095183
 23
17.5691118041
  0
SOLID
  8
0
 62
2
  6
CONTINUOUS
 10
7.3861095183
 20
17.5691118041
 11
7.2562846167
 21
17.4329361136
 12
7.1056287941
 22
17.5755149469
 13
7.1056287941
 23
17.5755149469
  0
SOLID
  8
0
 62
2
  6
CONTINUOUS
 10
7.1056287941
 20
16.9896012975
 11
7.1056287941
 21
17.5755149469
 12
7.2562846167
 22
17.4329361136
 13
7.2562846167
 23
17.4329361136
  0
SOLID
  8
0
 62
2
  6
CONTINUOUS
 10
7.2562846167
 20
17.1865576684
 11
7.2562846167
 21
16.9896012975
 12
7.1056287941
 22
16.9896012975
 13
7.1056287941
 23
16.9896012975
  0
SOLID
  8
0
 62
2
  6
CONTINUOUS
 10
7.2562846167
 20
17.1865576684
 11
7.4116157424
 21
17.2411838388
 12
7.3811080458
 22
16.9896012975
 13
7.3811080458
 23
16.9896012975
  0
SOLID
  8
0
 62
2
  6
CONTINUOUS
 10
7.4116157424
 20
17.2411838388
 11
7.5710589854
 21
16.9896012975
 12
7.3811080458
 22
16.9896012975
 13
7.3811080458
 23
16.9896012975
  0
DIMENSION
  8
0
 62
2
  6
CONTINUOUS
  2
*D0
 10
13.4479456206
 20
4.9031272532
 11
13.4479456206
 21
13.1597133219
 70
128
 13
13.2214285407
 23
19.0375230066
 14
13.2214287527
 24
4.9031272532
 50
270.0
  0
DIMENSION
  8
0
 62
2
  6
CONTINUOUS
  2
*D1
 10
4.6843680895
 20
12.2336131507
 11
9.5811689498
 21
12.1164256507
 70
128
 13
21.6307002765
 23
12.0363579434
 14
4.6843680895
 24
12.0363579412
 50
180.0
  0
TEXT
  8
___NOTE
 62
2
  6
CONTINUOUS
 10
4.8486234985
 20
16.5821407998
  7
STANDARD
 40
0.25
  1
CUT-OUT TEMPLATE
 41
0.8
 72
0
  0
TEXT
  8
___NOTE
 62
2
  6
CONTINUOUS
 10
4.8486234985
 20
16.2071407998
  7
STANDARD
 40
0.25
  1
COUNTERTOP LAVATORY
 41
0.8
 72
0
  0
TEXT
  8
___NOTE
 62
2
  6
CONTINUOUS
 10
4.8486234985
 20
15.8321407998
  7
STANDARD
 40
0.25
  1
PLANTILLA DE ROCORTE
 41
0.8
 72
0
  0
TEXT
  8
___NOTE
 62
2
  6
CONTINUOUS
 10
4.8486234985
 20
15.4571407998
  7
STANDARD
 40
0.25
  1
LAVABO CON MOSTRADOR
 41
0.8
 72
0
  0
TEXT
  8
___NOTE
 62
2
  6
CONTINUOUS
 10
4.8486234985
 20
15.0821407998
  7
STANDARD
 40
0.25
  1
GABARIT
 41
0.8
 72
0
  0
TEXT
  8
___NOTE
 62
2
  6
CONTINUOUS
 10
4.8486234985
 20
14.7071407998
  7
STANDARD
 40
0.25
  1
LAVABO AVEC COMPTOIR
 41
0.8
 72
0
  0
TEXT
  8
___NOTE
 62
2
  6
CONTINUOUS
 10
4.8486234985
 20
14.3321407998
  7
STANDARD
 40
0.25
  1
DEMILAV  WADING POOL  LAVATORY 2833-**-AA
 41
0.8
 72
0
  0
TEXT
  8
___NOTE
 62
2
  6
CONTINUOUS
 10
6.2782376294
 20
14.4782600285
  7
TEXTSTYLE_1
 40
0.094
  1
TM
 41
1.0
 72
0
  0
TEXT
  8
___NOTE
 62
2
  6
CONTINUOUS
 10
8.830759818
 20
14.5215267528
  7
TEXTSTYLE_1
 40
0.094
  1
TM
 41
1.0
 72
0
  0
TEXT
  8
___NOTE
 62
2
  6
CONTINUOUS
 10
17.6702176586
 20
16.3129162444
  7
STANDARD
 40
0.15625
  1
RIM OF LAVATORY
 41
0.8
 72
0
  0
TEXT
  8
___NOTE
 62
2
  6
CONTINUOUS
 10
17.2952176586
 20
16.0785412444
  7
STANDARD
 40
0.15625
  1
REBORDE DEL LAVABO
 41
0.8
 72
0
  0
TEXT
  8
___NOTE
 62
2
  6
CONTINUOUS
 10
17.5452176586
 20
15.8441662444
  7
STANDARD
 40
0.15625
  1
REBORD DE LAVABO
 41
0.8
 72
0
  0
LINE
  8
___NOTE
 62
2
  6
CONTINUOUS
 10
22.3038748559
 20
17.4612795473
 11
19.7952176586
 21
16.3910412444
  0
LINE
  8
___NOTE
 62
2
  6
CONTINUOUS
 10
19.7952176586
 20
16.3910412444
 11
19.5452176586
 21
16.3910412444
  0
POLYLINE
  8
___NOTE
 62
2
  6
CONTINUOUS
 66
1
 70
0
  0
VERTEX
  8
___NOTE
 62
2
  6
CONTINUOUS
 10
22.143675945
 20
17.3589608225
  0
VERTEX
  8
___NOTE
 62
2
  6
CONTINUOUS
 10
22.3038748559
 20
17.4612795473
  0
VERTEX
  8
___NOTE
 62
2
  6
CONTINUOUS
 10
22.1191508943
 20
17.4164479679
  0
VERTEX
  8
___NOTE
 62
2
  6
CONTINUOUS
 10
22.143675945
 20
17.3589608225
  0
SEQEND
  0
TEXT
  8
___NOTE
 62
2
  6
CONTINUOUS
 10
18.0006017042
 20
14.5398186304
  7
STANDARD
 40
0.15625
  1
CUT ALONG THIS LINE
 41
0.8
 72
0
  0
TEXT
  8
___NOTE
 62
2
  6
CONTINUOUS
 10
16.5006017042
 20
14.3054436304
  7
STANDARD
 40
0.15625
  1
 CORTE A LO LARGO DE ESTA LÍNEA
 41
0.8
 72
0
  0
TEXT
  8
___NOTE
 62
2
  6
CONTINUOUS
 10
16.3756017042
 20
14.0710686304
  7
STANDARD
 40
0.15625
  1
 DÉCOUPER AU LONG DE CETTE LIGNE
 41
0.8
 72
0
  0
LINE
  8
___NOTE
 62
2
  6
CONTINUOUS
 10
21.6371083419
 20
14.1563723125
 11
20.6256017042
 21
14.6179436304
  0
LINE
  8
___NOTE
 62
2
  6
CONTINUOUS
 10
20.6256017042
 20
14.6179436304
 11
20.3756017042
 21
14.6179436304
  0
POLYLINE
  8
___NOTE
 62
2
  6
CONTINUOUS
 66
1
 70
0
  0
VERTEX
  8
___NOTE
 62
2
  6
CONTINUOUS
 10
21.4535557281
 20
14.2057813245
  0
VERTEX
  8
___NOTE
 62
2
  6
CONTINUOUS
 10
21.6371083419
 20
14.1563723125
  0
VERTEX
  8
___NOTE
 62
2
  6
CONTINUOUS
 10
21.4795020354
 20
14.2626411445
  0
VERTEX
  8
___NOTE
 62
2
  6
CONTINUOUS
 10
21.4535557281
 20
14.2057813245
  0
SEQEND
  0
INSERT
  8
___SYMBOL
 62
2
  6
CONTINUOUS
  2
WHEN_PLOTTING_TEMPLATE_N_BL0
 10
17.0928277202
 20
9.2495238303
  0
INSERT
  8
___SYMBOL
 62
2
  6
CONTINUOUS
  2
PACKAGING_UPC_BL1
 10
9.5171361953
 20
9.0039287286
  0
INSERT
  8
___SYMBOL
 62
2
  6
CONTINUOUS
  2
TEMPLATE_NUMBER_BL2
 10
12.357506676
 20
5.1943050819
  0
INSERT
  8
___SYMBOL
 62
2
  6
CONTINUOUS
  2
TEMPLATE_NUMBER_BL3
 10
12.3031587791
 20
3.8133291229
  0
INSERT
  8
___SYMBOL
 62
2
  6
CONTINUOUS
  2
COPYRIGHT_YEAR_BL4
 10
14.2141355509
 20
5.1958677864
  0
LINE
  8
0
 62
2
  6
CONTINUOUS
 10
5.1633706478
 20
17.5755149469
 11
5.025606481
 21
17.4116937572
  0
LINE
  8
0
 62
2
  6
CONTINUOUS
 10
5.3554324598
 20
17.5755149469
 11
5.1421290079
 21
17.321866674
  0
LINE
  8
0
 62
2
  6
CONTINUOUS
 10
4.8511062541
 20
17.5755149469
 11
4.8511062541
 21
16.9895772941
  0
LINE
  8
0
 62
2
  6
CONTINUOUS
 10
5.025606481
 20
17.5755149469
 11
5.025606481
 21
17.4116937572
  0
LINE
  8
0
 62
2
  6
CONTINUOUS
 10
5.025606481
 20
17.1911011316
 11
5.025606481
 21
16.9896012975
  0
LINE
  8
0
 62
2
  6
CONTINUOUS
 10
5.8873175177
 20
17.5755149469
 11
5.8873175177
 21
16.9896012975
  0
LINE
  8
0
 62
2
  6
CONTINUOUS
 10
6.0520511975
 20
17.5755149469
 11
6.0520511975
 21
17.3551311873
  0
LINE
  8
0
 62
2
  6
CONTINUOUS
 10
6.0520511975
 20
17.2179259073
 11
6.0520511975
 21
16.9896012975
  0
LINE
  8
0
 62
2
  6
CONTINUOUS
 10
6.2000480086
 20
17.5755149469
 11
6.2000480086
 21
17.3551311873
  0
LINE
  8
0
 62
2
  6
CONTINUOUS
 10
6.2000480086
 20
17.2179259073
 11
6.2000480086
 21
16.9896012975
  0
LINE
  8
0
 62
2
  6
CONTINUOUS
 10
6.3647816885
 20
17.5755149469
 11
6.3647816885
 21
16.9896012975
  0
LINE
  8
0
 62
2
  6
CONTINUOUS
 10
6.4098265327
 20
16.9896012975
 11
6.4098265327
 21
17.5755149469
  0
LINE
  8
0
 62
2
  6
CONTINUOUS
 10
6.5598725954
 20
17.5755149469
 11
6.5598725954
 21
17.1308280547
  0
LINE
  8
0
 62
2
  6
CONTINUOUS
 10
6.7225566654
 20
17.1308280547
 11
6.7225566654
 21
16.9896012975
  0
LINE
  8
0
 62
2
  6
CONTINUOUS
 10
6.7517044041
 20
16.9896012975
 11
6.7517044041
 21
17.5755149469
  0
LINE
  8
0
 62
2
  6
CONTINUOUS
 10
6.909951056
 20
17.4327555501
 11
6.909951056
 21
17.3551311873
  0
LINE
  8
0
 62
2
  6
CONTINUOUS
 10
6.909951056
 20
17.2107495857
 11
6.909951056
 21
17.1308280547
  0
LINE
  8
0
 62
2
  6
CONTINUOUS
 10
7.0608085794
 20
16.9896012975
 11
7.0608085794
 21
17.1308280547
  0
LINE
  8
0
 62
2
  6
CONTINUOUS
 10
7.0608085794
 20
17.2107495857
 11
7.0608085794
 21
17.3551311873
  0
LINE
  8
0
 62
2
  6
CONTINUOUS
 10
7.0608085794
 20
17.4327555501
 11
7.0608085794
 21
17.5755149469
  0
LINE
  8
0
 62
2
  6
CONTINUOUS
 10
7.1056287941
 20
16.9896012975
 11
7.1056287941
 21
17.5755149469
  0
LINE
  8
0
 62
2
  6
CONTINUOUS
 10
7.2562846167
 20
17.4329361136
 11
7.2562846167
 21
17.3258329791
  0
LINE
  8
0
 62
2
  6
CONTINUOUS
 10
7.2562846167
 20
17.1865576684
 11
7.2562846167
 21
16.9896012975
  0
LINE
  8
0
 62
2
  6
CONTINUOUS
 10
7.6959429606
 20
16.9567606068
 11
7.6959429606
 21
17.0227268057
  0
LINE
  8
0
 62
2
  6
CONTINUOUS
 10
5.1793444211
 20
16.9896012975
 11
5.025606481
 21
17.1911011316
  0
LINE
  8
0
 62
2
  6
CONTINUOUS
 10
5.3956368426
 20
16.9896012975
 11
5.1421290079
 21
17.321866674
  0
LINE
  8
0
 62
2
  6
CONTINUOUS
 10
7.3811080458
 20
16.9896012975
 11
7.2562846167
 21
17.1865576684
  0
LINE
  8
0
 62
2
  6
CONTINUOUS
 10
7.5710589854
 20
16.9896012975
 11
7.4116157424
 21
17.2411838388
  0
LINE
  8
0
 62
2
  6
CONTINUOUS
 10
7.7075409368
 20
16.9890635481
 11
7.7394089496
 21
16.9567606068
  0
LINE
  8
0
 62
2
  6
CONTINUOUS
 10
5.025606481
 20
16.9896012975
 11
4.8511062541
 21
16.9895772941
  0
LINE
  8
0
 62
2
  6
CONTINUOUS
 10
7.7202222936
 20
16.9890635481
 11
7.6959429606
 21
16.9890635481
  0
LINE
  8
0
 62
2
  6
CONTINUOUS
 10
6.3647816885
 20
16.9896012975
 11
6.2000480086
 21
16.9896012975
  0
LINE
  8
0
 62
2
  6
CONTINUOUS
 10
6.0520511975
 20
16.9896012975
 11
5.8873175177
 21
16.9896012975
  0
LINE
  8
0
 62
2
  6
CONTINUOUS
 10
5.1793444211
 20
16.9896012975
 11
5.3956368426
 21
16.9896012975
  0
LINE
  8
0
 62
2
  6
CONTINUOUS
 10
6.4098265327
 20
16.9896012975
 11
6.7225566654
 21
16.9896012975
  0
LINE
  8
0
 62
2
  6
CONTINUOUS
 10
6.7517044041
 20
16.9896012975
 11
7.0608085794
 21
16.9896012975
  0
LINE
  8
0
 62
2
  6
CONTINUOUS
 10
7.1056287941
 20
16.9896012975
 11
7.2562846167
 21
16.9896012975
  0
LINE
  8
0
 62
2
  6
CONTINUOUS
 10
7.3811080458
 20
16.9896012975
 11
7.5710589854
 21
16.9896012975
  0
LINE
  8
0
 62
2
  6
CONTINUOUS
 10
7.6959429606
 20
17.0227268057
 11
7.7202222936
 21
17.0227268057
  0
LINE
  8
0
 62
2
  6
CONTINUOUS
 10
6.5598725954
 20
17.1308280547
 11
6.7225566654
 21
17.1308280547
  0
LINE
  8
0
 62
2
  6
CONTINUOUS
 10
6.909951056
 20
17.1308280547
 11
7.0608085794
 21
17.1308280547
  0
LINE
  8
0
 62
2
  6
CONTINUOUS
 10
6.909951056
 20
17.2107495857
 11
7.0608085794
 21
17.2107495857
  0
LINE
  8
0
 62
2
  6
CONTINUOUS
 10
6.0520511975
 20
17.2179259073
 11
6.2000480086
 21
17.2179259073
  0
LINE
  8
0
 62
2
  6
CONTINUOUS
 10
7.2562846167
 20
17.3258329791
 11
7.3086243669
 21
17.3258329791
  0
LINE
  8
0
 62
2
  6
CONTINUOUS
 10
6.0520511975
 20
17.3551311873
 11
6.2000480086
 21
17.3551311873
  0
LINE
  8
0
 62
2
  6
CONTINUOUS
 10
6.909951056
 20
17.3551311873
 11
7.0608085794
 21
17.3551311873
  0
LINE
  8
0
 62
2
  6
CONTINUOUS
 10
6.909951056
 20
17.4327555501
 11
7.0608085794
 21
17.4327555501
  0
LINE
  8
0
 62
2
  6
CONTINUOUS
 10
7.3122144981
 20
17.4329361136
 11
7.2562846167
 21
17.4329361136
  0
LINE
  8
0
 62
2
  6
CONTINUOUS
 10
4.8511062541
 20
17.5755149469
 11
5.025606481
 21
17.5755149469
  0
LINE
  8
0
 62
2
  6
CONTINUOUS
 10
5.1633706478
 20
17.5755149469
 11
5.3554324598
 21
17.5755149469
  0
LINE
  8
0
 62
2
  6
CONTINUOUS
 10
5.8873175177
 20
17.5755149469
 11
6.0520511975
 21
17.5755149469
  0
LINE
  8
0
 62
2
  6
CONTINUOUS
 10
6.2000480086
 20
17.5755149469
 11
6.3647816885
 21
17.5755149469
  0
LINE
  8
0
 62
2
  6
CONTINUOUS
 10
6.4098265327
 20
17.5755149469
 11
6.5598725954
 21
17.5755149469
  0
LINE
  8
0
 62
2
  6
CONTINUOUS
 10
6.7517044041
 20
17.5755149469
 11
7.0608085794
 21
17.5755149469
  0
LINE
  8
0
 62
2
  6
CONTINUOUS
 10
7.1056287941
 20
17.5755149469
 11
7.3391764948
 21
17.5755149469
  0
POLYLINE
  8
_CURVE
 62
8
  6
HIDDEN
 66
1
 70
0
  0
VERTEX
  8
_CURVE
 62
8
  6
HIDDEN
 10
3.9843145325
 20
18.8032674844
  0
VERTEX
  8
_CURVE
 62
8
  6
HIDDEN
 10
3.9936206861
 20
18.3849741503
  0
VERTEX
  8
_CURVE
 62
8
  6
HIDDEN
 10
4.0025932973
 20
17.938764144
  0
VERTEX
  8
_CURVE
 62
8
  6
HIDDEN
 10
4.0111933747
 20
17.4612875305
  0
VERTEX
  8
_CURVE
 62
8
  6
HIDDEN
 10
4.0193847717
 20
16.948020381
  0
VERTEX
  8
_CURVE
 62
8
  6
HIDDEN
 10
4.0271212944
 20
16.3925594616
  0
VERTEX
  8
_CURVE
 62
8
  6
HIDDEN
 10
4.0343411971
 20
15.785260109
  0
VERTEX
  8
_CURVE
 62
8
  6
HIDDEN
 10
4.0409564567
 20
15.1102144364
  0
VERTEX
  8
_CURVE
 62
8
  6
HIDDEN
 10
4.0468072119
 20
14.3402623239
  0
VERTEX
  8
_CURVE
 62
8
  6
HIDDEN
 10
4.0514373275
 20
13.4528301417
  0
VERTEX
  8
_CURVE
 62
8
  6
HIDDEN
 10
4.0530595234
 20
12.9634835366
  0
VERTEX
  8
_CURVE
 62
8
  6
HIDDEN
 10
4.054034056
 20
12.4741352061
  0
VERTEX
  8
_CURVE
 62
8
  6
HIDDEN
 10
4.0543680225
 20
11.9808870706
  0
VERTEX
  8
_CURVE
 62
8
  6
HIDDEN
 10
4.0540526081
 20
11.4876389229
  0
VERTEX
  8
_CURVE
 62
8
  6
HIDDEN
 10
4.053095268
 20
10.9977263298
  0
VERTEX
  8
_CURVE
 62
8
  6
HIDDEN
 10
4.0514892916
 20
10.5078154401
  0
VERTEX
  8
_CURVE
 62
8
  6
HIDDEN
 10
4.0468637259
 20
9.6157631797
  0
VERTEX
  8
_CURVE
 62
8
  6
HIDDEN
 10
4.0410006883
 20
8.8417897066
  0
VERTEX
  8
_CURVE
 62
8
  6
HIDDEN
 10
4.0343686116
 20
8.1638302264
  0
VERTEX
  8
_CURVE
 62
8
  6
HIDDEN
 10
4.0271315148
 20
7.5543906373
  0
VERTEX
  8
_CURVE
 62
8
  6
HIDDEN
 10
4.0193777556
 20
6.9972322984
  0
VERTEX
  8
_CURVE
 62
8
  6
HIDDEN
 10
4.0111692307
 20
6.4825509068
  0
VERTEX
  8
_CURVE
 62
8
  6
HIDDEN
 10
4.0025522049
 20
6.0038548126
  0
VERTEX
  8
_CURVE
 62
8
  6
HIDDEN
 10
3.9935628594
 20
5.5565664765
  0
VERTEX
  8
_CURVE
 62
8
  6
HIDDEN
 10
3.9842403343
 20
5.1373012266
  0
SEQEND
  0
POLYLINE
  8
_CURVE
 62
8
  6
HIDDEN
 66
1
 70
0
  0
VERTEX
  8
_CURVE
 62
8
  6
HIDDEN
 10
3.9842403343
 20
5.1373012266
  0
VERTEX
  8
_CURVE
 62
8
  6
HIDDEN
 10
3.9839777677
 20
5.1104593339
  0
VERTEX
  8
_CURVE
 62
8
  6
HIDDEN
 10
3.9844348528
 20
5.0836152055
  0
VERTEX
  8
_CURVE
 62
8
  6
HIDDEN
 10
3.9856094549
 20
5.0567915277
  0
VERTEX
  8
_CURVE
 62
8
  6
HIDDEN
 10
3.9874949895
 20
5.0300675921
  0
VERTEX
  8
_CURVE
 62
8
  6
HIDDEN
 10
3.9900929015
 20
5.0034048664
  0
VERTEX
  8
_CURVE
 62
8
  6
HIDDEN
 10
3.9934032489
 20
4.9768216082
  0
VERTEX
  8
_CURVE
 62
8
  6
HIDDEN
 10
3.9974166331
 20
4.9503901664
  0
VERTEX
  8
_CURVE
 62
8
  6
HIDDEN
 10
4.0021365089
 20
4.9240752929
  0
VERTEX
  8
_CURVE
 62
8
  6
HIDDEN
 10
4.0075597784
 20
4.8978962291
  0
VERTEX
  8
_CURVE
 62
8
  6
HIDDEN
 10
4.0136709282
 20
4.8719211159
  0
VERTEX
  8
_CURVE
 62
8
  6
HIDDEN
 10
4.0204754874
 20
4.8461190911
  0
VERTEX
  8
_CURVE
 62
8
  6
HIDDEN
 10
4.0279692119
 20
4.820508777
  0
VERTEX
  8
_CURVE
 62
8
  6
HIDDEN
 10
4.0361331863
 20
4.7951514699
  0
VERTEX
  8
_CURVE
 62
8
  6
HIDDEN
 10
4.0449738614
 20
4.7700220493
  0
VERTEX
  8
_CURVE
 62
8
  6
HIDDEN
 10
4.0544853283
 20
4.7451387786
  0
VERTEX
  8
_CURVE
 62
8
  6
HIDDEN
 10
4.0646462268
 20
4.7205552496
  0
VERTEX
  8
_CURVE
 62
8
  6
HIDDEN
 10
4.0754626864
 20
4.696253036
  0
VERTEX
  8
_CURVE
 62
8
  6
HIDDEN
 10
4.0869273075
 20
4.6722498048
  0
VERTEX
  8
_CURVE
 62
8
  6
HIDDEN
 10
4.0990179393
 20
4.6485905702
  0
VERTEX
  8
_CURVE
 62
8
  6
HIDDEN
 10
4.1117389532
 20
4.6252642142
  0
VERTEX
  8
_CURVE
 62
8
  6
HIDDEN
 10
4.1250814642
 20
4.6022877052
  0
VERTEX
  8
_CURVE
 62
8
  6
HIDDEN
 10
4.1390241179
 20
4.5796971107
  0
VERTEX
  8
_CURVE
 62
8
  6
HIDDEN
 10
4.1535680312
 20
4.5574888389
  0
VERTEX
  8
_CURVE
 62
8
  6
HIDDEN
 10
4.168702902
 20
4.5356790261
  0
VERTEX
  8
_CURVE
 62
8
  6
HIDDEN
 10
4.1844097777
 20
4.5142948039
  0
VERTEX
  8
_CURVE
 62
8
  6
HIDDEN
 10
4.2006850461
 20
4.4933399272
  0
VERTEX
  8
_CURVE
 62
8
  6
HIDDEN
 10
4.2175170556
 20
4.4728295824
  0
VERTEX
  8
_CURVE
 62
8
  6
HIDDEN
 10
4.2348907413
 20
4.4527823752
  0
VERTEX
  8
_CURVE
 62
8
  6
HIDDEN
 10
4.2527964018
 20
4.433208843
  0
VERTEX
  8
_CURVE
 62
8
  6
HIDDEN
 10
4.2712211199
 20
4.4141231096
  0
VERTEX
  8
_CURVE
 62
8
  6
HIDDEN
 10
4.2901550112
 20
4.3955360194
  0
VERTEX
  8
_CURVE
 62
8
  6
HIDDEN
 10
4.309581125
 20
4.3774639774
  0
VERTEX
  8
_CURVE
 62
8
  6
HIDDEN
 10
4.3294853729
 20
4.3599199406
  0
VERTEX
  8
_CURVE
 62
8
  6
HIDDEN
 10
4.3498640733
 20
4.3429080591
  0
VERTEX
  8
_CURVE
 62
8
  6
HIDDEN
 10
4.3706921411
 20
4.3264493958
  0
VERTEX
  8
_CURVE
 62
8
  6
HIDDEN
 10
4.3919544212
 20
4.3105556506
  0
VERTEX
  8
_CURVE
 62
8
  6
HIDDEN
 10
4.4136541274
 20
4.295225579
  0
VERTEX
  8
_CURVE
 62
8
  6
HIDDEN
 10
4.4357574918
 20
4.2804834543
  0
VERTEX
  8
_CURVE
 62
8
  6
HIDDEN
 10
4.458248406
 20
4.266339629
  0
VERTEX
  8
_CURVE
 62
8
  6
HIDDEN
 10
4.4811372995
 20
4.2527889114
  0
VERTEX
  8
_CURVE
 62
8
  6
HIDDEN
 10
4.504381552
 20
4.2398572264
  0
VERTEX
  8
_CURVE
 62
8
  6
HIDDEN
 10
4.5279642209
 20
4.2275535454
  0
VERTEX
  8
_CURVE
 62
8
  6
HIDDEN
 10
4.5519028771
 20
4.215870248
  0
VERTEX
  8
_CURVE
 62
8
  6
HIDDEN
 10
4.5761462862
 20
4.2048331632
  0
VERTEX
  8
_CURVE
 62
8
  6
HIDDEN
 10
4.600676801
 20
4.1944496942
  0
VERTEX
  8
_CURVE
 62
8
  6
HIDDEN
 10
4.6255186651
 20
4.1847112428
  0
VERTEX
  8
_CURVE
 62
8
  6
HIDDEN
 10
4.6506126585
 20
4.1756423226
  0
VERTEX
  8
_CURVE
 62
8
  6
HIDDEN
 10
4.6759405436
 20
4.1672492182
  0
VERTEX
  8
_CURVE
 62
8
  6
HIDDEN
 10
4.70153239
 20
4.1595238184
  0
VERTEX
  8
_CURVE
 62
8
  6
HIDDEN
 10
4.7273220657
 20
4.1524863892
  0
VERTEX
  8
_CURVE
 62
8
  6
HIDDEN
 10
4.7532909321
 20
4.1461402263
  0
VERTEX
  8
_CURVE
 62
8
  6
HIDDEN
 10
4.7794737167
 20
4.140478458
  0
VERTEX
  8
_CURVE
 62
8
  6
HIDDEN
 10
4.8057985802
 20
4.1355212707
  0
VERTEX
  8
_CURVE
 62
8
  6
HIDDEN
 10
4.8322463941
 20
4.1312758479
  0
VERTEX
  8
_CURVE
 62
8
  6
HIDDEN
 10
4.8588550593
 20
4.1277389399
  0
VERTEX
  8
_CURVE
 62
8
  6
HIDDEN
 10
4.8855493275
 20
4.1249093225
  0
VERTEX
  8
_CURVE
 62
8
  6
HIDDEN
 10
4.9123105352
 20
4.1227722565
  0
VERTEX
  8
_CURVE
 62
8
  6
HIDDEN
 10
4.9391798247
 20
4.1213183708
  0
VERTEX
  8
_CURVE
 62
8
  6
HIDDEN
 10
4.9660757209
 20
4.1205778888
  0
VERTEX
  8
_CURVE
 62
8
  6
HIDDEN
 10
4.9929763376
 20
4.1205833499
  0
SEQEND
  0
POLYLINE
  8
_CURVE
 62
7
  6
CONTINUOUS
 66
1
 70
0
  0
VERTEX
  8
_CURVE
 62
7
  6
CONTINUOUS
 10
4.6305210189
 20
18.0522129514
  0
VERTEX
  8
_CURVE
 62
7
  6
CONTINUOUS
 10
4.6324787992
 20
17.9507747454
  0
VERTEX
  8
_CURVE
 62
7
  6
CONTINUOUS
 10
4.6411024601
 20
17.4719900596
  0
VERTEX
  8
_CURVE
 62
7
  6
CONTINUOUS
 10
4.6493143227
 20
16.957441672
  0
VERTEX
  8
_CURVE
 62
7
  6
CONTINUOUS
 10
4.6570686583
 20
16.4007030911
  0
VERTEX
  8
_CURVE
 62
7
  6
CONTINUOUS
 10
4.6643039482
 20
15.7921108189
  0
VERTEX
  8
_CURVE
 62
7
  6
CONTINUOUS
 10
4.6709323495
 20
15.1157257461
  0
VERTEX
  8
_CURVE
 62
7
  6
CONTINUOUS
 10
4.6767940195
 20
14.344339361
  0
VERTEX
  8
_CURVE
 62
7
  6
CONTINUOUS
 10
4.6814323315
 20
13.4553390998
  0
VERTEX
  8
_CURVE
 62
7
  6
CONTINUOUS
 10
4.683057312
 20
12.965153264
  0
VERTEX
  8
_CURVE
 62
7
  6
CONTINUOUS
 10
4.6840334942
 20
12.4749765297
  0
VERTEX
  8
_CURVE
 62
7
  6
CONTINUOUS
 10
4.6843680235
 20
11.9808988892
  0
VERTEX
  8
_CURVE
 62
7
  6
CONTINUOUS
 10
4.6840520776
 20
11.4868214066
  0
VERTEX
  8
_CURVE
 62
7
  6
CONTINUOUS
 10
4.683093118
 20
10.9960799581
  0
VERTEX
  8
_CURVE
 62
7
  6
CONTINUOUS
 10
4.6814843877
 20
10.5053297076
  0
VERTEX
  8
_CURVE
 62
7
  6
CONTINUOUS
 10
4.6768506454
 20
9.6117034694
  0
VERTEX
  8
_CURVE
 62
7
  6
CONTINUOUS
 10
4.6709766898
 20
8.8362908337
  0
VERTEX
  8
_CURVE
 62
7
  6
CONTINUOUS
 10
4.6643314646
 20
8.1569888985
  0
VERTEX
  8
_CURVE
 62
7
  6
CONTINUOUS
 10
4.657078978
 20
7.5462546951
  0
VERTEX
  8
_CURVE
 62
7
  6
CONTINUOUS
 10
4.6493074085
 20
6.9878178216
  0
VERTEX
  8
_CURVE
 62
7
  6
CONTINUOUS
 10
4.6410784272
 20
6.4718549187
  0
VERTEX
  8
_CURVE
 62
7
  6
CONTINUOUS
 10
4.6324378338
 20
5.9918508762
  0
VERTEX
  8
_CURVE
 62
7
  6
CONTINUOUS
 10
4.6304424004
 20
5.888426082
  0
SEQEND
  0
POLYLINE
  8
_CURVE
 62
8
  6
HIDDEN
 66
1
 70
0
  0
VERTEX
  8
_CURVE
 62
8
  6
HIDDEN
 10
4.9929763376
 20
4.1205833499
  0
VERTEX
  8
_CURVE
 62
8
  6
HIDDEN
 10
5.4811959466
 20
4.126991968
  0
VERTEX
  8
_CURVE
 62
8
  6
HIDDEN
 10
6.0223892607
 20
4.1331782932
  0
VERTEX
  8
_CURVE
 62
8
  6
HIDDEN
 10
6.6247091482
 20
4.139007637
  0
VERTEX
  8
_CURVE
 62
8
  6
HIDDEN
 10
7.2992207112
 20
4.144461067
  0
VERTEX
  8
_CURVE
 62
8
  6
HIDDEN
 10
8.0619335061
 20
4.149508081
  0
VERTEX
  8
_CURVE
 62
8
  6
HIDDEN
 10
8.9370869746
 20
4.1540930531
  0
VERTEX
  8
_CURVE
 62
8
  6
HIDDEN
 10
9.9485614044
 20
4.1580560113
  0
VERTEX
  8
_CURVE
 62
8
  6
HIDDEN
 10
11.113953839
 20
4.1611166452
  0
VERTEX
  8
_CURVE
 62
8
  6
HIDDEN
 10
12.4542518993
 20
4.1628913372
  0
VERTEX
  8
_CURVE
 62
8
  6
HIDDEN
 10
13.8921225059
 20
4.1628717693
  0
VERTEX
  8
_CURVE
 62
8
  6
HIDDEN
 10
15.2265092788
 20
4.1610708113
  0
VERTEX
  8
_CURVE
 62
8
  6
HIDDEN
 10
16.3863962748
 20
4.1579984516
  0
VERTEX
  8
_CURVE
 62
8
  6
HIDDEN
 10
17.3928754109
 20
4.1540348216
  0
VERTEX
  8
_CURVE
 62
8
  6
HIDDEN
 10
18.2637078231
 20
4.1494571434
  0
VERTEX
  8
_CURVE
 62
8
  6
HIDDEN
 10
19.0231798182
 20
4.1444199806
  0
VERTEX
  8
_CURVE
 62
8
  6
HIDDEN
 10
19.695226434
 20
4.1389775064
  0
VERTEX
  8
_CURVE
 62
8
  6
HIDDEN
 10
20.2955918952
 20
4.1331600443
  0
VERTEX
  8
_CURVE
 62
8
  6
HIDDEN
 10
20.8351908598
 20
4.1269864473
  0
VERTEX
  8
_CURVE
 62
8
  6
HIDDEN
 10
21.3220825767
 20
4.1205932616
  0
SEQEND
  0
POLYLINE
  8
_CURVE
 62
8
  6
HIDDEN
 66
1
 70
0
  0
VERTEX
  8
_CURVE
 62
8
  6
HIDDEN
 10
21.3220825767
 20
4.1205932616
  0
VERTEX
  8
_CURVE
 62
8
  6
HIDDEN
 10
21.3489833462
 20
4.1205879556
  0
VERTEX
  8
_CURVE
 62
8
  6
HIDDEN
 10
21.37587939
 20
4.121329019
  0
VERTEX
  8
_CURVE
 62
8
  6
HIDDEN
 10
21.4027488348
 20
4.1227834107
  0
VERTEX
  8
_CURVE
 62
8
  6
HIDDEN
 10
21.4295101929
 20
4.124920529
  0
VERTEX
  8
_CURVE
 62
8
  6
HIDDEN
 10
21.4562046257
 20
4.1277498694
  0
VERTEX
  8
_CURVE
 62
8
  6
HIDDEN
 10
21.4828134625
 20
4.1312864172
  0
VERTEX
  8
_CURVE
 62
8
  6
HIDDEN
 10
21.5092614525
 20
4.1355315916
  0
VERTEX
  8
_CURVE
 62
8
  6
HIDDEN
 10
21.5355864939
 20
4.1404886273
  0
VERTEX
  8
_CURVE
 62
8
  6
HIDDEN
 10
21.5617694599
 20
4.146150275
  0
VERTEX
  8
_CURVE
 62
8
  6
HIDDEN
 10
21.5877385138
 20
4.1524962977
  0
VERTEX
  8
_CURVE
 62
8
  6
HIDDEN
 10
21.6135283811
 20
4.1595335699
  0
VERTEX
  8
_CURVE
 62
8
  6
HIDDEN
 10
21.6391204225
 20
4.1672588137
  0
VERTEX
  8
_CURVE
 62
8
  6
HIDDEN
 10
21.664448506
 20
4.1756517776
  0
VERTEX
  8
_CURVE
 62
8
  6
HIDDEN
 10
21.6895427004
 20
4.1847205711
  0
VERTEX
  8
_CURVE
 62
8
  6
HIDDEN
 10
21.7143847679
 20
4.1944589051
  0
VERTEX
  8
_CURVE
 62
8
  6
HIDDEN
 10
21.738915488
 20
4.2048422626
  0
VERTEX
  8
_CURVE
 62
8
  6
HIDDEN
 10
21.7631591043
 20
4.2158792417
  0
VERTEX
  8
_CURVE
 62
8
  6
HIDDEN
 10
21.7870979696
 20
4.2275624407
  0
VERTEX
  8
_CURVE
 62
8
  6
HIDDEN
 10
21.8106808476
 20
4.239866031
  0
VERTEX
  8
_CURVE
 62
8
  6
HIDDEN
 10
21.8339253104
 20
4.2527976334
  0
VERTEX
  8
_CURVE
 62
8
  6
HIDDEN
 10
21.8568144151
 20
4.2663482762
  0
VERTEX
  8
_CURVE
 62
8
  6
HIDDEN
 10
21.8793055391
 20
4.2804920333
  0
VERTEX
  8
_CURVE
 62
8
  6
HIDDEN
 10
21.9014091138
 20
4.2952340971
  0
VERTEX
  8
_CURVE
 62
8
  6
HIDDEN
 10
21.9231090305
 20
4.3105641153
  0
VERTEX
  8
_CURVE
 62
8
  6
HIDDEN
 10
21.9443715184
 20
4.326457813
  0
VERTEX
  8
_CURVE
 62
8
  6
HIDDEN
 10
21.9651997938
 20
4.3429164362
  0
VERTEX
  8
_CURVE
 62
8
  6
HIDDEN
 10
21.9855787011
 20
4.359928285
  0
VERTEX
  8
_CURVE
 62
8
  6
HIDDEN
 10
22.0054831522
 20
4.3774722939
  0
VERTEX
  8
_CURVE
 62
8
  6
HIDDEN
 10
22.0249094682
 20
4.3955443151
  0
VERTEX
  8
_CURVE
 62
8
  6
HIDDEN
 10
22.0438435605
 20
4.4141313917
  0
VERTEX
  8
_CURVE
 62
8
  6
HIDDEN
 10
22.0622684749
 20
4.4332171153
  0
VERTEX
  8
_CURVE
 62
8
  6
HIDDEN
 10
22.08017433
 20
4.4527906444
  0
VERTEX
  8
_CURVE
 62
8
  6
HIDDEN
 10
22.0975482085
 20
4.4728378555
  0
VERTEX
  8
_CURVE
 62
8
  6
HIDDEN
 10
22.1143804054
 20
4.4933482069
  0
VERTEX
  8
_CURVE
 62
8
  6
HIDDEN
 10
22.1306558591
 20
4.5143030966
  0
VERTEX
  8
_CURVE
 62
8
  6
HIDDEN
 10
22.1463629176
 20
4.5356873383
  0
VERTEX
  8
_CURVE
 62
8
  6
HIDDEN
 10
22.1614979653
 20
4.5574971722
  0
VERTEX
  8
_CURVE
 62
8
  6
HIDDEN
 10
22.1760420528
 20
4.5797054713
  0
VERTEX
  8
_CURVE
 62
8
  6
HIDDEN
 10
22.1899848777
 20
4.602296099
  0
VERTEX
  8
_CURVE
 62
8
  6
HIDDEN
 10
22.2033275538
 20
4.6252726419
  0
VERTEX
  8
_CURVE
 62
8
  6
HIDDEN
 10
22.2160487295
 20
4.6485990374
  0
VERTEX
  8
_CURVE
 62
8
  6
HIDDEN
 10
22.2281395199
 20
4.672258317
  0
VERTEX
  8
_CURVE
 62
8
  6
HIDDEN
 10
22.2396042934
 20
4.6962615931
  0
VERTEX
  8
_CURVE
 62
8
  6
HIDDEN
 10
22.2504209017
 20
4.7205638565
  0
VERTEX
  8
_CURVE
 62
8
  6
HIDDEN
 10
22.2605819447
 20
4.7451474404
  0
VERTEX
  8
_CURVE
 62
8
  6
HIDDEN
 10
22.2700935497
 20
4.7700307651
  0
VERTEX
  8
_CURVE
 62
8
  6
HIDDEN
 10
22.278934359
 20
4.7951602442
  0
VERTEX
  8
_CURVE
 62
8
  6
HIDDEN
 10
22.2870984647
 20
4.8205176142
  0
VERTEX
  8
_CURVE
 62
8
  6
HIDDEN
 10
22.294592316
 20
4.8461279896
  0
VERTEX
  8
_CURVE
 62
8
  6
HIDDEN
 10
22.3013969964
 20
4.8719300797
  0
VERTEX
  8
_CURVE
 62
8
  6
HIDDEN
 10
22.3075082584
 20
4.8979052621
  0
VERTEX
  8
_CURVE
 62
8
  6
HIDDEN
 10
22.3129316294
 20
4.9240843932
  0
VERTEX
  8
_CURVE
 62
8
  6
HIDDEN
 10
22.3176516065
 20
4.9503993373
  0
VERTEX
  8
_CURVE
 62
8
  6
HIDDEN
 10
22.321665104
 20
4.9768308527
  0
VERTEX
  8
_CURVE
 62
8
  6
HIDDEN
 10
22.3249755786
 20
5.0034141818
  0
VERTEX
  8
_CURVE
 62
8
  6
HIDDEN
 10
22.3275735964
 20
5.0300769815
  0
VERTEX
  8
_CURVE
 62
8
  6
HIDDEN
 10
22.3294591693
 20
5.0568009947
  0
VERTEX
  8
_CURVE
 62
8
  6
HIDDEN
 10
22.330633719
 20
5.0836247445
  0
VERTEX
  8
_CURVE
 62
8
  6
HIDDEN
 10
22.3310907317
 20
5.1104689474
  0
VERTEX
  8
_CURVE
 62
8
  6
HIDDEN
 10
22.3308281657
 20
5.1373109151
  0
SEQEND
  0
POLYLINE
  8
_CURVE
 62
7
  6
CONTINUOUS
 66
1
 70
0
  0
VERTEX
  8
_CURVE
 62
7
  6
CONTINUOUS
 10
5.6419883958
 20
4.8689677851
  0
VERTEX
  8
_CURVE
 62
7
  6
CONTINUOUS
 10
6.0145451082
 20
4.8731367172
  0
VERTEX
  8
_CURVE
 62
7
  6
CONTINUOUS
 10
6.6181562468
 20
4.8789786226
  0
VERTEX
  8
_CURVE
 62
7
  6
CONTINUOUS
 10
7.2937797966
 20
4.8844410643
  0
VERTEX
  8
_CURVE
 62
7
  6
CONTINUOUS
 10
8.0575449796
 20
4.8894950679
  0
VERTEX
  8
_CURVE
 62
7
  6
CONTINUOUS
 10
8.9336920723
 20
4.8940852657
  0
VERTEX
  8
_CURVE
 62
7
  6
CONTINUOUS
 10
9.9461306807
 20
4.8980520192
  0
VERTEX
  8
_CURVE
 62
7
  6
CONTINUOUS
 10
11.1124762551
 20
4.90111517
  0
VERTEX
  8
_CURVE
 62
7
  6
CONTINUOUS
 10
12.4537564612
 20
4.9028911713
  0
VERTEX
  8
_CURVE
 62
7
  6
CONTINUOUS
 10
13.8926382579
 20
4.9028715896
  0
VERTEX
  8
_CURVE
 62
7
  6
CONTINUOUS
 10
15.2280045515
 20
4.9010693006
  0
VERTEX
  8
_CURVE
 62
7
  6
CONTINUOUS
 10
16.3888427715
 20
4.8979944075
  0
VERTEX
  8
_CURVE
 62
7
  6
CONTINUOUS
 10
17.3962842772
 20
4.8940269699
  0
VERTEX
  8
_CURVE
 62
7
  6
CONTINUOUS
 10
18.2681083576
 20
4.8894440591
  0
VERTEX
  8
_CURVE
 62
7
  6
CONTINUOUS
 10
19.0286312675
 20
4.8843999004
  0
VERTEX
  8
_CURVE
 62
7
  6
CONTINUOUS
 10
19.7017883151
 20
4.8789484124
  0
VERTEX
  8
_CURVE
 62
7
  6
CONTINUOUS
 10
20.3034448963
 20
4.8731183745
  0
VERTEX
  8
_CURVE
 62
7
  6
CONTINUOUS
 10
20.6730752714
 20
4.8689789832
  0
SEQEND
  0
POLYLINE
  8
_CURVE
 62
7
  6
CONTINUOUS
 66
1
 70
0
  0
VERTEX
  8
_CURVE
 62
7
  6
CONTINUOUS
 10
20.6729999149
 20
19.071662638
  0
VERTEX
  8
_CURVE
 62
7
  6
CONTINUOUS
 10
20.3033196682
 20
19.0675237355
  0
VERTEX
  8
_CURVE
 62
7
  6
CONTINUOUS
 10
19.7016377377
 20
19.0616950418
  0
VERTEX
  8
_CURVE
 62
7
  6
CONTINUOUS
 10
19.0284529677
 20
19.0562448333
  0
VERTEX
  8
_CURVE
 62
7
  6
CONTINUOUS
 10
18.2678970939
 20
19.0512018781
  0
VERTEX
  8
_CURVE
 62
7
  6
CONTINUOUS
 10
17.3959905577
 20
19.0466199044
  0
VERTEX
  8
_CURVE
 62
7
  6
CONTINUOUS
 10
16.3883893248
 20
19.0426532093
  0
VERTEX
  8
_CURVE
 62
7
  6
CONTINUOUS
 10
15.2273154412
 20
19.0395791085
  0
VERTEX
  8
_CURVE
 62
7
  6
CONTINUOUS
 10
13.892212167
 20
19.037778315
  0
VERTEX
  8
_CURVE
 62
7
  6
CONTINUOUS
 10
12.4542686889
 20
19.0377586912
  0
VERTEX
  8
_CURVE
 62
7
  6
CONTINUOUS
 10
11.1130540063
 20
19.0395334865
  0
VERTEX
  8
_CURVE
 62
7
  6
CONTINUOUS
 10
9.9464976884
 20
19.0425959016
  0
VERTEX
  8
_CURVE
 62
7
  6
CONTINUOUS
 10
8.9339549263
 20
19.0465617656
  0
VERTEX
  8
_CURVE
 62
7
  6
CONTINUOUS
 10
8.0577586309
 20
19.0511508662
  0
VERTEX
  8
_CURVE
 62
7
  6
CONTINUOUS
 10
7.2939598949
 20
19.0562036638
  0
VERTEX
  8
_CURVE
 62
7
  6
CONTINUOUS
 10
6.618308473
 20
19.0616648212
  0
VERTEX
  8
_CURVE
 62
7
  6
CONTINUOUS
 10
6.0146713158
 20
19.0675053833
  0
VERTEX
  8
_CURVE
 62
7
  6
CONTINUOUS
 10
5.6420635476
 20
19.0716739906
  0
SEQEND
  0
POLYLINE
  8
_CURVE
 62
8
  6
HIDDEN
 66
1
 70
0
  0
VERTEX
  8
_CURVE
 62
8
  6
HIDDEN
 10
21.3220059763
 20
19.8200456652
  0
VERTEX
  8
_CURVE
 62
8
  6
HIDDEN
 10
20.8350917007
 20
19.8136542846
  0
VERTEX
  8
_CURVE
 62
8
  6
HIDDEN
 10
20.2954686678
 20
19.8074820869
  0
VERTEX
  8
_CURVE
 62
8
  6
HIDDEN
 10
19.6950776919
 20
19.801665964
  0
VERTEX
  8
_CURVE
 62
8
  6
HIDDEN
 10
19.0230030246
 20
19.7962247642
  0
VERTEX
  8
_CURVE
 62
8
  6
HIDDEN
 10
18.2634978226
 20
19.7911888012
  0
VERTEX
  8
_CURVE
 62
8
  6
HIDDEN
 10
17.392582762
 20
19.7866120576
  0
VERTEX
  8
_CURVE
 62
8
  6
HIDDEN
 10
16.3859437739
 20
19.7826491682
  0
VERTEX
  8
_CURVE
 62
8
  6
HIDDEN
 10
15.2258210314
 20
19.7795775996
  0
VERTEX
  8
_CURVE
 62
8
  6
HIDDEN
 10
13.8916968321
 20
19.7777781356
  0
VERTEX
  8
_CURVE
 62
8
  6
HIDDEN
 10
12.4547636529
 20
19.7777585257
  0
VERTEX
  8
_CURVE
 62
8
  6
HIDDEN
 10
11.1145308179
 20
19.7795320129
  0
VERTEX
  8
_CURVE
 62
8
  6
HIDDEN
 10
9.9489275455
 20
19.7825919122
  0
VERTEX
  8
_CURVE
 62
8
  6
HIDDEN
 10
8.9373487962
 20
19.7865539829
  0
VERTEX
  8
_CURVE
 62
8
  6
HIDDEN
 10
8.0621458856
 20
19.7911378607
  0
VERTEX
  8
_CURVE
 62
8
  6
HIDDEN
 10
7.299399333
 20
19.796183672
  0
VERTEX
  8
_CURVE
 62
8
  6
HIDDEN
 10
6.6248594346
 20
19.8016358239
  0
VERTEX
  8
_CURVE
 62
8
  6
HIDDEN
 10
6.0225138356
 20
19.8074638246
  0
VERTEX
  8
_CURVE
 62
8
  6
HIDDEN
 10
5.4812962998
 20
19.8136487466
  0
VERTEX
  8
_CURVE
 62
8
  6
HIDDEN
 10
4.9930536533
 20
19.8200545252
  0
SEQEND
  0
POLYLINE
  8
_CURVE
 62
8
  6
HIDDEN
 66
1
 70
0
  0
VERTEX
  8
_CURVE
 62
8
  6
HIDDEN
 10
4.9930536533
 20
19.8200545252
  0
VERTEX
  8
_CURVE
 62
8
  6
HIDDEN
 10
4.9661517399
 20
19.8200601384
  0
VERTEX
  8
_CURVE
 62
8
  6
HIDDEN
 10
4.9392545426
 20
19.8193200538
  0
VERTEX
  8
_CURVE
 62
8
  6
HIDDEN
 10
4.9123839594
 20
19.8178664532
  0
VERTEX
  8
_CURVE
 62
8
  6
HIDDEN
 10
4.8856214395
 20
19.8157292879
  0
VERTEX
  8
_CURVE
 62
8
  6
HIDDEN
 10
4.8589258761
 20
19.8128992732
  0
VERTEX
  8
_CURVE
 62
8
  6
HIDDEN
 10
4.8323159308
 20
19.809361842
  0
VERTEX
  8
_CURVE
 62
8
  6
HIDDEN
 10
4.8058668338
 20
19.8051159035
  0
VERTEX
  8
_CURVE
 62
8
  6
HIDDEN
 10
4.7795407038
 20
19.8001582
  0
VERTEX
  8
_CURVE
 62
8
  6
HIDDEN
 10
4.7533566732
 20
19.7944958706
  0
VERTEX
  8
_CURVE
 62
8
  6
HIDDEN
 10
4.7273865737
 20
19.7881490639
  0
VERTEX
  8
_CURVE
 62
8
  6
HIDDEN
 10
4.7015956909
 20
19.7811109137
  0
VERTEX
  8
_CURVE
 62
8
  6
HIDDEN
 10
4.6760026656
 20
19.7733847289
  0
VERTEX
  8
_CURVE
 62
8
  6
HIDDEN
 10
4.6506736272
 20
19.7649907853
  0
VERTEX
  8
_CURVE
 62
8
  6
HIDDEN
 10
4.6255785129
 20
19.7559209728
  0
VERTEX
  8
_CURVE
 62
8
  6
HIDDEN
 10
4.6007355628
 20
19.746181574
  0
VERTEX
  8
_CURVE
 62
8
  6
HIDDEN
 10
4.5762040004
 20
19.7357971024
  0
VERTEX
  8
_CURVE
 62
8
  6
HIDDEN
 10
4.5519595831
 20
19.7247589602
  0
VERTEX
  8
_CURVE
 62
8
  6
HIDDEN
 10
4.5280199598
 20
19.7130745526
  0
VERTEX
  8
_CURVE
 62
8
  6
HIDDEN
 10
4.5044363741
 20
19.7007697153
  0
VERTEX
  8
_CURVE
 62
8
  6
HIDDEN
 10
4.4811912501
 20
19.6878368252
  0
VERTEX
  8
_CURVE
 62
8
  6
HIDDEN
 10
4.4583015324
 20
19.674284855
  0
VERTEX
  8
_CURVE
 62
8
  6
HIDDEN
 10
4.4358098547
 20
19.6601397389
  0
VERTEX
  8
_CURVE
 62
8
  6
HIDDEN
 10
4.4137057776
 20
19.6453962796
  0
VERTEX
  8
_CURVE
 62
8
  6
HIDDEN
 10
4.3920054115
 20
19.6300648313
  0
VERTEX
  8
_CURVE
 62
8
  6
HIDDEN
 10
4.3707425412
 20
19.6141696811
  0
VERTEX
  8
_CURVE
 62
8
  6
HIDDEN
 10
4.3499139389
 20
19.597709575
  0
VERTEX
  8
_CURVE
 62
8
  6
HIDDEN
 10
4.3295347617
 20
19.5806962146
  0
VERTEX
  8
_CURVE
 62
8
  6
HIDDEN
 10
4.3096301141
 20
19.5631506812
  0
VERTEX
  8
_CURVE
 62
8
  6
HIDDEN
 10
4.2902036606
 20
19.5450771114
  0
VERTEX
  8
_CURVE
 62
8
  6
HIDDEN
 10
4.2712694912
 20
19.5264884638
  0
VERTEX
  8
_CURVE
 62
8
  6
HIDDEN
 10
4.2528445779
 20
19.5074011666
  0
VERTEX
  8
_CURVE
 62
8
  6
HIDDEN
 10
4.2349387859
 20
19.4878260463
  0
VERTEX
  8
_CURVE
 62
8
  6
HIDDEN
 10
4.2175650336
 20
19.4677772286
  0
VERTEX
  8
_CURVE
 62
8
  6
HIDDEN
 10
4.2007330442
 20
19.4472652782
  0
VERTEX
  8
_CURVE
 62
8
  6
HIDDEN
 10
4.1844578624
 20
19.426308779
  0
VERTEX
  8
_CURVE
 62
8
  6
HIDDEN
 10
4.1687511408
 20
19.4049229195
  0
VERTEX
  8
_CURVE
 62
8
  6
HIDDEN
 10
4.1536165131
 20
19.3831114856
  0
VERTEX
  8
_CURVE
 62
8
  6
HIDDEN
 10
4.1390729113
 20
19.3609015834
  0
VERTEX
  8
_CURVE
 62
8
  6
HIDDEN
 10
4.1251306384
 20
19.3383093517
  0
VERTEX
  8
_CURVE
 62
8
  6
HIDDEN
 10
4.1117885976
 20
19.3153312327
  0
VERTEX
  8
_CURVE
 62
8
  6
HIDDEN
 10
4.0990681234
 20
19.2920032654
  0
VERTEX
  8
_CURVE
 62
8
  6
HIDDEN
 10
4.0869781016
 20
19.2683424206
  0
VERTEX
  8
_CURVE
 62
8
  6
HIDDEN
 10
4.075514179
 20
19.2443376168
  0
VERTEX
  8
_CURVE
 62
8
  6
HIDDEN
 10
4.0646984876
 20
19.2200338376
  0
VERTEX
  8
_CURVE
 62
8
  6
HIDDEN
 10
4.0545384276
 20
19.1954487523
  0
VERTEX
  8
_CURVE
 62
8
  6
HIDDEN
 10
4.045027885
 20
19.1705639724
  0
VERTEX
  8
_CURVE
 62
8
  6
HIDDEN
 10
4.0361882037
 20
19.1454330577
  0
VERTEX
  8
_CURVE
 62
8
  6
HIDDEN
 10
4.028025293
 20
19.1200742741
  0
VERTEX
  8
_CURVE
 62
8
  6
HIDDEN
 10
4.0205327149
 20
19.0944625394
  0
VERTEX
  8
_CURVE
 62
8
  6
HIDDEN
 10
4.0137293697
 20
19.0686591171
  0
VERTEX
  8
_CURVE
 62
8
  6
HIDDEN
 10
4.0076195004
 20
19.0426826323
  0
VERTEX
  8
_CURVE
 62
8
  6
HIDDEN
 10
4.0021975873
 20
19.0165022601
  0
VERTEX
  8
_CURVE
 62
8
  6
HIDDEN
 10
3.9974791351
 20
18.9901861096
  0
VERTEX
  8
_CURVE
 62
8
  6
HIDDEN
 10
3.9934672455
 20
18.9637534246
  0
VERTEX
  8
_CURVE
 62
8
  6
HIDDEN
 10
3.9901584713
 20
18.937168993
  0
VERTEX
  8
_CURVE
 62
8
  6
HIDDEN
 10
3.9875621897
 20
18.910505133
  0
VERTEX
  8
_CURVE
 62
8
  6
HIDDEN
 10
3.9856783273
 20
18.8837801048
  0
VERTEX
  8
_CURVE
 62
8
  6
HIDDEN
 10
3.9845054356
 20
18.8569554053
  0
VERTEX
  8
_CURVE
 62
8
  6
HIDDEN
 10
3.9840501157
 20
18.8301103023
  0
VERTEX
  8
_CURVE
 62
8
  6
HIDDEN
 10
3.9843145325
 20
18.8032674844
  0
SEQEND
  0
POLYLINE
  8
_CURVE
 62
7
  6
CONTINUOUS
 66
1
 70
0
  0
VERTEX
  8
_CURVE
 62
7
  6
CONTINUOUS
 10
21.6846257294
 20
5.8884369173
  0
VERTEX
  8
_CURVE
 62
7
  6
CONTINUOUS
 10
21.6826303593
 20
5.991859972
  0
VERTEX
  8
_CURVE
 62
7
  6
CONTINUOUS
 10
21.6739897954
 20
6.4718633811
  0
VERTEX
  8
_CURVE
 62
7
  6
CONTINUOUS
 10
21.6657608387
 20
6.9878257836
  0
VERTEX
  8
_CURVE
 62
7
  6
CONTINUOUS
 10
21.6579892935
 20
7.5462620242
  0
VERTEX
  8
_CURVE
 62
7
  6
CONTINUOUS
 10
21.6507368295
 20
8.1569955283
  0
VERTEX
  8
_CURVE
 62
7
  6
CONTINUOUS
 10
21.6440916254
 20
8.8362966644
  0
VERTEX
  8
_CURVE
 62
7
  6
CONTINUOUS
 10
21.6382176884
 20
9.6117084788
  0
VERTEX
  8
_CURVE
 62
7
  6
CONTINUOUS
 10
21.6335839614
 20
10.5053340006
  0
VERTEX
  8
_CURVE
 62
7
  6
CONTINUOUS
 10
21.6319752398
 20
10.9960831201
  0
VERTEX
  8
_CURVE
 62
7
  6
CONTINUOUS
 10
21.6310162858
 20
11.4868234379
  0
VERTEX
  8
_CURVE
 62
7
  6
CONTINUOUS
 10
21.6307003426
 20
11.9808997983
  0
VERTEX
  8
_CURVE
 62
7
  6
CONTINUOUS
 10
21.6310348715
 20
12.4749763165
  0
VERTEX
  8
_CURVE
 62
7
  6
CONTINUOUS
 10
21.6320110497
 20
12.9651516133
  0
VERTEX
  8
_CURVE
 62
7
  6
CONTINUOUS
 10
21.6336360222
 20
13.4553360115
  0
VERTEX
  8
_CURVE
 62
7
  6
CONTINUOUS
 10
21.6382743202
 20
14.3443352863
  0
VERTEX
  8
_CURVE
 62
7
  6
CONTINUOUS
 10
21.6441359719
 20
15.1157206276
  0
VERTEX
  8
_CURVE
 62
7
  6
CONTINUOUS
 10
21.6507643528
 20
15.7921048243
  0
VERTEX
  8
_CURVE
 62
7
  6
CONTINUOUS
 10
21.6579996205
 20
16.400696334
  0
VERTEX
  8
_CURVE
 62
7
  6
CONTINUOUS
 10
21.6657539326
 20
16.9574342558
  0
VERTEX
  8
_CURVE
 62
7
  6
CONTINUOUS
 10
21.6739657698
 20
17.4719820353
  0
VERTEX
  8
_CURVE
 62
7
  6
CONTINUOUS
 10
21.6825894063
 20
17.9507663082
  0
VERTEX
  8
_CURVE
 62
7
  6
CONTINUOUS
 10
21.6845471392
 20
18.0522015532
  0
SEQEND
  0
POLYLINE
  8
_CURVE
 62
8
  6
HIDDEN
 66
1
 70
0
  0
VERTEX
  8
_CURVE
 62
8
  6
HIDDEN
 10
22.3308281657
 20
5.1373109151
  0
VERTEX
  8
_CURVE
 62
8
  6
HIDDEN
 10
22.321505309
 20
5.5565758275
  0
VERTEX
  8
_CURVE
 62
8
  6
HIDDEN
 10
22.312515991
 20
6.0038637588
  0
VERTEX
  8
_CURVE
 62
8
  6
HIDDEN
 10
22.3038989917
 20
6.4825593817
  0
VERTEX
  8
_CURVE
 62
8
  6
HIDDEN
 10
22.2956904921
 20
6.9972402319
  0
VERTEX
  8
_CURVE
 62
8
  6
HIDDEN
 10
22.2879367569
 20
7.5543979531
  0
VERTEX
  8
_CURVE
 62
8
  6
HIDDEN
 10
22.2806996827
 20
8.1638368419
  0
VERTEX
  8
_CURVE
 62
8
  6
HIDDEN
 10
22.274067627
 20
8.8417955263
  0
VERTEX
  8
_CURVE
 62
8
  6
HIDDEN
 10
22.268204608
 20
9.6157681801
  0
VERTEX
  8
_CURVE
 62
8
  6
HIDDEN
 10
22.2635790575
 20
10.5078197258
  0
VERTEX
  8
_CURVE
 62
8
  6
HIDDEN
 10
22.2619730898
 20
10.9977294866
  0
VERTEX
  8
_CURVE
 62
8
  6
HIDDEN
 10
22.2610157553
 20
11.4876409508
  0
VERTEX
  8
_CURVE
 62
8
  6
HIDDEN
 10
22.2607003436
 20
11.9808879781
  0
VERTEX
  8
_CURVE
 62
8
  6
HIDDEN
 10
22.2610343098
 20
12.4741349932
  0
VERTEX
  8
_CURVE
 62
8
  6
HIDDEN
 10
22.2620088383
 20
12.9634818887
  0
VERTEX
  8
_CURVE
 62
8
  6
HIDDEN
 10
22.2636310263
 20
13.4528270588
  0
VERTEX
  8
_CURVE
 62
8
  6
HIDDEN
 10
22.2682611278
 20
14.3402582564
  0
VERTEX
  8
_CURVE
 62
8
  6
HIDDEN
 10
22.2741118647
 20
15.1102093279
  0
VERTEX
  8
_CURVE
 62
8
  6
HIDDEN
 10
22.280727104
 20
15.7852541263
  0
VERTEX
  8
_CURVE
 62
8
  6
HIDDEN
 10
22.2879469846
 20
16.3925527209
  0
VERTEX
  8
_CURVE
 62
8
  6
HIDDEN
 10
22.2956834838
 20
16.9480129768
  0
VERTEX
  8
_CURVE
 62
8
  6
HIDDEN
 10
22.3038748559
 20
17.4612795473
  0
VERTEX
  8
_CURVE
 62
8
  6
HIDDEN
 10
22.3124749072
 20
17.9387556579
  0
VERTEX
  8
_CURVE
 62
8
  6
HIDDEN
 10
22.3214474913
 20
18.3849652315
  0
VERTEX
  8
_CURVE
 62
8
  6
HIDDEN
 10
22.3307534058
 20
18.8032582034
  0
SEQEND
  0
POLYLINE
  8
_CURVE
 62
8
  6
HIDDEN
 66
1
 70
0
  0
VERTEX
  8
_CURVE
 62
8
  6
HIDDEN
 10
22.3307534058
 20
18.8032582034
  0
VERTEX
  8
_CURVE
 62
8
  6
HIDDEN
 10
22.3310177457
 20
18.8301010875
  0
VERTEX
  8
_CURVE
 62
8
  6
HIDDEN
 10
22.3305622967
 20
18.856946255
  0
VERTEX
  8
_CURVE
 62
8
  6
HIDDEN
 10
22.32938928
 20
18.8837710179
  0
VERTEX
  8
_CURVE
 62
8
  6
HIDDEN
 10
22.3275053386
 20
18.9104961117
  0
VERTEX
  8
_CURVE
 62
8
  6
HIDDEN
 10
22.3249090105
 20
18.9371600363
  0
VERTEX
  8
_CURVE
 62
8
  6
HIDDEN
 10
22.3216001948
 20
18.9637445307
  0
VERTEX
  8
_CURVE
 62
8
  6
HIDDEN
 10
22.3175882461
 20
18.9901772825
  0
VERTEX
  8
_CURVE
 62
8
  6
HIDDEN
 10
22.3128697198
 20
19.0164934971
  0
VERTEX
  8
_CURVE
 62
8
  6
HIDDEN
 10
22.307447725
 20
19.0426739307
  0
VERTEX
  8
_CURVE
 62
8
  6
HIDDEN
 10
22.3013377707
 20
19.0686504809
  0
VERTEX
  8
_CURVE
 62
8
  6
HIDDEN
 10
22.2945343384
 20
19.0944539655
  0
VERTEX
  8
_CURVE
 62
8
  6
HIDDEN
 10
22.287041669
 20
19.1200657592
  0
VERTEX
  8
_CURVE
 62
8
  6
HIDDEN
 10
22.2788786596
 20
19.1454246051
  0
VERTEX
  8
_CURVE
 62
8
  6
HIDDEN
 10
22.2700388742
 20
19.1705555783
  0
VERTEX
  8
_CURVE
 62
8
  6
HIDDEN
 10
22.2605282227
 20
19.1954404128
  0
VERTEX
  8
_CURVE
 62
8
  6
HIDDEN
 10
22.2503680471
 20
19.2200255553
  0
VERTEX
  8
_CURVE
 62
8
  6
HIDDEN
 10
22.2395522359
 20
19.2443293872
  0
VERTEX
  8
_CURVE
 62
8
  6
HIDDEN
 10
22.2280881893
 20
19.2683342392
  0
VERTEX
  8
_CURVE
 62
8
  6
HIDDEN
 10
22.2159980363
 20
19.2919951339
  0
VERTEX
  8
_CURVE
 62
8
  6
HIDDEN
 10
22.2032774268
 20
19.315323146
  0
VERTEX
  8
_CURVE
 62
8
  6
HIDDEN
 10
22.1899352469
 20
19.3383013048
  0
VERTEX
  8
_CURVE
 62
8
  6
HIDDEN
 10
22.1759928278
 20
19.3608935769
  0
VERTEX
  8
_CURVE
 62
8
  6
HIDDEN
 10
22.161449076
 20
19.3831035138
  0
VERTEX
  8
_CURVE
 62
8
  6
HIDDEN
 10
22.1463142952
 20
19.4049149767
  0
VERTEX
  8
_CURVE
 62
8
  6
HIDDEN
 10
22.1306074134
 20
19.4263008648
  0
VERTEX
  8
_CURVE
 62
8
  6
HIDDEN
 10
22.1143320683
 20
19.4472573864
  0
VERTEX
  8
_CURVE
 62
8
  6
HIDDEN
 10
22.0974999129
 20
19.467769353
  0
VERTEX
  8
_CURVE
 62
8
  6
HIDDEN
 10
22.080125988
 20
19.4878181852
  0
VERTEX
  8
_CURVE
 62
8
  6
HIDDEN
 10
22.0622200209
 20
19.5073933133
  0
VERTEX
  8
_CURVE
 62
8
  6
HIDDEN
 10
22.0437949303
 20
19.5264806117
  0
VERTEX
  8
_CURVE
 62
8
  6
HIDDEN
 10
22.0248605777
 20
19.5450692574
  0
VERTEX
  8
_CURVE
 62
8
  6
HIDDEN
 10
22.0054339392
 20
19.5631428185
  0
VERTEX
  8
_CURVE
 62
8
  6
HIDDEN
 10
21.985529105
 20
19.5806883359
  0
VERTEX
  8
_CURVE
 62
8
  6
HIDDEN
 10
21.9651497362
 20
19.5977016761
  0
VERTEX
  8
_CURVE
 62
8
  6
HIDDEN
 10
21.9443209413
 20
19.6141617548
  0
VERTEX
  8
_CURVE
 62
8
  6
HIDDEN
 10
21.9230578774
 20
19.63005687
  0
VERTEX
  8
_CURVE
 62
8
  6
HIDDEN
 10
21.9013573141
 20
19.6453882781
  0
VERTEX
  8
_CURVE
 62
8
  6
HIDDEN
 10
21.8792530394
 20
19.6601316894
  0
VERTEX
  8
_CURVE
 62
8
  6
HIDDEN
 10
21.8567611639
 20
19.6742767501
  0
VERTEX
  8
_CURVE
 62
8
  6
HIDDEN
 10
21.8338712462
 20
19.6878286587
  0
VERTEX
  8
_CURVE
 62
8
  6
HIDDEN
 10
21.8106259226
 20
19.7007614793
  0
VERTEX
  8
_CURVE
 62
8
  6
HIDDEN
 10
21.787042138
 20
19.7130662388
  0
VERTEX
  8
_CURVE
 62
8
  6
HIDDEN
 10
21.7631023151
 20
19.7247505607
  0
VERTEX
  8
_CURVE
 62
8
  6
HIDDEN
 10
21.7388576994
 20
19.7357886099
  0
VERTEX
  8
_CURVE
 62
8
  6
HIDDEN
 10
21.7143259402
 20
19.7461729826
  0
VERTEX
  8
_CURVE
 62
8
  6
HIDDEN
 10
21.6894827945
 20
19.7559122771
  0
VERTEX
  8
_CURVE
 62
8
  6
HIDDEN
 10
21.6643874867
 20
19.7649819754
  0
VERTEX
  8
_CURVE
 62
8
  6
HIDDEN
 10
21.6390582569
 20
19.7733757897
  0
VERTEX
  8
_CURVE
 62
8
  6
HIDDEN
 10
21.6134650431
 20
19.7811018285
  0
VERTEX
  8
_CURVE
 62
8
  6
HIDDEN
 10
21.5876739749
 20
19.7881398323
  0
VERTEX
  8
_CURVE
 62
8
  6
HIDDEN
 10
21.5617036939
 20
19.7944865127
  0
VERTEX
  8
_CURVE
 62
8
  6
HIDDEN
 10
21.5355194878
 20
19.8001487395
  0
VERTEX
  8
_CURVE
 62
8
  6
HIDDEN
 10
21.5091931853
 20
19.8051063053
  0
VERTEX
  8
_CURVE
 62
8
  6
HIDDEN
 10
21.482743917
 20
19.8093519956
  0
VERTEX
  8
_CURVE
 62
8
  6
HIDDEN
 10
21.4561338046
 20
19.8128890509
  0
VERTEX
  8
_CURVE
 62
8
  6
HIDDEN
 10
21.4294380813
 20
19.815718786
  0
VERTEX
  8
_CURVE
 62
8
  6
HIDDEN
 10
21.4026754165
 20
19.8178560511
  0
VERTEX
  8
_CURVE
 62
8
  6
HIDDEN
 10
21.3758049149
 20
19.8193102636
  0
VERTEX
  8
_CURVE
 62
8
  6
HIDDEN
 10
21.3489078072
 20
19.8200510557
  0
VERTEX
  8
_CURVE
 62
8
  6
HIDDEN
 10
21.3220059763
 20
19.8200456652
  0
SEQEND
  0
CIRCLE
  8
0
 62
2
  6
CONTINUOUS
 10
5.5721456793
 20
17.2814368704
 40
0.298056591
  0
CIRCLE
  8
0
 62
2
  6
CONTINUOUS
 10
12.8401457617
 20
14.4439683287
 40
0.2513022906
  0
ARC
  8
0
 62
2
  6
CONTINUOUS
 10
7.3391764948
 20
17.4005054362
 40
0.1750166163
 50
294.4500166359
 51
90.0
  0
CIRCLE
  8
0
 62
2
  6
CONTINUOUS
 10
5.5721456793
 20
17.2814368704
 40
0.1247694151
  0
CIRCLE
  8
0
 62
2
  6
CONTINUOUS
 10
7.7118289601
 20
16.9896012975
 40
0.0653578721
  0
ARC
  8
0
 62
2
  6
CONTINUOUS
 10
7.3122143962
 20
17.3793243786
 40
0.053611735
 50
266.1604009902
 51
89.9998910512
  0
ARC
  8
0
 62
2
  6
CONTINUOUS
 10
7.7202222936
 20
17.005895356
 40
0.0168314496
 50
270.0
 51
90.0
  0
ARC
  8
_CURVE
 62
7
  6
CONTINUOUS
 10
5.6303302927
 20
18.0717428276
 40
1.0
 50
89.3277185915
 51
181.1190506221
  0
ARC
  8
_CURVE
 62
7
  6
CONTINUOUS
 10
5.6302517269
 20
5.868898908
 40
1.0
 50
178.8811042305
 51
270.6724770292
  0
ARC
  8
_CURVE
 62
7
  6
CONTINUOUS
 10
20.6848163968
 20
5.8689100538
 40
1.0
 50
269.3272676127
 51
1.1188779761
  0
ARC
  8
_CURVE
 62
7
  6
CONTINUOUS
 10
20.6847378674
 20
18.0717315301
 40
1.0
 50
358.8809436034
 51
90.6725505826
  0
ENDSEC
  0
EOF
