999
DXF file: 1014137-7.dxf
999
Pro/ENGINEER 2001490 by Parametric Technology Corporation
0
SECTION
2
HEADER
9
$ACADVER
1
AC1014
9
$EXTMAX
10
25.0000000000
20
25.0000000000
9
$EXTMIN
10
0.0000000000
20
0.0000000000
9
$LIMMIN
10
0.0000000000
20
0.0000000000
9
$LIMMAX
10
25.0000000000
20
25.0000000000
9
$VIEWCTR
10
12.5000000000
20
12.5000000000
9
$VIEWSIZE
40
25.0000000000
9
$CLAYER
8
0
9
$LTSCALE
40
1.6296296296
9
$CELTYPE
6
BYLAYER
9
$DIMSCALE
40
1
9
$DIMASZ
40
0.1875000000
9
$DIMEXO
40
0.1851851852
9
$DIMDLI
40
1.1259259259
9
$DIMEXE
40
0.5333333333
9
$DIMCEN
40
0.2666666667
9
$DIMLFAC
40
1.0000000000
9
$DIMTXT
40
0.1562500000
9
$DIMTOL
70
1
9
$DIMLIM
70
0
9
$DIMTFAC
40
1.0000000000
9
$DIMTP
40
0.0100000000
9
$DIMTM
40
0.0100000000
9
$HANDSEED
5
333
0
ENDSEC
0
SECTION
2
CLASSES
0
ENDSEC
0
SECTION
2
TABLES
0
TABLE
2
VPORT
5
8
100
AcDbSymbolTable
70
2
0
VPORT
5
1F4
100
AcDbSymbolTableRecord
100
AcDbViewportTableRecord
2
*ACTIVE
70
0
10
0.0
20
0.0
11
1.0
21
1.0
12
12.5000000000
22
12.5000000000
13
0.0
23
0.0
14
1.0
24
1.0
15
0.0
25
0.0
16
0.0
26
0.0
36
1.0
17
0.0
27
0.0
37
0.0
40
25.0000000000
41
1.0000000000
42
50.0
43
0.0
44
0.0
50
0.0
51
0.0
71
0
72
100
73
1
74
1
75
0
76
0
77
0
78
0
0
ENDTAB
0
TABLE
2
LTYPE
5
5
100
AcDbSymbolTable
70
6
0
LTYPE
5
14
100
AcDbSymbolTableRecord
100
AcDbLinetypeTableRecord
2
BYBLOCK
70
0
3

72
65
73
0
40
0.0
0
LTYPE
5
15
100
AcDbSymbolTableRecord
100
AcDbLinetypeTableRecord
2
BYLAYER
70
0
3

72
65
73
0
40
0.0
0
LTYPE
5
16
100
AcDbSymbolTableRecord
100
AcDbLinetypeTableRecord
2
CONTINUOUS
70
64
3
Solid line
72
65
73
0
40
0
0
LTYPE
5
1F5
100
AcDbSymbolTableRecord
100
AcDbLinetypeTableRecord
2
CENTER
70
64
3
____ _ ____ _ ____ _ ____ _ ____ _ ____ _ ____
72
65
73
4
40
0.6
49
0.375
74
0
49
-0.075
74
0
49
0.075
74
0
49
-0.075
74
0
0
LTYPE
5
1F6
100
AcDbSymbolTableRecord
100
AcDbLinetypeTableRecord
2
HIDDEN
70
64
3
- - - - - - - - - - - - - - - - - - - -
72
65
73
2
40
0.2
49
0.1
74
0
49
-0.1
74
0
0
LTYPE
5
1F7
100
AcDbSymbolTableRecord
100
AcDbLinetypeTableRecord
2
PHANTOM
70
64
3
_____ _ _ _____ _ _ _____ _ _ _____
72
65
73
6
40
0.8
49
0.45
74
0
49
-0.05
74
0
49
0.1
74
0
49
-0.05
74
0
49
0.1
74
0
49
-0.05
74
0
0
LTYPE
5
1F8
100
AcDbSymbolTableRecord
100
AcDbLinetypeTableRecord
2
DOT
70
64
3
. . . . . . . . . . . . . . . . . . . .
72
65
73
2
40
0.2
49
0.1
74
0
49
-0.1
74
0
0
LTYPE
5
1F9
100
AcDbSymbolTableRecord
100
AcDbLinetypeTableRecord
2
DASHED
70
64
3
- - - - - - - - - - - - - - - - - - - -
72
65
73
2
40
0.2
49
0.1
74
0
49
-0.1
74
0
0
ENDTAB
0
TABLE
2
LAYER
5
2
100
AcDbSymbolTable
70
36
0
LAYER
5
10
100
AcDbSymbolTableRecord
100
AcDbLayerTableRecord
2
0
70
0
62
7
6
CONTINUOUS
0
LAYER
5
1FA
100
AcDbSymbolTableRecord
100
AcDbLayerTableRecord
2
DEFAULT_1
70
0
62
7
6
CENTER
0
LAYER
5
1FB
100
AcDbSymbolTableRecord
100
AcDbLayerTableRecord
2
DEFAULT_2
70
0
62
8
6
HIDDEN
0
LAYER
5
1FC
100
AcDbSymbolTableRecord
100
AcDbLayerTableRecord
2
DEFAULT_3
70
0
62
7
6
PHANTOM
0
LAYER
5
1FD
100
AcDbSymbolTableRecord
100
AcDbLayerTableRecord
2
TEMPLATE_COSMETIC
70
0
62
7
6
CONTINUOUS
0
LAYER
5
1FE
100
AcDbSymbolTableRecord
100
AcDbLayerTableRecord
2
___NOTE
70
0
62
7
6
CONTINUOUS
0
LAYER
5
1FF
100
AcDbSymbolTableRecord
100
AcDbLayerTableRecord
2
___SYMBOL
70
0
62
7
6
CONTINUOUS
0
ENDTAB
0
TABLE
2
STYLE
5
3
100
AcDbSymbolTable
70
1
0
STYLE
5
11
100
AcDbSymbolTableRecord
100
AcDbTextStyleTableRecord
2
STANDARD
70
0
40
0.0
41
0.8000000000
50
0.0
71
0
42
0.0
3
txt
4

0
STYLE
5
200
100
AcDbSymbolTableRecord
100
AcDbTextStyleTableRecord
2
TEXTSTYLE_0
70
0
40
0.0
41
0.80
50
0.0
71
0
42
0.2
3
txt
4

0
ENDTAB
0
TABLE
2
VIEW
5
6
100
AcDbSymbolTable
70
0
0
ENDTAB
0
TABLE
2
UCS
5
7
100
AcDbSymbolTable
70
0
0
ENDTAB
0
TABLE
2
APPID
5
9
100
AcDbSymbolTable
70
1
0
APPID
5
201
100
AcDbSymbolTableRecord
100
AcDbRegAppTableRecord
2
ACAD
70
0
0
ENDTAB
0
TABLE
2
DIMSTYLE
5
A
100
AcDbSymbolTable
70
1
0
DIMSTYLE
105
202
100
AcDbSymbolTableRecord
100
AcDbDimStyleTableRecord
2
STANDARD
70
0
3

4

5

6

7

40
1.0
41
0.1875000000
42
0.0625
43
0.38
44
0.18
45
0.0
46
0.0
47
0.0100000000
48
0.0100000000
140
0.1562500000
141
0.09
142
0.0
143
25.4
144
1.0000000000
145
0.0
146
1.0000000000
147
0.09
71
1
72
0
73
1
74
1
75
0
76
0
77
0
78
0
170
0
171
2
172
0
173
0
174
0
175
0
176
0
177
0
178
0
270
2
271
3
272
3
273
2
274
2
340
11
275
0
280
0
281
0
282
0
283
1
284
0
285
0
286
0
287
3
288
0
0
DIMSTYLE
105
203
100
AcDbSymbolTableRecord
100
AcDbDimStyleTableRecord
2
DIMSTYLE_1
70
0
3

4

5

6

7

40
1.0
41
0.1875000000
42
0.0625
43
0.38
44
0.18
45
0.0
46
0.0
47
0.0312500000
48
0.0312500000
140
0.1562500000
141
0.09
142
0.0
143
25.4
144
1.0000000000
145
0.0
146
1.0000000000
147
0.09
71
0
72
0
73
1
74
1
75
0
76
0
77
0
78
0
170
0
171
2
172
0
173
0
174
0
175
0
176
0
177
0
178
0
270
2
271
5
272
5
273
2
274
2
340
11
275
0
280
0
281
0
282
0
283
1
284
0
285
0
286
0
287
3
288
0
0
ENDTAB
0
TABLE
2
BLOCK_RECORD
5
1
100
AcDbSymbolTable
70
0
0
BLOCK_RECORD
5
1B
100
AcDbSymbolTableRecord
100
AcDbBlockTableRecord
2
*MODEL_SPACE
0
BLOCK_RECORD
5
1C
100
AcDbSymbolTableRecord
100
AcDbBlockTableRecord
2
*PAPER_SPACE
0
BLOCK_RECORD
5
204
100
AcDbSymbolTableRecord
100
AcDbBlockTableRecord
2
*D0
0
BLOCK_RECORD
5
205
100
AcDbSymbolTableRecord
100
AcDbBlockTableRecord
2
*D1
0
ENDTAB
0
ENDSEC
0
SECTION
2
BLOCKS
0
BLOCK
5
1E
100
AcDbEntity
8
0
100
AcDbBlockBegin
2
*MODEL_SPACE
70
0
10
0.0
20
0.0
30
0.0
3
*MODEL_SPACE
1

0
ENDBLK
5
1F
100
AcDbEntity
8
0
100
AcDbBlockEnd
0
BLOCK
5
20
100
AcDbEntity
8
0
100
AcDbBlockBegin
2
*PAPER_SPACE
70
0
10
0.0
20
0.0
30
0.0
3
*PAPER_SPACE
1

0
ENDBLK
5
21
100
AcDbEntity
8
0
100
AcDbBlockEnd
0
BLOCK
5
206
100
AcDbEntity
8
0
100
AcDbBlockBegin
62
2
6
CONTINUOUS
2
*D0
70
65
10
0.0000000000
20
0.0000000000
3
*D0
1

0
TEXT
5
207
100
AcDbEntity
8
0
100
AcDbText
62
2
6
CONTINUOUS
10
1.4421206178
20
16.4757447872
7
TEXTSTYLE_0
40
0.1562500000
1
[30,5 cm]
72
5
11
2.5671206178
21
16.4757447872
100
AcDbText
0
TEXT
5
208
100
AcDbEntity
8
0
100
AcDbText
62
2
6
CONTINUOUS
10
1.8796206178
20
16.7101197872
7
TEXTSTYLE_0
40
0.1562500000
1
12
72
5
11
2.1296206178
21
16.7101197872
100
AcDbText
0
LINE
5
209
100
AcDbEntity
8
0
100
AcDbLine
62
2
6
CONTINUOUS
10
2.1734814928
20
24.2543465826
11
1.8796206178
21
24.2543465826
0
LINE
5
20A
100
AcDbEntity
8
0
100
AcDbLine
62
2
6
CONTINUOUS
10
11.7743461938
20
12.2543465826
11
1.8796206178
21
12.2543465826
0
LINE
5
20B
100
AcDbEntity
8
0
100
AcDbLine
62
2
6
CONTINUOUS
10
2.0046206178
20
24.2543465826
11
2.0046206178
21
16.9444947872
0
LINE
5
20C
100
AcDbEntity
8
0
100
AcDbLine
62
2
6
CONTINUOUS
10
2.0046206178
20
12.2543465826
11
2.0046206178
21
16.3976197872
0
SOLID
5
20D
100
AcDbEntity
8
0
100
AcDbTrace
62
2
6
CONTINUOUS
10
2.0358706178
20
24.0668465826
11
2.0046206178
21
24.2543465826
12
1.9733706178
22
24.0668465826
13
1.9733706178
23
24.0668465826
0
SOLID
5
20E
100
AcDbEntity
8
0
100
AcDbTrace
62
2
6
CONTINUOUS
10
1.9733706178
20
12.4418465826
11
2.0046206178
21
12.2543465826
12
2.0358706178
22
12.4418465826
13
2.0358706178
23
12.4418465826
0
ENDBLK
5
20F
100
AcDbEntity
8
0
100
AcDbBlockEnd
0
BLOCK
5
210
100
AcDbEntity
8
0
100
AcDbBlockBegin
62
2
6
CONTINUOUS
2
*D1
70
65
10
0.0000000000
20
0.0000000000
3
*D1
1

0
TEXT
5
211
100
AcDbEntity
8
0
100
AcDbText
62
2
6
CONTINUOUS
10
11.8777205686
20
22.4666773329
7
TEXTSTYLE_0
40
0.1562500000
1
[33 cm]
72
5
11
12.7527205686
21
22.4666773329
100
AcDbText
0
TEXT
5
212
100
AcDbEntity
8
0
100
AcDbText
62
2
6
CONTINUOUS
10
12.1902205686
20
22.7010523329
7
TEXTSTYLE_0
40
0.1562500000
1
13
72
5
11
12.4402205686
21
22.7010523329
100
AcDbText
0
LINE
5
213
100
AcDbEntity
8
0
100
AcDbLine
62
2
6
CONTINUOUS
10
19.0941726028
20
21.7747252098
11
19.0941726028
21
22.9041773329
0
LINE
5
214
100
AcDbEntity
8
0
100
AcDbLine
62
2
6
CONTINUOUS
10
6.0941726028
20
21.7747252098
11
6.0941726028
21
22.9041773329
0
LINE
5
215
100
AcDbEntity
8
0
100
AcDbLine
62
2
6
CONTINUOUS
10
19.0941726028
20
22.7791773329
11
12.8308455686
21
22.7791773329
0
LINE
5
216
100
AcDbEntity
8
0
100
AcDbLine
62
2
6
CONTINUOUS
10
6.0941726028
20
22.7791773329
11
11.7995955686
21
22.7791773329
0
SOLID
5
217
100
AcDbEntity
8
0
100
AcDbTrace
62
2
6
CONTINUOUS
10
18.9066726028
20
22.7479273329
11
19.0941726028
21
22.7791773329
12
18.9066726028
22
22.8104273329
13
18.9066726028
23
22.8104273329
0
SOLID
5
218
100
AcDbEntity
8
0
100
AcDbTrace
62
2
6
CONTINUOUS
10
6.2816726028
20
22.8104273329
11
6.0941726028
21
22.7791773329
12
6.2816726028
22
22.7479273329
13
6.2816726028
23
22.7479273329
0
ENDBLK
5
219
100
AcDbEntity
8
0
100
AcDbBlockEnd
0
ENDSEC
0
SECTION
2
ENTITIES
0
SOLID
5
21A
100
AcDbEntity
8
0
100
AcDbTrace
62
2
6
CONTINUOUS
10
7.3205211336
20
6.4587615075
11
7.3205211336
21
6.5601240075
12
8.0336086336
22
6.5601240075
13
8.0336086336
23
6.5601240075
0
SOLID
5
21B
100
AcDbEntity
8
0
100
AcDbTrace
62
2
6
CONTINUOUS
10
8.0336086336
20
6.5601240075
11
8.0336086336
21
6.4587615075
12
7.3205211336
22
6.4587615075
13
7.3205211336
23
6.4587615075
0
SOLID
5
21C
100
AcDbEntity
8
0
100
AcDbTrace
62
2
6
CONTINUOUS
10
7.3205211336
20
6.2199177575
11
7.3205211336
21
6.2490677575
12
8.0336086336
22
6.2490677575
13
8.0336086336
23
6.2490677575
0
SOLID
5
21D
100
AcDbEntity
8
0
100
AcDbTrace
62
2
6
CONTINUOUS
10
8.0336086336
20
6.2490677575
11
8.0336086336
21
6.2199177575
12
7.3205211336
22
6.2199177575
13
7.3205211336
23
6.2199177575
0
SOLID
5
21E
100
AcDbEntity
8
0
100
AcDbTrace
62
2
6
CONTINUOUS
10
7.3593961336
20
6.5976240075
11
7.3593961336
21
6.6489990075
12
8.0724836336
22
6.6489990075
13
8.0724836336
23
6.6489990075
0
SOLID
5
21F
100
AcDbEntity
8
0
100
AcDbTrace
62
2
6
CONTINUOUS
10
8.0724836336
20
6.6489990075
11
8.0724836336
21
6.5976240075
12
7.3593961336
22
6.5976240075
13
7.3593961336
23
6.5976240075
0
SOLID
5
220
100
AcDbEntity
8
0
100
AcDbTrace
62
2
6
CONTINUOUS
10
7.3593961336
20
6.7031615075
11
7.3593961336
21
6.7545302575
12
8.0724836336
22
6.7545302575
13
8.0724836336
23
6.7545302575
0
SOLID
5
221
100
AcDbEntity
8
0
100
AcDbTrace
62
2
6
CONTINUOUS
10
8.0724836336
20
6.7545302575
11
8.0724836336
21
6.7031615075
12
7.3593961336
22
6.7031615075
13
7.3593961336
23
6.7031615075
0
SOLID
5
222
100
AcDbEntity
8
0
100
AcDbTrace
62
2
6
CONTINUOUS
10
7.3593961336
20
6.7864802575
11
7.3593961336
21
6.8378490075
12
8.0724836336
22
6.8378490075
13
8.0724836336
23
6.8378490075
0
SOLID
5
223
100
AcDbEntity
8
0
100
AcDbTrace
62
2
6
CONTINUOUS
10
8.0724836336
20
6.8378490075
11
8.0724836336
21
6.7864802575
12
7.3593961336
22
6.7864802575
13
7.3593961336
23
6.7864802575
0
SOLID
5
224
100
AcDbEntity
8
0
100
AcDbTrace
62
2
6
CONTINUOUS
10
7.3593961336
20
6.8697927575
11
7.3593961336
21
6.9211677575
12
8.0724836336
22
6.9211677575
13
8.0724836336
23
6.9211677575
0
SOLID
5
225
100
AcDbEntity
8
0
100
AcDbTrace
62
2
6
CONTINUOUS
10
8.0724836336
20
6.9211677575
11
8.0724836336
21
6.8697927575
12
7.3593961336
22
6.8697927575
13
7.3593961336
23
6.8697927575
0
SOLID
5
226
100
AcDbEntity
8
0
100
AcDbTrace
62
2
6
CONTINUOUS
10
7.3593961336
20
6.9531115075
11
7.3593961336
21
7.0044865075
12
8.0724836336
22
7.0044865075
13
8.0724836336
23
7.0044865075
0
SOLID
5
227
100
AcDbEntity
8
0
100
AcDbTrace
62
2
6
CONTINUOUS
10
8.0724836336
20
7.0044865075
11
8.0724836336
21
6.9531115075
12
7.3593961336
22
6.9531115075
13
7.3593961336
23
6.9531115075
0
SOLID
5
228
100
AcDbEntity
8
0
100
AcDbTrace
62
2
6
CONTINUOUS
10
8.6440273836
20
6.4587615075
11
8.6440273836
21
6.5601240075
12
8.9298211336
22
6.5601240075
13
8.9298211336
23
6.5601240075
0
SOLID
5
229
100
AcDbEntity
8
0
100
AcDbTrace
62
2
6
CONTINUOUS
10
8.9298211336
20
6.5601240075
11
8.9298211336
21
6.4587615075
12
8.6440273836
22
6.4587615075
13
8.6440273836
23
6.4587615075
0
SOLID
5
22A
100
AcDbEntity
8
0
100
AcDbTrace
62
2
6
CONTINUOUS
10
14.1413886738
20
21.1862858286
11
14.2274912733
21
21.2886740665
12
14.3475298993
22
21.2886740665
13
14.3475298993
23
21.2886740665
0
SOLID
5
22B
100
AcDbEntity
8
0
100
AcDbTrace
62
2
6
CONTINUOUS
10
14.3475298993
20
21.2886740665
11
14.2142152492
21
21.1301439046
12
14.1413886738
22
21.1862858286
13
14.1413886738
23
21.1862858286
0
SOLID
5
22C
100
AcDbEntity
8
0
100
AcDbTrace
62
2
6
CONTINUOUS
10
14.1413886738
20
21.0484154451
11
14.2142152492
21
21.1301439046
12
14.2374748811
22
20.9224780557
13
14.2374748811
23
20.9224780557
0
SOLID
5
22D
100
AcDbEntity
8
0
100
AcDbTrace
62
2
6
CONTINUOUS
10
14.2142152492
20
21.1301439046
11
14.3726576372
21
20.9224780557
12
14.2374748811
22
20.9224780557
13
14.2374748811
23
20.9224780557
0
SOLID
5
22E
100
AcDbEntity
8
0
100
AcDbTrace
62
2
6
CONTINUOUS
10
14.1413886738
20
20.9224780557
11
14.0323260380
21
20.9224630535
12
14.1413886738
22
21.0484154451
13
14.1413886738
23
21.0484154451
0
SOLID
5
22F
100
AcDbEntity
8
0
100
AcDbTrace
62
2
6
CONTINUOUS
10
14.2142152492
20
21.1301439046
11
14.1413886738
21
21.0484154451
12
14.1413886738
22
21.1862858286
13
14.1413886738
23
21.1862858286
0
SOLID
5
230
100
AcDbEntity
8
0
100
AcDbTrace
62
2
6
CONTINUOUS
10
14.1413886738
20
21.0484154451
11
14.0323260380
21
20.9224630535
12
14.1413886738
22
21.1862858286
13
14.1413886738
23
21.1862858286
0
SOLID
5
231
100
AcDbEntity
8
0
100
AcDbTrace
62
2
6
CONTINUOUS
10
14.1413886738
20
21.1862858286
11
14.0323260380
21
20.9224630535
12
14.1413886738
22
21.2886740665
13
14.1413886738
23
21.2886740665
0
SOLID
5
232
100
AcDbEntity
8
0
100
AcDbTrace
62
2
6
CONTINUOUS
10
14.0323260380
20
20.9224630535
11
14.0323260380
21
21.2886740665
12
14.1413886738
22
21.2886740665
13
14.1413886738
23
21.2886740665
0
SOLID
5
233
100
AcDbEntity
8
0
100
AcDbTrace
62
2
6
CONTINUOUS
10
14.4254103123
20
21.2820431835
11
14.4635035317
21
21.2901401472
12
14.5024477764
22
21.2901401472
13
14.5024477764
23
21.2901401472
0
SOLID
5
234
100
AcDbEntity
8
0
100
AcDbTrace
62
2
6
CONTINUOUS
10
14.5024477764
20
21.2901401472
11
14.5405409958
21
21.2820431835
12
14.4254103123
22
21.2820431835
13
14.4254103123
23
21.2820431835
0
SOLID
5
235
100
AcDbEntity
8
0
100
AcDbTrace
62
2
6
CONTINUOUS
10
14.3898329745
20
21.2662031321
11
14.4254103123
21
21.2820431835
12
14.5405409958
22
21.2820431835
13
14.5405409958
23
21.2820431835
0
SOLID
5
236
100
AcDbEntity
8
0
100
AcDbTrace
62
2
6
CONTINUOUS
10
14.5405409958
20
21.2820431835
11
14.5761183336
21
21.2662031321
12
14.3898329745
22
21.2662031321
13
14.3898329745
23
21.2662031321
0
SOLID
5
237
100
AcDbEntity
8
0
100
AcDbTrace
62
2
6
CONTINUOUS
10
14.3583264187
20
21.2433122795
11
14.3898329745
21
21.2662031321
12
14.5761183336
22
21.2662031321
13
14.5761183336
23
21.2662031321
0
SOLID
5
238
100
AcDbEntity
8
0
100
AcDbTrace
62
2
6
CONTINUOUS
10
14.5761183336
20
21.2662031321
11
14.6076248894
21
21.2433122795
12
14.3583264187
22
21.2433122795
13
14.3583264187
23
21.2433122795
0
SOLID
5
239
100
AcDbEntity
8
0
100
AcDbTrace
62
2
6
CONTINUOUS
10
14.3322676327
20
21.2143710656
11
14.3583264187
21
21.2433122795
12
14.6076248894
22
21.2433122795
13
14.6076248894
23
21.2433122795
0
SOLID
5
23A
100
AcDbEntity
8
0
100
AcDbTrace
62
2
6
CONTINUOUS
10
14.6076248894
20
21.2433122795
11
14.6336836754
21
21.2143710656
12
14.3322676327
22
21.2143710656
13
14.3322676327
23
21.2143710656
0
SOLID
5
23B
100
AcDbEntity
8
0
100
AcDbTrace
62
2
6
CONTINUOUS
10
14.4829756541
20
21.1828561589
11
14.3127955104
21
21.1806443604
12
14.6336836754
22
21.2143710656
13
14.6336836754
23
21.2143710656
0
SOLID
5
23C
100
AcDbEntity
8
0
100
AcDbTrace
62
2
6
CONTINUOUS
10
14.3127955104
20
21.1806443604
11
14.3322676327
21
21.2143710656
12
14.6336836754
22
21.2143710656
13
14.6336836754
23
21.2143710656
0
SOLID
5
23D
100
AcDbEntity
8
0
100
AcDbTrace
62
2
6
CONTINUOUS
10
14.6336836754
20
21.2143710656
11
14.6531557977
21
21.1806443604
12
14.4829756541
22
21.1828561589
13
14.4829756541
23
21.1828561589
0
SOLID
5
23E
100
AcDbEntity
8
0
100
AcDbTrace
62
2
6
CONTINUOUS
10
14.4829756541
20
21.1828561589
11
14.4588782368
21
21.1790395029
12
14.3127955104
22
21.1806443604
13
14.3127955104
23
21.1806443604
0
SOLID
5
23F
100
AcDbEntity
8
0
100
AcDbTrace
62
2
6
CONTINUOUS
10
14.5070730713
20
21.1790395029
11
14.4829756541
21
21.1828561589
12
14.6531557977
22
21.1806443604
13
14.6531557977
23
21.1806443604
0
SOLID
5
240
100
AcDbEntity
8
0
100
AcDbTrace
62
2
6
CONTINUOUS
10
14.4198877968
20
21.1507112900
11
14.3007610769
21
21.1436061827
12
14.4371396427
22
21.1679631360
13
14.4371396427
23
21.1679631360
0
SOLID
5
241
100
AcDbEntity
8
0
100
AcDbTrace
62
2
6
CONTINUOUS
10
14.4371396427
20
21.1679631360
11
14.3007610769
21
21.1436061827
12
14.4588782368
22
21.1790395029
13
14.4588782368
23
21.1790395029
0
SOLID
5
242
100
AcDbEntity
8
0
100
AcDbTrace
62
2
6
CONTINUOUS
10
14.3007610769
20
21.1436061827
11
14.3127955104
21
21.1806443604
12
14.4588782368
22
21.1790395029
13
14.4588782368
23
21.1790395029
0
SOLID
5
243
100
AcDbEntity
8
0
100
AcDbTrace
62
2
6
CONTINUOUS
10
14.5070730713
20
21.1790395029
11
14.6531557977
21
21.1806443604
12
14.5288116654
22
21.1679631360
13
14.5288116654
23
21.1679631360
0
SOLID
5
244
100
AcDbEntity
8
0
100
AcDbTrace
62
2
6
CONTINUOUS
10
14.5288116654
20
21.1679631360
11
14.6531557977
21
21.1806443604
12
14.5460635113
22
21.1507112900
13
14.5460635113
23
21.1507112900
0
SOLID
5
245
100
AcDbEntity
8
0
100
AcDbTrace
62
2
6
CONTINUOUS
10
14.6531557977
20
21.1806443604
11
14.6651902312
21
21.1436061827
12
14.5460635113
22
21.1507112900
13
14.5460635113
23
21.1507112900
0
SOLID
5
246
100
AcDbEntity
8
0
100
AcDbTrace
62
2
6
CONTINUOUS
10
14.4198877968
20
21.1507112900
11
14.4088114298
21
21.1289726959
12
14.3007610769
22
21.1436061827
13
14.3007610769
23
21.1436061827
0
SOLID
5
247
100
AcDbEntity
8
0
100
AcDbTrace
62
2
6
CONTINUOUS
10
14.5571398783
20
21.1289726959
11
14.5460635113
21
21.1507112900
12
14.6651902312
22
21.1436061827
13
14.6651902312
23
21.1436061827
0
SOLID
5
248
100
AcDbEntity
8
0
100
AcDbTrace
62
2
6
CONTINUOUS
10
14.2966902949
20
21.1048752787
11
14.3007610769
21
21.1436061827
12
14.4088114298
22
21.1289726959
13
14.4088114298
23
21.1289726959
0
SOLID
5
249
100
AcDbEntity
8
0
100
AcDbTrace
62
2
6
CONTINUOUS
10
14.4088114298
20
21.1289726959
11
14.4049947739
21
21.1048752787
12
14.2966902949
22
21.1048752787
13
14.2966902949
23
21.1048752787
0
SOLID
5
24A
100
AcDbEntity
8
0
100
AcDbTrace
62
2
6
CONTINUOUS
10
14.5571398783
20
21.1289726959
11
14.6651902312
21
21.1436061827
12
14.5609565342
22
21.1048752787
13
14.5609565342
23
21.1048752787
0
SOLID
5
24B
100
AcDbEntity
8
0
100
AcDbTrace
62
2
6
CONTINUOUS
10
14.6651902312
20
21.1436061827
11
14.6692610132
21
21.1048752787
12
14.5609565342
22
21.1048752787
13
14.5609565342
23
21.1048752787
0
SOLID
5
24C
100
AcDbEntity
8
0
100
AcDbTrace
62
2
6
CONTINUOUS
10
14.5571398783
20
21.0807778615
11
14.5609565342
21
21.1048752787
12
14.6692610132
22
21.1048752787
13
14.6692610132
23
21.1048752787
0
SOLID
5
24D
100
AcDbEntity
8
0
100
AcDbTrace
62
2
6
CONTINUOUS
10
14.4088114298
20
21.0807778615
11
14.3007610769
21
21.0661443747
12
14.4049947739
22
21.1048752787
13
14.4049947739
23
21.1048752787
0
SOLID
5
24E
100
AcDbEntity
8
0
100
AcDbTrace
62
2
6
CONTINUOUS
10
14.3007610769
20
21.0661443747
11
14.2966902949
21
21.1048752787
12
14.4049947739
22
21.1048752787
13
14.4049947739
23
21.1048752787
0
SOLID
5
24F
100
AcDbEntity
8
0
100
AcDbTrace
62
2
6
CONTINUOUS
10
14.6692610132
20
21.1048752787
11
14.6651902312
21
21.0661443747
12
14.5571398783
22
21.0807778615
13
14.5571398783
23
21.0807778615
0
SOLID
5
250
100
AcDbEntity
8
0
100
AcDbTrace
62
2
6
CONTINUOUS
10
14.4088114298
20
21.0807778615
11
14.4198877968
21
21.0590392674
12
14.3007610769
22
21.0661443747
13
14.3007610769
23
21.0661443747
0
SOLID
5
251
100
AcDbEntity
8
0
100
AcDbTrace
62
2
6
CONTINUOUS
10
14.5460635113
20
21.0590392674
11
14.5571398783
21
21.0807778615
12
14.6651902312
22
21.0661443747
13
14.6651902312
23
21.0661443747
0
SOLID
5
252
100
AcDbEntity
8
0
100
AcDbTrace
62
2
6
CONTINUOUS
10
14.4588782368
20
21.0307110545
11
14.3127955104
21
21.0291061971
12
14.4371396427
22
21.0417874214
13
14.4371396427
23
21.0417874214
0
SOLID
5
253
100
AcDbEntity
8
0
100
AcDbTrace
62
2
6
CONTINUOUS
10
14.4371396427
20
21.0417874214
11
14.3127955104
21
21.0291061971
12
14.4198877968
22
21.0590392674
13
14.4198877968
23
21.0590392674
0
SOLID
5
254
100
AcDbEntity
8
0
100
AcDbTrace
62
2
6
CONTINUOUS
10
14.3127955104
20
21.0291061971
11
14.3007610769
21
21.0661443747
12
14.4198877968
22
21.0590392674
13
14.4198877968
23
21.0590392674
0
SOLID
5
255
100
AcDbEntity
8
0
100
AcDbTrace
62
2
6
CONTINUOUS
10
14.5460635113
20
21.0590392674
11
14.6651902312
21
21.0661443747
12
14.5288116654
22
21.0417874214
13
14.5288116654
23
21.0417874214
0
SOLID
5
256
100
AcDbEntity
8
0
100
AcDbTrace
62
2
6
CONTINUOUS
10
14.5288116654
20
21.0417874214
11
14.6651902312
21
21.0661443747
12
14.5070730713
22
21.0307110545
13
14.5070730713
23
21.0307110545
0
SOLID
5
257
100
AcDbEntity
8
0
100
AcDbTrace
62
2
6
CONTINUOUS
10
14.6651902312
20
21.0661443747
11
14.6531557977
21
21.0291061971
12
14.5070730713
22
21.0307110545
13
14.5070730713
23
21.0307110545
0
SOLID
5
258
100
AcDbEntity
8
0
100
AcDbTrace
62
2
6
CONTINUOUS
10
14.4588782368
20
21.0307110545
11
14.4829756541
21
21.0268943986
12
14.3127955104
22
21.0291061971
13
14.3127955104
23
21.0291061971
0
SOLID
5
259
100
AcDbEntity
8
0
100
AcDbTrace
62
2
6
CONTINUOUS
10
14.4829756541
20
21.0268943986
11
14.5070730713
21
21.0307110545
12
14.6531557977
22
21.0291061971
13
14.6531557977
23
21.0291061971
0
SOLID
5
25A
100
AcDbEntity
8
0
100
AcDbTrace
62
2
6
CONTINUOUS
10
14.3322676327
20
20.9953794919
11
14.3127955104
21
21.0291061971
12
14.4829756541
22
21.0268943986
13
14.4829756541
23
21.0268943986
0
SOLID
5
25B
100
AcDbEntity
8
0
100
AcDbTrace
62
2
6
CONTINUOUS
10
14.4829756541
20
21.0268943986
11
14.6531557977
21
21.0291061971
12
14.3322676327
22
20.9953794919
13
14.3322676327
23
20.9953794919
0
SOLID
5
25C
100
AcDbEntity
8
0
100
AcDbTrace
62
2
6
CONTINUOUS
10
14.6531557977
20
21.0291061971
11
14.6336836754
21
20.9953794919
12
14.3322676327
22
20.9953794919
13
14.3322676327
23
20.9953794919
0
SOLID
5
25D
100
AcDbEntity
8
0
100
AcDbTrace
62
2
6
CONTINUOUS
10
14.3583264187
20
20.9664382780
11
14.3322676327
21
20.9953794919
12
14.6336836754
22
20.9953794919
13
14.6336836754
23
20.9953794919
0
SOLID
5
25E
100
AcDbEntity
8
0
100
AcDbTrace
62
2
6
CONTINUOUS
10
14.6336836754
20
20.9953794919
11
14.6076248894
21
20.9664382780
12
14.3583264187
22
20.9664382780
13
14.3583264187
23
20.9664382780
0
SOLID
5
25F
100
AcDbEntity
8
0
100
AcDbTrace
62
2
6
CONTINUOUS
10
14.3898329745
20
20.9435474253
11
14.3583264187
21
20.9664382780
12
14.6076248894
22
20.9664382780
13
14.6076248894
23
20.9664382780
0
SOLID
5
260
100
AcDbEntity
8
0
100
AcDbTrace
62
2
6
CONTINUOUS
10
14.6076248894
20
20.9664382780
11
14.5761183336
21
20.9435474253
12
14.3898329745
22
20.9435474253
13
14.3898329745
23
20.9435474253
0
SOLID
5
261
100
AcDbEntity
8
0
100
AcDbTrace
62
2
6
CONTINUOUS
10
14.4254103123
20
20.9277073740
11
14.3898329745
21
20.9435474253
12
14.5761183336
22
20.9435474253
13
14.5761183336
23
20.9435474253
0
SOLID
5
262
100
AcDbEntity
8
0
100
AcDbTrace
62
2
6
CONTINUOUS
10
14.5761183336
20
20.9435474253
11
14.5405409958
21
20.9277073740
12
14.4254103123
22
20.9277073740
13
14.4254103123
23
20.9277073740
0
SOLID
5
263
100
AcDbEntity
8
0
100
AcDbTrace
62
2
6
CONTINUOUS
10
14.4635035317
20
20.9196104102
11
14.4254103123
21
20.9277073740
12
14.5405409958
22
20.9277073740
13
14.5405409958
23
20.9277073740
0
SOLID
5
264
100
AcDbEntity
8
0
100
AcDbTrace
62
2
6
CONTINUOUS
10
14.5405409958
20
20.9277073740
11
14.5024477764
21
20.9196104102
12
14.4635035317
22
20.9196104102
13
14.4635035317
23
20.9196104102
0
SOLID
5
265
100
AcDbEntity
8
0
100
AcDbTrace
62
2
6
CONTINUOUS
10
14.8754145884
20
21.1509342243
11
14.8754145884
21
21.2886740665
12
14.9783731327
22
21.2886740665
13
14.9783731327
23
21.2886740665
0
SOLID
5
266
100
AcDbEntity
8
0
100
AcDbTrace
62
2
6
CONTINUOUS
10
14.8754145884
20
21.1509342243
11
14.7829165865
21
21.0651809290
12
14.7829165865
22
21.1509342243
13
14.7829165865
23
21.1509342243
0
SOLID
5
267
100
AcDbEntity
8
0
100
AcDbTrace
62
2
6
CONTINUOUS
10
14.7829165865
20
21.0651809290
11
14.6799580423
21
20.9224780557
12
14.7829165865
22
21.1509342243
13
14.7829165865
23
21.1509342243
0
SOLID
5
268
100
AcDbEntity
8
0
100
AcDbTrace
62
2
6
CONTINUOUS
10
14.7829165865
20
21.1509342243
11
14.6799580423
21
20.9224780557
12
14.7829165865
22
21.2886740665
13
14.7829165865
23
21.2886740665
0
SOLID
5
269
100
AcDbEntity
8
0
100
AcDbTrace
62
2
6
CONTINUOUS
10
14.6799580423
20
20.9224780557
11
14.6799580423
21
21.2886740665
12
14.7829165865
22
21.2886740665
13
14.7829165865
23
21.2886740665
0
SOLID
5
26A
100
AcDbEntity
8
0
100
AcDbTrace
62
2
6
CONTINUOUS
10
14.7829165865
20
21.0651809290
11
14.7829165865
21
20.9224780557
12
14.6799580423
22
20.9224780557
13
14.6799580423
23
20.9224780557
0
SOLID
5
26B
100
AcDbEntity
8
0
100
AcDbTrace
62
2
6
CONTINUOUS
10
14.7829165865
20
21.0651809290
11
14.8754145884
21
21.1509342243
12
14.8754145884
22
21.0651809290
13
14.8754145884
23
21.0651809290
0
SOLID
5
26C
100
AcDbEntity
8
0
100
AcDbTrace
62
2
6
CONTINUOUS
10
14.8754145884
20
21.1509342243
11
14.9783731327
21
21.2886740665
12
14.8754145884
22
21.0651809290
13
14.8754145884
23
21.0651809290
0
SOLID
5
26D
100
AcDbEntity
8
0
100
AcDbTrace
62
2
6
CONTINUOUS
10
14.8754145884
20
21.0651809290
11
14.9783731327
21
21.2886740665
12
14.8754145884
22
20.9224780557
13
14.8754145884
23
20.9224780557
0
SOLID
5
26E
100
AcDbEntity
8
0
100
AcDbTrace
62
2
6
CONTINUOUS
10
14.9783731327
20
21.2886740665
11
14.9783731327
21
20.9224780557
12
14.8754145884
22
20.9224780557
13
14.8754145884
23
20.9224780557
0
SOLID
5
26F
100
AcDbEntity
8
0
100
AcDbTrace
62
2
6
CONTINUOUS
10
15.2019824810
20
21.0107447741
11
15.0065261588
21
20.9224780557
12
15.1003049428
22
21.0107447741
13
15.1003049428
23
21.0107447741
0
SOLID
5
270
100
AcDbEntity
8
0
100
AcDbTrace
62
2
6
CONTINUOUS
10
15.1003049428
20
21.0107447741
11
15.0065261588
21
20.9224780557
12
15.1003049428
22
21.2886740665
13
15.1003049428
23
21.2886740665
0
SOLID
5
271
100
AcDbEntity
8
0
100
AcDbTrace
62
2
6
CONTINUOUS
10
15.0065261588
20
20.9224780557
11
15.0065261588
21
21.2886740665
12
15.1003049428
22
21.2886740665
13
15.1003049428
23
21.2886740665
0
SOLID
5
272
100
AcDbEntity
8
0
100
AcDbTrace
62
2
6
CONTINUOUS
10
15.0065261588
20
20.9224780557
11
15.2019824810
21
21.0107447741
12
15.1003049428
22
20.9224780557
13
15.1003049428
23
20.9224780557
0
SOLID
5
273
100
AcDbEntity
8
0
100
AcDbTrace
62
2
6
CONTINUOUS
10
15.2019824810
20
21.0107447741
11
15.2019824810
21
20.9224780557
12
15.1003049428
22
20.9224780557
13
15.1003049428
23
20.9224780557
0
SOLID
5
274
100
AcDbEntity
8
0
100
AcDbTrace
62
2
6
CONTINUOUS
10
15.4133899157
20
21.2886740665
11
15.4133899157
21
21.1994494484
12
15.3191039687
22
21.1994494484
13
15.3191039687
23
21.1994494484
0
SOLID
5
275
100
AcDbEntity
8
0
100
AcDbTrace
62
2
6
CONTINUOUS
10
15.4133899157
20
21.1509342243
11
15.4133899157
21
21.0606957282
12
15.3191039687
22
21.0606957282
13
15.3191039687
23
21.0606957282
0
SOLID
5
276
100
AcDbEntity
8
0
100
AcDbTrace
62
2
6
CONTINUOUS
10
15.4133899157
20
21.0107447741
11
15.2201998167
21
20.9224780557
12
15.3191039687
22
21.0107447741
13
15.3191039687
23
21.0107447741
0
SOLID
5
277
100
AcDbEntity
8
0
100
AcDbTrace
62
2
6
CONTINUOUS
10
15.3191039687
20
21.0107447741
11
15.2201998167
21
20.9224780557
12
15.3191039687
22
21.0606957282
13
15.3191039687
23
21.0606957282
0
SOLID
5
278
100
AcDbEntity
8
0
100
AcDbTrace
62
2
6
CONTINUOUS
10
15.4133899157
20
21.1509342243
11
15.3191039687
21
21.0606957282
12
15.3191039687
22
21.1509342243
13
15.3191039687
23
21.1509342243
0
SOLID
5
279
100
AcDbEntity
8
0
100
AcDbTrace
62
2
6
CONTINUOUS
10
15.3191039687
20
21.0606957282
11
15.2201998167
21
20.9224780557
12
15.3191039687
22
21.1509342243
13
15.3191039687
23
21.1509342243
0
SOLID
5
27A
100
AcDbEntity
8
0
100
AcDbTrace
62
2
6
CONTINUOUS
10
15.3191039687
20
21.1509342243
11
15.2201998167
21
20.9224780557
12
15.3191039687
22
21.1994494484
13
15.3191039687
23
21.1994494484
0
SOLID
5
27B
100
AcDbEntity
8
0
100
AcDbTrace
62
2
6
CONTINUOUS
10
15.4133899157
20
21.2886740665
11
15.3191039687
21
21.1994494484
12
15.3279816703
22
21.2886740665
13
15.3279816703
23
21.2886740665
0
SOLID
5
27C
100
AcDbEntity
8
0
100
AcDbTrace
62
2
6
CONTINUOUS
10
15.3191039687
20
21.1994494484
11
15.2201998167
21
20.9224780557
12
15.3279816703
22
21.2886740665
13
15.3279816703
23
21.2886740665
0
SOLID
5
27D
100
AcDbEntity
8
0
100
AcDbTrace
62
2
6
CONTINUOUS
10
15.2201998167
20
20.9224780557
11
15.2201998167
21
21.2886740665
12
15.3279816703
22
21.2886740665
13
15.3279816703
23
21.2886740665
0
SOLID
5
27E
100
AcDbEntity
8
0
100
AcDbTrace
62
2
6
CONTINUOUS
10
15.4133899157
20
21.0107447741
11
15.4133899157
21
20.9224780557
12
15.2201998167
22
20.9224780557
13
15.2201998167
23
20.9224780557
0
SOLID
5
27F
100
AcDbEntity
8
0
100
AcDbTrace
62
2
6
CONTINUOUS
10
15.5873698532
20
21.2886785075
11
15.6167029913
21
21.2846721025
12
15.4414025483
22
21.2886740665
13
15.4414025483
23
21.2886740665
0
SOLID
5
280
100
AcDbEntity
8
0
100
AcDbTrace
62
2
6
CONTINUOUS
10
15.5355624323
20
21.1995623005
11
15.6942747618
21
21.2024556351
12
15.5705186063
22
21.1995623005
13
15.5705186063
23
21.1995623005
0
SOLID
5
281
100
AcDbEntity
8
0
100
AcDbTrace
62
2
6
CONTINUOUS
10
15.5705186063
20
21.1995623005
11
15.6942747618
21
21.2024556351
12
15.5853452189
22
21.1961034455
13
15.5853452189
23
21.1961034455
0
SOLID
5
282
100
AcDbEntity
8
0
100
AcDbTrace
62
2
6
CONTINUOUS
10
15.5853452189
20
21.1961034455
11
15.6942747618
21
21.2024556351
12
15.5971108356
22
21.1864410241
13
15.5971108356
23
21.1864410241
0
SOLID
5
283
100
AcDbEntity
8
0
100
AcDbTrace
62
2
6
CONTINUOUS
10
15.6942747618
20
21.2024556351
11
15.6965705406
21
21.1729393062
12
15.5971108356
22
21.1864410241
13
15.5971108356
23
21.1864410241
0
SOLID
5
284
100
AcDbEntity
8
0
100
AcDbTrace
62
2
6
CONTINUOUS
10
15.6033864219
20
21.1725698620
11
15.5971108356
21
21.1864410241
12
15.6965705406
22
21.1729393062
13
15.6965705406
23
21.1729393062
0
SOLID
5
285
100
AcDbEntity
8
0
100
AcDbTrace
62
2
6
CONTINUOUS
10
15.6033864219
20
21.1725698620
11
15.6965705406
21
21.1729393062
12
15.6028763708
22
21.1573536874
13
15.6028763708
23
21.1573536874
0
SOLID
5
286
100
AcDbEntity
8
0
100
AcDbTrace
62
2
6
CONTINUOUS
10
15.6028763708
20
21.1573536874
11
15.6965705406
21
21.1729393062
12
15.5956859835
22
21.1439339090
13
15.5956859835
23
21.1439339090
0
SOLID
5
287
100
AcDbEntity
8
0
100
AcDbTrace
62
2
6
CONTINUOUS
10
15.6965705406
20
21.1729393062
11
15.6908670387
21
21.1438884140
12
15.5956859835
22
21.1439339090
13
15.5956859835
23
21.1439339090
0
SOLID
5
288
100
AcDbEntity
8
0
100
AcDbTrace
62
2
6
CONTINUOUS
10
15.5832997293
20
21.1350810661
11
15.5956859835
21
21.1439339090
12
15.6908670387
22
21.1438884140
13
15.6908670387
23
21.1438884140
0
SOLID
5
289
100
AcDbEntity
8
0
100
AcDbTrace
62
2
6
CONTINUOUS
10
15.5832997293
20
21.1350810661
11
15.6908670387
21
21.1438884140
12
15.5682747744
22
21.1326228451
13
15.5682747744
23
21.1326228451
0
SOLID
5
28A
100
AcDbEntity
8
0
100
AcDbTrace
62
2
6
CONTINUOUS
10
15.6908670387
20
21.1438884140
11
15.6775820546
21
21.1174310243
12
15.5682747744
22
21.1326228451
13
15.5682747744
23
21.1326228451
0
SOLID
5
28B
100
AcDbEntity
8
0
100
AcDbTrace
62
2
6
CONTINUOUS
10
15.6326443806
20
21.0797171354
11
15.5355624323
21
21.0455757807
12
15.6576887537
22
21.0955052209
13
15.6576887537
23
21.0955052209
0
SOLID
5
28C
100
AcDbEntity
8
0
100
AcDbTrace
62
2
6
CONTINUOUS
10
15.6576887537
20
21.0955052209
11
15.5355624323
21
21.0455757807
12
15.6775820546
22
21.1174310243
13
15.6775820546
23
21.1174310243
0
SOLID
5
28D
100
AcDbEntity
8
0
100
AcDbTrace
62
2
6
CONTINUOUS
10
15.6775820546
20
21.1174310243
11
15.5355624323
21
21.0455757807
12
15.5682747744
22
21.1326228451
13
15.5682747744
23
21.1326228451
0
SOLID
5
28E
100
AcDbEntity
8
0
100
AcDbTrace
62
2
6
CONTINUOUS
10
15.5355624323
20
21.0455757807
11
15.4414025483
21
20.9224780557
12
15.5682747744
22
21.1326228451
13
15.5682747744
23
21.1326228451
0
SOLID
5
28F
100
AcDbEntity
8
0
100
AcDbTrace
62
2
6
CONTINUOUS
10
15.5682747744
20
21.1326228451
11
15.4414025483
21
20.9224780557
12
15.5355624323
22
21.1326228451
13
15.5355624323
23
21.1326228451
0
SOLID
5
290
100
AcDbEntity
8
0
100
AcDbTrace
62
2
6
CONTINUOUS
10
15.5355624323
20
21.1326228451
11
15.4414025483
21
20.9224780557
12
15.5355624323
22
21.1995623005
13
15.5355624323
23
21.1995623005
0
SOLID
5
291
100
AcDbEntity
8
0
100
AcDbTrace
62
2
6
CONTINUOUS
10
15.6942747618
20
21.2024556351
11
15.5355624323
21
21.1995623005
12
15.6841478747
22
21.2302752402
13
15.6841478747
23
21.2302752402
0
SOLID
5
292
100
AcDbEntity
8
0
100
AcDbTrace
62
2
6
CONTINUOUS
10
15.6841478747
20
21.2302752402
11
15.5355624323
21
21.1995623005
12
15.6669317047
22
21.2543602514
13
15.6669317047
23
21.2543602514
0
SOLID
5
293
100
AcDbEntity
8
0
100
AcDbTrace
62
2
6
CONTINUOUS
10
15.6669317047
20
21.2543602514
11
15.5355624323
21
21.1995623005
12
15.6438873883
22
21.2729463686
13
15.6438873883
23
21.2729463686
0
SOLID
5
294
100
AcDbEntity
8
0
100
AcDbTrace
62
2
6
CONTINUOUS
10
15.6438873883
20
21.2729463686
11
15.5355624323
21
21.1995623005
12
15.6167029913
22
21.2846721025
13
15.6167029913
23
21.2846721025
0
SOLID
5
295
100
AcDbEntity
8
0
100
AcDbTrace
62
2
6
CONTINUOUS
10
15.6167029913
20
21.2846721025
11
15.5355624323
21
21.1995623005
12
15.4414025483
22
21.2886740665
13
15.4414025483
23
21.2886740665
0
SOLID
5
296
100
AcDbEntity
8
0
100
AcDbTrace
62
2
6
CONTINUOUS
10
15.4414025483
20
20.9224780557
11
15.4414025483
21
21.2886740665
12
15.5355624323
22
21.1995623005
13
15.5355624323
23
21.1995623005
0
SOLID
5
297
100
AcDbEntity
8
0
100
AcDbTrace
62
2
6
CONTINUOUS
10
15.5355624323
20
21.0455757807
11
15.5355624323
21
20.9224780557
12
15.4414025483
22
20.9224780557
13
15.4414025483
23
20.9224780557
0
SOLID
5
298
100
AcDbEntity
8
0
100
AcDbTrace
62
2
6
CONTINUOUS
10
15.5355624323
20
21.0455757807
11
15.6326443806
21
21.0797171354
12
15.6135770712
22
20.9224780557
13
15.6135770712
23
20.9224780557
0
SOLID
5
299
100
AcDbEntity
8
0
100
AcDbTrace
62
2
6
CONTINUOUS
10
15.6326443806
20
21.0797171354
11
15.7322964019
21
20.9224780557
12
15.6135770712
22
20.9224780557
13
15.6135770712
23
20.9224780557
0
DIMENSION
5
29A
100
AcDbEntity
8
0
100
AcDbDimension
62
2
6
CONTINUOUS
2
*D0
10
2.0046206178
20
12.2543465826
11
2.0046206178
21
16.6710572872
70
160
1
<>\P[30,5 cm]
3
DIMSTYLE_1
100
AcDbAlignedDimension
13
2.1734814928
23
24.2543465826
14
11.7743461938
24
12.2543465826
50
270.000000
100
AcDbRotatedDimension
0
DIMENSION
5
29B
100
AcDbEntity
8
0
100
AcDbDimension
62
2
6
CONTINUOUS
2
*D1
10
6.0941726028
20
22.7791773329
11
12.3152205686
21
22.6619898329
70
160
1
<>\P[33 cm]
3
DIMSTYLE_1
100
AcDbAlignedDimension
13
19.0941726028
23
21.7747252098
14
6.0941726028
24
21.7747252098
50
180.000000
100
AcDbRotatedDimension
0
TEXT
5
29C
100
AcDbEntity
8
___NOTE
100
AcDbText
62
2
6
CONTINUOUS
10
5.9517553921
20
7.7377256941
7
TEXTSTYLE_0
40
0.1562500000
1
PACKAGING/UPC LABEL ON BOX
72
5
11
9.3267553921
21
7.7377256941
100
AcDbText
0
TEXT
5
29D
100
AcDbEntity
8
___NOTE
100
AcDbText
62
2
6
CONTINUOUS
10
5.9517553921
20
7.5033506941
7
TEXTSTYLE_0
40
0.1562500000
1
ETIQUETA DE EMBALAJE / UPC EN LA CAJA
72
5
11
10.7017553921
21
7.5033506941
100
AcDbText
0
TEXT
5
29E
100
AcDbEntity
8
___NOTE
100
AcDbText
62
2
6
CONTINUOUS
10
5.9517553921
20
7.2689756941
7
TEXTSTYLE_0
40
0.1562500000
1
ETIQUETTE D'EMBALLAGE / UPC SUR LA BOÎTE
72
5
11
11.0767553921
21
7.2689756941
100
AcDbText
0
TEXT
5
29F
100
AcDbEntity
8
___NOTE
100
AcDbText
62
2
6
CONTINUOUS
10
5.8187446365
20
5.8620035978
7
TEXTSTYLE_0
40
0.1562500000
1
The template and the label suffixes circled
72
5
11
11.1937446365
21
5.8620035978
100
AcDbText
0
TEXT
5
2A0
100
AcDbEntity
8
___NOTE
100
AcDbText
62
2
6
CONTINUOUS
10
5.8187446365
20
5.6276285978
7
TEXTSTYLE_0
40
0.1562500000
1
must match for proper cut-out
72
5
11
9.4437446365
21
5.6276285978
100
AcDbText
0
TEXT
5
2A1
100
AcDbEntity
8
___NOTE
100
AcDbText
62
2
6
CONTINUOUS
10
5.8187446365
20
5.3932535978
7
TEXTSTYLE_0
40
0.1562500000
1
 
72
5
11
5.9437446365
21
5.3932535978
100
AcDbText
0
TEXT
5
2A2
100
AcDbEntity
8
___NOTE
100
AcDbText
62
2
6
CONTINUOUS
10
5.8187446365
20
5.1588785978
7
TEXTSTYLE_0
40
0.1562500000
1
A fin de realizar el corte apropiado, la plantilla y
72
5
11
12.3187446365
21
5.1588785978
100
AcDbText
0
TEXT
5
2A3
100
AcDbEntity
8
___NOTE
100
AcDbText
62
2
6
CONTINUOUS
10
5.8187446365
20
4.9245035978
7
TEXTSTYLE_0
40
0.1562500000
1
los sufijos de la etiqueta demarcados deben concordar.
72
5
11
12.5687446365
21
4.9245035978
100
AcDbText
0
TEXT
5
2A4
100
AcDbEntity
8
___NOTE
100
AcDbText
62
2
6
CONTINUOUS
10
5.8187446365
20
4.6901285978
7
TEXTSTYLE_0
40
0.1562500000
1
 
72
5
11
5.9437446365
21
4.6901285978
100
AcDbText
0
TEXT
5
2A5
100
AcDbEntity
8
___NOTE
100
AcDbText
62
2
6
CONTINUOUS
10
5.8187446365
20
4.4557535978
7
TEXTSTYLE_0
40
0.1562500000
1
A fin de découper l'ouverture correctement, le gabarit
72
5
11
12.5687446365
21
4.4557535978
100
AcDbText
0
TEXT
5
2A6
100
AcDbEntity
8
___NOTE
100
AcDbText
62
2
6
CONTINUOUS
10
5.8187446365
20
4.2213785978
7
TEXTSTYLE_0
40
0.1562500000
1
et les suffixes encerclés doivent correspondre.
72
5
11
11.6937446365
21
4.2213785978
100
AcDbText
0
TEXT
5
2A7
100
AcDbEntity
8
___NOTE
100
AcDbText
62
2
6
CONTINUOUS
10
7.4434711336
20
6.3303115075
7
TEXTSTYLE_0
40
0.0494656250
1
XXXXX-XX-X-XX
72
5
11
7.9900662898
21
6.3303115075
100
AcDbText
0
TEXT
5
2A8
100
AcDbEntity
8
___NOTE
100
AcDbText
62
2
6
CONTINUOUS
10
8.7839287361
20
6.2218486950
7
TEXTSTYLE_0
40
0.0387500000
1
xxxxxx-xx
72
5
11
9.0629287361
21
6.2218486950
100
AcDbText
0
TEXT
5
2A9
100
AcDbEntity
8
___NOTE
100
AcDbText
62
2
6
CONTINUOUS
10
7.9320063271
20
6.3346065440
7
TEXTSTYLE_0
40
0.0500000000
1
 
72
5
11
7.9720063271
21
6.3346065440
100
AcDbText
0
TEXT
5
2AA
100
AcDbEntity
8
___NOTE
100
AcDbText
62
2
6
CONTINUOUS
10
14.0154839108
20
20.6468803021
7
TEXTSTYLE_0
40
0.1562500000
1
CUT-OUT TEMPLATE
72
5
11
16.0154839108
21
20.6468803021
100
AcDbText
0
TEXT
5
2AB
100
AcDbEntity
8
___NOTE
100
AcDbText
62
2
6
CONTINUOUS
10
14.0154839108
20
20.4125053021
7
TEXTSTYLE_0
40
0.1562500000
1
COUNTERTOP LAVATORY
72
5
11
16.3904839108
21
20.4125053021
100
AcDbText
0
TEXT
5
2AC
100
AcDbEntity
8
___NOTE
100
AcDbText
62
2
6
CONTINUOUS
10
14.0154839108
20
20.1781303021
7
TEXTSTYLE_0
40
0.1562500000
1
PLANTILLA DE RECORTE
72
5
11
16.5154839108
21
20.1781303021
100
AcDbText
0
TEXT
5
2AD
100
AcDbEntity
8
___NOTE
100
AcDbText
62
2
6
CONTINUOUS
10
14.0154839108
20
19.9437553021
7
TEXTSTYLE_0
40
0.1562500000
1
LAVABO CON MOSTRADOR
72
5
11
16.5154839108
21
19.9437553021
100
AcDbText
0
TEXT
5
2AE
100
AcDbEntity
8
___NOTE
100
AcDbText
62
2
6
CONTINUOUS
10
14.0154839108
20
19.7093803021
7
TEXTSTYLE_0
40
0.1562500000
1
GABARIT
72
5
11
14.8904839108
21
19.7093803021
100
AcDbText
0
TEXT
5
2AF
100
AcDbEntity
8
___NOTE
100
AcDbText
62
2
6
CONTINUOUS
10
14.0154839108
20
19.4750053021
7
TEXTSTYLE_0
40
0.1562500000
1
LAVABO AVEC COMPTOIR
72
5
11
16.5154839108
21
19.4750053021
100
AcDbText
0
TEXT
5
2B0
100
AcDbEntity
8
___NOTE
100
AcDbText
62
2
6
CONTINUOUS
10
14.0154839108
20
19.2406303021
7
TEXTSTYLE_0
40
0.1562500000
1
PURIST 2313 - **-AA
72
5
11
16.3904839108
21
19.2406303021
100
AcDbText
0
TEXT
5
2B1
100
AcDbEntity
8
___NOTE
100
AcDbText
62
2
6
CONTINUOUS
10
14.0154839108
20
19.0062553021
7
TEXTSTYLE_0
40
0.1562500000
1
PURIST 2314 - **-**-AA
72
5
11
16.7654839108
21
19.0062553021
100
AcDbText
0
TEXT
5
2B2
100
AcDbEntity
8
___NOTE
100
AcDbText
62
2
6
CONTINUOUS
10
14.0154839108
20
18.7718803021
7
TEXTSTYLE_0
40
0.1562500000
1
PURIST 2334-**-AA
72
5
11
16.1404839108
21
18.7718803021
100
AcDbText
0
TEXT
5
2B3
100
AcDbEntity
8
___NOTE
100
AcDbText
62
2
6
CONTINUOUS
10
14.0154839108
20
18.5375053021
7
TEXTSTYLE_0
40
0.1562500000
1
PURIST 2335-**-AA
72
5
11
16.1404839108
21
18.5375053021
100
AcDbText
0
SOLID
5
2B4
100
AcDbEntity
8
___NOTE
100
AcDbTrace
62
2
6
CONTINUOUS
10
6.6519477724
20
20.0398826796
11
6.7808779246
21
20.1795602668
12
6.8192095662
22
20.1301949424
13
6.8192095662
23
20.1301949424
0
TEXT
5
2B5
100
AcDbEntity
8
___NOTE
100
AcDbText
62
2
6
CONTINUOUS
10
8.0273945309
20
20.8356549436
7
TEXTSTYLE_0
40
0.1562500000
1
CUT ALONG THIS LINE
72
5
11
10.5273945309
21
20.8356549436
100
AcDbText
0
TEXT
5
2B6
100
AcDbEntity
8
___NOTE
100
AcDbText
62
2
6
CONTINUOUS
10
8.0273945309
20
20.6012799436
7
TEXTSTYLE_0
40
0.1562500000
1
CORTE A LO LARGO DE ESTA LÍNEA
72
5
11
11.9023945309
21
20.6012799436
100
AcDbText
0
TEXT
5
2B7
100
AcDbEntity
8
___NOTE
100
AcDbText
62
2
6
CONTINUOUS
10
8.0273945309
20
20.3669049436
7
TEXTSTYLE_0
40
0.1562500000
1
DÉCOUPER AU LONG DE CETTE LIGNE
72
5
11
12.0273945309
21
20.3669049436
100
AcDbText
0
SOLID
5
2B8
100
AcDbEntity
8
___NOTE
100
AcDbTrace
62
2
6
CONTINUOUS
10
6.6517177547
20
0.7551648926
11
6.7299895712
21
0.9283882607
12
6.7819392140
22
0.8936393814
13
6.7819392140
23
0.8936393814
0
TEXT
5
2B9
100
AcDbEntity
8
___NOTE
100
AcDbText
62
2
6
CONTINUOUS
10
7.7389080790
20
1.9286410720
7
TEXTSTYLE_0
40
0.1562500000
1
RIM OF LAVATORY
72
5
11
9.7389080790
21
1.9286410720
100
AcDbText
0
TEXT
5
2BA
100
AcDbEntity
8
___NOTE
100
AcDbText
62
2
6
CONTINUOUS
10
7.7389080790
20
1.6942660720
7
TEXTSTYLE_0
40
0.1562500000
1
BORDE DEL LAVABO
72
5
11
9.8639080790
21
1.6942660720
100
AcDbText
0
TEXT
5
2BB
100
AcDbEntity
8
___NOTE
100
AcDbText
62
2
6
CONTINUOUS
10
7.7389080790
20
1.4598910720
7
TEXTSTYLE_0
40
0.1562500000
1
REBORD DE LAVABO
72
5
11
9.8639080790
21
1.4598910720
100
AcDbText
0
TEXT
5
2BC
100
AcDbEntity
8
0
100
AcDbText
62
2
6
CONTINUOUS
10
10.9564440286
20
13.3991128132
7
TEXTSTYLE_0
40
0.0562500020
1
C
72
5
11
11.0126940306
21
13.3991128132
100
AcDbText
0
TEXT
5
2BD
100
AcDbEntity
8
0
100
AcDbText
62
2
6
CONTINUOUS
10
11.0469420318
20
13.3771328141
7
TEXTSTYLE_0
40
0.0940000000
1
2003 KOHLER CO.
72
5
11
12.4569420318
21
13.3771328141
100
AcDbText
0
TEXT
5
2BE
100
AcDbEntity
8
0
100
AcDbText
62
2
6
CONTINUOUS
10
11.0469420318
20
13.2361328141
7
TEXTSTYLE_0
40
0.0940000000
1
1014137-7-C
72
5
11
12.0809420318
21
13.2361328141
100
AcDbText
0
TEXT
5
2BF
100
AcDbEntity
8
0
100
AcDbText
62
2
6
CONTINUOUS
10
20.4732445677
20
1.2297077230
7
TEXTSTYLE_0
40
0.0562500020
1
C
72
5
11
20.5294945697
21
1.2297077230
100
AcDbText
0
TEXT
5
2C0
100
AcDbEntity
8
0
100
AcDbText
62
2
6
CONTINUOUS
10
20.5637425708
20
1.2077277239
7
TEXTSTYLE_0
40
0.0940000000
1
2003 KOHLER CO.
72
5
11
21.9737425708
21
1.2077277239
100
AcDbText
0
TEXT
5
2C1
100
AcDbEntity
8
___NOTE
100
AcDbText
62
2
6
CONTINUOUS
10
1.6246350283
20
1.3380545490
7
TEXTSTYLE_0
40
0.1562500000
1
1014137-7-C
72
5
11
2.9996350283
21
1.3380545490
100
AcDbText
0
TEXT
5
2C2
100
AcDbEntity
8
___NOTE
100
AcDbText
62
2
6
CONTINUOUS
10
1.6963961078
20
0.2436980870
7
TEXTSTYLE_0
40
0.1562500000
1
1014137-7-C
72
5
11
3.0713961078
21
0.2436980870
100
AcDbText
0
TEXT
5
2C3
100
AcDbEntity
8
___NOTE
100
AcDbText
62
2
6
CONTINUOUS
10
15.2503766931
20
11.6826009497
7
TEXTSTYLE_0
40
0.1562500000
1
WHEN PLOTTING TEMPLATE FULL SIZE: Make sure
72
5
11
20.6253766931
21
11.6826009497
100
AcDbText
0
TEXT
5
2C4
100
AcDbEntity
8
___NOTE
100
AcDbText
62
2
6
CONTINUOUS
10
15.2503766931
20
11.4482259497
7
TEXTSTYLE_0
40
0.1562500000
1
horizontal and vertical dimensions match the dimensions
72
5
11
22.1253766931
21
11.4482259497
100
AcDbText
0
TEXT
5
2C5
100
AcDbEntity
8
___NOTE
100
AcDbText
62
2
6
CONTINUOUS
10
15.2503766931
20
11.2138509497
7
TEXTSTYLE_0
40
0.1562500000
1
labeled on the template
72
5
11
18.1253766931
21
11.2138509497
100
AcDbText
0
TEXT
5
2C6
100
AcDbEntity
8
___NOTE
100
AcDbText
62
2
6
CONTINUOUS
10
15.2503766931
20
10.9794759497
7
TEXTSTYLE_0
40
0.1562500000
1
 
72
5
11
15.3753766931
21
10.9794759497
100
AcDbText
0
TEXT
5
2C7
100
AcDbEntity
8
___NOTE
100
AcDbText
62
2
6
CONTINUOUS
10
15.2503766931
20
10.7451009497
7
TEXTSTYLE_0
40
0.1562500000
1
AL TRAZAR UNA PLANTILLA A ESCALA, asegúrese de
72
5
11
21.0003766931
21
10.7451009497
100
AcDbText
0
TEXT
5
2C8
100
AcDbEntity
8
___NOTE
100
AcDbText
62
2
6
CONTINUOUS
10
15.2503766931
20
10.5107259497
7
TEXTSTYLE_0
40
0.1562500000
1
que las dimensiones horizontales y verticales concuerden
72
5
11
22.2503766931
21
10.5107259497
100
AcDbText
0
TEXT
5
2C9
100
AcDbEntity
8
___NOTE
100
AcDbText
62
2
6
CONTINUOUS
10
15.2503766931
20
10.2763509497
7
TEXTSTYLE_0
40
0.1562500000
1
con las dimensiones marcadas en la plantilla.
72
5
11
20.8753766931
21
10.2763509497
100
AcDbText
0
TEXT
5
2CA
100
AcDbEntity
8
___NOTE
100
AcDbText
62
2
6
CONTINUOUS
10
15.2503766931
20
10.0419759497
7
TEXTSTYLE_0
40
0.1562500000
1
 
72
5
11
15.3753766931
21
10.0419759497
100
AcDbText
0
TEXT
5
2CB
100
AcDbEntity
8
___NOTE
100
AcDbText
62
2
6
CONTINUOUS
10
15.2503766931
20
9.8076009497
7
TEXTSTYLE_0
40
0.1562500000
1
AU MOMENT DE TRACER UN GABARIT À L'ÉCHELLE, 
72
5
11
20.7503766931
21
9.8076009497
100
AcDbText
0
TEXT
5
2CC
100
AcDbEntity
8
___NOTE
100
AcDbText
62
2
6
CONTINUOUS
10
15.2503766931
20
9.5732259497
7
TEXTSTYLE_0
40
0.1562500000
1
s'assurer que les dimensions horizotales et verticales 
72
5
11
22.1253766931
21
9.5732259497
100
AcDbText
0
TEXT
5
2CD
100
AcDbEntity
8
___NOTE
100
AcDbText
62
2
6
CONTINUOUS
10
15.2503766931
20
9.3388509497
7
TEXTSTYLE_0
40
0.1562500000
1
correspondent avec les dimensions sur le gabarit.
72
5
11
21.3753766931
21
9.3388509497
100
AcDbText
0
LINE
5
2CE
100
AcDbEntity
8
0
100
AcDbLine
62
7
6
CONTINUOUS
10
0.0000000000
20
0.0000000000
11
0.0000000000
21
25.0000000000
0
LINE
5
2CF
100
AcDbEntity
8
0
100
AcDbLine
62
7
6
CONTINUOUS
10
0.0000000000
20
0.0000000000
11
25.0000000000
21
0.0000000000
0
LINE
5
2D0
100
AcDbEntity
8
0
100
AcDbLine
62
2
6
CONTINUOUS
10
9.1292711336
20
6.1442177575
11
7.2521336336
21
6.1442177575
0
LINE
5
2D1
100
AcDbEntity
8
0
100
AcDbLine
62
2
6
CONTINUOUS
10
9.1008086336
20
6.2003990075
11
7.2799398836
21
6.2003990075
0
LINE
5
2D2
100
AcDbEntity
8
0
100
AcDbLine
62
2
6
CONTINUOUS
10
7.2521336336
20
6.1442177575
11
7.2521336336
21
7.0549740075
0
LINE
5
2D3
100
AcDbEntity
8
0
100
AcDbLine
62
2
6
CONTINUOUS
10
7.2799398836
20
6.2003990075
11
7.2799398836
21
7.0279240075
0
LINE
5
2D4
100
AcDbEntity
8
0
100
AcDbLine
62
2
6
CONTINUOUS
10
7.2799398836
20
7.0279240075
11
9.1008086336
21
7.0279240075
0
LINE
5
2D5
100
AcDbEntity
8
0
100
AcDbLine
62
2
6
CONTINUOUS
10
7.2521336336
20
7.0549740075
11
9.1292711336
21
7.0549740075
0
LINE
5
2D6
100
AcDbEntity
8
0
100
AcDbLine
62
2
6
CONTINUOUS
10
14.2274912733
20
21.2886740665
11
14.1413886738
21
21.1862858286
0
LINE
5
2D7
100
AcDbEntity
8
0
100
AcDbLine
62
2
6
CONTINUOUS
10
14.3475298993
20
21.2886740665
11
14.2142152492
21
21.1301439046
0
LINE
5
2D8
100
AcDbEntity
8
0
100
AcDbLine
62
2
6
CONTINUOUS
10
9.1008086336
20
7.0279240075
11
9.1008086336
21
6.2003990075
0
LINE
5
2D9
100
AcDbEntity
8
0
100
AcDbLine
62
2
6
CONTINUOUS
10
9.1292711336
20
7.0549740075
11
9.1292711336
21
6.1442177575
0
LINE
5
2DA
100
AcDbEntity
8
0
100
AcDbLine
62
2
6
CONTINUOUS
10
14.0323260380
20
21.2886740665
11
14.0323260380
21
20.9224630535
0
LINE
5
2DB
100
AcDbEntity
8
0
100
AcDbLine
62
2
6
CONTINUOUS
10
14.1413886738
20
21.2886740665
11
14.1413886738
21
21.1862858286
0
LINE
5
2DC
100
AcDbEntity
8
0
100
AcDbLine
62
2
6
CONTINUOUS
10
14.1413886738
20
21.0484154451
11
14.1413886738
21
20.9224780557
0
LINE
5
2DD
100
AcDbEntity
8
0
100
AcDbLine
62
2
6
CONTINUOUS
10
14.6799580423
20
21.2886740665
11
14.6799580423
21
20.9224780557
0
LINE
5
2DE
100
AcDbEntity
8
0
100
AcDbLine
62
2
6
CONTINUOUS
10
14.7829165865
20
21.2886740665
11
14.7829165865
21
21.1509342243
0
LINE
5
2DF
100
AcDbEntity
8
0
100
AcDbLine
62
2
6
CONTINUOUS
10
14.7829165865
20
21.0651809290
11
14.7829165865
21
20.9224780557
0
LINE
5
2E0
100
AcDbEntity
8
0
100
AcDbLine
62
2
6
CONTINUOUS
10
14.8754145884
20
21.2886740665
11
14.8754145884
21
21.1509342243
0
LINE
5
2E1
100
AcDbEntity
8
0
100
AcDbLine
62
2
6
CONTINUOUS
10
14.8754145884
20
21.0651809290
11
14.8754145884
21
20.9224780557
0
LINE
5
2E2
100
AcDbEntity
8
0
100
AcDbLine
62
2
6
CONTINUOUS
10
14.9783731327
20
21.2886740665
11
14.9783731327
21
20.9224780557
0
LINE
5
2E3
100
AcDbEntity
8
0
100
AcDbLine
62
2
6
CONTINUOUS
10
15.0065261588
20
20.9224780557
11
15.0065261588
21
21.2886740665
0
LINE
5
2E4
100
AcDbEntity
8
0
100
AcDbLine
62
2
6
CONTINUOUS
10
15.1003049428
20
21.2886740665
11
15.1003049428
21
21.0107447741
0
LINE
5
2E5
100
AcDbEntity
8
0
100
AcDbLine
62
2
6
CONTINUOUS
10
15.2019824810
20
21.0107447741
11
15.2019824810
21
20.9224780557
0
LINE
5
2E6
100
AcDbEntity
8
0
100
AcDbLine
62
2
6
CONTINUOUS
10
15.2201998167
20
20.9224780557
11
15.2201998167
21
21.2886740665
0
LINE
5
2E7
100
AcDbEntity
8
0
100
AcDbLine
62
2
6
CONTINUOUS
10
15.3191039687
20
21.1994494484
11
15.3191039687
21
21.1509342243
0
LINE
5
2E8
100
AcDbEntity
8
0
100
AcDbLine
62
2
6
CONTINUOUS
10
15.3191039687
20
21.0606957282
11
15.3191039687
21
21.0107447741
0
LINE
5
2E9
100
AcDbEntity
8
0
100
AcDbLine
62
2
6
CONTINUOUS
10
15.4133899157
20
20.9224780557
11
15.4133899157
21
21.0107447741
0
LINE
5
2EA
100
AcDbEntity
8
0
100
AcDbLine
62
2
6
CONTINUOUS
10
15.4133899157
20
21.0606957282
11
15.4133899157
21
21.1509342243
0
LINE
5
2EB
100
AcDbEntity
8
0
100
AcDbLine
62
2
6
CONTINUOUS
10
15.4133899157
20
21.1994494484
11
15.4133899157
21
21.2886740665
0
LINE
5
2EC
100
AcDbEntity
8
0
100
AcDbLine
62
2
6
CONTINUOUS
10
15.4414025483
20
20.9224780557
11
15.4414025483
21
21.2886740665
0
LINE
5
2ED
100
AcDbEntity
8
0
100
AcDbLine
62
2
6
CONTINUOUS
10
15.5355624323
20
21.1995623005
11
15.5355624323
21
21.1326228451
0
LINE
5
2EE
100
AcDbEntity
8
0
100
AcDbLine
62
2
6
CONTINUOUS
10
15.5355624323
20
21.0455757807
11
15.5355624323
21
20.9224780557
0
LINE
5
2EF
100
AcDbEntity
8
0
100
AcDbLine
62
2
6
CONTINUOUS
10
15.8103488822
20
20.9019526251
11
15.8103488822
21
20.9431814971
0
LINE
5
2F0
100
AcDbEntity
8
0
100
AcDbLine
62
2
6
CONTINUOUS
10
14.2374748811
20
20.9224780557
11
14.1413886738
21
21.0484154451
0
LINE
5
2F1
100
AcDbEntity
8
0
100
AcDbLine
62
2
6
CONTINUOUS
10
14.3726576372
20
20.9224780557
11
14.2142152492
21
21.1301439046
0
LINE
5
2F2
100
AcDbEntity
8
0
100
AcDbLine
62
2
6
CONTINUOUS
10
15.6135770712
20
20.9224780557
11
15.5355624323
21
21.0455757807
0
LINE
5
2F3
100
AcDbEntity
8
0
100
AcDbLine
62
2
6
CONTINUOUS
10
15.7322964019
20
20.9224780557
11
15.6326443806
21
21.0797171354
0
LINE
5
2F4
100
AcDbEntity
8
0
100
AcDbLine
62
2
6
CONTINUOUS
10
15.8175976169
20
20.9221419623
11
15.8375151238
21
20.9019526251
0
LINE
5
2F5
100
AcDbEntity
8
0
100
AcDbLine
62
2
6
CONTINUOUS
10
14.1413886738
20
20.9224780557
11
14.0323260380
21
20.9224630535
0
LINE
5
2F6
100
AcDbEntity
8
0
100
AcDbLine
62
2
6
CONTINUOUS
10
14.9783731327
20
20.9224780557
11
14.8754145884
21
20.9224780557
0
LINE
5
2F7
100
AcDbEntity
8
0
100
AcDbLine
62
2
6
CONTINUOUS
10
14.7829165865
20
20.9224780557
11
14.6799580423
21
20.9224780557
0
LINE
5
2F8
100
AcDbEntity
8
0
100
AcDbLine
62
2
6
CONTINUOUS
10
14.2374748811
20
20.9224780557
11
14.3726576372
21
20.9224780557
0
LINE
5
2F9
100
AcDbEntity
8
0
100
AcDbLine
62
2
6
CONTINUOUS
10
15.0065261588
20
20.9224780557
11
15.2019824810
21
20.9224780557
0
LINE
5
2FA
100
AcDbEntity
8
0
100
AcDbLine
62
2
6
CONTINUOUS
10
15.2201998167
20
20.9224780557
11
15.4133899157
21
20.9224780557
0
LINE
5
2FB
100
AcDbEntity
8
0
100
AcDbLine
62
2
6
CONTINUOUS
10
15.4414025483
20
20.9224780557
11
15.5355624323
21
20.9224780557
0
LINE
5
2FC
100
AcDbEntity
8
0
100
AcDbLine
62
2
6
CONTINUOUS
10
15.6135770712
20
20.9224780557
11
15.7322964019
21
20.9224780557
0
LINE
5
2FD
100
AcDbEntity
8
0
100
AcDbLine
62
2
6
CONTINUOUS
10
15.8103488822
20
20.9431814971
11
15.8255234644
21
20.9431814971
0
LINE
5
2FE
100
AcDbEntity
8
0
100
AcDbLine
62
2
6
CONTINUOUS
10
15.1003049428
20
21.0107447741
11
15.2019824810
21
21.0107447741
0
LINE
5
2FF
100
AcDbEntity
8
0
100
AcDbLine
62
2
6
CONTINUOUS
10
15.3191039687
20
21.0107447741
11
15.4133899157
21
21.0107447741
0
LINE
5
300
100
AcDbEntity
8
0
100
AcDbLine
62
2
6
CONTINUOUS
10
15.3191039687
20
21.0606957282
11
15.4133899157
21
21.0606957282
0
LINE
5
301
100
AcDbEntity
8
0
100
AcDbLine
62
2
6
CONTINUOUS
10
14.7829165865
20
21.0651809290
11
14.8754145884
21
21.0651809290
0
LINE
5
302
100
AcDbEntity
8
0
100
AcDbLine
62
2
6
CONTINUOUS
10
15.5355624323
20
21.1326228451
11
15.5682747744
21
21.1326228451
0
LINE
5
303
100
AcDbEntity
8
0
100
AcDbLine
62
2
6
CONTINUOUS
10
14.7829165865
20
21.1509342243
11
14.8754145884
21
21.1509342243
0
LINE
5
304
100
AcDbEntity
8
0
100
AcDbLine
62
2
6
CONTINUOUS
10
15.3191039687
20
21.1509342243
11
15.4133899157
21
21.1509342243
0
LINE
5
305
100
AcDbEntity
8
0
100
AcDbLine
62
2
6
CONTINUOUS
10
15.3191039687
20
21.1994494484
11
15.4133899157
21
21.1994494484
0
LINE
5
306
100
AcDbEntity
8
0
100
AcDbLine
62
2
6
CONTINUOUS
10
15.5705186063
20
21.1995623005
11
15.5355624323
21
21.1995623005
0
LINE
5
307
100
AcDbEntity
8
0
100
AcDbLine
62
2
6
CONTINUOUS
10
14.0323260380
20
21.2886740665
11
14.1413886738
21
21.2886740665
0
LINE
5
308
100
AcDbEntity
8
0
100
AcDbLine
62
2
6
CONTINUOUS
10
14.2274912733
20
21.2886740665
11
14.3475298993
21
21.2886740665
0
LINE
5
309
100
AcDbEntity
8
0
100
AcDbLine
62
2
6
CONTINUOUS
10
14.6799580423
20
21.2886740665
11
14.7829165865
21
21.2886740665
0
LINE
5
30A
100
AcDbEntity
8
0
100
AcDbLine
62
2
6
CONTINUOUS
10
14.8754145884
20
21.2886740665
11
14.9783731327
21
21.2886740665
0
LINE
5
30B
100
AcDbEntity
8
0
100
AcDbLine
62
2
6
CONTINUOUS
10
15.0065261588
20
21.2886740665
11
15.1003049428
21
21.2886740665
0
LINE
5
30C
100
AcDbEntity
8
0
100
AcDbLine
62
2
6
CONTINUOUS
10
15.2201998167
20
21.2886740665
11
15.4133899157
21
21.2886740665
0
LINE
5
30D
100
AcDbEntity
8
0
100
AcDbLine
62
2
6
CONTINUOUS
10
15.4414025483
20
21.2886740665
11
15.5873698532
21
21.2886740665
0
LINE
5
30E
100
AcDbEntity
8
0
100
AcDbLine
62
7
6
CONTINUOUS
10
25.0000000000
20
0.0000000000
11
25.0000000000
21
25.0000000000
0
LINE
5
30F
100
AcDbEntity
8
0
100
AcDbLine
62
7
6
CONTINUOUS
10
0.0000000000
20
25.0000000000
11
25.0000000000
21
25.0000000000
0
LINE
5
310
100
AcDbEntity
8
DEFAULT_2
100
AcDbLine
62
8
6
HIDDEN
10
0.5949909129
20
0.8801220582
11
0.5949909129
21
24.1285711069
0
LINE
5
311
100
AcDbEntity
8
DEFAULT_2
100
AcDbLine
62
8
6
HIDDEN
10
24.4683971271
20
0.7551648926
11
0.7199480785
21
0.7551648926
0
LINE
5
312
100
AcDbEntity
8
___NOTE
100
AcDbLine
62
2
6
CONTINUOUS
10
7.4889080790
20
2.0067660720
11
7.7389080790
21
2.0067660720
0
LINE
5
313
100
AcDbEntity
8
___NOTE
100
AcDbLine
62
2
6
CONTINUOUS
10
6.6519477724
20
20.0398826796
11
7.7773945309
21
20.9137799436
0
LINE
5
314
100
AcDbEntity
8
0
100
AcDbLine
62
4
6
CONTINUOUS
10
6.0941726028
20
24.2543465826
11
6.0941726028
21
21.7122252098
0
LINE
5
315
100
AcDbEntity
8
0
100
AcDbLine
62
4
6
CONTINUOUS
10
6.3868036207
20
20.5385463029
11
9.9453298242
21
13.8459318942
0
LINE
5
316
100
AcDbEntity
8
0
100
AcDbLine
62
4
6
CONTINUOUS
10
18.8015415850
20
20.5385463029
11
15.2430153814
21
13.8459318942
0
LINE
5
317
100
AcDbEntity
8
___NOTE
100
AcDbLine
62
2
6
CONTINUOUS
10
6.6517177547
20
0.7551648926
11
7.4889080790
21
2.0067660720
0
LINE
5
318
100
AcDbEntity
8
0
100
AcDbLine
62
4
6
CONTINUOUS
10
19.0941726028
20
24.2543465826
11
19.0941726028
21
21.7122252098
0
LINE
5
319
100
AcDbEntity
8
___NOTE
100
AcDbLine
62
2
6
CONTINUOUS
10
7.7773945309
20
20.9137799436
11
8.0273945309
21
20.9137799436
0
LINE
5
31A
100
AcDbEntity
8
DEFAULT_2
100
AcDbLine
62
8
6
HIDDEN
10
24.5933542928
20
24.1285711069
11
24.5933542928
21
0.8801220582
0
LINE
5
31B
100
AcDbEntity
8
DEFAULT_2
100
AcDbLine
62
8
6
HIDDEN
10
0.7199480785
20
24.2535282725
11
24.4683971271
21
24.2535282725
0
CIRCLE
5
31C
100
AcDbEntity
8
0
100
AcDbCircle
62
2
6
CONTINUOUS
10
14.4829756541
20
21.1048752787
40
0.1862853592
0
CIRCLE
5
31D
100
AcDbEntity
8
0
100
AcDbCircle
62
2
6
CONTINUOUS
10
14.4829756541
20
21.1048752787
40
0.0779808802
0
ARC
5
31E
100
AcDbEntity
8
0
100
AcDbCircle
62
2
6
CONTINUOUS
10
15.5873698532
20
21.1792931283
40
0.1093853792
100
AcDbArc
50
294.4500166359
51
90.0000000000
0
ARC
5
31F
100
AcDbEntity
8
0
100
AcDbCircle
62
2
6
CONTINUOUS
10
15.5705185426
20
21.1660549680
40
0.0335073325
100
AcDbArc
50
266.1604009902
51
89.9998910512
0
CIRCLE
5
320
100
AcDbEntity
8
0
100
AcDbCircle
62
2
6
CONTINUOUS
10
15.8202776313
20
20.9224780557
40
0.0408486678
0
CIRCLE
5
321
100
AcDbEntity
8
0
100
AcDbCircle
62
2
6
CONTINUOUS
10
16.2658414411
20
19.2918379863
40
0.1435845304
0
CIRCLE
5
322
100
AcDbEntity
8
0
100
AcDbCircle
62
2
6
CONTINUOUS
10
16.6312839922
20
19.0479370262
40
0.1435845304
0
CIRCLE
5
323
100
AcDbEntity
8
0
100
AcDbCircle
62
2
6
CONTINUOUS
10
10.9754230293
20
13.4274268142
40
0.0437680015
0
CIRCLE
5
324
100
AcDbEntity
8
0
100
AcDbCircle
62
2
6
CONTINUOUS
10
20.4922235683
20
1.2580217240
40
0.0437680015
0
CIRCLE
5
325
100
AcDbEntity
8
0
100
AcDbCircle
62
2
6
CONTINUOUS
10
16.0077527764
20
18.8656740554
40
0.1435845304
0
CIRCLE
5
326
100
AcDbEntity
8
0
100
AcDbCircle
62
2
6
CONTINUOUS
10
16.0077527764
20
18.5682976294
40
0.1435845304
0
ARC
5
327
100
AcDbEntity
8
0
100
AcDbCircle
62
4
6
CONTINUOUS
10
8.5941726028
20
21.7122252098
40
2.5000000000
100
AcDbArc
50
180.0000000000
51
208.0000000000
0
ARC
5
328
100
AcDbEntity
8
0
100
AcDbCircle
62
4
6
CONTINUOUS
10
16.5941726028
20
21.7122252098
40
2.5000000000
100
AcDbArc
50
332.0000000000
51
360.0000000000
0
ARC
5
329
100
AcDbEntity
8
0
100
AcDbCircle
62
4
6
CONTINUOUS
10
12.5941726028
20
15.2543465826
40
3.0000000000
100
AcDbArc
50
208.0000000000
51
332.0000000000
0
CIRCLE
5
32A
100
AcDbEntity
8
___NOTE
100
AcDbCircle
62
2
6
CONTINUOUS
10
7.9520063271
20
6.3596065440
40
0.0570156212
0
SPLINE
5
32B
100
AcDbEntity
8
DEFAULT_2
100
AcDbSpline
62
8
6
HIDDEN
70
0
71
3
72
11
73
7
74
5
42
0.0000001000
43
0.0000001000
44
0.0000000001
40
0.0000000000
40
0.0000000000
40
0.0000000000
40
0.0000000000
40
0.2500483178
40
0.5000004229
40
0.7499521355
40
1.0000000000
40
1.0000000000
40
1.0000000000
40
1.0000000000
10
24.5933542928
20
24.1285711069
30
0.0000000000
10
24.5933542928
20
24.1448267042
30
0.0000000000
10
24.5868543782
20
24.1776878928
30
0.0000000000
10
24.5590480199
20
24.2192220857
30
0.0000000000
10
24.5175138267
20
24.2470283813
30
0.0000000000
10
24.4846526949
20
24.2535282725
30
0.0000000000
10
24.4683971271
20
24.2535282725
30
0.0000000000
11
24.5933542928
21
24.1285711069
31
0.0000000000
11
24.5838422550
21
24.1764012347
31
0.0000000000
11
24.5567603192
21
24.2169344179
31
0.0000000000
11
24.5162271716
21
24.2440162692
31
0.0000000000
11
24.4683971271
21
24.2535282725
31
0.0000000000
0
SPLINE
5
32C
100
AcDbEntity
8
DEFAULT_2
100
AcDbSpline
62
8
6
HIDDEN
70
0
71
3
72
11
73
7
74
5
42
0.0000001000
43
0.0000001000
44
0.0000000001
40
0.0000000000
40
0.0000000000
40
0.0000000000
40
0.0000000000
40
0.2500483178
40
0.5000004229
40
0.7499521355
40
1.0000000000
40
1.0000000000
40
1.0000000000
40
1.0000000000
10
24.4683971271
20
0.7551648926
30
0.0000000000
10
24.4846527244
20
0.7551648926
30
0.0000000000
10
24.5175139131
20
0.7616648071
30
0.0000000000
10
24.5590481060
20
0.7894711655
30
0.0000000000
10
24.5868544015
20
0.8310053586
30
0.0000000000
10
24.5933542928
20
0.8638664904
30
0.0000000000
10
24.5933542928
20
0.8801220582
30
0.0000000000
11
24.4683971271
21
0.7551648926
31
0.0000000000
11
24.5162272549
21
0.7646769304
31
0.0000000000
11
24.5567604381
21
0.7917588661
31
0.0000000000
11
24.5838422895
21
0.8322920137
31
0.0000000000
11
24.5933542928
21
0.8801220582
31
0.0000000000
0
SPLINE
5
32D
100
AcDbEntity
8
DEFAULT_2
100
AcDbSpline
62
8
6
HIDDEN
70
0
71
3
72
11
73
7
74
5
42
0.0000001000
43
0.0000001000
44
0.0000000001
40
0.0000000000
40
0.0000000000
40
0.0000000000
40
0.0000000000
40
0.2500483178
40
0.5000004229
40
0.7499521355
40
1.0000000000
40
1.0000000000
40
1.0000000000
40
1.0000000000
10
0.5949909129
20
0.8801220582
30
0.0000000000
10
0.5949909129
20
0.8638664610
30
0.0000000000
10
0.6014908274
20
0.8310052723
30
0.0000000000
10
0.6292971857
20
0.7894710794
30
0.0000000000
10
0.6708313789
20
0.7616647838
30
0.0000000000
10
0.7036925107
20
0.7551648926
30
0.0000000000
10
0.7199480785
20
0.7551648926
30
0.0000000000
11
0.5949909129
21
0.8801220582
31
0.0000000000
11
0.6045029506
21
0.8322919305
31
0.0000000000
11
0.6315848864
21
0.7917587472
31
0.0000000000
11
0.6721180340
21
0.7646768959
31
0.0000000000
11
0.7199480785
21
0.7551648926
31
0.0000000000
0
SPLINE
5
32E
100
AcDbEntity
8
DEFAULT_2
100
AcDbSpline
62
8
6
HIDDEN
70
0
71
3
72
11
73
7
74
5
42
0.0000001000
43
0.0000001000
44
0.0000000001
40
0.0000000000
40
0.0000000000
40
0.0000000000
40
0.0000000000
40
0.2500483178
40
0.5000004229
40
0.7499521355
40
1.0000000000
40
1.0000000000
40
1.0000000000
40
1.0000000000
10
0.7199480785
20
24.2535282725
30
0.0000000000
10
0.7036924812
20
24.2535282725
30
0.0000000000
10
0.6708312926
20
24.2470283580
30
0.0000000000
10
0.6292970996
20
24.2192219997
30
0.0000000000
10
0.6014908041
20
24.1776878065
30
0.0000000000
10
0.5949909129
20
24.1448266747
30
0.0000000000
10
0.5949909129
20
24.1285711069
30
0.0000000000
11
0.7199480785
21
24.2535282725
31
0.0000000000
11
0.6721179507
21
24.2440162347
31
0.0000000000
11
0.6315847675
21
24.2169342990
31
0.0000000000
11
0.6045029162
21
24.1764011514
31
0.0000000000
11
0.5949909129
21
24.1285711069
31
0.0000000000
0
ENDSEC
0
SECTION
2
OBJECTS
0
DICTIONARY
5
32F
100
AcDbDictionary
3
ACAD_GROUP
350
330
3
ACAD_MLINESTYLE
350
331
0
DICTIONARY
5
330
102
{ACAD_REACTORS
330
32F
102
}
100
AcDbDictionary
0
DICTIONARY
5
331
102
{ACAD_REACTORS
330
32F
102
}
100
AcDbDictionary
3
STANDARD
350
332
0
MLINESTYLE
5
332
102
{ACAD_REACTORS
330
331
102
}
100
AcDbMlineStyle
2
STANDARD
70
0
3

62
256
51
90.0
52
90.0
71
2
49
0.5
62
256
6
BYLAYER
49
-0.5
62
256
6
BYLAYER
0
ENDSEC
0
EOF
