  0
SECTION
  2
HEADER
  9
$ACADVER
  1
AC1021
  9
$ACADMAINTVER
 70
    50
  9
$DWGCODEPAGE
  3
ANSI_1252
  9
$LASTSAVEDBY
  1
KO88365
  9
$INSBASE
 10
0.0
 20
0.0
 30
0.0
  9
$EXTMIN
 10
-0.0362826320765635
 20
-0.0256633251274252
 30
-0.0015258207003583
  9
$EXTMAX
 10
1189.036288168789
 20
841.0256672413389
 30
0.0000000349246037
  9
$LIMMIN
 10
0.0
 20
0.0
  9
$LIMMAX
 10
1189.0
 20
841.0
  9
$ORTHOMODE
 70
     1
  9
$REGENMODE
 70
     1
  9
$FILLMODE
 70
     1
  9
$QTEXTMODE
 70
     0
  9
$MIRRTEXT
 70
     0
  9
$LTSCALE
 40
65.395
  9
$ATTMODE
 70
     1
  9
$TEXTSIZE
 40
0.2
  9
$TRACEWID
 40
0.05
  9
$TEXTSTYLE
  7
STANDARD
  9
$CLAYER
  8
0
  9
$CELTYPE
  6
BYLAYER
  9
$CECOLOR
 62
   256
  9
$CELTSCALE
 40
1.0
  9
$DISPSILH
 70
     0
  9
$DIMSCALE
 40
1.0
  9
$DIMASZ
 40
3.0
  9
$DIMEXO
 40
1.0
  9
$DIMDLI
 40
45.18199999999999
  9
$DIMRND
 40
0.0
  9
$DIMDLE
 40
0.0
  9
$DIMEXE
 40
2.0
  9
$DIMTP
 40
0.1
  9
$DIMTM
 40
0.1
  9
$DIMTXT
 40
3.0
  9
$DIMCEN
 40
10.701
  9
$DIMTSZ
 40
0.0
  9
$DIMTOL
 70
     1
  9
$DIMLIM
 70
     0
  9
$DIMTIH
 70
     1
  9
$DIMTOH
 70
     1
  9
$DIMSE1
 70
     0
  9
$DIMSE2
 70
     0
  9
$DIMTAD
 70
     0
  9
$DIMZIN
 70
     0
  9
$DIMBLK
  1
_FILLED
  9
$DIMASO
 70
     1
  9
$DIMSHO
 70
     1
  9
$DIMPOST
  1

  9
$DIMAPOST
  1

  9
$DIMALT
 70
     0
  9
$DIMALTD
 70
     2
  9
$DIMALTF
 40
25.4
  9
$DIMLFAC
 40
1.0
  9
$DIMTOFL
 70
     0
  9
$DIMTVP
 40
0.0
  9
$DIMTIX
 70
     0
  9
$DIMSOXD
 70
     0
  9
$DIMSAH
 70
     0
  9
$DIMBLK1
  1

  9
$DIMBLK2
  1

  9
$DIMSTYLE
  2
STANDARD
  9
$DIMCLRD
 70
     0
  9
$DIMCLRE
 70
     0
  9
$DIMCLRT
 70
     0
  9
$DIMTFAC
 40
1.0
  9
$DIMGAP
 40
0.625
  9
$DIMJUST
 70
     0
  9
$DIMSD1
 70
     0
  9
$DIMSD2
 70
     0
  9
$DIMTOLJ
 70
     1
  9
$DIMTZIN
 70
     0
  9
$DIMALTZ
 70
     0
  9
$DIMALTTZ
 70
     0
  9
$DIMUPT
 70
     0
  9
$DIMDEC
 70
     4
  9
$DIMTDEC
 70
     4
  9
$DIMALTU
 70
     2
  9
$DIMALTTD
 70
     2
  9
$DIMTXSTY
  7
STANDARD
  9
$DIMAUNIT
 70
     0
  9
$DIMADEC
 70
     0
  9
$DIMALTRND
 40
0.0
  9
$DIMAZIN
 70
     0
  9
$DIMDSEP
 70
    46
  9
$DIMATFIT
 70
     3
  9
$DIMFRAC
 70
     0
  9
$DIMLDRBLK
  1

  9
$DIMLUNIT
 70
     2
  9
$DIMLWD
 70
    -2
  9
$DIMLWE
 70
    -2
  9
$DIMTMOVE
 70
     0
  9
$DIMFXL
 40
1.0
  9
$DIMFXLON
 70
     0
  9
$DIMJOGANG
 40
0.7853981633974483
  9
$DIMTFILL
 70
     0
  9
$DIMTFILLCLR
 70
     0
  9
$DIMARCSYM
 70
     0
  9
$DIMLTYPE
  6

  9
$DIMLTEX1
  6

  9
$DIMLTEX2
  6

  9
$LUNITS
 70
     2
  9
$LUPREC
 70
     4
  9
$SKETCHINC
 40
0.1
  9
$FILLETRAD
 40
0.0
  9
$AUNITS
 70
     0
  9
$AUPREC
 70
     0
  9
$MENU
  1
.
  9
$ELEVATION
 40
0.0
  9
$PELEVATION
 40
0.0
  9
$THICKNESS
 40
0.0
  9
$LIMCHECK
 70
     0
  9
$CHAMFERA
 40
0.0
  9
$CHAMFERB
 40
0.0
  9
$CHAMFERC
 40
0.0
  9
$CHAMFERD
 40
0.0
  9
$SKPOLY
 70
     0
  9
$TDCREATE
 40
2457624.679424329
  9
$TDUCREATE
 40
2457624.450257662
  9
$TDUPDATE
 40
2457750.767471713
  9
$TDUUPDATE
 40
2457750.538305047
  9
$TDINDWG
 40
0.0075463542
  9
$TDUSRTIMER
 40
0.0075463542
  9
$USRTIMER
 70
     1
  9
$ANGBASE
 50
0.0
  9
$ANGDIR
 70
     0
  9
$PDMODE
 70
     3
  9
$PDSIZE
 40
1.0
  9
$PLINEWID
 40
0.0
  9
$SPLFRAME
 70
     0
  9
$SPLINETYPE
 70
     6
  9
$SPLINESEGS
 70
     8
  9
$HANDSEED
  5
A64
  9
$SURFTAB1
 70
     6
  9
$SURFTAB2
 70
     6
  9
$SURFTYPE
 70
     6
  9
$SURFU
 70
     6
  9
$SURFV
 70
     6
  9
$UCSBASE
  2

  9
$UCSNAME
  2

  9
$UCSORG
 10
0.0
 20
0.0
 30
0.0
  9
$UCSXDIR
 10
1.0
 20
0.0
 30
0.0
  9
$UCSYDIR
 10
0.0
 20
1.0
 30
0.0
  9
$UCSORTHOREF
  2

  9
$UCSORTHOVIEW
 70
     0
  9
$UCSORGTOP
 10
0.0
 20
0.0
 30
0.0
  9
$UCSORGBOTTOM
 10
0.0
 20
0.0
 30
0.0
  9
$UCSORGLEFT
 10
0.0
 20
0.0
 30
0.0
  9
$UCSORGRIGHT
 10
0.0
 20
0.0
 30
0.0
  9
$UCSORGFRONT
 10
0.0
 20
0.0
 30
0.0
  9
$UCSORGBACK
 10
0.0
 20
0.0
 30
0.0
  9
$PUCSBASE
  2

  9
$PUCSNAME
  2

  9
$PUCSORG
 10
0.0
 20
0.0
 30
0.0
  9
$PUCSXDIR
 10
1.0
 20
0.0
 30
0.0
  9
$PUCSYDIR
 10
0.0
 20
1.0
 30
0.0
  9
$PUCSORTHOREF
  2

  9
$PUCSORTHOVIEW
 70
     0
  9
$PUCSORGTOP
 10
0.0
 20
0.0
 30
0.0
  9
$PUCSORGBOTTOM
 10
0.0
 20
0.0
 30
0.0
  9
$PUCSORGLEFT
 10
0.0
 20
0.0
 30
0.0
  9
$PUCSORGRIGHT
 10
0.0
 20
0.0
 30
0.0
  9
$PUCSORGFRONT
 10
0.0
 20
0.0
 30
0.0
  9
$PUCSORGBACK
 10
0.0
 20
0.0
 30
0.0
  9
$USERI1
 70
     0
  9
$USERI2
 70
     0
  9
$USERI3
 70
     0
  9
$USERI4
 70
     0
  9
$USERI5
 70
     0
  9
$USERR1
 40
0.0
  9
$USERR2
 40
0.0
  9
$USERR3
 40
0.0
  9
$USERR4
 40
0.0
  9
$USERR5
 40
0.0
  9
$WORLDVIEW
 70
     1
  9
$SHADEDGE
 70
     3
  9
$SHADEDIF
 70
    70
  9
$TILEMODE
 70
     1
  9
$MAXACTVP
 70
    64
  9
$PINSBASE
 10
0.0
 20
0.0
 30
0.0
  9
$PLIMCHECK
 70
     0
  9
$PEXTMIN
 10
1.000000000000000E+20
 20
1.000000000000000E+20
 30
1.000000000000000E+20
  9
$PEXTMAX
 10
-1.000000000000000E+20
 20
-1.000000000000000E+20
 30
-1.000000000000000E+20
  9
$PLIMMIN
 10
0.0
 20
0.0
  9
$PLIMMAX
 10
12.0
 20
9.0
  9
$UNITMODE
 70
     0
  9
$VISRETAIN
 70
     1
  9
$PLINEGEN
 70
     0
  9
$PSLTSCALE
 70
     1
  9
$TREEDEPTH
 70
  3020
  9
$CMLSTYLE
  2
Standard
  9
$CMLJUST
 70
     0
  9
$CMLSCALE
 40
1.0
  9
$PROXYGRAPHICS
 70
     1
  9
$MEASUREMENT
 70
     1
  9
$CELWEIGHT
370
    -1
  9
$ENDCAPS
280
     0
  9
$JOINSTYLE
280
     0
  9
$LWDISPLAY
290
     0
  9
$INSUNITS
 70
     4
  9
$HYPERLINKBASE
  1

  9
$STYLESHEET
  1

  9
$XEDIT
290
     1
  9
$CEPSNTYPE
380
     0
  9
$PSTYLEMODE
290
     1
  9
$FINGERPRINTGUID
  2
{5D44725E-72B0-4AE0-95AF-0E3665392957}
  9
$VERSIONGUID
  2
{9EE41D57-AE7E-4E21-B2F8-7C15465ADE1B}
  9
$EXTNAMES
290
     1
  9
$PSVPSCALE
 40
0.0
  9
$OLESTARTUP
290
     0
  9
$SORTENTS
280
   127
  9
$INDEXCTL
280
     0
  9
$HIDETEXT
280
     1
  9
$XCLIPFRAME
290
     0
  9
$HALOGAP
280
     0
  9
$OBSCOLOR
 70
   257
  9
$OBSLTYPE
280
     0
  9
$INTERSECTIONDISPLAY
280
     0
  9
$INTERSECTIONCOLOR
 70
   257
  9
$DIMASSOC
280
     2
  9
$PROJECTNAME
  1

  9
$CAMERADISPLAY
290
     0
  9
$LENSLENGTH
 40
50.0
  9
$CAMERAHEIGHT
 40
0.0
  9
$STEPSPERSEC
 40
2.0
  9
$STEPSIZE
 40
6.0
  9
$3DDWFPREC
 40
2.0
  9
$PSOLWIDTH
 40
0.25
  9
$PSOLHEIGHT
 40
4.0
  9
$LOFTANG1
 40
1.570796326794896
  9
$LOFTANG2
 40
1.570796326794896
  9
$LOFTMAG1
 40
0.0
  9
$LOFTMAG2
 40
0.0
  9
$LOFTPARAM
 70
     7
  9
$LOFTNORMALS
280
     1
  9
$LATITUDE
 40
37.795
  9
$LONGITUDE
 40
-122.394
  9
$NORTHDIRECTION
 40
0.0
  9
$TIMEZONE
 70
 -8000
  9
$LIGHTGLYPHDISPLAY
280
     1
  9
$TILEMODELIGHTSYNCH
280
     1
  9
$CMATERIAL
347
494
  9
$SOLIDHIST
280
     1
  9
$SHOWHIST
280
     1
  9
$DWFFRAME
280
     2
  9
$DGNFRAME
280
     0
  9
$REALWORLDSCALE
290
     1
  9
$INTERFERECOLOR
 62
     1
  9
$INTERFEREOBJVS
345
4B6
  9
$INTERFEREVPVS
346
507
  9
$CSHADOW
280
     0
  9
$SHADOWPLANELOCATION
 40
0.0
  0
ENDSEC
  0
SECTION
  2
CLASSES
  0
CLASS
  1
ACDBDICTIONARYWDFLT
  2
AcDbDictionaryWithDefault
  3
ObjectDBX Classes
 90
        0
 91
        1
280
     0
281
     0
  0
CLASS
  1
MATERIAL
  2
AcDbMaterial
  3
ObjectDBX Classes
 90
     1153
 91
        3
280
     0
281
     0
  0
CLASS
  1
VISUALSTYLE
  2
AcDbVisualStyle
  3
ObjectDBX Classes
 90
     4095
 91
       26
280
     0
281
     0
  0
CLASS
  1
TABLESTYLE
  2
AcDbTableStyle
  3
ObjectDBX Classes
 90
     4095
 91
        1
280
     0
281
     0
  0
CLASS
  1
SCALE
  2
AcDbScale
  3
ObjectDBX Classes
 90
     1153
 91
       17
280
     0
281
     0
  0
CLASS
  1
MLEADERSTYLE
  2
AcDbMLeaderStyle
  3
ACDB_MLEADERSTYLE_CLASS
 90
     4095
 91
        1
280
     0
281
     0
  0
CLASS
  1
CELLSTYLEMAP
  2
AcDbCellStyleMap
  3
ObjectDBX Classes
 90
     1152
 91
        3
280
     0
281
     0
  0
CLASS
  1
DICTIONARYVAR
  2
AcDbDictionaryVar
  3
ObjectDBX Classes
 90
        0
 91
       15
280
     0
281
     0
  0
CLASS
  1
ACDBSECTIONVIEWSTYLE
  2
AcDbSectionViewStyle
  3
ObjectDBX Classes
 90
     1025
 91
        1
280
     0
281
     0
  0
CLASS
  1
ACDBDETAILVIEWSTYLE
  2
AcDbDetailViewStyle
  3
ObjectDBX Classes
 90
     1025
 91
        1
280
     0
281
     0
  0
CLASS
  1
DIMASSOC
  2
AcDbDimAssoc
  3
"AcDbDimAssoc|Product Desc:     AcDim ARX App For Dimension|Company:          Autodesk, Inc.|WEB Address:      www.autodesk.com"
 90
        0
 91
        1
280
     0
281
     0
  0
ENDSEC
  0
SECTION
  2
TABLES
  0
TABLE
  2
VPORT
  5
8
330
0
100
AcDbSymbolTable
 70
     1
  0
VPORT
  5
1F4
330
8
100
AcDbSymbolTableRecord
100
AcDbViewportTableRecord
  2
*ACTIVE
 70
     0
 10
0.0
 20
0.0
 11
1.0
 21
1.0
 12
754.5973045082896
 22
495.7538317021084
 13
0.0
 23
0.0
 14
1.0
 24
1.0
 15
0.0
 25
0.0
 16
0.0
 26
0.0
 36
1.0
 17
0.0
 27
0.0
 37
0.0
 40
1818.89783515912
 41
2.417624521072796
 42
50.0
 43
0.0
 44
0.0
 50
0.0
 51
0.0
 71
     0
 72
   100
 73
     1
 74
     1
 75
     0
 76
     0
 77
     0
 78
     0
281
     0
 65
     1
110
0.0
120
0.0
130
0.0
111
1.0
121
0.0
131
0.0
112
0.0
122
1.0
132
0.0
 79
     0
146
0.0
348
4B2
 60
     3
 61
     5
292
     1
282
     1
141
0.0
142
0.0
 63
   250
421
  3355443
1001
ACAD_NAV_VCDISPLAY
1070
     3
  0
ENDTAB
  0
TABLE
  2
LTYPE
  5
5
330
0
100
AcDbSymbolTable
 70
     8
  0
LTYPE
  5
14
330
5
100
AcDbSymbolTableRecord
100
AcDbLinetypeTableRecord
  2
BYBLOCK
 70
     0
  3

 72
    65
 73
     0
 40
0.0
  0
LTYPE
  5
15
330
5
100
AcDbSymbolTableRecord
100
AcDbLinetypeTableRecord
  2
BYLAYER
 70
     0
  3

 72
    65
 73
     0
 40
0.0
  0
LTYPE
  5
16
330
5
100
AcDbSymbolTableRecord
100
AcDbLinetypeTableRecord
  2
CONTINUOUS
 70
     0
  3
Solid line
 72
    65
 73
     0
 40
0.0
  0
LTYPE
  5
1F5
330
5
100
AcDbSymbolTableRecord
100
AcDbLinetypeTableRecord
  2
CENTER
 70
     0
  3
____ _ ____ _ ____ _ ____ _ ____ _ ____ _ ____
 72
    65
 73
     4
 40
0.6
 49
0.375
 74
     0
 49
-0.075
 74
     0
 49
0.075
 74
     0
 49
-0.075
 74
     0
  0
LTYPE
  5
1F6
330
5
100
AcDbSymbolTableRecord
100
AcDbLinetypeTableRecord
  2
HIDDEN
 70
     0
  3
- - - - - - - - - - - - - - - - - - - -
 72
    65
 73
     2
 40
0.2
 49
0.1
 74
     0
 49
-0.1
 74
     0
  0
LTYPE
  5
1F7
330
5
100
AcDbSymbolTableRecord
100
AcDbLinetypeTableRecord
  2
PHANTOM
 70
     0
  3
_____ _ _ _____ _ _ _____ _ _ _____
 72
    65
 73
     6
 40
0.8
 49
0.45
 74
     0
 49
-0.05
 74
     0
 49
0.1
 74
     0
 49
-0.05
 74
     0
 49
0.1
 74
     0
 49
-0.05
 74
     0
  0
LTYPE
  5
1F8
330
5
100
AcDbSymbolTableRecord
100
AcDbLinetypeTableRecord
  2
DOT
 70
     0
  3
. . . . . . . . . . . . . . . . . . . .
 72
    65
 73
     2
 40
0.2
 49
0.1
 74
     0
 49
-0.1
 74
     0
  0
LTYPE
  5
1F9
330
5
100
AcDbSymbolTableRecord
100
AcDbLinetypeTableRecord
  2
DASHED
 70
     0
  3
- - - - - - - - - - - - - - - - - - - -
 72
    65
 73
     2
 40
0.2
 49
0.1
 74
     0
 49
-0.1
 74
     0
  0
ENDTAB
  0
TABLE
  2
LAYER
  5
2
102
{ACAD_XDICTIONARY
360
518
102
}
330
0
100
AcDbSymbolTable
 70
    22
  0
LAYER
  5
10
330
2
100
AcDbSymbolTableRecord
100
AcDbLayerTableRecord
  2
0
 70
     0
 62
     7
  6
CONTINUOUS
370
    -3
390
F
347
4A4
  0
LAYER
  5
1FA
330
2
100
AcDbSymbolTableRecord
100
AcDbLayerTableRecord
  2
DEFAULT_1
 70
     0
 62
     7
  6
CENTER
370
    -3
390
F
347
4A4
  0
LAYER
  5
1FB
330
2
100
AcDbSymbolTableRecord
100
AcDbLayerTableRecord
  2
DEFAULT_2
 70
     0
 62
     8
  6
HIDDEN
370
    -3
390
F
347
4A4
  0
LAYER
  5
1FC
330
2
100
AcDbSymbolTableRecord
100
AcDbLayerTableRecord
  2
DEFAULT_3
 70
     0
 62
     7
  6
PHANTOM
370
    -3
390
F
347
4A4
  0
LAYER
  5
1FD
330
2
100
AcDbSymbolTableRecord
100
AcDbLayerTableRecord
  2
01___PRT_ALL_DTM_PLN
 70
     0
 62
     7
  6
CONTINUOUS
370
    -3
390
F
347
4A4
  0
LAYER
  5
1FE
330
2
100
AcDbSymbolTableRecord
100
AcDbLayerTableRecord
  2
01___PRT_DEF_DTM_PLN
 70
     0
 62
     7
  6
CONTINUOUS
370
    -3
390
F
347
4A4
  0
LAYER
  5
1FF
330
2
100
AcDbSymbolTableRecord
100
AcDbLayerTableRecord
  2
02___PRT_ALL_AXES
 70
     0
 62
     7
  6
CONTINUOUS
370
    -3
390
F
347
4A4
  0
LAYER
  5
200
330
2
100
AcDbSymbolTableRecord
100
AcDbLayerTableRecord
  2
03___PRT_ALL_CURVES
 70
     0
 62
     7
  6
CONTINUOUS
370
    -3
390
F
347
4A4
  0
LAYER
  5
201
330
2
100
AcDbSymbolTableRecord
100
AcDbLayerTableRecord
  2
04___PRT_ALL_DTM_PNT
 70
     0
 62
     7
  6
CONTINUOUS
370
    -3
390
F
347
4A4
  0
LAYER
  5
202
330
2
100
AcDbSymbolTableRecord
100
AcDbLayerTableRecord
  2
05___PRT_ALL_DTM_CSYS
 70
     0
 62
     7
  6
CONTINUOUS
370
    -3
390
F
347
4A4
  0
LAYER
  5
203
330
2
100
AcDbSymbolTableRecord
100
AcDbLayerTableRecord
  2
05___PRT_DEF_DTM_CSYS
 70
     0
 62
     7
  6
CONTINUOUS
370
    -3
390
F
347
4A4
  0
LAYER
  5
204
330
2
100
AcDbSymbolTableRecord
100
AcDbLayerTableRecord
  2
06___PRT_ALL_SURFS
 70
     0
 62
     7
  6
CONTINUOUS
370
    -3
390
F
347
4A4
  0
LAYER
  5
205
330
2
100
AcDbSymbolTableRecord
100
AcDbLayerTableRecord
  2
CURVE_SHOW
 70
     0
 62
     7
  6
CONTINUOUS
370
    -3
390
F
347
4A4
  0
LAYER
  5
206
330
2
100
AcDbSymbolTableRecord
100
AcDbLayerTableRecord
  2
DATUM_AXIS
 70
     0
 62
     7
  6
CONTINUOUS
370
    -3
390
F
347
4A4
  0
LAYER
  5
207
330
2
100
AcDbSymbolTableRecord
100
AcDbLayerTableRecord
  2
DATUM_CSYS
 70
     0
 62
     7
  6
CONTINUOUS
370
    -3
390
F
347
4A4
  0
LAYER
  5
208
330
2
100
AcDbSymbolTableRecord
100
AcDbLayerTableRecord
  2
DATUM_PLANE
 70
     0
 62
     7
  6
CONTINUOUS
370
    -3
390
F
347
4A4
  0
LAYER
  5
209
330
2
100
AcDbSymbolTableRecord
100
AcDbLayerTableRecord
  2
DATUM_POINT
 70
     0
 62
     7
  6
CONTINUOUS
370
    -3
390
F
347
4A4
  0
LAYER
  5
20A
330
2
100
AcDbSymbolTableRecord
100
AcDbLayerTableRecord
  2
_CURVE
 70
     0
 62
     7
  6
CONTINUOUS
370
    -3
390
F
347
4A4
  0
LAYER
  5
20B
330
2
100
AcDbSymbolTableRecord
100
AcDbLayerTableRecord
  2
_SURFACE
 70
     0
 62
     7
  6
CONTINUOUS
370
    -3
390
F
347
4A4
  0
LAYER
  5
20C
330
2
100
AcDbSymbolTableRecord
100
AcDbLayerTableRecord
  2
___NOTE
 70
     0
 62
     7
  6
CONTINUOUS
370
    -3
390
F
347
4A4
  0
LAYER
  5
20D
330
2
100
AcDbSymbolTableRecord
100
AcDbLayerTableRecord
  2
___SYMBOL
 70
     0
 62
     7
  6
CONTINUOUS
370
    -3
390
F
347
4A4
  0
LAYER
  5
8AD
330
2
100
AcDbSymbolTableRecord
100
AcDbLayerTableRecord
  2
Defpoints
 70
     0
 62
     7
  6
CONTINUOUS
290
     0
370
    -3
390
F
347
4A4
  0
ENDTAB
  0
TABLE
  2
STYLE
  5
3
330
0
100
AcDbSymbolTable
 70
     3
  0
STYLE
  5
11
330
3
100
AcDbSymbolTableRecord
100
AcDbTextStyleTableRecord
  2
STANDARD
 70
     0
 40
0.0
 41
0.8
 50
0.0
 71
     0
 42
0.2
  3
txt
  4

  0
STYLE
  5
20E
330
3
100
AcDbSymbolTableRecord
100
AcDbTextStyleTableRecord
  2
TEXTSTYLE_1
 70
     0
 40
0.0
 41
0.8
 50
0.0
 71
     0
 42
0.2
  3
gdt
  4

  0
ENDTAB
  0
TABLE
  2
VIEW
  5
6
330
0
100
AcDbSymbolTable
 70
     5
  0
ENDTAB
  0
TABLE
  2
UCS
  5
7
330
0
100
AcDbSymbolTable
 70
     0
  0
ENDTAB
  0
TABLE
  2
APPID
  5
9
330
0
100
AcDbSymbolTable
 70
     5
  0
APPID
  5
20F
330
9
100
AcDbSymbolTableRecord
100
AcDbRegAppTableRecord
  2
ACAD
 70
     0
  0
APPID
  5
500
330
9
100
AcDbSymbolTableRecord
100
AcDbRegAppTableRecord
  2
ACAD_MLEADERVER
 70
     0
  0
APPID
  5
517
330
9
100
AcDbSymbolTableRecord
100
AcDbRegAppTableRecord
  2
ACAD_NAV_VCDISPLAY
 70
     0
  0
APPID
  5
6FC
330
9
100
AcDbSymbolTableRecord
100
AcDbRegAppTableRecord
  2
ACAD_EXEMPT_FROM_CAD_STANDARDS
 70
     0
  0
APPID
  5
8D1
330
9
100
AcDbSymbolTableRecord
100
AcDbRegAppTableRecord
  2
AcadAnnoMonitorAlertIconDisabled
 70
     0
  0
ENDTAB
  0
TABLE
  2
DIMSTYLE
  5
A
330
0
100
AcDbSymbolTable
 70
     4
100
AcDbDimStyleTable
 71
     1
340
218
  0
DIMSTYLE
105
218
102
{ACAD_REACTORS
330
24C
330
24D
330
8AC
102
}
330
A
100
AcDbSymbolTableRecord
100
AcDbDimStyleTableRecord
  2
STANDARD
 70
     0
 41
3.0
 42
1.0
 44
2.0
 47
0.1
 48
0.1
 71
     1
 73
     0
 74
     0
 77
     1
140
3.0
147
0.625
178
     5
271
     1
272
     1
340
11
341
212
342
212
343
212
344
212
  0
DIMSTYLE
105
219
330
A
100
AcDbSymbolTableRecord
100
AcDbDimStyleTableRecord
  2
DIMSTYLE_1
 70
     0
 41
3.0
 42
1.0
 44
2.0
 47
0.0000000001
 48
0.0000000001
 73
     0
 74
     0
 77
     1
140
12.0
147
3.0
178
     5
271
     0
272
     0
340
11
341
212
342
212
343
212
344
212
  0
ENDTAB
  0
TABLE
  2
BLOCK_RECORD
  5
1
330
0
100
AcDbSymbolTable
 70
    11
  0
BLOCK_RECORD
  5
210
330
1
100
AcDbSymbolTableRecord
100
AcDbBlockTableRecord
  2
*Model_Space
340
48F
 70
     0
280
     1
281
     0
  0
BLOCK_RECORD
  5
211
330
1
100
AcDbSymbolTableRecord
100
AcDbBlockTableRecord
  2
*Paper_Space
340
490
 70
     0
280
     1
281
     0
  0
BLOCK_RECORD
  5
212
330
1
100
AcDbSymbolTableRecord
100
AcDbBlockTableRecord
  2
_FILLED
340
0
102
{BLKREFS
331
99F
331
9A0
331
9A9
331
9AA
331
9BD
331
9BE
331
243
331
244
331
233
331
234
331
23B
331
23C
102
}
 70
     0
280
     1
281
     0
  0
BLOCK_RECORD
  5
213
330
1
100
AcDbSymbolTableRecord
100
AcDbBlockTableRecord
  2
*D1
340
0
 70
     0
280
     1
281
     0
  0
BLOCK_RECORD
  5
214
330
1
100
AcDbSymbolTableRecord
100
AcDbBlockTableRecord
  2
*D2
340
0
 70
     0
280
     1
281
     0
  0
BLOCK_RECORD
  5
215
330
1
100
AcDbSymbolTableRecord
100
AcDbBlockTableRecord
  2
*D3
340
0
 70
     0
280
     1
281
     0
  0
BLOCK_RECORD
  5
216
330
1
100
AcDbSymbolTableRecord
100
AcDbBlockTableRecord
  2
*D4
340
0
 70
     0
280
     1
281
     0
  0
BLOCK_RECORD
  5
217
330
1
100
AcDbSymbolTableRecord
100
AcDbBlockTableRecord
  2
*D5
340
0
 70
     0
280
     1
281
     0
  0
BLOCK_RECORD
  5
8AE
330
1
100
AcDbSymbolTableRecord
100
AcDbBlockTableRecord
  2
*D9
340
0
 70
     0
280
     1
281
     0
  0
ENDTAB
  0
ENDSEC
  0
SECTION
  2
BLOCKS
  0
BLOCK
  5
20
330
210
100
AcDbEntity
  8
0
100
AcDbBlockBegin
  2
*Model_Space
 70
     0
 10
0.0
 20
0.0
 30
0.0
  3
*Model_Space
  1

  0
ENDBLK
  5
21
330
210
100
AcDbEntity
  8
0
100
AcDbBlockEnd
  0
BLOCK
  5
1C
330
211
100
AcDbEntity
 67
     1
  8
0
100
AcDbBlockBegin
  2
*Paper_Space
 70
     0
 10
0.0
 20
0.0
 30
0.0
  3
*Paper_Space
  1

  0
ENDBLK
  5
1D
330
211
100
AcDbEntity
 67
     1
  8
0
100
AcDbBlockEnd
  0
BLOCK
  5
21A
330
212
100
AcDbEntity
  8
0
100
AcDbBlockBegin
  2
_FILLED
 70
     0
 10
0.0
 20
0.0
 30
0.0
  3
_FILLED
  1

  0
SOLID
  5
21B
330
212
100
AcDbEntity
  8
0
  6
ByBlock
 62
     0
100
AcDbTrace
 10
0.0
 20
0.0
 30
0.0
 11
-1.0
 21
0.1666666667
 31
0.0
 12
-1.0
 22
-0.1666666667
 32
0.0
 13
-1.0
 23
-0.1666666667
 33
0.0
  0
ENDBLK
  5
21C
330
212
100
AcDbEntity
  8
0
  6
ByBlock
 62
     0
100
AcDbBlockEnd
  0
BLOCK
  5
21D
330
213
100
AcDbEntity
  8
0
  6
Continuous
 62
     2
100
AcDbBlockBegin
  2
*D1
 70
     1
 10
0.0
 20
0.0
 30
0.0
  3
*D1
  1

  0
LINE
  5
9A5
330
213
100
AcDbEntity
  8
0
  6
Continuous
 62
     0
440
 16777216
370
    -2
100
AcDbLine
 10
633.5380846673
 20
540.3427154242
 30
0.0
 11
633.5380846673
 21
791.2287257855
 31
0.0
  0
LINE
  5
9A6
330
213
100
AcDbEntity
  8
0
  6
Continuous
 62
     0
440
 16777216
370
    -2
100
AcDbLine
 10
42.5635603404
 20
540.3427154242
 30
0.0
 11
42.56356034040002
 21
791.2287257855
 31
0.0
  0
LINE
  5
9A7
330
213
100
AcDbEntity
  8
0
  6
Continuous
 62
     0
440
 16777216
370
    -2
100
AcDbLine
 10
618.5380846673
 20
789.2287257855
 30
0.0
 11
345.2758225039
 21
789.2287257855
 31
0.0
  0
LINE
  5
9A8
330
213
100
AcDbEntity
  8
0
  6
Continuous
 62
     0
440
 16777216
370
    -2
100
AcDbLine
 10
57.56356034040002
 20
789.2287257855
 30
0.0
 11
302.0258225039
 21
789.2287257855
 31
0.0
  0
INSERT
  5
9A9
330
213
100
AcDbEntity
  8
0
  6
Continuous
 62
     0
440
 16777216
370
    -2
100
AcDbBlockReference
  2
_FILLED
 10
633.5380846673
 20
789.2287257855
 30
0.0
 41
15.0
 42
15.0
 43
15.0
  0
INSERT
  5
9AA
330
213
100
AcDbEntity
  8
0
  6
Continuous
 62
     0
440
 16777216
370
    -2
100
AcDbBlockReference
  2
_FILLED
 10
42.56356034040002
 20
789.2287257855
 30
0.0
 41
15.0
 42
15.0
 43
15.0
 50
180.0
  0
MTEXT
  5
9AB
330
213
100
AcDbEntity
  8
0
  6
Continuous
 62
     0
440
 16777216
100
AcDbMText
 10
323.6508225039
 20
796.7287257855
 30
0.0
 40
15.0
 41
0.0
 46
0.0
 71
     2
 72
     1
  1
\A1;591.0
 73
     1
 44
1.0
  0
POINT
  5
9AC
330
213
100
AcDbEntity
  8
Defpoints
  6
Continuous
 62
     0
440
 16777216
100
AcDbPoint
 10
633.5380846673
 20
539.3427154242
 30
0.0
  0
POINT
  5
9AD
330
213
100
AcDbEntity
  8
Defpoints
  6
Continuous
 62
     0
440
 16777216
100
AcDbPoint
 10
42.5635603404
 20
539.3427154242
 30
0.0
  0
POINT
  5
9AE
330
213
100
AcDbEntity
  8
Defpoints
  6
Continuous
 62
     0
440
 16777216
100
AcDbPoint
 10
42.56356034040002
 20
789.2287257855
 30
0.0
  0
ENDBLK
  5
224
330
213
100
AcDbEntity
  8
0
  6
ByBlock
 62
     0
100
AcDbBlockEnd
  0
BLOCK
  5
225
330
214
100
AcDbEntity
  8
0
  6
Continuous
 62
     2
100
AcDbBlockBegin
  2
*D2
 70
     1
 10
0.0
 20
0.0
 30
0.0
  3
*D2
  1

  0
LINE
  5
99B
330
214
100
AcDbEntity
  8
0
  6
Continuous
 62
     0
440
 16777216
370
    -2
100
AcDbLine
 10
338.8772980357
 20
764.5768703160999
 30
0.0
 11
696.3561763874001
 21
764.5768703160999
 31
0.0
  0
LINE
  5
99C
330
214
100
AcDbEntity
  8
0
  6
Continuous
 62
     0
440
 16777216
370
    -2
100
AcDbLine
 10
338.8772980357
 20
314.1085605322
 30
0.0
 11
696.3561763874001
 21
314.1085605321999
 31
0.0
  0
LINE
  5
99D
330
214
100
AcDbEntity
  8
0
  6
Continuous
 62
     0
440
 16777216
370
    -2
100
AcDbLine
 10
694.3561763874002
 20
749.5768703160999
 30
0.0
 11
694.3561763874002
 21
533.0677154241998
 31
0.0
  0
LINE
  5
99E
330
214
100
AcDbEntity
  8
0
  6
Continuous
 62
     0
440
 16777216
370
    -2
100
AcDbLine
 10
694.3561763874002
 20
329.1085605321999
 30
0.0
 11
694.3561763874002
 21
516.8177154241998
 31
0.0
  0
INSERT
  5
99F
330
214
100
AcDbEntity
  8
0
  6
Continuous
 62
     0
440
 16777216
370
    -2
100
AcDbBlockReference
  2
_FILLED
 10
694.3561763874002
 20
764.5768703160999
 30
0.0
 41
15.0
 42
15.0
 43
15.0
 50
90.0
  0
INSERT
  5
9A0
330
214
100
AcDbEntity
  8
0
  6
Continuous
 62
     0
440
 16777216
370
    -2
100
AcDbBlockReference
  2
_FILLED
 10
694.3561763874002
 20
314.1085605321999
 30
0.0
 41
15.0
 42
15.0
 43
15.0
 50
270.0
  0
MTEXT
  5
9A1
330
214
100
AcDbEntity
  8
0
  6
Continuous
 62
     0
440
 16777216
100
AcDbMText
 10
694.3561763874001
 20
532.4427154241999
 30
0.0
 40
15.0
 41
0.0
 46
0.0
 71
     2
 72
     1
  1
\A1;450.5
 73
     1
 44
1.0
  0
POINT
  5
9A2
330
214
100
AcDbEntity
  8
Defpoints
  6
Continuous
 62
     0
440
 16777216
100
AcDbPoint
 10
337.8772980357
 20
764.5768703160999
 30
0.0
  0
POINT
  5
9A3
330
214
100
AcDbEntity
  8
Defpoints
  6
Continuous
 62
     0
440
 16777216
100
AcDbPoint
 10
337.8772980357
 20
314.1085605322
 30
0.0
  0
POINT
  5
9A4
330
214
100
AcDbEntity
  8
Defpoints
  6
Continuous
 62
     0
440
 16777216
100
AcDbPoint
 10
694.3561763874002
 20
314.1085605321999
 30
0.0
  0
ENDBLK
  5
22D
330
214
100
AcDbEntity
  8
0
  6
ByBlock
 62
     0
100
AcDbBlockEnd
  0
BLOCK
  5
22E
330
215
100
AcDbEntity
  8
0
  6
Continuous
 62
     2
100
AcDbBlockBegin
  2
*D3
 70
     1
 10
0.0
 20
0.0
 30
0.0
  3
*D3
  1

  0
LINE
  5
22F
330
215
100
AcDbEntity
  8
0
  6
Continuous
 62
     2
440
 16777216
100
AcDbLine
 10
292.5259868727
 20
72.88605380709999
 30
0.0
 11
685.9876581186999
 21
72.88605380709999
 31
0.0
  0
LINE
  5
230
330
215
100
AcDbEntity
  8
0
  6
Continuous
 62
     2
440
 16777216
100
AcDbLine
 10
629.5225967173999
 20
282.6912560468
 30
0.0
 11
685.9876581186999
 21
282.6912560468
 31
0.0
  0
LINE
  5
231
330
215
100
AcDbEntity
  8
0
  6
Continuous
 62
     2
440
 16777216
100
AcDbLine
 10
683.9876581187
 20
72.88605380709999
 30
0.0
 11
683.9876581187
 21
177.788654927
 31
0.0
  0
LINE
  5
232
330
215
100
AcDbEntity
  8
0
  6
Continuous
 62
     2
440
 16777216
100
AcDbLine
 10
683.9876581187
 20
282.6912560468
 30
0.0
 11
683.9876581187
 21
177.788654927
 31
0.0
  0
INSERT
  5
233
330
215
100
AcDbEntity
  8
0
  6
Continuous
 62
     2
440
 16777216
100
AcDbBlockReference
  2
_FILLED
 10
683.9876581187
 20
72.88605380709999
 30
0.0
 41
3.0
 42
3.0
 43
3.0
 50
270.0
  0
INSERT
  5
234
330
215
100
AcDbEntity
  8
0
  6
Continuous
 62
     2
440
 16777216
100
AcDbBlockReference
  2
_FILLED
 10
683.9876581187
 20
282.6912560468
 30
0.0
 41
3.0
 42
3.0
 43
3.0
 50
90.0
  0
ENDBLK
  5
235
330
215
100
AcDbEntity
  8
0
  6
ByBlock
 62
     0
100
AcDbBlockEnd
  0
BLOCK
  5
236
330
216
100
AcDbEntity
  8
0
  6
Continuous
 62
     2
100
AcDbBlockBegin
  2
*D4
 70
     1
 10
0.0
 20
0.0
 30
0.0
  3
*D4
  1

  0
LINE
  5
237
330
216
100
AcDbEntity
  8
0
  6
Continuous
 62
     2
440
 16777216
100
AcDbLine
 10
227.7239739168
 20
72.88605380709999
 30
0.0
 11
33.3209818878
 21
72.88605380709999
 31
0.0
  0
LINE
  5
238
330
216
100
AcDbEntity
  8
0
  6
Continuous
 62
     2
440
 16777216
100
AcDbLine
 10
47.2583095599
 20
235.8177116872
 30
0.0
 11
33.3209818878
 21
235.8177116872
 31
0.0
  0
LINE
  5
239
330
216
100
AcDbEntity
  8
0
  6
Continuous
 62
     2
440
 16777216
100
AcDbLine
 10
35.3209818878
 20
72.88605380709999
 30
0.0
 11
35.3209818878
 21
154.3518827472
 31
0.0
  0
LINE
  5
23A
330
216
100
AcDbEntity
  8
0
  6
Continuous
 62
     2
440
 16777216
100
AcDbLine
 10
35.3209818878
 20
235.8177116872
 30
0.0
 11
35.3209818878
 21
154.3518827472
 31
0.0
  0
INSERT
  5
23B
330
216
100
AcDbEntity
  8
0
  6
Continuous
 62
     2
440
 16777216
100
AcDbBlockReference
  2
_FILLED
 10
35.3209818878
 20
72.88605380709999
 30
0.0
 41
3.0
 42
3.0
 43
3.0
 50
270.0
  0
INSERT
  5
23C
330
216
100
AcDbEntity
  8
0
  6
Continuous
 62
     2
440
 16777216
100
AcDbBlockReference
  2
_FILLED
 10
35.3209818878
 20
235.8177116872
 30
0.0
 41
3.0
 42
3.0
 43
3.0
 50
90.0
  0
ENDBLK
  5
23D
330
216
100
AcDbEntity
  8
0
  6
ByBlock
 62
     0
100
AcDbBlockEnd
  0
BLOCK
  5
23E
330
217
100
AcDbEntity
  8
0
  6
Continuous
 62
     2
100
AcDbBlockBegin
  2
*D5
 70
     1
 10
0.0
 20
0.0
 30
0.0
  3
*D5
  1

  0
LINE
  5
23F
330
217
100
AcDbEntity
  8
0
  6
Continuous
 62
     2
440
 16777216
100
AcDbLine
 10
484.0026446953999
 20
105.0875695743
 30
0.0
 11
650.6380408448999
 21
105.0875695743
 31
0.0
  0
LINE
  5
240
330
217
100
AcDbEntity
  8
0
  6
Continuous
 62
     2
440
 16777216
100
AcDbLine
 10
629.5225967173999
 20
282.6912560468
 30
0.0
 11
650.6380408448999
 21
282.6912560468
 31
0.0
  0
LINE
  5
241
330
217
100
AcDbEntity
  8
0
  6
Continuous
 62
     2
440
 16777216
100
AcDbLine
 10
648.6380408448999
 20
105.0875695743
 30
0.0
 11
648.6380408448999
 21
193.8894128106
 31
0.0
  0
LINE
  5
242
330
217
100
AcDbEntity
  8
0
  6
Continuous
 62
     2
440
 16777216
100
AcDbLine
 10
648.6380408448999
 20
282.6912560468
 30
0.0
 11
648.6380408448999
 21
193.8894128106
 31
0.0
  0
INSERT
  5
243
330
217
100
AcDbEntity
  8
0
  6
Continuous
 62
     2
440
 16777216
100
AcDbBlockReference
  2
_FILLED
 10
648.6380408448999
 20
105.0875695743
 30
0.0
 41
3.0
 42
3.0
 43
3.0
 50
270.0
  0
INSERT
  5
244
330
217
100
AcDbEntity
  8
0
  6
Continuous
 62
     2
440
 16777216
100
AcDbBlockReference
  2
_FILLED
 10
648.6380408448999
 20
282.6912560468
 30
0.0
 41
3.0
 42
3.0
 43
3.0
 50
90.0
  0
ENDBLK
  5
245
330
217
100
AcDbEntity
  8
0
  6
ByBlock
 62
     0
100
AcDbBlockEnd
  0
BLOCK
  5
8AF
330
8AE
100
AcDbEntity
  8
0
100
AcDbBlockBegin
  2
*D9
 70
     1
 10
0.0
 20
0.0
 30
0.0
  3
*D9
  1

  0
LINE
  5
9B9
330
8AE
100
AcDbEntity
  8
0
  6
Continuous
 62
     0
440
 16777216
370
    -2
100
AcDbLine
 10
629.5584027552627
 20
282.6080074174229
 30
0.0
 11
662.4706644179097
 21
282.6080074174228
 31
0.0
  0
LINE
  5
9BA
330
8AE
100
AcDbEntity
  8
0
  6
Continuous
 62
     0
440
 16777216
370
    -2
100
AcDbLine
 10
493.795577133068
 20
104.9640553578083
 30
0.0
 11
662.4706644179095
 21
104.9640553578083
 31
0.0
  0
LINE
  5
9BB
330
8AE
100
AcDbEntity
  8
0
  6
Continuous
 62
     0
440
 16777216
370
    -2
100
AcDbLine
 10
660.4706644179096
 20
267.6080074174228
 30
0.0
 11
660.4706644179096
 21
201.9110313876156
 31
0.0
  0
LINE
  5
9BC
330
8AE
100
AcDbEntity
  8
0
  6
Continuous
 62
     0
440
 16777216
370
    -2
100
AcDbLine
 10
660.4706644179096
 20
119.9640553578082
 30
0.0
 11
660.4706644179096
 21
185.6610313876155
 31
0.0
  0
INSERT
  5
9BD
330
8AE
100
AcDbEntity
  8
0
  6
Continuous
 62
     0
440
 16777216
370
    -2
100
AcDbBlockReference
  2
_FILLED
 10
660.4706644179096
 20
282.6080074174228
 30
0.0
 41
15.0
 42
15.0
 43
15.0
 50
90.0
  0
INSERT
  5
9BE
330
8AE
100
AcDbEntity
  8
0
  6
Continuous
 62
     0
440
 16777216
370
    -2
100
AcDbBlockReference
  2
_FILLED
 10
660.4706644179096
 20
104.9640553578083
 30
0.0
 41
15.0
 42
15.0
 43
15.0
 50
270.0
  0
MTEXT
  5
9BF
330
8AE
100
AcDbEntity
  8
0
  6
Continuous
 62
     0
440
 16777216
100
AcDbMText
 10
660.4706644179096
 20
193.7860313876156
 30
0.0
 40
15.0
 41
0.0
 46
0.0
 71
     5
 72
     1
  1
\A1;178.0
 73
     1
 44
1.0
  0
POINT
  5
9C0
330
8AE
100
AcDbEntity
  8
Defpoints
  6
Continuous
 62
     0
440
 16777216
100
AcDbPoint
 10
628.5584027552626
 20
282.6080074174229
 30
0.0
  0
POINT
  5
9C1
330
8AE
100
AcDbEntity
  8
Defpoints
  6
Continuous
 62
     0
440
 16777216
100
AcDbPoint
 10
492.795577133068
 20
104.9640553578083
 30
0.0
  0
POINT
  5
9C2
330
8AE
100
AcDbEntity
  8
Defpoints
  6
Continuous
 62
     0
440
 16777216
100
AcDbPoint
 10
660.4706644179096
 20
104.9640553578083
 30
0.0
  0
ENDBLK
  5
8B0
330
8AE
100
AcDbEntity
  8
0
100
AcDbBlockEnd
  0
ENDSEC
  0
SECTION
  2
ENTITIES
  0
DIMENSION
  5
24C
330
210
100
AcDbEntity
  8
0
  6
Continuous
 62
     0
100
AcDbDimension
  2
*D1
 10
42.56356034040002
 20
789.2287257855
 30
0.0
 11
323.6508225039
 21
789.2287257855
 31
0.0
 70
   160
  1
591.0
 71
     2
 42
590.9745243268999
 73
     0
 74
     0
 75
     0
  3
STANDARD
100
AcDbAlignedDimension
 13
633.5380846673
 23
539.3427154242
 33
0.0
 14
42.5635603404
 24
539.3427154242
 34
0.0
 50
180.0
100
AcDbRotatedDimension
1001
ACAD
1000
DSTYLE
1002
{
1070
   140
1040
15.0
1070
    41
1040
15.0
1070
    43
1040
45.18199999999999
1070
    73
1070
     1
1070
    74
1070
     1
1070
    77
1070
     0
1070
   141
1040
10.701
1070
   178
1070
     0
1070
   271
1070
     4
1070
   272
1070
     4
1070
   341
1005
0
1070
   343
1005
0
1070
   344
1005
0
1002
}
  0
DIMENSION
  5
24D
330
210
100
AcDbEntity
  8
0
  6
Continuous
 62
     0
100
AcDbDimension
  2
*D2
 10
694.3561763874002
 20
314.1085605321999
 30
0.0
 11
694.3561763874001
 21
524.9427154241999
 31
0.0
 70
   160
  1
450.5
 71
     2
 42
450.4683097839
 73
     0
 74
     0
 75
     0
  3
STANDARD
100
AcDbAlignedDimension
 13
337.8772980357
 23
764.5768703160999
 33
0.0
 14
337.8772980357
 24
314.1085605322
 34
0.0
 50
270.0
100
AcDbRotatedDimension
1001
ACAD
1000
DSTYLE
1002
{
1070
   140
1040
15.0
1070
    41
1040
15.0
1070
    43
1040
45.18199999999999
1070
    73
1070
     1
1070
    74
1070
     1
1070
    77
1070
     0
1070
   141
1040
10.701
1070
   178
1070
     0
1070
   271
1070
     4
1070
   272
1070
     4
1070
   341
1005
0
1070
   343
1005
0
1070
   344
1005
0
1002
}
  0
LINE
  5
251
330
210
100
AcDbEntity
  8
0
  6
Continuous
 62
     7
100
AcDbLine
 10
0.0
 20
0.0
 30
0.0
 11
0.0
 21
841.0
 31
0.0
  0
LINE
  5
252
330
210
100
AcDbEntity
  8
0
  6
Continuous
 62
     7
100
AcDbLine
 10
0.0
 20
0.0
 30
0.0
 11
1189.0
 21
0.0
 31
0.0
  0
LINE
  5
253
330
210
100
AcDbEntity
  8
0
  6
Continuous
 62
     7
100
AcDbLine
 10
0.0
 20
841.0
 30
0.0
 11
1189.0
 21
841.0
 31
0.0
  0
LINE
  5
254
330
210
100
AcDbEntity
  8
0
  6
Continuous
 62
     7
100
AcDbLine
 10
1189.0
 20
0.0
 30
0.0
 11
1189.0
 21
841.0
 31
0.0
  0
LWPOLYLINE
  5
255
330
210
100
AcDbEntity
  8
0
  6
Continuous
 62
     7
100
AcDbPolyline
 90
       73
 70
     0
 43
0.0
 10
42.5635603404
 20
539.3427154242
 10
42.74892885989999
 20
531.3968668168
 10
43.3833047552
 20
522.6424006445999
 10
44.47851939939999
 20
513.8311130147
 10
46.0484110631
 20
504.9446404664999
 10
48.1009599118
 20
496.0182941044
 10
50.63374015489999
 20
487.1263522482999
 10
53.66259774939999
 20
478.2434472566
 10
57.1995650382
 20
469.3587006462
 10
61.2223908805
 20
460.5625087083999
 10
65.73449355300001
 20
451.8744091821999
 10
70.7704178018
 20
443.250300568
 10
76.333468867
 20
434.7046918126999
 10
82.378098648
 20
426.3189311826999
 10
88.8884434182
 20
418.1212268203999
 10
95.89302132870001
 20
410.0944910796999
 10
103.343125331
 20
402.3006930494999
 10
111.191764446
 20
394.7836177102
 10
119.5019949835
 20
387.4867434837999
 10
128.3037675137
 20
380.3986932423001
 10
137.5295061613
 20
373.5872230244
 10
147.1140735663
 20
367.1026701602
 10
157.1252457921
 20
360.9075842806
 10
167.5956183162
 20
354.9948828626
 10
178.4246616056
 20
349.4334377239
 10
189.7203635545
 20
344.1840205885
 10
201.5579050392
 20
339.2375409145
 10
213.7398654625
 20
334.6926617228
 10
226.2283466265
 20
330.5731869441
 10
239.139315836
 20
326.8554549532
 10
252.4121418463
 20
323.5710060181
 10
265.9272748789
 20
320.7563801354
 10
279.6635525204
 20
318.4187680029
 10
293.6738103991
 20
316.5618913349
 10
307.8363515487
 20
315.2196850823
 10
322.1362573679
 20
314.4051222961
 10
336.727599947
 20
314.1101402685
 10
351.2847080248
 20
314.3325155853
 10
365.5481097708999
 20
315.0616329374
 10
379.7706934558001
 20
316.3184465633
 10
393.9149446155
 20
318.1121261503
 10
407.8162637494999
 20
320.4040623553
 10
421.5398612735
 20
323.1919474893
 10
435.023500505
 20
326.4599268065
 10
448.1218886376999
 20
330.1642566174
 10
460.8070160669
 20
334.285817105
 10
473.172264484
 20
338.8444783715
 10
485.1544697222
 20
343.8079937602
 10
496.5892752482
 20
349.0798277180001
 10
507.5816677216
 20
354.6792647713
 10
518.2057596787
 20
360.6391628319999
 10
528.3222668780999
 20
366.8789615048
 10
537.9965286257999
 20
373.409458563
 10
547.3330352151
 20
380.2805018708
 10
556.2250740815
 20
387.4161940053
 10
564.5981152817999
 20
394.7450293472
 10
572.5043753796
 20
402.2962045962
 10
579.9992656432999
 20
410.1143680453
 10
587.0323699423001
 20
418.1465549886
 10
593.5641706344
 20
426.3327851476999
 10
599.6347079836
 20
434.7166248288999
 10
605.2254607941001
 20
443.2689890219
 10
610.2789428455
 20
451.8900960804
 10
614.8031929061
 20
460.5680596745999
 10
618.8441565537999
 20
469.3601029212
 10
622.3973863582
 20
478.2435789522
 10
625.4345049655
 20
487.1152528898999
 10
627.9755513221
 20
495.9911849427999
 10
630.0406635981
 20
504.9117509658
 10
631.6188148548999
 20
513.790564033
 10
632.7160309226999
 20
522.5867402833999
 10
633.3506763532
 20
531.3249649524999
 10
633.5380846673
 20
539.3427154242
  0
LINE
  5
262
330
210
100
AcDbEntity
  8
CURVE_SHOW
  6
Continuous
 62
    40
100
AcDbLine
 10
66.59160993399999
 20
526.5002330949999
 30
0.0
 11
72.32019810199999
 21
526.5002330949999
 31
0.0
  0
LINE
  5
263
330
210
100
AcDbEntity
  8
CURVE_SHOW
  6
Continuous
 62
    40
100
AcDbLine
 10
72.2885881858
 20
526.8596239812
 30
0.0
 11
70.16240552720001
 21
526.8596239812
 31
0.0
  0
LINE
  5
264
330
210
100
AcDbEntity
  8
CURVE_SHOW
  6
Continuous
 62
    40
100
AcDbLine
 10
69.2134413786
 20
526.8596239812
 30
0.0
 11
66.56108549619999
 21
526.8596239812
 31
0.0
  0
LINE
  5
266
330
210
100
AcDbEntity
  8
CURVE_SHOW
  6
Continuous
 62
    40
100
AcDbLine
 10
66.06911219130001
 20
536.411324538
 30
0.0
 11
71.7790988498
 21
536.411324538
 31
0.0
  0
LINE
  5
267
330
210
100
AcDbEntity
  8
CURVE_SHOW
  6
Continuous
 62
    40
100
AcDbLine
 10
71.77229424530001
 20
536.7707154242
 30
0.0
 11
69.1636821684
 21
536.7707154242
 31
0.0
  0
LINE
  5
268
330
210
100
AcDbEntity
  8
CURVE_SHOW
  6
Continuous
 62
    40
100
AcDbLine
 10
68.6717462877
 20
536.7707154242
 30
0.0
 11
66.062541838
 21
536.7707154242
 31
0.0
  0
LINE
  5
26C
330
210
100
AcDbEntity
  8
CURVE_SHOW
  6
Continuous
 62
    40
100
AcDbLine
 10
66.0405906687
 20
539.3427154242
 30
0.0
 11
68.6494470014
 21
539.3427154242
 31
0.0
  0
LINE
  5
26D
330
210
100
AcDbEntity
  8
CURVE_SHOW
  6
Continuous
 62
    40
100
AcDbLine
 10
69.14131539109999
 20
539.3427154242
 30
0.0
 11
71.74956028770001
 21
539.3427154242
 31
0.0
  0
LINE
  5
270
330
210
100
AcDbEntity
  8
CURVE_SHOW
  6
Continuous
 62
    40
100
AcDbLine
 10
71.75000349439999
 20
539.7021063104
 30
0.0
 11
66.04101860109999
 21
539.7021063104
 31
0.0
  0
LINE
  5
271
330
210
100
AcDbEntity
  8
CURVE_SHOW
  6
Continuous
 62
    40
100
AcDbLine
 10
66.04922246470001
 20
540.9561063104
 30
0.0
 11
71.758499946
 21
540.9561063104
 31
0.0
  0
LINE
  5
272
330
210
100
AcDbEntity
  8
CURVE_SHOW
  6
Continuous
 62
    40
100
AcDbLine
 10
71.28387792579999
 20
541.2131063103999
 30
0.0
 11
66.0521935455
 21
541.2131063103999
 31
0.0
  0
LINE
  5
274
330
210
100
AcDbEntity
  8
CURVE_SHOW
  6
Continuous
 62
    40
100
AcDbLine
 10
71.81658440470001
 20
543.7561063103999
 30
0.0
 11
71.3387194842
 21
543.7561063103999
 31
0.0
  0
LINE
  5
275
330
210
100
AcDbEntity
  8
CURVE_SHOW
  6
Continuous
 62
    40
100
AcDbLine
 10
66.1366240138
 20
544.7171364483999
 30
0.0
 11
71.84901697169999
 21
544.7171364483999
 31
0.0
  0
LINE
  5
276
330
210
100
AcDbEntity
  8
CURVE_SHOW
  6
Continuous
 62
    40
100
AcDbLine
 10
71.3807830505
 20
544.9741364483998
 30
0.0
 11
69.2487648016
 21
544.9741364483998
 31
0.0
  0
LINE
  5
277
330
210
100
AcDbEntity
  8
CURVE_SHOW
  6
Continuous
 62
    40
100
AcDbLine
 10
68.75657236249999
 20
544.9741364483998
 30
0.0
 11
66.65280383869999
 21
544.9741364483998
 31
0.0
  0
LINE
  5
278
330
210
100
AcDbEntity
  8
CURVE_SHOW
  6
Continuous
 62
    40
100
AcDbLine
 10
71.9768605455
 20
547.4601364483999
 30
0.0
 11
71.4985121853
 21
547.4601364483999
 31
0.0
  0
LINE
  5
279
330
210
100
AcDbEntity
  8
CURVE_SHOW
  6
Continuous
 62
    40
100
AcDbLine
 10
69.36494102260001
 20
547.4601364483999
 30
0.0
 11
68.872398478
 21
547.4601364483999
 31
0.0
  0
LINE
  5
27A
330
210
100
AcDbEntity
  8
CURVE_SHOW
  6
Continuous
 62
    40
100
AcDbLine
 10
66.76717001600001
 20
547.4601364483999
 30
0.0
 11
66.260070087
 21
547.4601364483999
 31
0.0
  0
LINE
  5
27D
330
210
100
AcDbEntity
  8
CURVE_SHOW
  6
Continuous
 62
    40
100
AcDbLine
 10
66.32536677479999
 20
548.5857154241999
 30
0.0
 11
72.044482191
 21
548.5857154241999
 31
0.0
  0
LINE
  5
27E
330
210
100
AcDbEntity
  8
CURVE_SHOW
  6
Continuous
 62
    40
100
AcDbLine
 10
72.0611621943
 20
548.8427154242
 30
0.0
 11
69.4030423487
 21
548.8427154242
 31
0.0
  0
LINE
  5
27F
330
210
100
AcDbEntity
  8
CURVE_SHOW
  6
Continuous
 62
    40
100
AcDbLine
 10
69.0521203087
 20
548.8427154242
 30
0.0
 11
66.6650798947
 21
548.8427154242
 31
0.0
  0
LWPOLYLINE
  5
285
330
210
100
AcDbEntity
  8
06___PRT_ALL_SURFS
  6
Continuous
 62
     7
100
AcDbPolyline
 90
       73
 70
     0
 43
0.0
 10
633.5380846673
 20
539.3427154242
 10
633.3506763532
 20
547.3604658959
 10
632.7160309226999
 20
556.098690565
 10
631.6188148548999
 20
564.8948668154
 10
630.0406635981
 20
573.7736798826
 10
627.9755513221
 20
582.6942459055999
 10
625.4345049655
 20
591.5701779584
 10
622.3973863582
 20
600.4418518961999
 10
618.8441565537999
 20
609.3253279272
 10
614.8031929061
 20
618.1173711737999
 10
610.2789428455
 20
626.7953347679999
 10
605.2254607941001
 20
635.4164418264
 10
599.6347079836
 20
643.9688060195
 10
593.5641706344
 20
652.3526457007
 10
587.0323699423001
 20
660.5388758597
 10
579.9992656432999
 20
668.5710628030999
 10
572.5043753796
 20
676.3892262520999
 10
564.5981152817999
 20
683.9404015011999
 10
556.2250740815
 20
691.2692368430001
 10
547.3330352151
 20
698.4049289775001
 10
537.9965286257999
 20
705.2759722853998
 10
528.3222668780999
 20
711.8064693435001
 10
518.2057596787
 20
718.0462680163999
 10
507.5816677216
 20
724.0061660771
 10
496.5892752482
 20
729.6056031303
 10
485.1544697222
 20
734.8774370881
 10
473.172264484
 20
739.8409524767998
 10
460.8070160669
 20
744.3996137433999
 10
448.1218886376999
 20
748.521174231
 10
435.023500505
 20
752.2255040417999
 10
421.5398612735
 20
755.4934833589999
 10
407.8162637494999
 20
758.2813684930999
 10
393.9149446155
 20
760.5733046980999
 10
379.7706934558001
 20
762.3669842851
 10
365.5481097708999
 20
763.6237979110001
 10
351.2847080248
 20
764.3529152630999
 10
336.727599947
 20
764.5752905797999
 10
322.1362573679
 20
764.2803085522
 10
307.8363515487
 20
763.4657457660999
 10
293.6738103991
 20
762.1235395135
 10
279.6635525204
 20
760.2666628455
 10
265.9272748789
 20
757.929050713
 10
252.4121418463
 20
755.1144248303
 10
239.139315836
 20
751.8299758950998
 10
226.2283466265
 20
748.1122439042999
 10
213.7398654625
 20
743.9927691255999
 10
201.5579050392
 20
739.4478899339
 10
189.7203635545
 20
734.5014102598
 10
178.4246616056
 20
729.2519931245
 10
167.5956183162
 20
723.6905479857999
 10
157.1252457921
 20
717.7778465677
 10
147.1140735663
 20
711.5827606882
 10
137.5295061613
 20
705.0982078239999
 10
128.3037675137
 20
698.2867376061
 10
119.5019949835
 20
691.1986873646001
 10
111.191764446
 20
683.9018131381999
 10
103.343125331
 20
676.3847377988
 10
95.89302132870001
 20
668.5909397687001
 10
88.8884434182
 20
660.5642040280001
 10
82.378098648
 20
652.3664996656999
 10
76.333468867
 20
643.9807390356
 10
70.7704178018
 20
635.4351302803999
 10
65.73449355300001
 20
626.8110216662001
 10
61.2223908805
 20
618.12292214
 10
57.1995650382
 20
609.3267302022
 10
53.66259774939999
 20
600.4419835918
 10
50.63374015489999
 20
591.5590786
 10
48.1009599118
 20
582.667136744
 10
46.0484110631
 20
573.7407903819001
 10
44.47851939939999
 20
564.8543178337
 10
43.3833047552
 20
556.0430302037
 10
42.74892885989999
 20
547.2885640315999
 10
42.5635603404
 20
539.3427154242
  0
ARC
  5
3A1
330
210
100
AcDbEntity
  8
CURVE_SHOW
  6
Continuous
 62
    40
100
AcDbCircle
 10
-642.8900337226999
 20
1310.0287753831
 30
0.0
 40
1042.4805496588
100
AcDbArc
 50
313.0995087796
 51
313.3151760618
  0
ARC
  5
3A2
330
210
100
AcDbEntity
  8
CURVE_SHOW
  6
Continuous
 62
    40
100
AcDbCircle
 10
-626.7071003385
 20
1295.1199618535
 30
0.0
 40
1020.2840456431
100
AcDbArc
 50
313.023237593
 51
313.2438994249
  0
ARC
  5
3A3
330
210
100
AcDbEntity
  8
CURVE_SHOW
  6
Continuous
 62
    40
100
AcDbCircle
 10
-597.4838004869
 20
-182.4522807976
 30
0.0
 40
973.4519002471001
100
AcDbArc
 50
46.77386914319999
 51
47.00378717109999
  0
ARC
  5
3A4
330
210
100
AcDbEntity
  8
CURVE_SHOW
  6
Continuous
 62
    40
100
AcDbCircle
 10
-582.7802413261999
 20
-164.6239281739999
 30
0.0
 40
950.6408689547999
100
AcDbArc
 50
46.65659997939999
 51
46.9354762845
  0
ARC
  5
3A5
330
210
100
AcDbEntity
  8
CURVE_SHOW
  6
Continuous
 62
    40
100
AcDbCircle
 10
-458.6858630933999
 20
971.5687332077999
 30
0.0
 40
690.9751815252999
100
AcDbArc
 50
319.939482571
 51
320.1905727492
  0
ARC
  5
3A6
330
210
100
AcDbEntity
  8
CURVE_SHOW
  6
Continuous
 62
    40
100
AcDbCircle
 10
-439.8717330155
 20
957.4053243055001
 30
0.0
 40
667.1979989823999
100
AcDbArc
 50
319.7972272556
 51
320.1135522161
  0
ARC
  5
3A7
330
210
100
AcDbEntity
  8
CURVE_SHOW
  6
Continuous
 62
    40
100
AcDbCircle
 10
216.9457736229
 20
539.3427269762001
 30
0.0
 40
150.905182955
100
AcDbArc
 50
179.8635504881
 51
180.0000043861
  0
ARC
  5
3A8
330
210
100
AcDbEntity
  8
CURVE_SHOW
  6
Continuous
 62
    40
100
AcDbCircle
 10
216.1955291108
 20
539.3356776284999
 30
0.0
 40
150.1548963498
100
AcDbArc
 50
180.978780317
 51
181.1159388596
  0
ARC
  5
3A9
330
210
100
AcDbEntity
  8
CURVE_SHOW
  6
Continuous
 62
    40
100
AcDbCircle
 10
215.446076152
 20
539.3719121756999
 30
0.0
 40
149.4051002067
100
AcDbArc
 50
176.8967071727999
 51
177.9497074544
  0
ARC
  5
3AA
330
210
100
AcDbEntity
  8
CURVE_SHOW
  6
Continuous
 62
    40
100
AcDbCircle
 10
215.1379146209
 20
539.2970281295999
 30
0.0
 40
149.0964954342
100
AcDbArc
 50
183.6134569409999
 51
183.7563226524
  0
ARC
  5
3AB
330
210
100
AcDbEntity
  8
CURVE_SHOW
  6
Continuous
 62
    40
100
AcDbCircle
 10
215.1212634368
 20
539.3894618742999
 30
0.0
 40
149.0798106602
100
AcDbArc
 50
175.7919392925
 51
176.4633624349
  0
ARC
  5
3AC
330
210
100
AcDbEntity
  8
CURVE_SHOW
  6
Continuous
 62
    40
100
AcDbCircle
 10
215.1042768408
 20
539.2949716795
 30
0.0
 40
149.0627973949
100
AcDbArc
 50
184.7853789303
 51
184.9240166333
  0
ARC
  5
3AD
330
210
100
AcDbEntity
  8
CURVE_SHOW
  6
Continuous
 62
    40
100
AcDbCircle
 10
215.4510033902
 20
539.3744615333999
 30
0.0
 40
148.9035271981
100
AcDbArc
 50
176.8872260418
 51
177.8448233243
  0
ARC
  5
3AE
330
210
100
AcDbEntity
  8
CURVE_SHOW
  6
Continuous
 62
    40
100
AcDbCircle
 10
215.1524713817
 20
539.3900774476
 30
0.0
 40
148.7879625077
100
AcDbArc
 50
175.7839079401
 51
176.3574925999
  0
ARC
  5
3AF
330
210
100
AcDbEntity
  8
CURVE_SHOW
  6
Continuous
 62
    40
100
AcDbCircle
 10
216.8269617093
 20
539.3412733525
 30
0.0
 40
148.1775136222
100
AcDbArc
 50
179.9994423943
 51
180.9940071524
  0
ARC
  5
3B0
330
210
100
AcDbEntity
  8
CURVE_SHOW
  6
Continuous
 62
    40
100
AcDbCircle
 10
216.9534864281
 20
539.3419838851
 30
0.0
 40
147.8121713134
100
AcDbArc
 50
179.9997164366999
 51
180.996739725
  0
ARC
  5
3B1
330
210
100
AcDbEntity
  8
CURVE_SHOW
  6
Continuous
 62
    40
100
AcDbCircle
 10
215.728651521
 20
539.3722267266999
 30
0.0
 40
147.0788002244
100
AcDbArc
 50
176.8476968715
 51
177.8172011337
  0
ARC
  5
3B2
330
210
100
AcDbEntity
  8
CURVE_SHOW
  6
Continuous
 62
    40
100
AcDbCircle
 10
215.4588012557
 20
539.3877517957999
 30
0.0
 40
146.7116647192
100
AcDbArc
 50
175.723219802
 51
176.3049617989
  0
ARC
  5
3B3
330
210
100
AcDbEntity
  8
CURVE_SHOW
  6
Continuous
 62
    40
100
AcDbCircle
 10
215.7460637438
 20
539.3737323904999
 30
0.0
 40
146.604307542
100
AcDbArc
 50
176.8380732685
 51
177.8107218326
  0
ARC
  5
3B4
330
210
100
AcDbEntity
  8
CURVE_SHOW
  6
Continuous
 62
    40
100
AcDbCircle
 10
215.4908778469
 20
539.3881072816999
 30
0.0
 40
146.3934604313
100
AcDbArc
 50
175.7144383323
 51
176.1515397615
  0
ARC
  5
3B5
330
210
100
AcDbEntity
  8
CURVE_SHOW
  6
Continuous
 62
    40
100
AcDbCircle
 10
217.4460006745
 20
539.3427369398999
 30
0.0
 40
145.6964403835
100
AcDbArc
 50
179.8586762378
 51
180.0000084612
  0
ARC
  5
3B6
330
210
100
AcDbEntity
  8
CURVE_SHOW
  6
Continuous
 62
    40
100
AcDbCircle
 10
216.6540956794
 20
539.350225624
 30
0.0
 40
145.382153642
100
AcDbArc
 50
178.2633561241
 51
179.2658100077
  0
ARC
  5
3B7
330
210
100
AcDbEntity
  8
CURVE_SHOW
  6
Continuous
 62
    40
100
AcDbCircle
 10
216.7526599125
 20
539.3359717893999
 30
0.0
 40
145.0030584831
100
AcDbArc
 50
181.0136753834
 51
181.1557087792
  0
ARC
  5
3B8
330
210
100
AcDbEntity
  8
CURVE_SHOW
  6
Continuous
 62
    40
100
AcDbCircle
 10
216.6559787815
 20
539.3509363769999
 30
0.0
 40
144.9063683891
100
AcDbArc
 50
178.2579334508
 51
179.3653050323
  0
ARC
  5
3B9
330
210
100
AcDbEntity
  8
CURVE_SHOW
  6
Continuous
 62
    40
100
AcDbCircle
 10
215.9910694955
 20
539.3716568743
 30
0.0
 40
144.7187712428
100
AcDbArc
 50
176.7960109107
 51
177.7813612891
  0
ARC
  5
3BA
330
210
100
AcDbEntity
  8
CURVE_SHOW
  6
Continuous
 62
    40
100
AcDbCircle
 10
216.0166670989
 20
539.372387509
 30
0.0
 40
144.2666888507
100
AcDbArc
 50
176.7862508216
 51
177.8768373118
  0
ARC
  5
3BB
330
210
100
AcDbEntity
  8
CURVE_SHOW
  6
Continuous
 62
    40
100
AcDbCircle
 10
215.8270593573
 20
539.3033411839
 30
0.0
 40
144.0768503406
100
AcDbArc
 50
184.9547298656
 51
185.0982024665
  0
ARC
  5
3BC
330
210
100
AcDbEntity
  8
CURVE_SHOW
  6
Continuous
 62
    40
100
AcDbCircle
 10
215.8145347132
 20
539.3831787326
 30
0.0
 40
144.0642784371
100
AcDbArc
 50
175.0155596976
 51
175.1636536217
  0
ARC
  5
3BD
330
210
100
AcDbEntity
  8
CURVE_SHOW
  6
Continuous
 62
    40
100
AcDbCircle
 10
215.7912322988
 20
539.3001932426
 30
0.0
 40
144.0408863251
100
AcDbArc
 50
183.8803570518
 51
184.028283563
  0
CIRCLE
  5
3BE
330
210
100
AcDbEntity
  8
0
  6
Continuous
 62
     7
100
AcDbCircle
 10
260.1249803948
 20
539.3427154242
 30
0.0
 40
22.5
  0
SPLINE
  5
42D
330
210
100
AcDbEntity
  8
0
  6
Continuous
 62
     7
100
AcDbSpline
210
0.0
220
0.0
230
1.0
 70
     8
 71
     3
 72
    17
 73
    13
 74
     0
 42
0.0000000001
 43
0.0000000001
 40
0.0
 40
0.0
 40
0.0
 40
0.0
 40
0.1248017784
 40
0.2496370266
 40
0.3745292459
 40
0.4372754932
 40
0.5000051301
 40
0.5627324254000001
 40
0.6254518220000001
 40
0.7503161879000002
 40
0.8751485595
 40
1.0
 40
1.0
 40
1.0
 40
1.0
 10
224.8976145061
 20
539.3427154239
 30
0.0
 10
224.8971232276
 20
534.7377710562999
 30
0.0
 10
226.8485291325
 20
525.4197574708999
 30
0.0
 10
234.9942513543
 20
513.8275513327999
 30
0.0
 10
244.981625939
 20
507.4645480193
 30
0.0
 10
253.8888394028
 20
504.8628945032
 30
0.0
 10
260.8323435819
 20
504.1182282913999
 30
0.0
 10
267.7989205177
 20
504.6920320987999
 30
0.0
 10
276.7173898479
 20
507.2743212348
 30
0.0
 10
286.6863836646
 20
513.6955667140999
 30
0.0
 10
294.6478244933
 20
525.4226206162
 30
0.0
 10
296.5260608308
 20
534.7359385961
 30
0.0
 10
296.5262351255
 20
539.342715424
 30
0.0
  0
SPLINE
  5
42E
330
210
100
AcDbEntity
  8
0
  6
Continuous
 62
     7
100
AcDbSpline
210
0.0
220
0.0
230
1.0
 70
     8
 71
     3
 72
    26
 73
    22
 74
     0
 42
0.0000000001
 43
0.0000000001
 40
0.0
 40
0.0
 40
0.0
 40
0.0
 40
0.0313567428
 40
0.0626977548
 40
0.0940112033
 40
0.1252910893
 40
0.1876577571
 40
0.249971508
 40
0.3122722764
 40
0.374589922
 40
0.4369674097
 40
0.4994185174
 40
0.5619313973
 40
0.5932262945000001
 40
0.624533748
 40
0.7494070188
 40
0.8120635925
 40
0.8746946244
 40
0.937279335
 40
0.9686405134000001
 40
1.0
 40
1.0
 40
1.0
 40
1.0
 10
620.5874320169999
 20
539.3427156443
 30
0.0
 10
620.5902969533999
 20
531.2041419412
 30
0.0
 10
619.3336520776999
 20
514.90307871
 30
0.0
 10
613.7713516075
 20
491.0574114449
 30
0.0
 10
604.8328651318
 20
468.2846680294
 30
0.0
 10
588.9565360638999
 20
439.9085694103
 30
0.0
 10
562.7383815777999
 20
408.5533437532999
 30
0.0
 10
524.3591327648
 20
378.3973099991001
 30
0.0
 10
481.3669963983
 20
355.443056204
 30
0.0
 10
435.4016334487
 20
339.3449094546
 30
0.0
 10
387.6304297919
 20
329.7628296136
 30
0.0
 10
338.9792321246
 20
326.5790536109
 30
0.0
 10
298.3776444738
 20
329.0836377006
 30
0.0
 10
266.3060683312
 20
334.3539011823
 30
0.0
 10
218.9284416548
 20
345.4135488665
 30
0.0
 10
165.6021644851
 20
368.1061966751
 30
0.0
 10
114.2181017992
 20
408.3533783947999
 30
0.0
 10
82.58326811219999
 20
446.0041006149999
 30
0.0
 10
64.7216004778
 20
483.1283114176
 30
0.0
 10
57.2918501377
 20
514.8968526754
 30
0.0
 10
56.0162305076
 20
531.2034344498
 30
0.0
 10
56.006883495
 20
539.3427154347
 30
0.0
  0
SPLINE
  5
42F
330
210
100
AcDbEntity
  8
0
  6
Continuous
 62
     7
100
AcDbSpline
210
0.0
220
0.0
230
1.0
 70
     8
 71
     3
 72
    11
 73
     7
 74
     0
 42
0.0000000001
 43
0.0000000001
 40
0.0
 40
0.0
 40
0.0
 40
0.0
 40
0.2654464902
 40
0.5136552439000001
 40
0.753777753
 40
1.0
 40
1.0
 40
1.0
 40
1.0
 10
575.6252270737999
 20
418.8712889819
 30
0.0
 10
583.4209403064
 20
427.6476845847
 30
0.0
 10
597.2195121106
 20
445.8481269269999
 30
0.0
 10
612.5587159075999
 20
475.6328970123999
 30
0.0
 10
622.0478250429001
 20
506.8853687443
 30
0.0
 10
624.2234307317
 20
528.454112086
 30
0.0
 10
624.2234061103999
 20
539.3427154203
 30
0.0
  0
SPLINE
  5
430
330
210
100
AcDbEntity
  8
0
  6
Continuous
 62
     7
100
AcDbSpline
210
0.0
220
0.0
230
1.0
 70
     8
 71
     3
 72
    14
 73
    10
 74
     0
 42
0.0000000001
 43
0.0000000001
 40
0.0
 40
0.0
 40
0.0
 40
0.0
 40
0.1639110448
 40
0.3101133021
 40
0.5561654929
 40
0.6668127303000001
 40
0.7764480151000001
 40
0.8877072108
 40
1.0
 40
1.0
 40
1.0
 40
1.0
 10
371.7462458519
 20
324.6437074781
 30
0.0
 10
384.2483243194999
 20
325.7531632394
 30
0.0
 10
407.8105323942
 20
329.1041453199
 30
0.0
 10
449.2521639056
 20
339.0937937406
 30
0.0
 10
485.403728311
 20
353.0090421191001
 30
0.0
 10
516.8022861344
 20
370.0889276475
 30
0.0
 10
537.9543615787
 20
384.1952016717
 30
0.0
 10
557.8040601215
 20
400.2848923188
 30
0.0
 10
569.9157292669
 20
412.4417822642
 30
0.0
 10
575.6260844099999
 20
418.8704889848999
 30
0.0
  0
SPLINE
  5
431
330
210
100
AcDbEntity
  8
0
  6
Continuous
 62
     7
100
AcDbSpline
210
0.0
220
0.0
230
1.0
 70
     8
 71
     3
 72
    11
 73
     7
 74
     0
 42
0.0000000001
 43
0.0000000001
 40
0.0
 40
0.0
 40
0.0
 40
0.0
 40
0.2232425065
 40
0.4675766412
 40
0.7331420541
 40
1.0
 40
1.0
 40
1.0
 40
1.0
 10
239.8941598234
 20
336.3119317673
 30
0.0
 10
249.436229621
 20
333.678058329
 30
0.0
 10
269.6630750116999
 20
329.0078364138
 30
0.0
 10
301.8792774447
 20
324.3422120406
 30
0.0
 10
336.3303091
 20
322.6888871719
 30
0.0
 10
359.9589767975
 20
323.6074637593
 30
0.0
 10
371.7455404384
 20
324.6534198306
 30
0.0
  0
SPLINE
  5
432
330
210
100
AcDbEntity
  8
0
  6
Continuous
 62
     7
100
AcDbSpline
210
0.0
220
0.0
230
1.0
 70
     8
 71
     3
 72
    10
 73
     6
 74
     0
 42
0.0000000001
 43
0.0000000001
 40
0.0
 40
0.0
 40
0.0
 40
0.0
 40
0.4780359372
 40
0.7227913415
 40
1.0
 40
1.0
 40
1.0
 40
1.0
 10
98.55213668200001
 20
421.1722066751999
 30
0.0
 10
115.9339530007
 20
401.0592268428999
 30
0.0
 10
147.8907872454
 20
375.2532132888
 30
0.0
 10
197.508898315
 20
350.018438869
 30
0.0
 10
225.0327177072
 20
340.4070525081
 30
0.0
 10
239.8923120223
 20
336.3054389286
 30
0.0
  0
SPLINE
  5
433
330
210
100
AcDbEntity
  8
0
  6
Continuous
 62
     7
100
AcDbSpline
210
0.0
220
0.0
230
1.0
 70
     8
 71
     3
 72
     9
 73
     5
 74
     0
 42
0.0000000001
 43
0.0000000001
 40
0.0
 40
0.0
 40
0.0
 40
0.0
 40
0.2446827154
 40
1.0
 40
1.0
 40
1.0
 40
1.0
 10
75.96990116909999
 20
452.6848425044
 30
0.0
 10
77.55844854660001
 20
449.9477140326
 30
0.0
 10
84.3285201255
 20
438.9241351258999
 30
0.0
 10
92.15263591459999
 20
428.5535700608
 30
0.0
 10
98.54039017739999
 20
421.1620885856
 30
0.0
  0
SPLINE
  5
434
330
210
100
AcDbEntity
  8
0
  6
Continuous
 62
     7
100
AcDbSpline
210
0.0
220
0.0
230
1.0
 70
     8
 71
     3
 72
     9
 73
     5
 74
     0
 42
0.0000000001
 43
0.0000000001
 40
0.0
 40
0.0
 40
0.0
 40
0.0
 40
0.502801285
 40
1.0
 40
1.0
 40
1.0
 40
1.0
 10
51.9256480243
 20
539.3427154242999
 30
0.0
 10
51.9256497173
 20
524.1389749881
 30
0.0
 10
56.2925591555
 20
493.7641665916
 30
0.0
 10
68.43392993100001
 20
465.6940704139
 30
0.0
 10
75.98053357800001
 20
452.6910000881
 30
0.0
  0
SPLINE
  5
435
330
210
100
AcDbEntity
  8
0
  6
Continuous
 62
     7
100
AcDbSpline
210
0.0
220
0.0
230
1.0
 70
     8
 71
     3
 72
    15
 73
    11
 74
     0
 42
0.0000000001
 43
0.0000000001
 40
0.0
 40
0.0
 40
0.0
 40
0.0
 40
0.1250789597
 40
0.2501075623
 40
0.3750511867
 40
0.4999479833000001
 40
0.6248731543
 40
0.7498642040000001
 40
0.8748977833999999
 40
1.0
 40
1.0
 40
1.0
 40
1.0
 10
231.0197685832
 20
539.3427154242
 30
0.0
 10
231.0197073695
 20
535.5649286116
 30
0.0
 10
232.4712957345
 20
527.9311777933998
 30
0.0
 10
238.7620211783
 20
518.1819111683999
 30
0.0
 10
248.3151523997
 20
511.5501860529
 30
0.0
 10
259.7321481912
 20
509.249506311
 30
0.0
 10
271.097200193
 20
511.6959079473999
 30
0.0
 10
280.6794950533
 20
518.2483092901
 30
0.0
 10
287.0882909666
 20
527.9272184112
 30
0.0
 10
288.5841232734
 20
535.5642614646
 30
0.0
 10
288.5842043177
 20
539.342750708
 30
0.0
  0
SPLINE
  5
436
330
210
100
AcDbEntity
  8
0
  6
Continuous
 62
     7
100
AcDbSpline
210
0.0
220
0.0
230
1.0
 70
     8
 71
     3
 72
    17
 73
    13
 74
     0
 42
0.0000000001
 43
0.0000000001
 40
0.0
 40
0.0
 40
0.0
 40
0.0
 40
0.124801778
 40
0.2496370259
 40
0.3745292447
 40
0.4372754918
 40
0.5000051285
 40
0.5627324236
 40
0.6254518201
 40
0.7503161856000001
 40
0.8751485564999999
 40
1.0
 40
1.0
 40
1.0
 40
1.0
 10
224.8976145061
 20
539.3427154239
 30
0.0
 10
224.8971232275
 20
543.9476597805
 30
0.0
 10
226.8485291237
 20
553.2656733376
 30
0.0
 10
234.9942513012
 20
564.8578794943
 30
0.0
 10
244.9816258908
 20
571.2208826954999
 30
0.0
 10
253.8888392852
 20
573.8225364051999
 30
0.0
 10
260.8323434636
 20
574.5672024603
 30
0.0
 10
267.7989203984
 20
573.9933988533
 30
0.0
 10
276.7173897033
 20
571.4111096230999
 30
0.0
 10
286.6863834903
 20
564.9898642762999
 30
0.0
 10
294.647824584
 20
553.2628103015
 30
0.0
 10
296.5260606577
 20
543.9494923662
 30
0.0
 10
296.5262356493
 20
539.3427154241
 30
0.0
  0
SPLINE
  5
437
330
210
100
AcDbEntity
  8
0
  6
Continuous
 62
     7
100
AcDbSpline
210
0.0
220
0.0
230
1.0
 70
     8
 71
     3
 72
    15
 73
    11
 74
     0
 42
0.0000000001
 43
0.0000000001
 40
0.0
 40
0.0
 40
0.0
 40
0.0
 40
0.1250789599
 40
0.2501075629
 40
0.3750511878
 40
0.4999479849
 40
0.6248731558000001
 40
0.7498642056
 40
0.8748977854999999
 40
1.0
 40
1.0
 40
1.0
 40
1.0
 10
231.0197685832
 20
539.3427154242
 30
0.0
 10
231.0197073698
 20
543.12049936
 30
0.0
 10
232.4712934732
 20
550.7542442463
 30
0.0
 10
238.7620095383
 20
560.5035058951999
 30
0.0
 10
248.3151279589
 20
567.1352330037
 30
0.0
 10
259.7321120744
 20
569.4359235784999
 30
0.0
 10
271.0971581842
 20
566.9895397326
 30
0.0
 10
280.6794571118
 20
560.4371591916
 30
0.0
 10
287.0882628118
 20
550.7582704466999
 30
0.0
 10
288.5841210999
 20
543.1212370038999
 30
0.0
 10
288.5842045078
 20
539.342750708
 30
0.0
  0
SPLINE
  5
438
330
210
100
AcDbEntity
  8
0
  6
Continuous
 62
     7
100
AcDbSpline
210
0.0
220
0.0
230
1.0
 70
     8
 71
     3
 72
    26
 73
    22
 74
     0
 42
0.0000000001
 43
0.0000000001
 40
0.0
 40
0.0
 40
0.0
 40
0.0
 40
0.031356743
 40
0.062697755
 40
0.0940112035
 40
0.1252910894
 40
0.1876577573
 40
0.2499715081
 40
0.3122722765
 40
0.3745899221
 40
0.4369674098
 40
0.4994185175000001
 40
0.5619313974
 40
0.5932262945000001
 40
0.624533748
 40
0.7494070189000001
 40
0.8120635925
 40
0.8746946244
 40
0.937279335
 40
0.9686405134000001
 40
1.0
 40
1.0
 40
1.0
 40
1.0
 10
620.5874320722
 20
539.3427156451999
 30
0.0
 10
620.5902968963999
 20
547.4812893830999
 30
0.0
 10
619.3336520434
 20
563.7823526438999
 30
0.0
 10
613.7713514224999
 20
587.6280199056
 30
0.0
 10
604.8328649492
 20
610.4007633001999
 30
0.0
 10
588.9565357502999
 20
638.7768618188999
 30
0.0
 10
562.7383812423
 20
670.1320873948
 30
0.0
 10
524.3591324433
 20
700.2881211222
 30
0.0
 10
481.366996031
 20
723.2423747479999
 30
0.0
 10
435.4016331249
 20
739.3405215025999
 30
0.0
 10
387.6304294846
 20
748.9226012750999
 30
0.0
 10
338.9792318466
 20
752.1063772763999
 30
0.0
 10
298.37764423
 20
749.6017930858999
 30
0.0
 10
266.3060681079
 20
744.3315296302
 30
0.0
 10
218.9284414738
 20
733.271881912
 30
0.0
 10
165.60216436
 20
710.5792340872999
 30
0.0
 10
114.2181017276
 20
670.3320523800999
 30
0.0
 10
82.58326807560001
 20
632.6813301805
 30
0.0
 10
64.7216004697
 20
595.5571194026
 30
0.0
 10
57.29185013649999
 20
563.7885781707
 30
0.0
 10
56.0162305084
 20
547.4819964099999
 30
0.0
 10
56.006883495
 20
539.3427154317
 30
0.0
  0
SPLINE
  5
439
330
210
100
AcDbEntity
  8
0
  6
Continuous
 62
     7
100
AcDbSpline
210
0.0
220
0.0
230
1.0
 70
     8
 71
     3
 72
     9
 73
     5
 74
     0
 42
0.0000000001
 43
0.0000000001
 40
0.0
 40
0.0
 40
0.0
 40
0.0
 40
0.502801285
 40
1.0
 40
1.0
 40
1.0
 40
1.0
 10
51.9256480243
 20
539.3427154241
 30
0.0
 10
51.9256497173
 20
554.5464558602
 30
0.0
 10
56.2925591555
 20
584.9212642566999
 30
0.0
 10
68.43392993100001
 20
612.9913604344999
 30
0.0
 10
75.98053357800001
 20
625.9944307602999
 30
0.0
  0
SPLINE
  5
43A
330
210
100
AcDbEntity
  8
0
  6
Continuous
 62
     7
100
AcDbSpline
210
0.0
220
0.0
230
1.0
 70
     8
 71
     3
 72
     9
 73
     5
 74
     0
 42
0.0000000001
 43
0.0000000001
 40
0.0
 40
0.0
 40
0.0
 40
0.0
 40
0.2446827154
 40
1.0
 40
1.0
 40
1.0
 40
1.0
 10
75.96990116909999
 20
626.0005883439999
 30
0.0
 10
77.55844854660001
 20
628.7377168156999
 30
0.0
 10
84.3285201255
 20
639.7612957225
 30
0.0
 10
92.15263591459999
 20
650.1318607875
 30
0.0
 10
98.54039017739999
 20
657.5233422628
 30
0.0
  0
SPLINE
  5
43B
330
210
100
AcDbEntity
  8
0
  6
Continuous
 62
     7
100
AcDbSpline
210
0.0
220
0.0
230
1.0
 70
     8
 71
     3
 72
    10
 73
     6
 74
     0
 42
0.0000000001
 43
0.0000000001
 40
0.0
 40
0.0
 40
0.0
 40
0.0
 40
0.4780359372
 40
0.7227913415
 40
1.0
 40
1.0
 40
1.0
 40
1.0
 10
98.55213668200001
 20
657.5132241731999
 30
0.0
 10
115.9339530007
 20
677.6262040055001
 30
0.0
 10
147.8907872454
 20
703.4322175596001
 30
0.0
 10
197.508898315
 20
728.6669919792999
 30
0.0
 10
225.0327177072
 20
738.2783783402
 30
0.0
 10
239.8923120223
 20
742.3799919197
 30
0.0
  0
SPLINE
  5
43C
330
210
100
AcDbEntity
  8
0
  6
Continuous
 62
     7
100
AcDbSpline
210
0.0
220
0.0
230
1.0
 70
     8
 71
     3
 72
    11
 73
     7
 74
     0
 42
0.0000000001
 43
0.0000000001
 40
0.0
 40
0.0
 40
0.0
 40
0.0
 40
0.2232425065
 40
0.4675766412
 40
0.7331420541
 40
1.0
 40
1.0
 40
1.0
 40
1.0
 10
239.8941598234
 20
742.373499081
 30
0.0
 10
249.436229621
 20
745.0073725192999
 30
0.0
 10
269.6630750116999
 20
749.6775944344999
 30
0.0
 10
301.8792774447
 20
754.3432188077
 30
0.0
 10
336.3303091
 20
755.9965436765
 30
0.0
 10
359.9589767975
 20
755.0779670891
 30
0.0
 10
371.7455404384
 20
754.0320110177999
 30
0.0
  0
SPLINE
  5
43D
330
210
100
AcDbEntity
  8
0
  6
Continuous
 62
     7
100
AcDbSpline
210
0.0
220
0.0
230
1.0
 70
     8
 71
     3
 72
    14
 73
    10
 74
     0
 42
0.0000000001
 43
0.0000000001
 40
0.0
 40
0.0
 40
0.0
 40
0.0
 40
0.1639110448
 40
0.3101133021
 40
0.5561654929
 40
0.6668127303000001
 40
0.7764480151000001
 40
0.8877072108
 40
1.0
 40
1.0
 40
1.0
 40
1.0
 10
371.7462458519
 20
754.0417233703
 30
0.0
 10
384.2483243194999
 20
752.9322676089
 30
0.0
 10
407.8105323942
 20
749.5812855285
 30
0.0
 10
449.2521639056
 20
739.5916371077
 30
0.0
 10
485.403728311
 20
725.6763887292
 30
0.0
 10
516.8022861344
 20
708.5965032008999
 30
0.0
 10
537.9543615787
 20
694.4902291766999
 30
0.0
 10
557.8040601215
 20
678.4005385294999
 30
0.0
 10
569.9157292669
 20
666.2436485841999
 30
0.0
 10
575.6260844099999
 20
659.8149418634
 30
0.0
  0
SPLINE
  5
43E
330
210
100
AcDbEntity
  8
0
  6
Continuous
 62
     7
100
AcDbSpline
210
0.0
220
0.0
230
1.0
 70
     8
 71
     3
 72
    11
 73
     7
 74
     0
 42
0.0000000001
 43
0.0000000001
 40
0.0
 40
0.0
 40
0.0
 40
0.0
 40
0.2654464902
 40
0.5136552439000001
 40
0.753777753
 40
1.0
 40
1.0
 40
1.0
 40
1.0
 10
575.6252270737999
 20
659.8141418663999
 30
0.0
 10
583.4209403064
 20
651.0377462635999
 30
0.0
 10
597.2195121106
 20
632.8373039214
 30
0.0
 10
612.5587159075999
 20
603.0525338359999
 30
0.0
 10
622.0478250429001
 20
571.8000621040999
 30
0.0
 10
624.2234307317
 20
550.2313187623
 30
0.0
 10
624.2234061103999
 20
539.342715428
 30
0.0
  0
SPLINE
  5
43F
330
210
100
AcDbEntity
  8
CURVE_SHOW
  6
Continuous
 62
    40
100
AcDbSpline
210
0.0
220
0.0
230
1.0
 70
     8
 71
     3
 72
    25
 73
    21
 74
     0
 42
0.0000000001
 43
0.0000000001
 40
0.0
 40
0.0
 40
0.0
 40
0.0
 40
0.0909090909
 40
0.1818181818
 40
0.2272727273
 40
0.2727272727
 40
0.3181818182
 40
0.3636363636
 40
0.4090909091
 40
0.4545454545000001
 40
0.5
 40
0.5454545455
 40
0.5909090909
 40
0.6363636364000001
 40
0.6818181818000002
 40
0.7272727273
 40
0.7727272727
 40
0.8181818181999998
 40
0.9090909091
 40
1.0
 40
1.0
 40
1.0
 40
1.0
 10
68.9986799699
 20
535.203324538
 30
0.0
 10
69.2869267146
 20
535.203324538
 30
0.0
 10
69.8372430414
 20
535.1430449137
 30
0.0
 10
70.4436673864
 20
534.9466100828
 30
0.0
 10
70.8724164245
 20
534.7264313099
 30
0.0
 10
71.16255775529999
 20
534.5318368119999
 30
0.0
 10
71.417813396
 20
534.3098064801999
 30
0.0
 10
71.63530663279999
 20
534.0627563782
 30
0.0
 10
71.8177424696
 20
533.7791445087999
 30
0.0
 10
71.9479074243
 20
533.4726327417
 30
0.0
 10
72.01957360520001
 20
533.149719214
 30
0.0
 10
72.02836013169999
 20
532.8195245322
 30
0.0
 10
71.9674094051
 20
532.4772553615
 30
0.0
 10
71.8355262685
 20
532.1516441444999
 30
0.0
 10
71.64972962109999
 20
531.8631922875
 30
0.0
 10
71.4107486672
 20
531.6019935855
 30
0.0
 10
71.1253618242
 20
531.3745347056999
 30
0.0
 10
70.6899069398
 20
531.1184952323999
 30
0.0
 10
70.04967449899999
 20
530.8938921323999
 30
0.0
 10
69.48252131050001
 20
530.8313245379999
 30
0.0
 10
69.18637448220001
 20
530.8313245379999
 30
0.0
  0
SPLINE
  5
440
330
210
100
AcDbEntity
  8
CURVE_SHOW
  6
Continuous
 62
    40
100
AcDbSpline
210
0.0
220
0.0
230
1.0
 70
     8
 71
     3
 72
    25
 73
    21
 74
     0
 42
0.0000000001
 43
0.0000000001
 40
0.0
 40
0.0
 40
0.0
 40
0.0
 40
0.0909090909
 40
0.1818181818
 40
0.2272727273
 40
0.2727272727
 40
0.3181818182
 40
0.3636363636
 40
0.4090909091
 40
0.4545454545000001
 40
0.5
 40
0.5454545455
 40
0.5909090909
 40
0.6363636364000001
 40
0.6818181818000002
 40
0.7272727273
 40
0.7727272727
 40
0.8181818181999998
 40
0.9090909091
 40
1.0
 40
1.0
 40
1.0
 40
1.0
 10
69.18637448220001
 20
530.8313245379999
 30
0.0
 10
68.89001308350001
 20
530.8313245379999
 30
0.0
 10
68.3227639987
 20
530.8948024952
 30
0.0
 10
67.6972610259
 20
531.093331787
 30
0.0
 10
67.25267400109999
 20
531.3119627078
 30
0.0
 10
66.95020433999999
 20
531.5038323655999
 30
0.0
 10
66.6815101729
 20
531.7225137148999
 30
0.0
 10
66.4505778794
 20
531.9655127393
 30
0.0
 10
66.25358782460001
 20
532.2469953971
 30
0.0
 10
66.1116358008
 20
532.5524354317999
 30
0.0
 10
66.0324801659
 20
532.8781341256
 30
0.0
 10
66.02360731410001
 20
533.2119978166999
 30
0.0
 10
66.0924053559
 20
533.557448412
 30
0.0
 10
66.2387949184
 20
533.8844886705999
 30
0.0
 10
66.43937536260001
 20
534.1699218500999
 30
0.0
 10
66.6940317656
 20
534.4286822912001
 30
0.0
 10
66.99427742510001
 20
534.6541253654
 30
0.0
 10
67.44872154630001
 20
534.9094924514999
 30
0.0
 10
68.1103082683
 20
535.1371455643
 30
0.0
 10
68.69459436069999
 20
535.203324538
 30
0.0
 10
68.9986799699
 20
535.203324538
 30
0.0
  0
SPLINE
  5
441
330
210
100
AcDbEntity
  8
CURVE_SHOW
  6
Continuous
 62
    40
100
AcDbSpline
210
0.0
220
0.0
230
1.0
 70
     8
 71
     3
 72
    25
 73
    21
 74
     0
 42
0.0000000001
 43
0.0000000001
 40
0.0
 40
0.0
 40
0.0
 40
0.0
 40
0.0909090909
 40
0.1818181818
 40
0.2272727273
 40
0.2727272727
 40
0.3181818182
 40
0.3636363636
 40
0.4090909091
 40
0.4545454545000001
 40
0.5
 40
0.5454545455
 40
0.5909090909
 40
0.6363636364000001
 40
0.6818181818000002
 40
0.7272727273
 40
0.7727272727
 40
0.8181818181999998
 40
0.9090909091
 40
1.0
 40
1.0
 40
1.0
 40
1.0
 10
69.171726807
 20
531.088324538
 30
0.0
 10
68.91060604270001
 20
531.088324538
 30
0.0
 10
68.41070699390001
 20
531.144121205
 30
0.0
 10
67.8580074971
 20
531.3199838969
 30
0.0
 10
67.46627969470001
 20
531.5135423648
 30
0.0
 10
67.1997147198
 20
531.6835139280999
 30
0.0
 10
66.96183596659999
 20
531.8785042393
 30
0.0
 10
66.7576475175
 20
532.0956420669999
 30
0.0
 10
66.5839116496
 20
532.3478609644
 30
0.0
 10
66.460036344
 20
532.6217158647
 30
0.0
 10
66.3931744796
 20
532.9131953416999
 30
0.0
 10
66.3897259787
 20
533.2111162180999
 30
0.0
 10
66.45587942729999
 20
533.5178256982
 30
0.0
 10
66.5904943532
 20
533.8064301685
 30
0.0
 10
66.7709036391
 20
534.0557618846999
 30
0.0
 10
66.9973977591
 20
534.2806109334999
 30
0.0
 10
67.26102854050001
 20
534.4747795306999
 30
0.0
 10
67.6579218182
 20
534.6940923254
 30
0.0
 10
68.2291866301
 20
534.8884644367999
 30
0.0
 10
68.7398010009
 20
534.9463245379999
 30
0.0
 10
69.0061074183
 20
534.9463245379999
 30
0.0
  0
SPLINE
  5
442
330
210
100
AcDbEntity
  8
CURVE_SHOW
  6
Continuous
 62
    40
100
AcDbSpline
210
0.0
220
0.0
230
1.0
 70
     8
 71
     3
 72
    24
 73
    20
 74
     0
 42
0.0000000001
 43
0.0000000001
 40
0.0
 40
0.0
 40
0.0
 40
0.0
 40
0.0909090909
 40
0.1818181818
 40
0.2727272727
 40
0.3181818182
 40
0.3636363636
 40
0.4090909091
 40
0.4545454545000001
 40
0.5
 40
0.5454545455
 40
0.5909090909
 40
0.6363636364000001
 40
0.6818181818000002
 40
0.7272727273
 40
0.7727272727
 40
0.8181818181999998
 40
0.9090909091
 40
1.0
 40
1.0
 40
1.0
 40
1.0
 10
69.0061074183
 20
534.9463245379999
 30
0.0
 10
69.26082868589999
 20
534.9463245379999
 30
0.0
 10
69.7474227679
 20
534.8931267850999
 30
0.0
 10
70.3933399367
 20
534.6836648702999
 30
0.0
 10
70.8458514404
 20
534.4177975476999
 30
0.0
 10
71.14922759969999
 20
534.1541459384999
 30
0.0
 10
71.3429985934
 20
533.9335286352
 30
0.0
 10
71.5050566455
 20
533.6798785152
 30
0.0
 10
71.6196291033
 20
533.4055667338999
 30
0.0
 10
71.68092212249999
 20
533.1162473201999
 30
0.0
 10
71.6846742365
 20
532.8210997798001
 30
0.0
 10
71.62517419210001
 20
532.517171529
 30
0.0
 10
71.50246809859999
 20
532.2297822054
 30
0.0
 10
71.3331466313
 20
531.9772174205
 30
0.0
 10
71.1180876909
 20
531.7500187326999
 30
0.0
 10
70.86572901149999
 20
531.5545119183
 30
0.0
 10
70.4833302035
 20
531.3351015244998
 30
0.0
 10
69.93160935739999
 20
531.1440821723
 30
0.0
 10
69.43294994689999
 20
531.088324538
 30
0.0
 10
69.171726807
 20
531.088324538
 30
0.0
  0
SPLINE
  5
443
330
210
100
AcDbEntity
  8
CURVE_SHOW
  6
Continuous
 62
    40
100
AcDbSpline
210
0.0
220
0.0
230
1.0
 70
     8
 71
     3
 72
    31
 73
    27
 74
     0
 42
0.0000000001
 43
0.0000000001
 40
0.0
 40
0.0
 40
0.0
 40
0.0
 40
0.0277777778
 40
0.0555555556
 40
0.0833333333
 40
0.1111111111
 40
0.1388888889
 40
0.1666666667
 40
0.2222222222
 40
0.2777777778
 40
0.3333333333
 40
0.3888888889
 40
0.4444444444000001
 40
0.5
 40
0.5555555556
 40
0.6111111111000001
 40
0.6666666667
 40
0.7222222222
 40
0.7777777778
 40
0.8333333333
 40
0.8611111110999999
 40
0.8888888889
 40
0.9166666666999999
 40
0.9444444444
 40
0.9722222221999999
 40
1.0
 40
1.0
 40
1.0
 40
1.0
 10
66.7671486966
 20
550.3287154242
 30
0.0
 10
66.7690033235
 20
550.3538738347
 30
0.0
 10
66.77612145649999
 20
550.4059085391999
 30
0.0
 10
66.7961815696
 20
550.4813349299999
 30
0.0
 10
66.82572224419999
 20
550.5560351463999
 30
0.0
 10
66.8641473559
 20
550.6284755809999
 30
0.0
 10
66.9133057839
 20
550.7013954158
 30
0.0
 10
66.99421330789999
 20
550.7976891659999
 30
0.0
 10
67.11268586279999
 20
550.9022217223999
 30
0.0
 10
67.2636852774
 20
550.9986409940999
 30
0.0
 10
67.42992717299999
 20
551.0765551199999
 30
0.0
 10
67.60847996549999
 20
551.1347851028
 30
0.0
 10
67.79426404430001
 20
551.1723717077
 30
0.0
 10
67.982598573
 20
551.1888891758998
 30
0.0
 10
68.1712691652
 20
551.184337375
 30
0.0
 10
68.359567476
 20
551.1574957216001
 30
0.0
 10
68.5405936703
 20
551.1076830573
 30
0.0
 10
68.70880814600001
 20
551.0347096844999
 30
0.0
 10
68.8596287093
 20
550.9398710351
 30
0.0
 10
68.9780611087
 20
550.8296767094999
 30
0.0
 10
69.05511366739999
 20
550.7244523741999
 30
0.0
 10
69.0983652184
 20
550.6453224302999
 30
0.0
 10
69.12876505140001
 20
550.5679884251999
 30
0.0
 10
69.1487636282
 20
550.4887343813
 30
0.0
 10
69.1582441684
 20
550.4095722943
 30
0.0
 10
69.15762124140001
 20
550.3548831869998
 30
0.0
 10
69.15566433399999
 20
550.3287154242
 30
0.0
  0
SPLINE
  5
444
330
210
100
AcDbEntity
  8
CURVE_SHOW
  6
Continuous
 62
    40
100
AcDbSpline
210
0.0
220
0.0
230
1.0
 70
     8
 71
     3
 72
    31
 73
    27
 74
     0
 42
0.0000000001
 43
0.0000000001
 40
0.0
 40
0.0
 40
0.0
 40
0.0
 40
0.0277777778
 40
0.0555555556
 40
0.0833333333
 40
0.1111111111
 40
0.1388888889
 40
0.1666666667
 40
0.2222222222
 40
0.2777777778
 40
0.3333333333
 40
0.3888888889
 40
0.4444444444000001
 40
0.5
 40
0.5555555556
 40
0.6111111111000001
 40
0.6666666667
 40
0.7222222222
 40
0.7777777778
 40
0.8333333333
 40
0.8611111110999999
 40
0.8888888889
 40
0.9166666666999999
 40
0.9444444444
 40
0.9722222221999999
 40
1.0
 40
1.0
 40
1.0
 40
1.0
 10
69.5067340821
 20
550.3277154241999
 30
0.0
 10
69.509207051
 20
550.3601769483999
 30
0.0
 10
69.5102468604
 20
550.4281355262
 30
0.0
 10
69.499259243
 20
550.5269937462998
 30
0.0
 10
69.47535720229999
 20
550.6267611048
 30
0.0
 10
69.4383889003
 20
550.7249221469999
 30
0.0
 10
69.385041681
 20
550.8261914103
 30
0.0
 10
69.28900840060001
 20
550.9616228819999
 30
0.0
 10
69.140022445
 20
551.1042963797
 30
0.0
 10
68.9478010552
 20
551.2283485199
 30
0.0
 10
68.7319404007
 20
551.3242492434999
 30
0.0
 10
68.4984600952
 20
551.3900784682
 30
0.0
 10
68.25462244229999
 20
551.4258789207
 30
0.0
 10
68.00939519489999
 20
551.4323758058999
 30
0.0
 10
67.7641726098
 20
551.4110679968999
 30
0.0
 10
67.52181516890001
 20
551.3618585624
 30
0.0
 10
67.289139407
 20
551.2853829936
 30
0.0
 10
67.0730401024
 20
551.1830620552999
 30
0.0
 10
66.8777854034
 20
551.0567185594999
 30
0.0
 10
66.72640005709999
 20
550.9209791641
 30
0.0
 10
66.6238163474
 20
550.7965756293
 30
0.0
 10
66.5621395481
 20
550.7030541748
 30
0.0
 10
66.5145710749
 20
550.6111374814
 30
0.0
 10
66.4784530504
 20
550.5173370551
 30
0.0
 10
66.45420989749999
 20
550.4236883701
 30
0.0
 10
66.4456195347
 20
550.3595938316999
 30
0.0
 10
66.4433475801
 20
550.3287154242
 30
0.0
  0
LINE
  5
445
330
210
100
AcDbEntity
  8
CURVE_SHOW
  6
Continuous
 62
    40
100
AcDbLine
 10
72.044482191
 20
548.5857154241999
 30
0.0
 11
72.0611621943
 21
548.8427154242
 31
0.0
  0
LINE
  5
446
330
210
100
AcDbEntity
  8
CURVE_SHOW
  6
Continuous
 62
    40
100
AcDbLine
 10
66.0521935455
 20
541.2131063103999
 30
0.0
 11
66.04922246470001
 21
540.9561063104
 31
0.0
  0
LINE
  5
60D
330
210
100
AcDbEntity
  8
0
  6
Continuous
 62
     7
100
AcDbLine
 10
482.8390742547626
 20
104.9505774486228
 30
0.0
 11
158.1063328976624
 21
104.9505774486228
 31
0.0
  0
LINE
  5
60E
330
210
100
AcDbEntity
  8
02___PRT_ALL_AXES
  6
Continuous
 62
     7
100
AcDbLine
 10
626.7041336149625
 20
282.4250822901229
 30
0.0
 11
612.7313437352627
 21
280.2821495541228
 31
0.0
  0
LINE
  5
60F
330
210
100
AcDbEntity
  8
06___PRT_ALL_SURFS
  6
Continuous
 62
     7
100
AcDbLine
 10
625.8291542167626
 20
282.2893183466229
 30
0.0
 11
612.7313449859626
 21
280.2821497437228
 31
0.0
  0
LINE
  5
610
330
210
100
AcDbEntity
  8
02___PRT_ALL_AXES
  6
Continuous
 62
     7
100
AcDbLine
 10
612.7313437352627
 20
280.2821495541228
 30
0.0
 11
600.1518079493625
 21
278.3957616264229
 31
0.0
  0
LINE
  5
611
330
210
100
AcDbEntity
  8
06___PRT_ALL_SURFS
  6
Continuous
 62
     7
100
AcDbLine
 10
612.7313449859626
 20
280.2821497437228
 30
0.0
 11
600.1518103582625
 21
278.3957619837229
 31
0.0
  0
LINE
  5
612
330
210
100
AcDbEntity
  8
02___PRT_ALL_AXES
  6
Continuous
 62
     7
100
AcDbLine
 10
600.1518079493625
 20
278.3957616264229
 30
0.0
 11
583.0101487460624
 21
275.8912113833228
 31
0.0
  0
LINE
  5
613
330
210
100
AcDbEntity
  8
06___PRT_ALL_SURFS
  6
Continuous
 62
     7
100
AcDbLine
 10
600.1518103582625
 20
278.3957619837229
 30
0.0
 11
583.0101528013626
 21
275.8912119668228
 31
0.0
  0
LINE
  5
614
330
210
100
AcDbEntity
  8
06___PRT_ALL_SURFS
  6
Continuous
 62
     7
100
AcDbLine
 10
583.0101528013626
 20
275.8912119668228
 30
0.0
 11
575.4198859588627
 21
274.8072051237228
 31
0.0
  0
LINE
  5
615
330
210
100
AcDbEntity
  8
02___PRT_ALL_AXES
  6
Continuous
 62
     7
100
AcDbLine
 10
583.0101487460624
 20
275.8912113833228
 30
0.0
 11
568.8182649645628
 21
273.8752609839229
 31
0.0
  0
LINE
  5
616
330
210
100
AcDbEntity
  8
02___PRT_ALL_AXES
  6
Continuous
 62
     7
100
AcDbLine
 10
568.8182649645628
 20
273.948507844403
 30
0.0
 11
552.4027772740626
 21
271.682148666703
 31
0.0
  0
LWPOLYLINE
  5
617
330
210
100
AcDbEntity
  8
02___PRT_ALL_AXES
  6
Continuous
 62
     7
100
AcDbPolyline
 90
       30
 70
     0
 43
0.0
 10
552.4027772740626
 20
271.6089018062229
 10
533.6134948100625
 20
269.1004416467229
 10
523.5224314325626
 20
267.7906118935228
 10
512.8855922433626
 20
266.4392598121228
 10
501.6253178031624
 20
265.0419386092228
 10
489.9175288094625
 20
263.6243313759229
 10
477.6588844517627
 20
262.1780506077229
 10
464.7182297979624
 20
260.6936219621228
 10
451.3275978894625
 20
259.2040081700228
 10
437.5670729731628
 20
257.7223172584229
 10
423.3447750012626
 20
256.2422152179229
 10
408.8198771597626
 20
254.7836440035229
 10
394.2158310142627
 20
253.3709903792229
 10
379.5932478446625
 20
252.0113050173228
 10
364.8480651749626
 20
250.6973529378229
 10
350.2326747340626
 20
249.4507084328229
 10
335.8956442334624
 20
248.2790749885229
 10
321.6397271289625
 20
247.1628462817228
 10
307.6708311954626
 20
246.1187410326228
 10
294.2162451484626
 20
245.1617524078228
 10
281.0108926892626
 20
244.2680895888228
 10
268.0530557161626
 20
243.4340215462229
 10
255.4238784684626
 20
242.6615091950229
 10
243.0291753105625
 20
241.9423186083228
 10
230.8827055909626
 20
241.2752863125228
 10
219.0903611697627
 20
240.6637438347228
 10
207.6451391907626
 20
240.1043324612228
 10
196.4279262140626
 20
239.5880023732229
 10
185.4937898157627
 20
239.1152457224229
 10
175.0271381025627
 20
238.6909474314228
  0
LINE
  5
618
330
210
100
AcDbEntity
  8
02___PRT_ALL_AXES
  6
Continuous
 62
     7
100
AcDbLine
 10
136.8051766559627
 20
237.3755422924229
 30
0.0
 11
119.9497467739627
 21
236.9107898441229
 31
0.0
  0
LINE
  5
619
330
210
100
AcDbEntity
  8
02___PRT_ALL_AXES
  6
Continuous
 62
     7
100
AcDbLine
 10
119.9497467739627
 20
236.9107898441229
 30
0.0
 11
104.8488111835627
 21
236.5531873375228
 31
0.0
  0
LINE
  5
61A
330
210
100
AcDbEntity
  8
02___PRT_ALL_AXES
  6
Continuous
 62
     7
100
AcDbLine
 10
104.8488111835627
 20
236.5531873375228
 30
0.0
 11
91.40794127916251
 21
236.2807850173228
 31
0.0
  0
LINE
  5
61B
330
210
100
AcDbEntity
  8
02___PRT_ALL_AXES
  6
Continuous
 62
     7
100
AcDbLine
 10
91.40794127916251
 20
236.2807850173228
 30
0.0
 11
74.56903243786269
 21
235.9982497795229
 31
0.0
  0
LINE
  5
61C
330
210
100
AcDbEntity
  8
06___PRT_ALL_SURFS
  6
Continuous
 62
     7
100
AcDbLine
 10
75.81071135496268
 20
236.0174544275228
 30
0.0
 11
74.56903472976273
 21
235.9982498137228
 31
0.0
  0
LINE
  5
61D
330
210
100
AcDbEntity
  8
02___PRT_ALL_AXES
  6
Continuous
 62
     7
100
AcDbLine
 10
74.56903243786269
 20
235.9982497795229
 30
0.0
 11
58.58732334836258
 21
235.7887674322228
 31
0.0
  0
LINE
  5
61E
330
210
100
AcDbEntity
  8
02___PRT_ALL_AXES
  6
Continuous
 62
     7
100
AcDbLine
 10
58.58732334836258
 20
235.7887674322228
 30
0.0
 11
47.98736813426262
 21
235.6802537288229
 31
0.0
  0
LINE
  5
61F
330
210
100
AcDbEntity
  8
02___PRT_ALL_AXES
  6
Continuous
 62
     7
100
AcDbLine
 10
175.0271381025627
 20
238.6909474314228
 30
0.0
 11
155.1646471647627
 21
237.9616976456229
 31
0.0
  0
LINE
  5
620
330
210
100
AcDbEntity
  8
02___PRT_ALL_AXES
  6
Continuous
 62
     7
100
AcDbLine
 10
155.1646471647627
 20
237.9616976456229
 30
0.0
 11
136.8051766559627
 21
237.3755422924229
 31
0.0
  0
ARC
  5
621
330
210
100
AcDbEntity
  8
0
  6
Continuous
 62
     7
100
AcDbCircle
 10
19.67783203656267
 20
4200.327174592223
 30
0.0
 40
3964.6811380016
100
AcDbArc
 50
271.9781794465036
 51
273.2357541619991
  0
ARC
  5
622
330
210
100
AcDbEntity
  8
0
  6
Continuous
 62
     7
100
AcDbCircle
 10
26.99855370776254
 20
4134.552345322923
 30
0.0
 40
3898.5099785066
100
AcDbArc
 50
276.1940199336984
 51
277.648640441301
  0
ARC
  5
623
330
210
100
AcDbEntity
  8
0
  6
Continuous
 62
     7
100
AcDbCircle
 10
920.0883376077626
 20
-118.2337036197771
 30
0.0
 40
489.8682872743
100
AcDbArc
 50
135.5276968273077
 51
142.5074487754964
  0
ARC
  5
624
330
210
100
AcDbEntity
  8
0
  6
Continuous
 62
     7
100
AcDbCircle
 10
-168.5914181759374
 20
-81.16135518217717
 30
0.0
 40
374.9863686119001
100
AcDbArc
 50
46.39753747180116
 51
53.98536211200088
  0
ARC
  5
625
330
210
100
AcDbEntity
  8
0
  6
Continuous
 62
     7
100
AcDbCircle
 10
812.1911682607624
 20
-12.39472752127716
 30
0.0
 40
338.7270261842
100
AcDbArc
 50
122.9789777344013
 51
134.1635723215036
  0
ARC
  5
626
330
210
100
AcDbEntity
  8
0
  6
Continuous
 62
     2
100
AcDbCircle
 10
920.4544104165625
 20
-118.1407328195771
 30
0.0
 40
490.1107870369
100
AcDbArc
 50
141.6883455935005
 51
145.5529962441973
  0
ARC
  5
627
330
210
100
AcDbEntity
  8
02___PRT_ALL_AXES
  6
Continuous
 62
     7
100
AcDbCircle
 10
919.5180032530625
 20
-117.7212627422771
 30
0.0
 40
489.1023061859999
100
AcDbArc
 50
135.5237275320067
 51
144.1905626960044
  0
ARC
  5
628
330
210
100
AcDbEntity
  8
0
  6
Continuous
 62
     7
100
AcDbCircle
 10
919.5758739883627
 20
-117.6326476373771
 30
0.0
 40
489.0974009723999
100
AcDbArc
 50
144.2029477908962
 51
152.7863827821046
  0
ARC
  5
629
330
210
100
AcDbEntity
  8
02___PRT_ALL_AXES
  6
Continuous
 62
     7
100
AcDbCircle
 10
-168.8993383072375
 20
-81.53568408587716
 30
0.0
 40
375.4697949478
100
AcDbArc
 50
46.4029055813966
 51
54.72006659539748
  0
ARC
  5
62A
330
210
100
AcDbEntity
  8
02___PRT_ALL_AXES
  6
Continuous
 62
     7
100
AcDbCircle
 10
-168.9409870503373
 20
-81.47433854477714
 30
0.0
 40
375.4540953386
100
AcDbArc
 50
38.00431159439501
 51
46.39184711510618
  0
ARC
  5
62B
330
210
100
AcDbEntity
  8
0
  6
Continuous
 62
     7
100
AcDbCircle
 10
-168.9605988597373
 20
-81.40006192097713
 30
0.0
 40
375.4238217253
100
AcDbArc
 50
29.93671825710325
 51
37.99353646890339
  0
ARC
  5
62C
330
210
100
AcDbEntity
  8
02___PRT_ALL_AXES
  6
Continuous
 62
     7
100
AcDbCircle
 10
812.1920317123626
 20
-12.39575079857718
 30
0.0
 40
338.728354585
100
AcDbArc
 50
122.9790049627967
 51
135.5169572059944
  0
ARC
  5
62D
330
210
100
AcDbEntity
  8
0
  6
Continuous
 62
     7
100
AcDbCircle
 10
158.1063328976624
 20
106.9505774486228
 30
0.0
 40
2.0
100
AcDbArc
 50
209.9317804510928
 51
270.0000000007947
  0
ARC
  5
62E
330
210
100
AcDbEntity
  8
0
  6
Continuous
 62
     7
100
AcDbCircle
 10
482.8390742547626
 20
106.9505774486228
 30
0.0
 40
2.0
100
AcDbArc
 50
270.0
 51
332.7922577134946
  0
SPLINE
  5
630
330
210
100
AcDbEntity
  8
02___PRT_ALL_AXES
  6
Continuous
 62
     7
100
AcDbSpline
210
0.0
220
0.0
230
1.0
 70
     8
 71
     3
 72
    15
 73
    11
 74
     0
 42
0.0000001
 43
0.0000000001
 40
0.0
 40
0.0
 40
0.0
 40
0.0
 40
0.1248039617
 40
0.2502336213
 40
0.3754377966
 40
0.5006975976
 40
0.6248531661
 40
0.7494599328
 40
0.8746364216999999
 40
1.0
 40
1.0
 40
1.0
 40
1.0
 10
47.96140995406267
 20
224.9752990480228
 30
0.0
 10
47.39767948086273
 20
225.3740655677228
 30
0.0
 10
46.28379637516263
 20
226.1963515474229
 30
0.0
 10
44.6561772053626
 20
227.4902284617228
 30
0.0
 10
43.23124330456266
 20
229.0251288258228
 30
0.0
 10
42.30199566346255
 20
230.9352163787229
 30
0.0
 10
42.43796276946272
 20
233.1486759390228
 30
0.0
 10
43.94263936056268
 20
234.7503302965229
 30
0.0
 10
45.89998760036269
 20
235.5350718417229
 30
0.0
 10
47.29378897086258
 20
235.6741820124229
 30
0.0
 10
47.98737059876271
 20
235.6802537011229
 30
0.0
  0
SPLINE
  5
631
102
{ACAD_REACTORS
330
8C6
102
}
330
210
100
AcDbEntity
  8
02___PRT_ALL_AXES
  6
Continuous
 62
     7
100
AcDbSpline
210
0.0
220
0.0
230
1.0
 70
     8
 71
     3
 72
    18
 73
    14
 74
     0
 42
0.0000001
 43
0.0000000001
 40
0.0
 40
0.0
 40
0.0
 40
0.0
 40
0.125378959
 40
0.1880403947
 40
0.2503669506
 40
0.3133378577
 40
0.3762450081
 40
0.5001585177000001
 40
0.5625675997
 40
0.6251137822000001
 40
0.7499651985
 40
0.8750264244
 40
1.0
 40
1.0
 40
1.0
 40
1.0
 10
626.7041336149625
 20
282.4250822901229
 30
0.0
 10
627.4371043610626
 20
282.5396382736228
 30
0.0
 10
628.5584027552626
 20
282.6080074174229
 30
0.0
 10
630.0351135156624
 20
282.4154909004228
 30
0.0
 10
631.0831241217624
 20
282.0068150095228
 30
0.0
 10
632.0011289832625
 20
281.3629862179229
 30
0.0
 10
633.0255377950625
 20
280.2752985752229
 30
0.0
 10
633.4626678814625
 20
278.7651815513228
 30
0.0
 10
633.3032448142626
 20
277.2880861163229
 30
0.0
 10
632.7353251532627
 20
275.9064509316229
 30
0.0
 10
631.5728126410626
 20
274.4322122006229
 30
0.0
 10
629.8393552719626
 20
273.0339652320229
 30
0.0
 10
628.5819452736627
 20
272.2527613362229
 30
0.0
 10
627.9614099540626
 20
271.8505774486228
 30
0.0
  0
SPLINE
  5
632
330
210
100
AcDbEntity
  8
02___PRT_ALL_AXES
  6
Continuous
 62
     7
100
AcDbSpline
210
0.0
220
0.0
230
1.0
 70
     8
 71
     3
 72
    38
 73
    34
 74
     0
 42
0.0000001
 43
0.0000000001
 40
0.0
 40
0.0
 40
0.0
 40
0.0
 40
0.0000430092
 40
0.0001707813
 40
0.0003822292
 40
0.0006762657
 40
0.0015077555
 40
0.0026565528
 40
0.0041139597
 40
0.0058712783
 40
0.0079199095
 40
0.0102553578
 40
0.0157910874
 40
0.0224891546
 40
0.0303616173
 40
0.0394613683
 40
0.0498851495
 40
0.0616346363
 40
0.088717415
 40
0.1193794043
 40
0.1523388088
 40
0.1868553307
 40
0.2231200799
 40
0.2623030676
 40
0.3055226113
 40
0.4074898836
 40
0.5260810175000001
 40
0.6365397416
 40
0.7245732741
 40
0.7945097618000001
 40
0.8549746976999999
 40
0.9534866423999998
 40
1.0
 40
1.0
 40
1.0
 40
1.0
 10
47.96100289856258
 20
224.9755869868228
 30
0.0
 10
47.96779723046256
 20
224.9707791627228
 30
0.0
 10
48.00454896956262
 20
224.9824379750228
 30
0.0
 10
48.07497241356259
 20
224.9716540476228
 30
0.0
 10
48.19951324016256
 20
224.9784334824228
 30
0.0
 10
48.4570512418627
 20
224.9759568840228
 30
0.0
 10
48.89806238816254
 20
224.9810163548228
 30
0.0
 10
49.56291283786254
 20
224.9834180387228
 30
0.0
 10
50.40750747386255
 20
224.9888716760229
 30
0.0
 10
51.42602079596258
 20
224.9949540546229
 30
0.0
 10
52.6145273445627
 20
225.0026328677228
 30
0.0
 10
54.53420362896259
 20
225.0155077593228
 30
0.0
 10
57.35364058506252
 20
225.0362731998229
 30
0.0
 10
61.24456023016273
 20
225.0687886812228
 30
0.0
 10
65.82514109216254
 20
225.1119824550228
 30
0.0
 10
71.12663984366259
 20
225.1686647352228
 30
0.0
 10
77.17829215756274
 20
225.2425152388229
 30
0.0
 10
86.70963681686272
 20
225.3748266259229
 30
0.0
 10
100.1566383826625
 20
225.6002718785229
 30
0.0
 10
117.7062753183627
 20
225.9711190349228
 30
0.0
 10
136.6921024724627
 20
226.4623883520229
 30
0.0
 10
156.7589818113626
 20
227.0828294144228
 30
0.0
 10
178.0259089541625
 20
227.8537590871228
 30
0.0
 10
200.9710004990625
 20
228.8142376539229
 30
0.0
 10
236.6100417746627
 20
230.5296136069228
 30
0.0
 10
287.5711528861627
 20
233.5350286577228
 30
0.0
 10
351.4520273580627
 20
238.3672460546229
 30
0.0
 10
412.5555715371627
 20
244.0396198244229
 30
0.0
 10
464.2052264576626
 20
249.6090610031229
 30
0.0
 10
506.1782143938626
 20
254.6393541340228
 30
0.0
 10
550.1107895658626
 20
260.3399082598229
 30
0.0
 10
589.4856555248625
 20
265.9258223296228
 30
0.0
 10
617.2291353013626
 20
270.1695186798229
 30
0.0
 10
626.1222250698624
 20
271.5622208152229
 30
0.0
  0
LINE
  5
633
330
210
100
AcDbEntity
  8
02___PRT_ALL_AXES
  6
Continuous
 62
     7
100
AcDbLine
 10
626.1222250698624
 20
271.5622208152229
 30
0.0
 11
627.9619803920627
 21
271.8509471935229
 31
0.0
  0
LINE
  5
7DB
330
210
100
AcDbEntity
  8
0
  6
DOT
 62
     7
100
AcDbLine
 10
1035.11748025661
 20
105.0910446263996
 30
0.0
 11
1036.497323313409
 21
105.0910446263996
 31
0.0
  0
LWPOLYLINE
  5
7DC
330
210
100
AcDbEntity
  8
02___PRT_ALL_AXES
  6
Continuous
 62
     7
100
AcDbPolyline
 90
      155
 70
     0
 43
0.0
 10
702.4215149428096
 20
253.7554464214995
 10
702.2610621036096
 20
253.6676612504996
 10
702.1023905552096
 20
253.5799261560996
 10
701.9454976622096
 20
253.4922398629996
 10
701.7903550443097
 20
253.4045864502996
 10
701.6369592954097
 20
253.3169636747996
 10
701.4853088799098
 20
253.2293703207996
 10
701.3353788638097
 20
253.1417914168995
 10
701.1871669475096
 20
253.0542247825996
 10
701.0406717009098
 20
252.9666686874997
 10
700.8958704463098
 20
252.8791084367997
 10
700.7527674766097
 20
252.7915452789996
 10
700.6113554867097
 20
252.7039733445996
 10
700.4715952420097
 20
252.6163663891996
 10
700.3334849108097
 20
252.5287206537996
 10
700.1970262306096
 20
252.4410333359996
 10
700.0621862206096
 20
252.3532782293996
 10
699.9289598976097
 20
252.2654464558996
 10
699.7973558226097
 20
252.1775378972995
 10
699.6673617589096
 20
252.0895383835997
 10
699.5389803133097
 20
252.0014433551996
 10
699.4122128541097
 20
251.9132472664995
 10
699.2870457915095
 20
251.8249337694996
 10
699.1634815181097
 20
251.7364972371996
 10
699.0415224828097
 20
251.6479319020997
 10
698.9211558596096
 20
251.5592204643996
 10
698.8023845907096
 20
251.4703566154996
 10
698.6852117323096
 20
251.3813339069997
 10
698.5696254233096
 20
251.2921340502996
 10
698.4556293159097
 20
251.2027500146996
 10
698.3432272378097
 20
251.1131746310997
 10
698.2324085065097
 20
251.0233885845996
 10
698.1231776541096
 20
250.9333840786997
 10
698.0155394551097
 20
250.8431531813997
 10
697.9094846334096
 20
250.7526755145997
 10
697.8050034363097
 20
250.6619290187996
 10
697.7021173383096
 20
250.5709181006996
 10
697.6008640852096
 20
250.4796625464995
 10
697.5012433328097
 20
250.3881490511996
 10
697.4032636164097
 20
250.2963754685997
 10
697.3069743969097
 20
250.2043807997996
 10
697.2123953464097
 20
250.1121779870996
 10
697.1195080865097
 20
250.0197428573996
 10
697.0283046203096
 20
249.9270598980996
 10
696.9387847699096
 20
249.8341205286996
 10
696.8509528018095
 20
249.7409202669996
 10
696.7648083679096
 20
249.6474492650996
 10
696.6803404805097
 20
249.5536849291997
 10
696.5975667415096
 20
249.4596355033996
 10
696.5165295593096
 20
249.3653387047995
 10
696.4372435573097
 20
249.2708015503996
 10
696.3597024398097
 20
249.1760058510996
 10
696.2839170592096
 20
249.0809533466996
 10
696.2098947861096
 20
248.9856414660997
 10
696.1376390605096
 20
248.8900621176996
 10
696.0671553936097
 20
248.7942091710996
 10
695.9984497660096
 20
248.6980764571997
 10
695.9315299959097
 20
248.6016597500996
 10
695.8664051102097
 20
248.5049561045996
 10
695.8030877665096
 20
248.4079678121997
 10
695.7415816809097
 20
248.3106830342997
 10
695.6818840250097
 20
248.2130773438996
 10
695.6240757411096
 20
248.1152669878996
 10
695.5680937019097
 20
248.0171279662997
 10
695.5137368037096
 20
247.9182639978997
 10
695.4609798631097
 20
247.8185748818996
 10
695.4098890250097
 20
247.7181414321997
 10
695.3604196162096
 20
247.6168277563996
 10
695.3125767859096
 20
247.5145827191997
 10
695.2664065209096
 20
247.4114390910996
 10
695.2219332224096
 20
247.3073841841996
 10
695.1791820843096
 20
247.2024044257996
 10
695.1381850686097
 20
247.0965007673997
 10
695.0989779021097
 20
246.9896841187996
 10
695.0616175366096
 20
246.8820298104996
 10
695.0261063761097
 20
246.7734585742996
 10
694.9924107512097
 20
246.6637464632996
 10
694.9605865598097
 20
246.5529290314996
 10
694.9306610699097
 20
246.4409672359997
 10
694.9025886273098
 20
246.3275154022996
 10
694.8764018168096
 20
246.2124617778997
 10
694.8521859761097
 20
246.0959162833995
 10
694.8299953390097
 20
245.9778620556997
 10
694.8098865460097
 20
245.8582866088997
 10
694.7919238497097
 20
245.7372210252996
 10
694.7761725756097
 20
245.6147191904996
 10
694.7626886915097
 20
245.4907724791997
 10
694.7515350813097
 20
245.3654336035996
 10
694.7427781597097
 20
245.2388566546997
 10
694.7364679736097
 20
245.1110390340996
 10
694.7326587229097
 20
244.9820577625995
 10
694.7314012023097
 20
244.8521959008996
 10
694.7327313419097
 20
244.7215126992996
 10
694.7366843798097
 20
244.5900541480996
 10
694.7432822751097
 20
244.4580912008996
 10
694.7525321641096
 20
244.3258609968996
 10
694.7644586096096
 20
244.1932526062997
 10
694.7791050859096
 20
244.0600094672995
 10
694.7965107505097
 20
243.9260427402996
 10
694.8166770706097
 20
243.7915531318996
 10
694.8395948992097
 20
243.6567199599997
 10
694.8652849410096
 20
243.5215100095996
 10
694.8937297079096
 20
243.3860839482995
 10
694.9248275381097
 20
243.2509075145996
 10
694.9585349039096
 20
243.1160958450996
 10
694.9948484168096
 20
242.9816046914996
 10
695.0336919972096
 20
242.8476462147996
 10
695.0750057070097
 20
242.7143302996997
 10
695.1187827572097
 20
242.5815858202997
 10
695.1650186660097
 20
242.4493521594996
 10
695.2136421945096
 20
242.3177584958996
 10
695.2646576317097
 20
242.1867147506996
 10
695.3181960292097
 20
242.0558329133996
 10
695.3742506381097
 20
241.9251041928997
 10
695.4327954917096
 20
241.7945595166997
 10
695.4939645213097
 20
241.6638862777996
 10
695.5577258231096
 20
241.5331503620996
 10
695.6240903131097
 20
241.4023204187996
 10
695.6932875692095
 20
241.2709573506996
 10
695.7653079519096
 20
241.1391086499997
 10
695.8401578367096
 20
241.0067817541996
 10
695.9181260885096
 20
240.8735017219996
 10
695.9993996105097
 20
240.7390122439996
 10
696.0838034462097
 20
240.6036523309996
 10
696.1710917669097
 20
240.4678431776996
 10
696.2610887633097
 20
240.3318696304996
 10
696.3539508180097
 20
240.1955003992996
 10
696.4499341152097
 20
240.0583835689996
 10
696.5489330238097
 20
239.9206952119996
 10
696.6510322698098
 20
239.7823327874996
 10
696.7568048743096
 20
239.6425597334996
 10
696.8666714385096
 20
239.5008962689995
 10
696.9802065718097
 20
239.3579502921997
 10
697.0966973077097
 20
239.2146126178996
 10
697.2159747466097
 20
239.0710628920996
 10
697.3381606365096
 20
238.9271566669996
 10
697.4629399622097
 20
238.7832572426996
 10
697.5898589119097
 20
238.6398479086996
 10
697.7193216029097
 20
238.4964270295997
 10
697.8523148671097
 20
238.3518969818996
 10
697.9885784371097
 20
238.2065507239996
 10
698.1283636621096
 20
238.0601195043996
 10
698.2734940364096
 20
237.9107378601996
 10
698.4235385336096
 20
237.7589141090996
 10
698.5789667267097
 20
237.6042164016997
 10
698.7430556123097
 20
237.4434898173996
 10
698.9171433951096
 20
237.2755979030996
 10
699.0999976266096
 20
237.1018511062996
 10
699.2910563684097
 20
236.9228048236996
 10
699.4903553066096
 20
236.7384323714996
 10
699.6978396534098
 20
236.5488573013996
 10
699.9127477108097
 20
236.3548155495996
 10
700.1338383017095
 20
236.1574044370997
 10
700.3622260942097
 20
235.9555704979996
 10
700.8524363280097
 20
235.5282869962996
  0
LINE
  5
7DD
330
210
100
AcDbEntity
  8
02___PRT_ALL_AXES
  6
Continuous
 62
     7
100
AcDbLine
 10
702.7477991651096
 20
253.9311848460997
 30
0.0
 11
702.4215149428096
 21
253.7554464214995
 31
0.0
  0
LINE
  5
7DE
330
210
100
AcDbEntity
  8
02___PRT_ALL_AXES
  6
Continuous
 62
     7
100
AcDbLine
 10
703.0813394528097
 20
254.1071896454996
 30
0.0
 11
702.7477991651096
 21
253.9311848460997
 31
0.0
  0
LINE
  5
7DF
330
210
100
AcDbEntity
  8
02___PRT_ALL_AXES
  6
Continuous
 62
     7
100
AcDbLine
 10
703.4222295957097
 20
254.2835043423996
 30
0.0
 11
703.0813394528097
 21
254.1071896454996
 31
0.0
  0
LINE
  5
7E0
330
210
100
AcDbEntity
  8
02___PRT_ALL_AXES
  6
Continuous
 62
     7
100
AcDbLine
 10
703.7705397060096
 20
254.4601574826996
 30
0.0
 11
703.4222295957097
 21
254.2835043423996
 31
0.0
  0
LWPOLYLINE
  5
7E1
330
210
100
AcDbEntity
  8
02___PRT_ALL_AXES
  6
Continuous
 62
     7
100
AcDbPolyline
 90
        3
 70
     0
 43
0.0
 10
704.3071407122097
 20
254.7258626055997
 10
704.1263693579097
 20
254.6371899687996
 10
703.7705397060096
 20
254.4601574826996
  0
LINE
  5
7E2
330
210
100
AcDbEntity
  8
02___PRT_ALL_AXES
  6
Continuous
 62
     7
100
AcDbLine
 10
704.6744443839097
 20
254.9035340313996
 30
0.0
 11
704.3071407122097
 21
254.7258626055997
 31
0.0
  0
LINE
  5
7E3
330
210
100
AcDbEntity
  8
02___PRT_ALL_AXES
  6
Continuous
 62
     7
100
AcDbLine
 10
705.0495172538096
 20
255.0816682581997
 30
0.0
 11
704.6744443839097
 21
254.9035340313996
 31
0.0
  0
LINE
  5
7E4
330
210
100
AcDbEntity
  8
02___PRT_ALL_AXES
  6
Continuous
 62
     7
100
AcDbLine
 10
705.4324286864096
 20
255.2602799014995
 30
0.0
 11
705.0495172538096
 21
255.0816682581997
 31
0.0
  0
LINE
  5
7E5
330
210
100
AcDbEntity
  8
02___PRT_ALL_AXES
  6
Continuous
 62
     7
100
AcDbLine
 10
705.8232714161097
 20
255.4393929814996
 30
0.0
 11
705.4324286864096
 21
255.2602799014995
 31
0.0
  0
LINE
  5
7E6
330
210
100
AcDbEntity
  8
02___PRT_ALL_AXES
  6
Continuous
 62
     7
100
AcDbLine
 10
706.2221366453096
 20
255.6190289337997
 30
0.0
 11
705.8232714161097
 21
255.4393929814996
 31
0.0
  0
LINE
  5
7E7
330
210
100
AcDbEntity
  8
02___PRT_ALL_AXES
  6
Continuous
 62
     7
100
AcDbLine
 10
706.6290874884097
 20
255.7991951012996
 30
0.0
 11
706.2221366453096
 21
255.6190289337997
 31
0.0
  0
LINE
  5
7E8
330
210
100
AcDbEntity
  8
02___PRT_ALL_AXES
  6
Continuous
 62
     7
100
AcDbLine
 10
707.0442106393097
 20
255.9799081393996
 30
0.0
 11
706.6290874884097
 21
255.7991951012996
 31
0.0
  0
LINE
  5
7E9
330
210
100
AcDbEntity
  8
02___PRT_ALL_AXES
  6
Continuous
 62
     7
100
AcDbLine
 10
707.4675906573097
 20
256.1611822679996
 30
0.0
 11
707.0442106393097
 21
255.9799081393996
 31
0.0
  0
LINE
  5
7EA
330
210
100
AcDbEntity
  8
02___PRT_ALL_AXES
  6
Continuous
 62
     7
100
AcDbLine
 10
707.8992823901096
 20
256.3430178733996
 30
0.0
 11
707.4675906573097
 21
256.1611822679996
 31
0.0
  0
LINE
  5
7EB
330
210
100
AcDbEntity
  8
02___PRT_ALL_AXES
  6
Continuous
 62
     7
100
AcDbLine
 10
708.3393643265097
 20
256.5254244718996
 30
0.0
 11
707.8992823901096
 21
256.3430178733996
 31
0.0
  0
LINE
  5
7EC
330
210
100
AcDbEntity
  8
02___PRT_ALL_AXES
  6
Continuous
 62
     7
100
AcDbLine
 10
708.7879121524097
 20
256.7084092196997
 30
0.0
 11
708.3393643265097
 21
256.5254244718996
 31
0.0
  0
LINE
  5
7ED
330
210
100
AcDbEntity
  8
02___PRT_ALL_AXES
  6
Continuous
 62
     7
100
AcDbLine
 10
709.2449700144097
 20
256.8919655672996
 30
0.0
 11
708.7879121524097
 21
256.7084092196997
 31
0.0
  0
LINE
  5
7EE
330
210
100
AcDbEntity
  8
02___PRT_ALL_AXES
  6
Continuous
 62
     7
100
AcDbLine
 10
709.7106053264097
 20
257.0760957327997
 30
0.0
 11
709.2449700144097
 21
256.8919655672996
 31
0.0
  0
LINE
  5
7EF
330
210
100
AcDbEntity
  8
02___PRT_ALL_AXES
  6
Continuous
 62
     7
100
AcDbLine
 10
710.1848831842096
 20
257.2608000757996
 30
0.0
 11
709.7106053264097
 21
257.0760957327997
 31
0.0
  0
LINE
  5
7F0
330
210
100
AcDbEntity
  8
02___PRT_ALL_AXES
  6
Continuous
 62
     7
100
AcDbLine
 10
710.6678433840097
 20
257.4460682333996
 30
0.0
 11
710.1848831842096
 21
257.2608000757996
 31
0.0
  0
LINE
  5
7F1
330
210
100
AcDbEntity
  8
02___PRT_ALL_AXES
  6
Continuous
 62
     7
100
AcDbLine
 10
711.1596146896097
 20
257.6319203334996
 30
0.0
 11
710.6678433840097
 21
257.4460682333996
 31
0.0
  0
LWPOLYLINE
  5
7F2
330
210
100
AcDbEntity
  8
02___PRT_ALL_AXES
  6
Continuous
 62
     7
100
AcDbPolyline
 90
        3
 70
     0
 43
0.0
 10
711.9140751485097
 20
257.9118303514996
 10
711.6603329288097
 20
257.8183757989996
 10
711.1596146896097
 20
257.6319203334996
  0
LINE
  5
7F3
330
210
100
AcDbEntity
  8
02___PRT_ALL_AXES
  6
Continuous
 62
     7
100
AcDbLine
 10
712.4284404289096
 20
258.0992156157996
 30
0.0
 11
711.9140751485097
 21
257.9118303514996
 31
0.0
  0
LINE
  5
7F4
330
210
100
AcDbEntity
  8
02___PRT_ALL_AXES
  6
Continuous
 62
     7
100
AcDbLine
 10
712.9520525359097
 20
258.2872359497997
 30
0.0
 11
712.4284404289096
 21
258.0992156157996
 31
0.0
  0
LINE
  5
7F5
330
210
100
AcDbEntity
  8
02___PRT_ALL_AXES
  6
Continuous
 62
     7
100
AcDbLine
 10
713.4850471406097
 20
258.4759091740996
 30
0.0
 11
712.9520525359097
 21
258.2872359497997
 31
0.0
  0
LINE
  5
7F6
330
210
100
AcDbEntity
  8
02___PRT_ALL_AXES
  6
Continuous
 62
     7
100
AcDbLine
 10
714.3024137061097
 20
258.7601761214996
 30
0.0
 11
713.4850471406097
 21
258.4759091740996
 31
0.0
  0
LINE
  5
7F7
330
210
100
AcDbEntity
  8
02___PRT_ALL_AXES
  6
Continuous
 62
     7
100
AcDbLine
 10
715.1416027202096
 20
259.0459909254996
 30
0.0
 11
714.3024137061097
 21
258.7601761214996
 31
0.0
  0
LINE
  5
7F8
330
210
100
AcDbEntity
  8
02___PRT_ALL_AXES
  6
Continuous
 62
     7
100
AcDbLine
 10
716.0030374370096
 20
259.3333986358996
 30
0.0
 11
715.1416027202096
 21
259.0459909254996
 31
0.0
  0
LINE
  5
7F9
330
210
100
AcDbEntity
  8
02___PRT_ALL_AXES
  6
Continuous
 62
     7
100
AcDbLine
 10
716.8871362628096
 20
259.6224424930996
 30
0.0
 11
716.0030374370096
 21
259.3333986358996
 31
0.0
  0
LINE
  5
7FA
330
210
100
AcDbEntity
  8
02___PRT_ALL_AXES
  6
Continuous
 62
     7
100
AcDbLine
 10
717.7943098247096
 20
259.9131635192997
 30
0.0
 11
716.8871362628096
 21
259.6224424930996
 31
0.0
  0
LINE
  5
7FB
330
210
100
AcDbEntity
  8
02___PRT_ALL_AXES
  6
Continuous
 62
     7
100
AcDbLine
 10
718.7250671791097
 20
260.2056280532996
 30
0.0
 11
717.7943098247096
 21
259.9131635192997
 31
0.0
  0
LINE
  5
7FC
330
210
100
AcDbEntity
  8
02___PRT_ALL_AXES
  6
Continuous
 62
     7
100
AcDbLine
 10
719.6800438201096
 20
260.4999131049997
 30
0.0
 11
718.7250671791097
 21
260.2056280532996
 31
0.0
  0
LINE
  5
7FD
330
210
100
AcDbEntity
  8
02___PRT_ALL_AXES
  6
Continuous
 62
     7
100
AcDbLine
 10
720.6598743281097
 20
260.7960856444996
 30
0.0
 11
719.6800438201096
 21
260.4999131049997
 31
0.0
  0
LINE
  5
7FE
330
210
100
AcDbEntity
  8
02___PRT_ALL_AXES
  6
Continuous
 62
     7
100
AcDbLine
 10
721.6651758646096
 20
261.0942059796996
 30
0.0
 11
720.6598743281097
 21
260.7960856444996
 31
0.0
  0
LINE
  5
7FF
330
210
100
AcDbEntity
  8
02___PRT_ALL_AXES
  6
Continuous
 62
     7
100
AcDbLine
 10
722.6965717720097
 20
261.3943355016996
 30
0.0
 11
721.6651758646096
 21
261.0942059796996
 31
0.0
  0
LINE
  5
800
330
210
100
AcDbEntity
  8
02___PRT_ALL_AXES
  6
Continuous
 62
     7
100
AcDbLine
 10
723.3987871635097
 20
261.5955151287997
 30
0.0
 11
722.6965717720097
 21
261.3943355016996
 31
0.0
  0
LWPOLYLINE
  5
801
330
210
100
AcDbEntity
  8
02___PRT_ALL_AXES
  6
Continuous
 62
     7
100
AcDbPolyline
 90
       13
 70
     0
 43
0.0
 10
739.2875881272097
 20
197.7713516147996
 10
745.5537162771097
 20
190.2996726669996
 10
752.0149072200097
 20
182.0983598298996
 10
757.9632501940096
 20
174.0402976539995
 10
763.3887390596096
 20
166.2013911064995
 10
768.3506752767096
 20
158.5572408511996
 10
772.9664563484098
 20
150.9675808452996
 10
777.2510385186096
 20
143.4311399228996
 10
781.2099361015098
 20
135.9594837764995
 10
784.9236794556097
 20
128.4023294520996
 10
788.4094161501097
 20
120.6964820616996
 10
791.6340661453095
 20
112.8811485885997
 10
794.0678562091098
 20
106.4134797898996
  0
LWPOLYLINE
  5
802
330
210
100
AcDbEntity
  8
02___PRT_ALL_AXES
  6
Continuous
 62
     7
100
AcDbPolyline
 90
       10
 70
     0
 43
0.0
 10
701.3268096025097
 20
235.1208538472996
 10
705.3006547875098
 20
231.7358784324996
 10
709.9787481257096
 20
227.6136296915996
 10
714.5588396633097
 20
223.4255385182996
 10
719.0419553649096
 20
219.1716087086996
 10
723.4267496213097
 20
214.8539080878996
 10
727.7099480278097
 20
210.4767874419996
 10
731.8907658706097
 20
206.0424927290997
 10
735.9704560174098
 20
201.5509887857996
 10
739.2868881105097
 20
197.7721617235996
  0
LINE
  5
803
330
210
100
AcDbEntity
  8
02___PRT_ALL_AXES
  6
Continuous
 62
     7
100
AcDbLine
 10
700.8524363280097
 20
235.5282869962996
 30
0.0
 11
701.3263579860097
 21
235.1208549362996
 31
0.0
  0
LINE
  5
804
330
210
100
AcDbEntity
  8
0
  6
Continuous
 62
     7
100
AcDbLine
 10
1043.97998223241
 20
105.0910446263996
 30
0.0
 11
795.9501289204097
 21
105.0910446263996
 31
0.0
  0
LINE
  5
805
330
210
100
AcDbEntity
  8
06___PRT_ALL_SURFS
  6
Continuous
 62
     7
100
AcDbLine
 10
1139.07781828411
 20
235.5282869962996
 30
0.0
 11
1139.568028517909
 21
235.9555704979996
 31
0.0
  0
LINE
  5
806
330
210
100
AcDbEntity
  8
06___PRT_ALL_SURFS
  6
Continuous
 62
     7
100
AcDbLine
 10
1138.60389662611
 20
235.1208549362996
 30
0.0
 11
1139.07781828411
 21
235.5282869962996
 31
0.0
  0
LINE
  5
807
330
210
100
AcDbEntity
  8
02___PRT_ALL_AXES
  6
Continuous
 62
     7
100
AcDbLine
 10
1138.554478058309
 20
235.0793613773997
 30
0.0
 11
1138.603445009509
 21
235.1208538472996
 31
0.0
  0
LWPOLYLINE
  5
808
330
210
100
AcDbEntity
  8
06___PRT_ALL_SURFS
  6
Continuous
 62
     7
100
AcDbPolyline
 90
      155
 70
     0
 43
0.0
 10
1139.568028517909
 20
235.9555704979996
 10
1139.79641631031
 20
236.1574044370997
 10
1140.01750690131
 20
236.3548155495996
 10
1140.23241495871
 20
236.5488573013996
 10
1140.439899305409
 20
236.7384323714996
 10
1140.639198243709
 20
236.9228048236996
 10
1140.830256985509
 20
237.1018511062996
 10
1141.013111216909
 20
237.2755979030996
 10
1141.187198999809
 20
237.4434898173996
 10
1141.35128788541
 20
237.6042164016997
 10
1141.506716078509
 20
237.7589141090996
 10
1141.656760575609
 20
237.9107378601996
 10
1141.801890949909
 20
238.0601195043996
 10
1141.94167617491
 20
238.2065507239996
 10
1142.077939744909
 20
238.3518969818996
 10
1142.210933009209
 20
238.4964270295997
 10
1142.34039570021
 20
238.6398479086996
 10
1142.467314649809
 20
238.7832572426996
 10
1142.592093975509
 20
238.9271566669996
 10
1142.71427986541
 20
239.0710628920996
 10
1142.83355730431
 20
239.2146126178996
 10
1142.950048040209
 20
239.3579502921997
 10
1143.06358317361
 20
239.5008962689995
 10
1143.17344973781
 20
239.6425597334996
 10
1143.27922234221
 20
239.7823327874996
 10
1143.38132158821
 20
239.9206952119996
 10
1143.48032049691
 20
240.0583835689996
 10
1143.576303794009
 20
240.1955003992996
 10
1143.66916584881
 20
240.3318696304996
 10
1143.75916284511
 20
240.4678431776996
 10
1143.84645116581
 20
240.6036523309996
 10
1143.93085500151
 20
240.7390122439996
 10
1144.01212852351
 20
240.8735017219996
 10
1144.090096775309
 20
241.0067817541996
 10
1144.16494666011
 20
241.1391086499997
 10
1144.23696704281
 20
241.2709573506996
 10
1144.306164299009
 20
241.4023204187996
 10
1144.372528788909
 20
241.5331503620996
 10
1144.43629009071
 20
241.6638862777996
 10
1144.49745912031
 20
241.7945595166997
 10
1144.55600397401
 20
241.9251041928997
 10
1144.61205858291
 20
242.0558329133996
 10
1144.665596980309
 20
242.1867147505996
 10
1144.716612417509
 20
242.3177584958996
 10
1144.76523594611
 20
242.4493521594996
 10
1144.81147185491
 20
242.5815858202997
 10
1144.85524890501
 20
242.7143302996997
 10
1144.89656261491
 20
242.8476462147996
 10
1144.93540619531
 20
242.9816046914996
 10
1144.97171970821
 20
243.1160958450996
 10
1145.005427073909
 20
243.2509075145996
 10
1145.036524904109
 20
243.3860839482995
 10
1145.06496967101
 20
243.5215100095996
 10
1145.090659712809
 20
243.6567199599997
 10
1145.113577541409
 20
243.7915531318996
 10
1145.13374386161
 20
243.9260427402996
 10
1145.15114952621
 20
244.0600094672995
 10
1145.165796002409
 20
244.1932526062997
 10
1145.177722447909
 20
244.3258609968996
 10
1145.186972336909
 20
244.4580912008996
 10
1145.19357023221
 20
244.5900541480996
 10
1145.19752327011
 20
244.7215126992996
 10
1145.198853409809
 20
244.8521959008996
 10
1145.19759588911
 20
244.9820577625995
 10
1145.193786638509
 20
245.1110390340996
 10
1145.187476452409
 20
245.2388566546997
 10
1145.17871953071
 20
245.3654336035996
 10
1145.16756592051
 20
245.4907724791997
 10
1145.15408203651
 20
245.6147191904996
 10
1145.138330762409
 20
245.7372210252996
 10
1145.120368066109
 20
245.8582866088997
 10
1145.100259273109
 20
245.9778620556997
 10
1145.07806863601
 20
246.0959162833995
 10
1145.05385279531
 20
246.2124617778997
 10
1145.027665984809
 20
246.3275154022996
 10
1144.99959354221
 20
246.4409672359997
 10
1144.969668052209
 20
246.5529290314996
 10
1144.937843860909
 20
246.6637464632996
 10
1144.90414823601
 20
246.7734585742996
 10
1144.868637075509
 20
246.8820298104996
 10
1144.831276710009
 20
246.9896841187996
 10
1144.79206954351
 20
247.0965007673997
 10
1144.75107252771
 20
247.2024044257996
 10
1144.70832138971
 20
247.3073841841996
 10
1144.66384809121
 20
247.4114390910996
 10
1144.61767782611
 20
247.5145827191997
 10
1144.56983499591
 20
247.6168277563996
 10
1144.520365587009
 20
247.7181414321997
 10
1144.46927474891
 20
247.8185748818996
 10
1144.416517808409
 20
247.9182639978997
 10
1144.362160910209
 20
248.0171279662997
 10
1144.306178870909
 20
248.1152669878996
 10
1144.248370587009
 20
248.2130773438996
 10
1144.188672931109
 20
248.3106830342997
 10
1144.12716684561
 20
248.4079678121997
 10
1144.06384950181
 20
248.5049561045996
 10
1143.99872461611
 20
248.6016597500996
 10
1143.93180484601
 20
248.6980764571997
 10
1143.86309921841
 20
248.7942091710996
 10
1143.79261555161
 20
248.8900621176996
 10
1143.72035982591
 20
248.9856414660997
 10
1143.64633755291
 20
249.0809533466996
 10
1143.570552172309
 20
249.1760058510996
 10
1143.493011054809
 20
249.2708015503996
 10
1143.41372505271
 20
249.3653387047995
 10
1143.33268787061
 20
249.4596355033996
 10
1143.24991413161
 20
249.5536849291997
 10
1143.165446244109
 20
249.6474492650996
 10
1143.079301810309
 20
249.7409202669996
 10
1142.991469842209
 20
249.8341205286996
 10
1142.901949991709
 20
249.9270598980996
 10
1142.810746525509
 20
250.0197428573996
 10
1142.717859265609
 20
250.1121779870996
 10
1142.62328021521
 20
250.2043807997996
 10
1142.526990995709
 20
250.2963754685997
 10
1142.429011279209
 20
250.3881490511996
 10
1142.32939052691
 20
250.4796625464995
 10
1142.228137273709
 20
250.5709181006996
 10
1142.125251175809
 20
250.6619290187996
 10
1142.020769978709
 20
250.7526755145997
 10
1141.914715156909
 20
250.8431531813997
 10
1141.807076958009
 20
250.9333840786997
 10
1141.697846105609
 20
251.0233885845996
 10
1141.58702737431
 20
251.1131746310997
 10
1141.474625296209
 20
251.2027500146996
 10
1141.360629188709
 20
251.2921340502996
 10
1141.245042879809
 20
251.3813339069997
 10
1141.12787002131
 20
251.4703566154996
 10
1141.00909875241
 20
251.5592204643996
 10
1140.88873212931
 20
251.6479319020997
 10
1140.766773093909
 20
251.7364972371996
 10
1140.643208820609
 20
251.8249337694996
 10
1140.51804175801
 20
251.9132472664995
 10
1140.391274298709
 20
252.0014433551996
 10
1140.262892853109
 20
252.0895383835997
 10
1140.13289878941
 20
252.1775378972995
 10
1140.001294714509
 20
252.2654464558996
 10
1139.86806839151
 20
252.3532782293996
 10
1139.733228381409
 20
252.4410333359996
 10
1139.59676970131
 20
252.5287206537996
 10
1139.458659370109
 20
252.6163663891996
 10
1139.318899125409
 20
252.7039733445996
 10
1139.17748713541
 20
252.7915452789996
 10
1139.034384165809
 20
252.8791084367997
 10
1138.88958291111
 20
252.9666686874997
 10
1138.74308766461
 20
253.0542247825996
 10
1138.594875748309
 20
253.1417914168995
 10
1138.44494573211
 20
253.2293703207996
 10
1138.293295316709
 20
253.3169636747996
 10
1138.139899567809
 20
253.4045864502996
 10
1137.984756949809
 20
253.4922398629996
 10
1137.827864056809
 20
253.5799261560996
 10
1137.669192508409
 20
253.6676612504996
 10
1137.508739669209
 20
253.7554464214995
 10
1137.182455446909
 20
253.9311848460997
  0
LINE
  5
809
330
210
100
AcDbEntity
  8
02___PRT_ALL_AXES
  6
Continuous
 62
     7
100
AcDbLine
 10
766.5061948002096
 20
270.9339293985996
 30
0.0
 11
763.2579350697096
 21
270.3753582954996
 31
0.0
  0
LINE
  5
80A
330
210
100
AcDbEntity
  8
02___PRT_ALL_AXES
  6
Continuous
 62
     7
100
AcDbLine
 10
769.8527428271098
 20
271.4908983029995
 30
0.0
 11
766.5061948002096
 21
270.9339293985996
 31
0.0
  0
LINE
  5
80B
330
210
100
AcDbEntity
  8
02___PRT_ALL_AXES
  6
Continuous
 62
     7
100
AcDbLine
 10
773.2980887083097
 20
272.0453953614996
 30
0.0
 11
769.8527428271098
 21
271.4908983029995
 31
0.0
  0
LINE
  5
80C
330
210
100
AcDbEntity
  8
02___PRT_ALL_AXES
  6
Continuous
 62
     7
100
AcDbLine
 10
776.8499915061097
 20
272.5976744332996
 30
0.0
 11
773.2980887083097
 21
272.0453953614996
 31
0.0
  0
LINE
  5
80D
330
210
100
AcDbEntity
  8
02___PRT_ALL_AXES
  6
Continuous
 62
     7
100
AcDbLine
 10
780.5156324043096
 20
273.1477652756996
 30
0.0
 11
776.8499915061097
 21
272.5976744332996
 31
0.0
  0
LINE
  5
80E
330
210
100
AcDbEntity
  8
02___PRT_ALL_AXES
  6
Continuous
 62
     7
100
AcDbLine
 10
784.3004394474096
 20
273.6953675574996
 30
0.0
 11
780.5156324043096
 21
273.1477652756996
 31
0.0
  0
LINE
  5
80F
330
210
100
AcDbEntity
  8
02___PRT_ALL_AXES
  6
Continuous
 62
     7
100
AcDbLine
 10
788.2072057503096
 20
274.2397224855996
 30
0.0
 11
784.3004394474096
 21
273.6953675574996
 31
0.0
  0
LINE
  5
810
330
210
100
AcDbEntity
  8
02___PRT_ALL_AXES
  6
Continuous
 62
     7
100
AcDbLine
 10
792.2388657829096
 20
274.7799358992996
 30
0.0
 11
788.2072057503096
 21
274.2397224855996
 31
0.0
  0
LINE
  5
811
330
210
100
AcDbEntity
  8
02___PRT_ALL_AXES
  6
Continuous
 62
     7
100
AcDbLine
 10
796.3989123665096
 20
275.3150228881997
 30
0.0
 11
792.2388657829096
 21
274.7799358992996
 31
0.0
  0
LINE
  5
812
330
210
100
AcDbEntity
  8
02___PRT_ALL_AXES
  6
Continuous
 62
     7
100
AcDbLine
 10
800.6899486895097
 20
275.8439299074996
 30
0.0
 11
796.3989123665096
 21
275.3150228881997
 31
0.0
  0
LINE
  5
813
330
210
100
AcDbEntity
  8
02___PRT_ALL_AXES
  6
Continuous
 62
     7
100
AcDbLine
 10
805.1134956724096
 20
276.3655085154996
 30
0.0
 11
800.6899486895097
 21
275.8439299074996
 31
0.0
  0
LINE
  5
814
330
210
100
AcDbEntity
  8
02___PRT_ALL_AXES
  6
Continuous
 62
     7
100
AcDbLine
 10
809.6713468711095
 20
276.8784447515997
 30
0.0
 11
805.1134956724096
 21
276.3655085154996
 31
0.0
  0
LINE
  5
815
330
210
100
AcDbEntity
  8
02___PRT_ALL_AXES
  6
Continuous
 62
     7
100
AcDbLine
 10
814.3651023806096
 20
277.3812188170996
 30
0.0
 11
809.6713468711095
 21
276.8784447515997
 31
0.0
  0
LINE
  5
816
330
210
100
AcDbEntity
  8
02___PRT_ALL_AXES
  6
Continuous
 62
     7
100
AcDbLine
 10
819.1943838450097
 20
277.8722607948996
 30
0.0
 11
814.3651023806096
 21
277.3812188170996
 31
0.0
  0
LINE
  5
817
330
210
100
AcDbEntity
  8
02___PRT_ALL_AXES
  6
Continuous
 62
     7
100
AcDbLine
 10
824.1577891451097
 20
278.3498618693995
 30
0.0
 11
819.1943838450097
 21
277.8722607948996
 31
0.0
  0
LINE
  5
818
330
210
100
AcDbEntity
  8
02___PRT_ALL_AXES
  6
Continuous
 62
     7
100
AcDbLine
 10
828.2236162692097
 20
278.7209074795996
 30
0.0
 11
824.1577891451097
 21
278.3498618693995
 31
0.0
  0
LINE
  5
819
330
210
100
AcDbEntity
  8
02___PRT_ALL_AXES
  6
Continuous
 62
     7
100
AcDbLine
 10
832.3740969896096
 20
279.0810609150995
 30
0.0
 11
828.2236162692097
 21
278.7209074795996
 31
0.0
  0
LINE
  5
81A
330
210
100
AcDbEntity
  8
02___PRT_ALL_AXES
  6
Continuous
 62
     7
100
AcDbLine
 10
836.6157051625096
 20
279.4299667920997
 30
0.0
 11
832.3740969896096
 21
279.0810609150995
 31
0.0
  0
LINE
  5
81B
330
210
100
AcDbEntity
  8
02___PRT_ALL_AXES
  6
Continuous
 62
     7
100
AcDbLine
 10
840.9564571067097
 20
279.7673455049996
 30
0.0
 11
836.6157051625096
 21
279.4299667920997
 31
0.0
  0
LINE
  5
81C
330
210
100
AcDbEntity
  8
02___PRT_ALL_AXES
  6
Continuous
 62
     7
100
AcDbLine
 10
845.3911744408097
 20
280.0918874752996
 30
0.0
 11
840.9564571067097
 21
279.7673455049996
 31
0.0
  0
LINE
  5
81D
330
210
100
AcDbEntity
  8
02___PRT_ALL_AXES
  6
Continuous
 62
     7
100
AcDbLine
 10
849.9145105064096
 20
280.4023648401996
 30
0.0
 11
845.3911744408097
 21
280.0918874752996
 31
0.0
  0
LINE
  5
81E
330
210
100
AcDbEntity
  8
02___PRT_ALL_AXES
  6
Continuous
 62
     7
100
AcDbLine
 10
854.5254911546097
 20
280.6977380201996
 30
0.0
 11
849.9145105064096
 21
280.4023648401996
 31
0.0
  0
LINE
  5
81F
330
210
100
AcDbEntity
  8
02___PRT_ALL_AXES
  6
Continuous
 62
     7
100
AcDbLine
 10
859.2232412738098
 20
280.9769781621996
 30
0.0
 11
854.5254911546097
 21
280.6977380201996
 31
0.0
  0
LINE
  5
820
330
210
100
AcDbEntity
  8
02___PRT_ALL_AXES
  6
Continuous
 62
     7
100
AcDbLine
 10
864.0067387516095
 20
281.2391137492997
 30
0.0
 11
859.2232412738098
 21
280.9769781621996
 31
0.0
  0
LINE
  5
821
330
210
100
AcDbEntity
  8
02___PRT_ALL_AXES
  6
Continuous
 62
     7
100
AcDbLine
 10
868.8753622644096
 20
281.4831654254996
 30
0.0
 11
864.0067387516095
 21
281.2391137492997
 31
0.0
  0
LINE
  5
822
330
210
100
AcDbEntity
  8
02___PRT_ALL_AXES
  6
Continuous
 62
     7
100
AcDbLine
 10
873.8304893782096
 20
281.7080900773997
 30
0.0
 11
868.8753622644096
 21
281.4831654254996
 31
0.0
  0
LINE
  5
823
330
210
100
AcDbEntity
  8
02___PRT_ALL_AXES
  6
Continuous
 62
     7
100
AcDbLine
 10
878.8736148985096
 20
281.9128922625996
 30
0.0
 11
873.8304893782096
 21
281.7080900773997
 31
0.0
  0
LINE
  5
824
330
210
100
AcDbEntity
  8
02___PRT_ALL_AXES
  6
Continuous
 62
     7
100
AcDbLine
 10
884.0055703887097
 20
282.0966307409997
 30
0.0
 11
878.8736148985096
 21
281.9128922625996
 31
0.0
  0
LINE
  5
825
330
210
100
AcDbEntity
  8
02___PRT_ALL_AXES
  6
Continuous
 62
     7
100
AcDbLine
 10
889.2243879277097
 20
282.2581578488996
 30
0.0
 11
884.0055703887097
 21
282.0966307409997
 31
0.0
  0
LINE
  5
826
330
210
100
AcDbEntity
  8
02___PRT_ALL_AXES
  6
Continuous
 62
     7
100
AcDbLine
 10
894.5249057059097
 20
282.3961182346997
 30
0.0
 11
889.2243879277097
 21
282.2581578488996
 31
0.0
  0
LINE
  5
827
330
210
100
AcDbEntity
  8
02___PRT_ALL_AXES
  6
Continuous
 62
     7
100
AcDbLine
 10
899.9008128045097
 20
282.5092388560996
 30
0.0
 11
894.5249057059097
 21
282.3961182346997
 31
0.0
  0
LINE
  5
828
330
210
100
AcDbEntity
  8
02___PRT_ALL_AXES
  6
Continuous
 62
     7
100
AcDbLine
 10
905.3454095977096
 20
282.5963803801997
 30
0.0
 11
899.9008128045097
 21
282.5092388560996
 31
0.0
  0
LINE
  5
829
330
210
100
AcDbEntity
  8
02___PRT_ALL_AXES
  6
Continuous
 62
     7
100
AcDbLine
 10
910.8512179237095
 20
282.6565476114996
 30
0.0
 11
905.3454095977096
 21
282.5963803801997
 31
0.0
  0
LINE
  5
82A
330
210
100
AcDbEntity
  8
02___PRT_ALL_AXES
  6
Continuous
 62
     7
100
AcDbLine
 10
916.4094879081099
 20
282.6889106541996
 30
0.0
 11
910.8512179237095
 21
282.6565476114996
 31
0.0
  0
LINE
  5
82B
330
210
100
AcDbEntity
  8
02___PRT_ALL_AXES
  6
Continuous
 62
     7
100
AcDbLine
 10
919.9651273060096
 20
282.6947310988996
 30
0.0
 11
916.4094879081099
 21
282.6889106541996
 31
0.0
  0
LINE
  5
82C
330
210
100
AcDbEntity
  8
06___PRT_ALL_SURFS
  6
Continuous
 62
     7
100
AcDbLine
 10
924.9147286323095
 20
282.6834647159996
 30
0.0
 11
919.9651273060096
 21
282.6947310988996
 31
0.0
  0
LINE
  5
82D
330
210
100
AcDbEntity
  8
06___PRT_ALL_SURFS
  6
Continuous
 62
     7
100
AcDbLine
 10
930.4608395767095
 20
282.6440825146997
 30
0.0
 11
924.9147286323095
 21
282.6834647159996
 31
0.0
  0
LINE
  5
82E
330
210
100
AcDbEntity
  8
06___PRT_ALL_SURFS
  6
Continuous
 62
     7
100
AcDbLine
 10
935.9519991563097
 20
282.5770882203997
 30
0.0
 11
930.4608395767095
 21
282.6440825146997
 31
0.0
  0
LINE
  5
82F
330
210
100
AcDbEntity
  8
06___PRT_ALL_SURFS
  6
Continuous
 62
     7
100
AcDbLine
 10
941.3801037655098
 20
282.4833526045996
 30
0.0
 11
935.9519991563097
 21
282.5770882203997
 31
0.0
  0
LINE
  5
830
330
210
100
AcDbEntity
  8
06___PRT_ALL_SURFS
  6
Continuous
 62
     7
100
AcDbLine
 10
946.7378675984095
 20
282.3639076196996
 30
0.0
 11
941.3801037655098
 21
282.4833526045996
 31
0.0
  0
LINE
  5
831
330
210
100
AcDbEntity
  8
06___PRT_ALL_SURFS
  6
Continuous
 62
     7
100
AcDbLine
 10
952.0184148814095
 20
282.2199345828997
 30
0.0
 11
946.7378675984095
 21
282.3639076196996
 31
0.0
  0
LINE
  5
832
330
210
100
AcDbEntity
  8
06___PRT_ALL_SURFS
  6
Continuous
 62
     7
100
AcDbLine
 10
957.2159672411096
 20
282.0527257912996
 30
0.0
 11
952.0184148814095
 21
282.2199345828997
 31
0.0
  0
LINE
  5
833
330
210
100
AcDbEntity
  8
06___PRT_ALL_SURFS
  6
Continuous
 62
     7
100
AcDbLine
 10
962.3257800494098
 20
281.8636283904996
 30
0.0
 11
957.2159672411096
 21
282.0527257912996
 31
0.0
  0
LINE
  5
834
330
210
100
AcDbEntity
  8
06___PRT_ALL_SURFS
  6
Continuous
 62
     7
100
AcDbLine
 10
967.3467150509095
 20
281.6537089538996
 30
0.0
 11
962.3257800494098
 21
281.8636283904996
 31
0.0
  0
LINE
  5
835
330
210
100
AcDbEntity
  8
06___PRT_ALL_SURFS
  6
Continuous
 62
     7
100
AcDbLine
 10
972.2800757979099
 20
281.4239061783997
 30
0.0
 11
967.3467150509095
 21
281.6537089538996
 31
0.0
  0
LINE
  5
836
330
210
100
AcDbEntity
  8
06___PRT_ALL_SURFS
  6
Continuous
 62
     7
100
AcDbLine
 10
977.1273973768098
 20
281.1752327332996
 30
0.0
 11
972.2800757979099
 21
281.4239061783997
 31
0.0
  0
LINE
  5
837
330
210
100
AcDbEntity
  8
06___PRT_ALL_SURFS
  6
Continuous
 62
     7
100
AcDbLine
 10
981.8895102796096
 20
280.9087360565996
 30
0.0
 11
977.1273973768098
 21
281.1752327332996
 31
0.0
  0
LINE
  5
838
330
210
100
AcDbEntity
  8
06___PRT_ALL_SURFS
  6
Continuous
 62
     7
100
AcDbLine
 10
986.5656632637096
 20
280.6253689705997
 30
0.0
 11
981.8895102796096
 21
280.9087360565996
 31
0.0
  0
LINE
  5
839
330
210
100
AcDbEntity
  8
06___PRT_ALL_SURFS
  6
Continuous
 62
     7
100
AcDbLine
 10
991.1548689693095
 20
280.3261172796997
 30
0.0
 11
986.5656632637096
 21
280.6253689705997
 31
0.0
  0
LINE
  5
83A
330
210
100
AcDbEntity
  8
06___PRT_ALL_SURFS
  6
Continuous
 62
     7
100
AcDbLine
 10
995.6560810523097
 20
280.0120361271996
 30
0.0
 11
991.1548689693095
 21
280.3261172796997
 31
0.0
  0
LINE
  5
83B
330
210
100
AcDbEntity
  8
06___PRT_ALL_SURFS
  6
Continuous
 62
     7
100
AcDbLine
 10
1000.06815766181
 20
279.6841433589996
 30
0.0
 11
995.6560810523097
 21
280.0120361271996
 31
0.0
  0
LINE
  5
83C
330
210
100
AcDbEntity
  8
06___PRT_ALL_SURFS
  6
Continuous
 62
     7
100
AcDbLine
 10
1004.383905153309
 20
279.3438106814996
 30
0.0
 11
1000.06815766181
 21
279.6841433589996
 31
0.0
  0
LINE
  5
83D
330
210
100
AcDbEntity
  8
06___PRT_ALL_SURFS
  6
Continuous
 62
     7
100
AcDbLine
 10
1008.60203549501
 20
278.9920658799996
 30
0.0
 11
1004.383905153309
 21
279.3438106814996
 31
0.0
  0
LINE
  5
83E
330
210
100
AcDbEntity
  8
06___PRT_ALL_SURFS
  6
Continuous
 62
     7
100
AcDbLine
 10
1012.73094275261
 20
278.6291367660997
 30
0.0
 11
1008.60203549501
 21
278.9920658799996
 31
0.0
  0
LINE
  5
83F
330
210
100
AcDbEntity
  8
06___PRT_ALL_SURFS
  6
Continuous
 62
     7
100
AcDbLine
 10
1016.77573300611
 20
278.2555143732996
 30
0.0
 11
1012.73094275261
 21
278.6291367660997
 31
0.0
  0
LINE
  5
840
330
210
100
AcDbEntity
  8
06___PRT_ALL_SURFS
  6
Continuous
 62
     7
100
AcDbLine
 10
1021.712545198109
 20
277.7750652708996
 30
0.0
 11
1016.77573300611
 21
278.2555143732996
 31
0.0
  0
LINE
  5
841
330
210
100
AcDbEntity
  8
06___PRT_ALL_SURFS
  6
Continuous
 62
     7
100
AcDbLine
 10
1026.514799475909
 20
277.2815508393996
 30
0.0
 11
1021.712545198109
 21
277.7750652708996
 31
0.0
  0
LINE
  5
842
330
210
100
AcDbEntity
  8
06___PRT_ALL_SURFS
  6
Continuous
 62
     7
100
AcDbLine
 10
1031.181268191709
 20
276.7766240913996
 30
0.0
 11
1026.514799475909
 21
277.2815508393996
 31
0.0
  0
LINE
  5
843
330
210
100
AcDbEntity
  8
06___PRT_ALL_SURFS
  6
Continuous
 62
     7
100
AcDbLine
 10
1035.712181753409
 20
276.2618358437996
 30
0.0
 11
1031.181268191709
 21
276.7766240913996
 31
0.0
  0
LINE
  5
844
330
210
100
AcDbEntity
  8
06___PRT_ALL_SURFS
  6
Continuous
 62
     7
100
AcDbLine
 10
1040.109076023409
 20
275.7386942208996
 30
0.0
 11
1035.712181753409
 21
276.2618358437996
 31
0.0
  0
LINE
  5
845
330
210
100
AcDbEntity
  8
06___PRT_ALL_SURFS
  6
Continuous
 62
     7
100
AcDbLine
 10
1044.37374151571
 20
275.2084707944996
 30
0.0
 11
1040.109076023409
 21
275.7386942208996
 31
0.0
  0
LINE
  5
846
330
210
100
AcDbEntity
  8
06___PRT_ALL_SURFS
  6
Continuous
 62
     7
100
AcDbLine
 10
1048.50789897311
 20
274.6722670739996
 30
0.0
 11
1044.37374151571
 21
275.2084707944996
 31
0.0
  0
LINE
  5
847
330
210
100
AcDbEntity
  8
06___PRT_ALL_SURFS
  6
Continuous
 62
     7
100
AcDbLine
 10
1052.514303077809
 20
274.1311513375996
 30
0.0
 11
1048.50789897311
 21
274.6722670739996
 31
0.0
  0
LINE
  5
848
330
210
100
AcDbEntity
  8
06___PRT_ALL_SURFS
  6
Continuous
 62
     7
100
AcDbLine
 10
1056.396413195809
 20
273.5860849396996
 30
0.0
 11
1052.514303077809
 21
274.1311513375996
 31
0.0
  0
LINE
  5
849
330
210
100
AcDbEntity
  8
06___PRT_ALL_SURFS
  6
Continuous
 62
     7
100
AcDbLine
 10
1060.15720571831
 20
273.0379224250996
 30
0.0
 11
1056.396413195809
 21
273.5860849396996
 31
0.0
  0
LINE
  5
84A
330
210
100
AcDbEntity
  8
06___PRT_ALL_SURFS
  6
Continuous
 62
     7
100
AcDbLine
 10
1063.799514261809
 20
272.4873926750996
 30
0.0
 11
1060.15720571831
 21
273.0379224250996
 31
0.0
  0
LINE
  5
84B
330
210
100
AcDbEntity
  8
06___PRT_ALL_SURFS
  6
Continuous
 62
     7
100
AcDbLine
 10
1067.32951192651
 20
271.9346793790996
 30
0.0
 11
1063.799514261809
 21
272.4873926750996
 31
0.0
  0
LINE
  5
84C
330
210
100
AcDbEntity
  8
06___PRT_ALL_SURFS
  6
Continuous
 62
     7
100
AcDbLine
 10
1070.754597384709
 20
271.3796930471997
 30
0.0
 11
1067.32951192651
 21
271.9346793790996
 31
0.0
  0
LINE
  5
84D
330
210
100
AcDbEntity
  8
06___PRT_ALL_SURFS
  6
Continuous
 62
     7
100
AcDbLine
 10
1074.08165403291
 20
270.8222989804996
 30
0.0
 11
1070.754597384709
 21
271.3796930471997
 31
0.0
  0
LINE
  5
84E
330
210
100
AcDbEntity
  8
06___PRT_ALL_SURFS
  6
Continuous
 62
     7
100
AcDbLine
 10
1076.67231954231
 20
270.3753582954996
 30
0.0
 11
1074.08165403291
 21
270.8222989804996
 31
0.0
  0
LINE
  5
84F
330
210
100
AcDbEntity
  8
02___PRT_ALL_AXES
  6
Continuous
 62
     7
100
AcDbLine
 10
1100.64266648321
 20
197.7713516127996
 30
0.0
 11
1100.643366501509
 21
197.7721617235996
 31
0.0
  0
LWPOLYLINE
  5
850
330
210
100
AcDbEntity
  8
06___PRT_ALL_SURFS
  6
Continuous
 62
     7
100
AcDbPolyline
 90
       10
 70
     0
 43
0.0
 10
1100.643366501509
 20
197.7721617235996
 10
1103.959798570609
 20
201.5509887588996
 10
1108.03948872381
 20
206.0424927099996
 10
1112.220306573409
 20
210.4767874306997
 10
1116.50350498711
 20
214.8539080842996
 10
1120.888299251109
 20
219.1716087124996
 10
1125.37141496071
 20
223.4255385293995
 10
1129.951506506709
 20
227.6136297097996
 10
1134.62959985361
 20
231.7358784576996
 10
1138.554478058309
 20
235.0793613773997
  0
LINE
  5
851
330
210
100
AcDbEntity
  8
02___PRT_ALL_AXES
  6
Continuous
 62
     7
100
AcDbLine
 10
724.4740416343097
 20
261.8988459428997
 30
0.0
 11
723.3987871635097
 21
261.5955151287997
 31
0.0
  0
LINE
  5
852
330
210
100
AcDbEntity
  8
02___PRT_ALL_AXES
  6
Continuous
 62
     7
100
AcDbLine
 10
725.5755321495097
 20
262.2039429163997
 30
0.0
 11
724.4740416343097
 21
261.8988459428997
 31
0.0
  0
LINE
  5
853
330
210
100
AcDbEntity
  8
02___PRT_ALL_AXES
  6
Continuous
 62
     7
100
AcDbLine
 10
726.7032508346097
 20
262.5107181035996
 30
0.0
 11
725.5755321495097
 21
262.2039429163997
 31
0.0
  0
LINE
  5
854
330
210
100
AcDbEntity
  8
02___PRT_ALL_AXES
  6
Continuous
 62
     7
100
AcDbLine
 10
727.8573995137096
 20
262.8191129992996
 30
0.0
 11
726.7032508346097
 21
262.5107181035996
 31
0.0
  0
LINE
  5
855
330
210
100
AcDbEntity
  8
02___PRT_ALL_AXES
  6
Continuous
 62
     7
100
AcDbLine
 10
729.4377613425097
 20
263.2327030747996
 30
0.0
 11
727.8573995137096
 21
262.8191129992996
 31
0.0
  0
LINE
  5
856
330
210
100
AcDbEntity
  8
02___PRT_ALL_AXES
  6
Continuous
 62
     7
100
AcDbLine
 10
731.0659129481097
 20
263.6488697180996
 30
0.0
 11
729.4377613425097
 21
263.2327030747996
 31
0.0
  0
LINE
  5
857
330
210
100
AcDbEntity
  8
02___PRT_ALL_AXES
  6
Continuous
 62
     7
100
AcDbLine
 10
732.7422526637096
 20
264.0674645650996
 30
0.0
 11
731.0659129481097
 21
263.6488697180996
 31
0.0
  0
LINE
  5
858
330
210
100
AcDbEntity
  8
02___PRT_ALL_AXES
  6
Continuous
 62
     7
100
AcDbLine
 10
734.4671156511097
 20
264.4883548319996
 30
0.0
 11
732.7422526637096
 21
264.0674645650996
 31
0.0
  0
LINE
  5
859
330
210
100
AcDbEntity
  8
02___PRT_ALL_AXES
  6
Continuous
 62
     7
100
AcDbLine
 10
736.2410736602097
 20
264.9114654613996
 30
0.0
 11
734.4671156511097
 21
264.4883548319996
 31
0.0
  0
LINE
  5
85A
330
210
100
AcDbEntity
  8
02___PRT_ALL_AXES
  6
Continuous
 62
     7
100
AcDbLine
 10
738.0657441310096
 20
265.3367791478996
 30
0.0
 11
736.2410736602097
 21
264.9114654613996
 31
0.0
  0
LINE
  5
85B
330
210
100
AcDbEntity
  8
02___PRT_ALL_AXES
  6
Continuous
 62
     7
100
AcDbLine
 10
739.9429153387098
 20
265.7642372931996
 30
0.0
 11
738.0657441310096
 21
265.3367791478996
 31
0.0
  0
LINE
  5
85C
330
210
100
AcDbEntity
  8
02___PRT_ALL_AXES
  6
Continuous
 62
     7
100
AcDbLine
 10
741.8743399906097
 20
266.1937846230996
 30
0.0
 11
739.9429153387098
 21
265.7642372931996
 31
0.0
  0
LINE
  5
85D
330
210
100
AcDbEntity
  8
02___PRT_ALL_AXES
  6
Continuous
 62
     7
100
AcDbLine
 10
743.8618555062096
 20
266.6253992503996
 30
0.0
 11
741.8743399906097
 21
266.1937846230996
 31
0.0
  0
LINE
  5
85E
330
210
100
AcDbEntity
  8
02___PRT_ALL_AXES
  6
Continuous
 62
     7
100
AcDbLine
 10
745.9073123484097
 20
267.0590780639995
 30
0.0
 11
743.8618555062096
 21
266.6253992503996
 31
0.0
  0
LINE
  5
85F
330
210
100
AcDbEntity
  8
02___PRT_ALL_AXES
  6
Continuous
 62
     7
100
AcDbLine
 10
748.0124856688097
 20
267.4948205574997
 30
0.0
 11
745.9073123484097
 21
267.0590780639995
 31
0.0
  0
LINE
  5
860
330
210
100
AcDbEntity
  8
02___PRT_ALL_AXES
  6
Continuous
 62
     7
100
AcDbLine
 10
750.1791904879096
 20
267.9326554579995
 30
0.0
 11
748.0124856688097
 21
267.4948205574997
 31
0.0
  0
LINE
  5
861
330
210
100
AcDbEntity
  8
02___PRT_ALL_AXES
  6
Continuous
 62
     7
100
AcDbLine
 10
752.4091943562097
 20
268.3726240125996
 30
0.0
 11
750.1791904879096
 21
267.9326554579995
 31
0.0
  0
LINE
  5
862
330
210
100
AcDbEntity
  8
02___PRT_ALL_AXES
  6
Continuous
 62
     7
100
AcDbLine
 10
754.7041096508096
 20
268.8147614189996
 30
0.0
 11
752.4091943562097
 21
268.3726240125996
 31
0.0
  0
LINE
  5
863
330
210
100
AcDbEntity
  8
02___PRT_ALL_AXES
  6
Continuous
 62
     7
100
AcDbLine
 10
757.6661311741097
 20
269.3703924962996
 30
0.0
 11
754.7041096508096
 21
268.8147614189996
 31
0.0
  0
LINE
  5
864
330
210
100
AcDbEntity
  8
02___PRT_ALL_AXES
  6
Continuous
 62
     7
100
AcDbLine
 10
760.7317188047097
 20
269.9282946377996
 30
0.0
 11
757.6661311741097
 21
269.3703924962996
 31
0.0
  0
LINE
  5
865
330
210
100
AcDbEntity
  8
02___PRT_ALL_AXES
  6
Continuous
 62
     7
100
AcDbLine
 10
763.2579350697096
 20
270.3753582954996
 30
0.0
 11
760.7317188047097
 21
269.9282946377996
 31
0.0
  0
LINE
  5
866
330
210
100
AcDbEntity
  8
06___PRT_ALL_SURFS
  6
Continuous
 62
     7
100
AcDbLine
 10
1079.819878563609
 20
269.8165972264995
 30
0.0
 11
1076.67231954231
 21
270.3753582954996
 31
0.0
  0
LINE
  5
867
330
210
100
AcDbEntity
  8
06___PRT_ALL_SURFS
  6
Continuous
 62
     7
100
AcDbLine
 10
1082.86486712691
 20
269.2590384100996
 30
0.0
 11
1079.819878563609
 21
269.8165972264995
 31
0.0
  0
LINE
  5
868
330
210
100
AcDbEntity
  8
06___PRT_ALL_SURFS
  6
Continuous
 62
     7
100
AcDbLine
 10
1085.806048180209
 20
268.7040206638997
 30
0.0
 11
1082.86486712691
 21
269.2590384100996
 31
0.0
  0
LINE
  5
869
330
210
100
AcDbEntity
  8
06___PRT_ALL_SURFS
  6
Continuous
 62
     7
100
AcDbLine
 10
1088.08459934291
 20
268.2624273030996
 30
0.0
 11
1085.806048180209
 21
268.7040206638997
 31
0.0
  0
LINE
  5
86A
330
210
100
AcDbEntity
  8
06___PRT_ALL_SURFS
  6
Continuous
 62
     7
100
AcDbLine
 10
1090.29859904721
 20
267.8230000213996
 30
0.0
 11
1088.08459934291
 21
268.2624273030996
 31
0.0
  0
LINE
  5
86B
330
210
100
AcDbEntity
  8
06___PRT_ALL_SURFS
  6
Continuous
 62
     7
100
AcDbLine
 10
1092.44975520301
 20
267.3856912339996
 30
0.0
 11
1090.29859904721
 21
267.8230000213996
 31
0.0
  0
LINE
  5
86C
330
210
100
AcDbEntity
  8
06___PRT_ALL_SURFS
  6
Continuous
 62
     7
100
AcDbLine
 10
1094.53984786071
 20
266.9504626285997
 30
0.0
 11
1092.44975520301
 21
267.3856912339996
 31
0.0
  0
LINE
  5
86D
330
210
100
AcDbEntity
  8
06___PRT_ALL_SURFS
  6
Continuous
 62
     7
100
AcDbLine
 10
1096.570631204709
 20
266.5173036488996
 30
0.0
 11
1094.53984786071
 21
266.9504626285997
 31
0.0
  0
LINE
  5
86E
330
210
100
AcDbEntity
  8
06___PRT_ALL_SURFS
  6
Continuous
 62
     7
100
AcDbLine
 10
1098.543952573409
 20
266.0862044773996
 30
0.0
 11
1096.570631204709
 21
266.5173036488996
 31
0.0
  0
LINE
  5
86F
330
210
100
AcDbEntity
  8
06___PRT_ALL_SURFS
  6
Continuous
 62
     7
100
AcDbLine
 10
1100.461659551609
 20
265.6571727834996
 30
0.0
 11
1098.543952573409
 21
266.0862044773996
 31
0.0
  0
LINE
  5
870
330
210
100
AcDbEntity
  8
06___PRT_ALL_SURFS
  6
Continuous
 62
     7
100
AcDbLine
 10
1102.325524585009
 20
265.2302488510997
 30
0.0
 11
1100.461659551609
 21
265.6571727834996
 31
0.0
  0
LINE
  5
871
330
210
100
AcDbEntity
  8
06___PRT_ALL_SURFS
  6
Continuous
 62
     7
100
AcDbLine
 10
1104.137345490109
 20
264.8054810432995
 30
0.0
 11
1102.325524585009
 21
265.2302488510997
 31
0.0
  0
LINE
  5
872
330
210
100
AcDbEntity
  8
06___PRT_ALL_SURFS
  6
Continuous
 62
     7
100
AcDbLine
 10
1105.898924615909
 20
264.3829225152996
 30
0.0
 11
1104.137345490109
 21
264.8054810432995
 31
0.0
  0
LINE
  5
873
330
210
100
AcDbEntity
  8
06___PRT_ALL_SURFS
  6
Continuous
 62
     7
100
AcDbLine
 10
1107.61161990091
 20
263.9625967497996
 30
0.0
 11
1105.898924615909
 21
264.3829225152996
 31
0.0
  0
LINE
  5
874
330
210
100
AcDbEntity
  8
06___PRT_ALL_SURFS
  6
Continuous
 62
     7
100
AcDbLine
 10
1109.275879255209
 20
263.5445957522996
 30
0.0
 11
1107.61161990091
 21
263.9625967497996
 31
0.0
  0
LINE
  5
875
330
210
100
AcDbEntity
  8
06___PRT_ALL_SURFS
  6
Continuous
 62
     7
100
AcDbLine
 10
1110.892056068509
 20
263.1290555473996
 30
0.0
 11
1109.275879255209
 21
263.5445957522996
 31
0.0
  0
LINE
  5
876
330
210
100
AcDbEntity
  8
06___PRT_ALL_SURFS
  6
Continuous
 62
     7
100
AcDbLine
 10
1112.072855098309
 20
262.8191129992996
 30
0.0
 11
1110.892056068509
 21
263.1290555473996
 31
0.0
  0
LINE
  5
877
330
210
100
AcDbEntity
  8
06___PRT_ALL_SURFS
  6
Continuous
 62
     7
100
AcDbLine
 10
1113.227003777409
 20
262.5107181035996
 30
0.0
 11
1112.072855098309
 21
262.8191129992996
 31
0.0
  0
LINE
  5
878
330
210
100
AcDbEntity
  8
06___PRT_ALL_SURFS
  6
Continuous
 62
     7
100
AcDbLine
 10
1114.354722462609
 20
262.2039429163997
 30
0.0
 11
1113.227003777409
 21
262.5107181035996
 31
0.0
  0
LINE
  5
879
330
210
100
AcDbEntity
  8
06___PRT_ALL_SURFS
  6
Continuous
 62
     7
100
AcDbLine
 10
1115.456212977809
 20
261.8988459428997
 30
0.0
 11
1114.354722462609
 21
262.2039429163997
 31
0.0
  0
LWPOLYLINE
  5
87A
330
210
100
AcDbEntity
  8
06___PRT_ALL_SURFS
  6
Continuous
 62
     7
100
AcDbPolyline
 90
        3
 70
     0
 43
0.0
 10
1116.884039687709
 20
261.4948179711996
 10
1116.53146744851
 20
261.5955151287997
 10
1115.456212977809
 20
261.8988459428997
  0
LWPOLYLINE
  5
87B
330
210
100
AcDbEntity
  8
06___PRT_ALL_SURFS
  6
Continuous
 62
     7
100
AcDbPolyline
 90
       13
 70
     0
 43
0.0
 10
1045.862399229209
 20
106.4134820847996
 10
1048.29618646331
 20
112.8811434868996
 10
1051.520834777309
 20
120.6964735443995
 10
1055.006570241209
 20
128.4023190403996
 10
1058.72031308591
 20
135.9594731552996
 10
1062.679210855509
 20
143.4311303823996
 10
1066.96379353541
 20
150.9675728057996
 10
1071.57957549861
 20
158.5572347451996
 10
1076.541513002609
 20
166.2013873012996
 10
1081.967002993809
 20
174.0402956604996
 10
1087.91534669801
 20
182.0983589193996
 10
1094.37653813681
 20
190.2996724234996
 10
1100.64266648321
 20
197.7713516127996
  0
LINE
  5
87C
330
210
100
AcDbEntity
  8
06___PRT_ALL_SURFS
  6
Continuous
 62
     7
100
AcDbLine
 10
1117.924212564109
 20
261.1940222217996
 30
0.0
 11
1116.884039687709
 21
261.4948179711996
 31
0.0
  0
LINE
  5
87D
330
210
100
AcDbEntity
  8
06___PRT_ALL_SURFS
  6
Continuous
 62
     7
100
AcDbLine
 10
1118.93813675381
 20
260.8952407890996
 30
0.0
 11
1117.924212564109
 21
261.1940222217996
 31
0.0
  0
LINE
  5
87E
330
210
100
AcDbEntity
  8
06___PRT_ALL_SURFS
  6
Continuous
 62
     7
100
AcDbLine
 10
1119.92638932261
 20
260.5984255711996
 30
0.0
 11
1118.93813675381
 21
260.8952407890996
 31
0.0
  0
LINE
  5
87F
330
210
100
AcDbEntity
  8
06___PRT_ALL_SURFS
  6
Continuous
 62
     7
100
AcDbLine
 10
1120.889581203109
 20
260.3035183936996
 30
0.0
 11
1119.92638932261
 21
260.5984255711996
 31
0.0
  0
LINE
  5
880
330
210
100
AcDbEntity
  8
06___PRT_ALL_SURFS
  6
Continuous
 62
     7
100
AcDbLine
 10
1121.82833932601
 20
260.0104551615995
 30
0.0
 11
1120.889581203109
 21
260.3035183936996
 31
0.0
  0
LINE
  5
881
330
210
100
AcDbEntity
  8
06___PRT_ALL_SURFS
  6
Continuous
 62
     7
100
AcDbLine
 10
1122.743306276209
 20
259.7191627193996
 30
0.0
 11
1121.82833932601
 21
260.0104551615995
 31
0.0
  0
LINE
  5
882
330
210
100
AcDbEntity
  8
06___PRT_ALL_SURFS
  6
Continuous
 62
     7
100
AcDbLine
 10
1123.63505261781
 20
259.4295639163996
 30
0.0
 11
1122.743306276209
 21
259.7191627193996
 31
0.0
  0
LINE
  5
883
330
210
100
AcDbEntity
  8
06___PRT_ALL_SURFS
  6
Continuous
 62
     7
100
AcDbLine
 10
1124.503996006409
 20
259.1416155057995
 30
0.0
 11
1123.63505261781
 21
259.4295639163996
 31
0.0
  0
LINE
  5
884
330
210
100
AcDbEntity
  8
06___PRT_ALL_SURFS
  6
Continuous
 62
     7
100
AcDbLine
 10
1125.350553506009
 20
258.8552746487997
 30
0.0
 11
1124.503996006409
 21
259.1416155057995
 31
0.0
  0
LINE
  5
885
330
210
100
AcDbEntity
  8
06___PRT_ALL_SURFS
  6
Continuous
 62
     7
100
AcDbLine
 10
1126.17514707851
 20
258.5704968489996
 30
0.0
 11
1125.350553506009
 21
258.8552746487997
 31
0.0
  0
LINE
  5
886
330
210
100
AcDbEntity
  8
06___PRT_ALL_SURFS
  6
Continuous
 62
     7
100
AcDbLine
 10
1126.71288079791
 20
258.3814917202996
 30
0.0
 11
1126.17514707851
 21
258.5704968489996
 31
0.0
  0
LINE
  5
887
330
210
100
AcDbEntity
  8
06___PRT_ALL_SURFS
  6
Continuous
 62
     7
100
AcDbLine
 10
1127.241177754509
 20
258.1931433733996
 30
0.0
 11
1126.71288079791
 21
258.3814917202996
 31
0.0
  0
LINE
  5
888
330
210
100
AcDbEntity
  8
06___PRT_ALL_SURFS
  6
Continuous
 62
     7
100
AcDbLine
 10
1127.760145839309
 20
258.0054441352996
 30
0.0
 11
1127.241177754509
 21
258.1931433733996
 31
0.0
  0
LINE
  5
889
330
210
100
AcDbEntity
  8
06___PRT_ALL_SURFS
  6
Continuous
 62
     7
100
AcDbLine
 10
1128.26992168331
 20
257.8183757989996
 30
0.0
 11
1127.760145839309
 21
258.0054441352996
 31
0.0
  0
LINE
  5
88A
330
210
100
AcDbEntity
  8
06___PRT_ALL_SURFS
  6
Continuous
 62
     7
100
AcDbLine
 10
1128.770639922509
 20
257.6319203334996
 30
0.0
 11
1128.26992168331
 21
257.8183757989996
 31
0.0
  0
LINE
  5
88B
330
210
100
AcDbEntity
  8
06___PRT_ALL_SURFS
  6
Continuous
 62
     7
100
AcDbLine
 10
1129.262411228009
 20
257.4460682333996
 30
0.0
 11
1128.770639922509
 21
257.6319203334996
 31
0.0
  0
LINE
  5
88C
330
210
100
AcDbEntity
  8
06___PRT_ALL_SURFS
  6
Continuous
 62
     7
100
AcDbLine
 10
1129.74537142781
 20
257.2608000757996
 30
0.0
 11
1129.262411228009
 21
257.4460682333996
 31
0.0
  0
LINE
  5
88D
330
210
100
AcDbEntity
  8
06___PRT_ALL_SURFS
  6
Continuous
 62
     7
100
AcDbLine
 10
1130.219649285609
 20
257.0760957327997
 30
0.0
 11
1129.74537142781
 21
257.2608000757996
 31
0.0
  0
LINE
  5
88E
330
210
100
AcDbEntity
  8
06___PRT_ALL_SURFS
  6
Continuous
 62
     7
100
AcDbLine
 10
1130.685284597709
 20
256.8919655672996
 30
0.0
 11
1130.219649285609
 21
257.0760957327997
 31
0.0
  0
LINE
  5
88F
330
210
100
AcDbEntity
  8
06___PRT_ALL_SURFS
  6
Continuous
 62
     7
100
AcDbLine
 10
1131.142342459609
 20
256.7084092196997
 30
0.0
 11
1130.685284597709
 21
256.8919655672996
 31
0.0
  0
LINE
  5
890
330
210
100
AcDbEntity
  8
06___PRT_ALL_SURFS
  6
Continuous
 62
     7
100
AcDbLine
 10
1131.59089028551
 20
256.5254244718996
 30
0.0
 11
1131.142342459609
 21
256.7084092196997
 31
0.0
  0
LINE
  5
891
330
210
100
AcDbEntity
  8
06___PRT_ALL_SURFS
  6
Continuous
 62
     7
100
AcDbLine
 10
1132.030972222009
 20
256.3430178733996
 30
0.0
 11
1131.59089028551
 21
256.5254244718996
 31
0.0
  0
LINE
  5
892
330
210
100
AcDbEntity
  8
06___PRT_ALL_SURFS
  6
Continuous
 62
     7
100
AcDbLine
 10
1132.462663954809
 20
256.1611822679996
 30
0.0
 11
1132.030972222009
 21
256.3430178733996
 31
0.0
  0
LINE
  5
893
330
210
100
AcDbEntity
  8
06___PRT_ALL_SURFS
  6
Continuous
 62
     7
100
AcDbLine
 10
1132.886043972809
 20
255.9799081393996
 30
0.0
 11
1132.462663954809
 21
256.1611822679996
 31
0.0
  0
LINE
  5
894
330
210
100
AcDbEntity
  8
06___PRT_ALL_SURFS
  6
Continuous
 62
     7
100
AcDbLine
 10
1133.301167123709
 20
255.7991951012996
 30
0.0
 11
1132.886043972809
 21
255.9799081393996
 31
0.0
  0
LINE
  5
895
330
210
100
AcDbEntity
  8
06___PRT_ALL_SURFS
  6
Continuous
 62
     7
100
AcDbLine
 10
1133.70811796681
 20
255.6190289337997
 30
0.0
 11
1133.301167123709
 21
255.7991951012996
 31
0.0
  0
LINE
  5
896
330
210
100
AcDbEntity
  8
06___PRT_ALL_SURFS
  6
Continuous
 62
     7
100
AcDbLine
 10
1134.106983195909
 20
255.4393929814996
 30
0.0
 11
1133.70811796681
 21
255.6190289337997
 31
0.0
  0
LINE
  5
897
330
210
100
AcDbEntity
  8
06___PRT_ALL_SURFS
  6
Continuous
 62
     7
100
AcDbLine
 10
1134.49782592571
 20
255.2602799014995
 30
0.0
 11
1134.106983195909
 21
255.4393929814996
 31
0.0
  0
LINE
  5
898
330
210
100
AcDbEntity
  8
06___PRT_ALL_SURFS
  6
Continuous
 62
     7
100
AcDbLine
 10
1134.88073735831
 20
255.0816682581997
 30
0.0
 11
1134.49782592571
 21
255.2602799014995
 31
0.0
  0
LINE
  5
899
330
210
100
AcDbEntity
  8
06___PRT_ALL_SURFS
  6
Continuous
 62
     7
100
AcDbLine
 10
1135.255810228209
 20
254.9035340313996
 30
0.0
 11
1134.88073735831
 21
255.0816682581997
 31
0.0
  0
LINE
  5
89A
330
210
100
AcDbEntity
  8
06___PRT_ALL_SURFS
  6
Continuous
 62
     7
100
AcDbLine
 10
1135.623113899809
 20
254.7258626055997
 30
0.0
 11
1135.255810228209
 21
254.9035340313996
 31
0.0
  0
LINE
  5
89B
330
210
100
AcDbEntity
  8
06___PRT_ALL_SURFS
  6
Continuous
 62
     7
100
AcDbLine
 10
1135.982741180909
 20
254.5486264456996
 30
0.0
 11
1135.623113899809
 21
254.7258626055997
 31
0.0
  0
LINE
  5
89C
330
210
100
AcDbEntity
  8
06___PRT_ALL_SURFS
  6
Continuous
 62
     7
100
AcDbLine
 10
1136.33480910201
 20
254.3717832175996
 30
0.0
 11
1135.982741180909
 21
254.5486264456996
 31
0.0
  0
LWPOLYLINE
  5
89D
330
210
100
AcDbEntity
  8
06___PRT_ALL_SURFS
  6
Continuous
 62
     7
100
AcDbPolyline
 90
        3
 70
     0
 43
0.0
 10
1136.84891515921
 20
254.1071896454996
 10
1136.67939284511
 20
254.1953066096996
 10
1136.33480910201
 20
254.3717832175996
  0
LINE
  5
89E
330
210
100
AcDbEntity
  8
06___PRT_ALL_SURFS
  6
Continuous
 62
     7
100
AcDbLine
 10
1137.182455446909
 20
253.9311848460997
 30
0.0
 11
1136.84891515921
 21
254.1071896454996
 31
0.0
  0
ARC
  5
89F
330
210
100
AcDbEntity
  8
0
  6
Continuous
 62
     7
100
AcDbCircle
 10
795.9495803597096
 20
107.0910446263996
 30
0.0
 40
2.0
100
AcDbArc
 50
199.8009430985007
 51
269.9999999995961
  0
ARC
  5
8A0
330
210
100
AcDbEntity
  8
0
  6
Continuous
 62
     7
100
AcDbCircle
 10
1043.98066416801
 20
107.0910446263996
 30
0.0
 40
2.0
100
AcDbArc
 50
270.0
 51
340.1989335889002
  0
SPLINE
  5
8A1
330
210
100
AcDbEntity
  8
02___PRT_ALL_AXES
  6
Continuous
 62
     7
100
AcDbSpline
210
0.0
220
0.0
230
1.0
 70
     8
 71
     3
 72
    25
 73
    21
 74
     0
 42
0.0000001
 43
0.0000000001
 40
0.0
 40
0.0
 40
0.0
 40
0.0
 40
0.0083061175
 40
0.0119191727
 40
0.0155742522
 40
0.0241116015
 40
0.0354212427
 40
0.0496317319
 40
0.0663980413
 40
0.1056061813
 40
0.1501437066
 40
0.1990440939
 40
0.2529262395
 40
0.3135199025
 40
0.3822114612
 40
0.4590986899000001
 40
0.5423961654000001
 40
0.6288086711
 40
0.8063216006000001
 40
1.0
 40
1.0
 40
1.0
 40
1.0
 10
701.3261582137097
 20
235.1214000378996
 30
0.0
 10
700.8451926463096
 20
235.5331369151997
 30
0.0
 10
700.2124927131096
 20
236.2573331651996
 30
0.0
 10
699.9428152068096
 20
237.4355741146997
 30
0.0
 10
700.0790176012096
 20
238.6541782528997
 30
0.0
 10
701.0745257736097
 20
240.2270288046997
 30
0.0
 10
703.0735749682096
 20
241.8981745337997
 30
0.0
 10
705.8294137767096
 20
243.5870416022996
 30
0.0
 10
710.6429367289097
 20
245.9315276458996
 30
0.0
 10
717.8271436524097
 20
248.6314467940996
 30
0.0
 10
727.5047458567096
 20
251.5682484257995
 30
0.0
 10
738.3863726372096
 20
254.3543514110996
 30
0.0
 10
750.5491993586097
 20
257.0363068644996
 30
0.0
 10
764.2650091839096
 20
259.6551187222996
 30
0.0
 10
779.7736071266097
 20
262.2063392091996
 30
0.0
 10
797.0538443372097
 20
264.6177050698997
 30
0.0
 10
815.7268842135097
 20
266.7853674998996
 30
0.0
 10
842.0799920111097
 20
269.2576655341996
 30
0.0
 10
876.9047002364095
 20
271.4034770249997
 30
0.0
 10
905.2020870974097
 20
271.9911694900996
 30
0.0
 10
919.9651625692094
 20
271.9914143054996
 30
0.0
  0
SPLINE
  5
8A2
330
210
100
AcDbEntity
  8
02___PRT_ALL_AXES
  6
Continuous
 62
     7
100
AcDbSpline
210
0.0
220
0.0
230
1.0
 70
     8
 71
     3
 72
    25
 73
    21
 74
     0
 42
0.0000001
 43
0.0000000001
 40
0.0
 40
0.0
 40
0.0
 40
0.0
 40
0.0083061187
 40
0.0119191744
 40
0.0155742543
 40
0.0241116034
 40
0.0354212441
 40
0.0496317327
 40
0.0663980416
 40
0.1056061823
 40
0.150143709
 40
0.1990440977
 40
0.2529262427
 40
0.3135199022
 40
0.3822114558
 40
0.4590986801
 40
0.5423961560000001
 40
0.628808669
 40
0.8063216083
 40
1.0
 40
1.0
 40
1.0
 40
1.0
 10
1138.604096398309
 20
235.1214000378996
 30
0.0
 10
1139.085061887809
 20
235.5331368484997
 30
0.0
 10
1139.71776171921
 20
236.2573329418996
 30
0.0
 10
1139.987439359409
 20
237.4355736276996
 30
0.0
 10
1139.851237266609
 20
238.6541774724997
 30
0.0
 10
1138.855729770509
 20
240.2270277506997
 30
0.0
 10
1136.856681492909
 20
241.8981732007996
 30
0.0
 10
1134.10084381221
 20
243.5870399700996
 30
0.0
 10
1129.287322556809
 20
245.9315256618996
 30
0.0
 10
1122.103117882609
 20
248.6314444360996
 30
0.0
 10
1112.42551855241
 20
251.5682456810996
 30
0.0
 10
1101.54389507281
 20
254.3543482772995
 30
0.0
 10
1089.38107240161
 20
257.0363033220997
 30
0.0
 10
1075.665267590909
 20
259.6551147592996
 30
0.0
 10
1060.156675515109
 20
262.2063349217997
 30
0.0
 10
1042.87644442741
 20
264.6177006814996
 30
0.0
 10
1024.20341016111
 20
266.7853633046997
 30
0.0
 10
997.8503092814095
 20
269.2576619373996
 30
0.0
 10
963.0256111961099
 20
271.4034745420996
 30
0.0
 10
934.7282329442096
 20
271.9911685066996
 30
0.0
 10
919.9651626107097
 20
271.9914143042996
 30
0.0
  0
DIMENSION
  5
8AC
102
{ACAD_XDICTIONARY
360
8BB
102
}
102
{ACAD_REACTORS
330
8C6
102
}
330
210
100
AcDbEntity
  8
0
  6
Continuous
 62
     0
100
AcDbDimension
  2
*D9
 10
660.4706644179096
 20
104.9640553578083
 30
0.0
 11
660.4706644179096
 21
193.7860313876156
 31
0.0
 70
    32
  1
178.0
 71
     5
 42
177.6439520596145
 73
     0
 74
     0
 75
     0
  3
STANDARD
100
AcDbAlignedDimension
 13
628.5584027552626
 23
282.6080074174229
 33
0.0
 14
492.795577133068
 24
104.9640553578083
 34
0.0
 50
90.0
100
AcDbRotatedDimension
1001
ACAD
1000
DSTYLE
1002
{
1070
    41
1040
15.0
1070
    43
1040
45.18199999999999
1070
    73
1070
     1
1070
    74
1070
     1
1070
    77
1070
     0
1070
   140
1040
15.0
1070
   141
1040
10.701
1070
   178
1070
     0
1070
   271
1070
     4
1070
   272
1070
     4
1070
   341
1005
0
1070
   343
1005
0
1070
   344
1005
0
1002
}
  0
ENDSEC
  0
SECTION
  2
OBJECTS
  0
DICTIONARY
  5
C
330
0
100
AcDbDictionary
281
     1
  3
ACAD_CIP_PREVIOUS_PRODUCT_INFO
350
516
  3
ACAD_COLOR
350
4C0
  3
ACAD_DETAILVIEWSTYLE
350
510
  3
ACAD_GROUP
350
D
  3
ACAD_LAYOUT
350
1A
  3
ACAD_MATERIAL
350
493
  3
ACAD_MLEADERSTYLE
350
4D5
  3
ACAD_MLINESTYLE
350
17
  3
ACAD_PLOTSETTINGS
350
19
  3
ACAD_PLOTSTYLENAME
350
E
  3
ACAD_SCALELIST
350
4C3
  3
ACAD_SECTIONVIEWSTYLE
350
50E
  3
ACAD_TABLESTYLE
350
4C1
  3
ACAD_VISUALSTYLE
350
4AC
  3
ACDB_RECOMPOSE_DATA
350
A27
  3
AcDbVariableDictionary
350
501
  3
AcDsDecomposeData
350
A2D
  0
DICTIONARY
  5
518
330
2
100
AcDbDictionary
280
     1
281
     1
  3
ACAD_LAYERSTATES
360
519
  0
DICTIONARY
  5
8BB
330
8AC
100
AcDbDictionary
280
     1
281
     1
  3
ACAD_DIMASSOC
360
8C6
  0
XRECORD
  5
516
102
{ACAD_REACTORS
330
C
102
}
330
C
100
AcDbXrecord
280
     1
300
ACD
300
2013
300
85871ACD_2013_0F
  0
DICTIONARY
  5
4C0
102
{ACAD_REACTORS
330
C
102
}
330
C
100
AcDbDictionary
281
     1
  0
DICTIONARY
  5
510
102
{ACAD_REACTORS
330
C
102
}
330
C
100
AcDbDictionary
281
     1
  3
Metric50
350
511
  0
DICTIONARY
  5
D
102
{ACAD_REACTORS
330
C
102
}
330
C
100
AcDbDictionary
281
     1
  0
DICTIONARY
  5
1A
102
{ACAD_REACTORS
330
C
102
}
330
C
100
AcDbDictionary
281
     1
  3
Layout1
350
490
  3
Model
350
48F
  0
DICTIONARY
  5
493
102
{ACAD_REACTORS
330
C
102
}
330
C
100
AcDbDictionary
281
     1
  3
ByBlock
350
49C
  3
ByLayer
350
494
  3
Global
350
4A4
  0
DICTIONARY
  5
4D5
102
{ACAD_REACTORS
330
C
102
}
330
C
100
AcDbDictionary
281
     1
  3
Standard
350
4D6
  0
DICTIONARY
  5
17
102
{ACAD_REACTORS
330
C
102
}
330
C
100
AcDbDictionary
281
     1
  3
Standard
350
18
  0
DICTIONARY
  5
19
102
{ACAD_REACTORS
330
C
102
}
330
C
100
AcDbDictionary
281
     1
  0
ACDBDICTIONARYWDFLT
  5
E
102
{ACAD_REACTORS
330
C
102
}
330
C
100
AcDbDictionary
281
     1
  3
Normal
350
F
100
AcDbDictionaryWithDefault
340
F
  0
DICTIONARY
  5
4C3
102
{ACAD_REACTORS
330
C
102
}
330
C
100
AcDbDictionary
281
     1
  3
A0
350
4C4
  3
A1
350
4C5
  3
A2
350
4C6
  3
A3
350
4C7
  3
A4
350
4C8
  3
A5
350
4C9
  3
A6
350
4CA
  3
A7
350
4CB
  3
A8
350
4CC
  3
A9
350
4CD
  3
B0
350
4CE
  3
B1
350
4CF
  3
B2
350
4D0
  3
B3
350
4D1
  3
B4
350
4D2
  3
B5
350
4D3
  3
B6
350
4D4
  0
DICTIONARY
  5
50E
102
{ACAD_REACTORS
330
C
102
}
330
C
100
AcDbDictionary
281
     1
  3
Metric50
350
50F
  0
DICTIONARY
  5
4C1
102
{ACAD_REACTORS
330
C
102
}
330
C
100
AcDbDictionary
281
     1
  3
Standard
350
4C2
  0
DICTIONARY
  5
4AC
102
{ACAD_REACTORS
330
C
102
}
330
C
100
AcDbDictionary
281
     1
  3
2dWireframe
350
4B2
  3
3D Hidden
350
4B4
  3
3dWireframe
350
4B3
  3
Basic
350
4B1
  3
Brighten
350
4B8
  3
ColorChange
350
4BC
  3
Conceptual
350
4B5
  3
Dim
350
4B7
  3
EdgeColorOff
350
4BF
  3
Facepattern
350
4BB
  3
Flat
350
4AD
  3
FlatWithEdges
350
4AE
  3
Gouraud
350
4AF
  3
GouraudWithEdges
350
4B0
  3
Hidden
350
508
  3
JitterOff
350
4BD
  3
Linepattern
350
4BA
  3
OverhangOff
350
4BE
  3
Realistic
350
4B6
  3
Shaded
350
50D
  3
Shaded with edges
350
50C
  3
Shades of Gray
350
509
  3
Sketchy
350
50A
  3
Thicken
350
4B9
  3
Wireframe
350
507
  3
X-Ray
350
50B
  0
XRECORD
  5
A27
102
{ACAD_REACTORS
330
C
102
}
330
C
100
AcDbXrecord
280
     1
 90
        1
330
4C2
  0
DICTIONARY
  5
501
102
{ACAD_REACTORS
330
C
102
}
330
C
100
AcDbDictionary
281
     1
  3
CANNOSCALE
350
504
  3
CMLEADERSTYLE
350
503
  3
CTABLESTYLE
350
502
  3
CVIEWDETAILSTYLE
350
9D5
  3
CVIEWSECTIONSTYLE
350
9D6
  3
XCLIPFRAME
350
9D7
  0
DICTIONARY
  5
A2D
102
{ACAD_REACTORS
330
C
102
}
330
C
100
AcDbDictionary
281
     1
  3
AcDsRecords
350
A2F
  3
AcDsSchemas
350
A2E
1001
ACAD
1070
     2
  0
DICTIONARY
  5
519
102
{ACAD_REACTORS
330
518
102
}
330
518
100
AcDbDictionary
281
     1
  0
DIMASSOC
  5
8C6
102
{ACAD_REACTORS
330
8BB
102
}
330
8BB
100
AcDbDimAssoc
330
8AC
 90
        1
 70
     0
 71
     0
  1
AcDbOsnapPointRef
 72
     0
331
631
 73
     2
 91
        0
 40
0.1045691199882015
 10
628.5584027552626
 20
282.6080074174229
 30
0.0
 75
     0
  0
ACDBDETAILVIEWSTYLE
  5
511
102
{ACAD_REACTORS
330
510
102
}
330
510
100
AcDbModelDocViewStyle
 70
     0
  3
Metric50
290
     0
100
AcDbDetailViewStyle
 70
     0
 71
     0
 90
        3
 71
     1
340
11
 62
   256
 40
5.0
340
0
 62
   256
 40
5.0
300

 40
0.0
280
     1
 71
     2
340
16
 90
       25
 62
   256
 71
     3
340
11
 62
   256
 40
5.0
 90
        0
 40
15.0
 90
        1
300
%<\AcVar ViewDetailId>% (%<\AcVar ViewScale \f "%sn">%)
 71
     4
340
16
 90
       25
 62
   256
340
16
 90
       25
 62
   256
280
     0
  0
LAYOUT
  5
490
102
{ACAD_REACTORS
330
1A
102
}
330
1A
100
AcDbPlotSettings
  1

  2
none_device
  4
ISO_A0_(1189.00_x_841.00_MM)
  6

 40
0.0
 41
0.0
 42
0.0
 43
0.0
 44
1189.0
 45
841.0
 46
0.0
 47
0.0
 48
0.0
 49
0.0
140
0.0
141
0.0
142
1.0
143
1.0
 70
     0
 72
     1
 73
     0
 74
     0
  7

 75
     0
147
1.0
 76
     0
 77
     2
 78
   300
148
0.0
149
0.0
100
AcDbLayout
  1
Layout1
 70
     1
 71
     1
 10
0.0
 20
0.0
 11
12.0
 21
9.0
 12
0.0
 22
0.0
 32
0.0
 14
1.000000000000000E+20
 24
1.000000000000000E+20
 34
1.000000000000000E+20
 15
-1.000000000000000E+20
 25
-1.000000000000000E+20
 35
-1.000000000000000E+20
146
0.0
 13
0.0
 23
0.0
 33
0.0
 16
1.0
 26
0.0
 36
0.0
 17
0.0
 27
1.0
 37
0.0
 76
     0
330
211
  0
LAYOUT
  5
48F
102
{ACAD_REACTORS
330
1A
102
}
330
1A
100
AcDbPlotSettings
  1

  2
none_device
  4
ISO_A0_(1189.00_x_841.00_MM)
  6

 40
0.0
 41
0.0
 42
0.0
 43
0.0
 44
1189.0
 45
841.0
 46
0.0
 47
0.0
 48
0.0
 49
0.0
140
0.0
141
0.0
142
1.0
143
1.0
 70
  1024
 72
     1
 73
     0
 74
     0
  7

 75
     0
147
1.0
 76
     0
 77
     2
 78
   300
148
0.0
149
0.0
100
AcDbLayout
  1
Model
 70
     0
 71
     0
 10
0.0
 20
0.0
 11
1189.0
 21
841.0
 12
0.0
 22
0.0
 32
0.0
 14
0.0
 24
0.0
 34
0.0
 15
0.0
 25
0.0
 35
0.0
146
0.0
 13
0.0
 23
0.0
 33
0.0
 16
1.0
 26
0.0
 36
0.0
 17
0.0
 27
1.0
 37
0.0
 76
     0
330
210
331
1F4
  0
MATERIAL
  5
49C
102
{ACAD_XDICTIONARY
360
49D
102
}
102
{ACAD_REACTORS
330
493
102
}
330
493
100
AcDbMaterial
  1
ByBlock
 72
     0
 43
0.0008202099737533
 43
0.0
 43
0.0
 43
0.0
 43
0.0
 43
0.0008202099737533
 43
0.0
 43
0.0
 43
0.0
 43
0.0
 43
1.0
 43
0.0
 43
0.0
 43
0.0
 43
0.0
 43
1.0
 77
     0
 47
0.0008202099737533
 47
0.0
 47
0.0
 47
0.0
 47
0.0
 47
0.0008202099737533
 47
0.0
 47
0.0
 47
0.0
 47
0.0
 47
1.0
 47
0.0
 47
0.0
 47
0.0
 47
0.0
 47
1.0
171
     0
 49
0.0008202099737533
 49
0.0
 49
0.0
 49
0.0
 49
0.0
 49
0.0008202099737533
 49
0.0
 49
0.0
 49
0.0
 49
0.0
 49
1.0
 49
0.0
 49
0.0
 49
0.0
 49
0.0
 49
1.0
175
     0
142
0.0008202099737533
142
0.0
142
0.0
142
0.0
142
0.0
142
0.0008202099737533
142
0.0
142
0.0
142
0.0
142
0.0
142
1.0
142
0.0
142
0.0
142
0.0
142
0.0
142
1.0
179
     0
144
0.0008202099737533
144
0.0
144
0.0
144
0.0
144
0.0
144
0.0008202099737533
144
0.0
144
0.0
144
0.0
144
0.0
144
1.0
144
0.0
144
0.0
144
0.0
144
0.0
144
1.0
147
0.0008202099737533
147
0.0
147
0.0
147
0.0
147
0.0
147
0.0008202099737533
147
0.0
147
0.0
147
0.0
147
0.0
147
1.0
147
0.0
147
0.0
147
0.0
147
0.0
147
1.0
  0
MATERIAL
  5
494
102
{ACAD_XDICTIONARY
360
495
102
}
102
{ACAD_REACTORS
330
493
102
}
330
493
100
AcDbMaterial
  1
ByLayer
 72
     0
 43
0.0008202099737533
 43
0.0
 43
0.0
 43
0.0
 43
0.0
 43
0.0008202099737533
 43
0.0
 43
0.0
 43
0.0
 43
0.0
 43
1.0
 43
0.0
 43
0.0
 43
0.0
 43
0.0
 43
1.0
 77
     0
 47
0.0008202099737533
 47
0.0
 47
0.0
 47
0.0
 47
0.0
 47
0.0008202099737533
 47
0.0
 47
0.0
 47
0.0
 47
0.0
 47
1.0
 47
0.0
 47
0.0
 47
0.0
 47
0.0
 47
1.0
171
     0
 49
0.0008202099737533
 49
0.0
 49
0.0
 49
0.0
 49
0.0
 49
0.0008202099737533
 49
0.0
 49
0.0
 49
0.0
 49
0.0
 49
1.0
 49
0.0
 49
0.0
 49
0.0
 49
0.0
 49
1.0
175
     0
142
0.0008202099737533
142
0.0
142
0.0
142
0.0
142
0.0
142
0.0008202099737533
142
0.0
142
0.0
142
0.0
142
0.0
142
1.0
142
0.0
142
0.0
142
0.0
142
0.0
142
1.0
179
     0
144
0.0008202099737533
144
0.0
144
0.0
144
0.0
144
0.0
144
0.0008202099737533
144
0.0
144
0.0
144
0.0
144
0.0
144
1.0
144
0.0
144
0.0
144
0.0
144
0.0
144
1.0
147
0.0008202099737533
147
0.0
147
0.0
147
0.0
147
0.0
147
0.0008202099737533
147
0.0
147
0.0
147
0.0
147
0.0
147
1.0
147
0.0
147
0.0
147
0.0
147
0.0
147
1.0
  0
MATERIAL
  5
4A4
102
{ACAD_XDICTIONARY
360
4A5
102
}
102
{ACAD_REACTORS
330
493
102
}
330
493
100
AcDbMaterial
  1
Global
 72
     0
 43
0.0008202099737533
 43
0.0
 43
0.0
 43
0.0
 43
0.0
 43
0.0008202099737533
 43
0.0
 43
0.0
 43
0.0
 43
0.0
 43
1.0
 43
0.0
 43
0.0
 43
0.0
 43
0.0
 43
1.0
 77
     0
 47
0.0008202099737533
 47
0.0
 47
0.0
 47
0.0
 47
0.0
 47
0.0008202099737533
 47
0.0
 47
0.0
 47
0.0
 47
0.0
 47
1.0
 47
0.0
 47
0.0
 47
0.0
 47
0.0
 47
1.0
171
     0
 49
0.0008202099737533
 49
0.0
 49
0.0
 49
0.0
 49
0.0
 49
0.0008202099737533
 49
0.0
 49
0.0
 49
0.0
 49
0.0
 49
1.0
 49
0.0
 49
0.0
 49
0.0
 49
0.0
 49
1.0
175
     0
142
0.0008202099737533
142
0.0
142
0.0
142
0.0
142
0.0
142
0.0008202099737533
142
0.0
142
0.0
142
0.0
142
0.0
142
1.0
142
0.0
142
0.0
142
0.0
142
0.0
142
1.0
179
     0
144
0.0008202099737533
144
0.0
144
0.0
144
0.0
144
0.0
144
0.0008202099737533
144
0.0
144
0.0
144
0.0
144
0.0
144
1.0
144
0.0
144
0.0
144
0.0
144
0.0
144
1.0
147
0.0008202099737533
147
0.0
147
0.0
147
0.0
147
0.0
147
0.0008202099737533
147
0.0
147
0.0
147
0.0
147
0.0
147
1.0
147
0.0
147
0.0
147
0.0
147
0.0
147
1.0
  0
MLEADERSTYLE
  5
4D6
102
{ACAD_REACTORS
330
4D5
102
}
330
4D5
100
AcDbMLeaderStyle
170
     2
171
     1
172
     0
 90
        2
 40
0.0
 41
0.0
173
     1
 91
-1056964608
340
14
 92
       -2
290
     1
 42
2.0
291
     1
 43
0.36
  3
Standard
 44
4.0
300

342
11
174
     1
178
     6
175
     1
176
     0
 93
-1056964608
 45
4.0
292
     0
297
     0
 46
4.0
 94
-1056964608
 47
1.0
 49
1.0
140
1.0
293
     1
141
0.0
294
     1
177
     0
142
1.0
295
     0
296
     0
143
0.125
1001
ACAD_MLEADERVER
1070
     2
  0
MLINESTYLE
  5
18
102
{ACAD_REACTORS
330
17
102
}
330
17
100
AcDbMlineStyle
  2
STANDARD
 70
     0
  3

 62
   256
 51
90.0
 52
90.0
 71
     2
 49
0.5
 62
   256
  6
BYLAYER
 49
-0.5
 62
   256
  6
BYLAYER
  0
ACDBPLACEHOLDER
  5
F
102
{ACAD_REACTORS
330
E
102
}
330
E
  0
SCALE
  5
4C4
102
{ACAD_REACTORS
330
4C3
102
}
330
4C3
100
AcDbScale
 70
     0
300
1:1
140
1.0
141
1.0
290
     1
  0
SCALE
  5
4C5
102
{ACAD_REACTORS
330
4C3
102
}
330
4C3
100
AcDbScale
 70
     0
300
1:2
140
1.0
141
2.0
290
     0
  0
SCALE
  5
4C6
102
{ACAD_REACTORS
330
4C3
102
}
330
4C3
100
AcDbScale
 70
     0
300
1:4
140
1.0
141
4.0
290
     0
  0
SCALE
  5
4C7
102
{ACAD_REACTORS
330
4C3
102
}
330
4C3
100
AcDbScale
 70
     0
300
1:5
140
1.0
141
5.0
290
     0
  0
SCALE
  5
4C8
102
{ACAD_REACTORS
330
4C3
102
}
330
4C3
100
AcDbScale
 70
     0
300
1:8
140
1.0
141
8.0
290
     0
  0
SCALE
  5
4C9
102
{ACAD_REACTORS
330
4C3
102
}
330
4C3
100
AcDbScale
 70
     0
300
1:10
140
1.0
141
10.0
290
     0
  0
SCALE
  5
4CA
102
{ACAD_REACTORS
330
4C3
102
}
330
4C3
100
AcDbScale
 70
     0
300
1:16
140
1.0
141
16.0
290
     0
  0
SCALE
  5
4CB
102
{ACAD_REACTORS
330
4C3
102
}
330
4C3
100
AcDbScale
 70
     0
300
1:20
140
1.0
141
20.0
290
     0
  0
SCALE
  5
4CC
102
{ACAD_REACTORS
330
4C3
102
}
330
4C3
100
AcDbScale
 70
     0
300
1:30
140
1.0
141
30.0
290
     0
  0
SCALE
  5
4CD
102
{ACAD_REACTORS
330
4C3
102
}
330
4C3
100
AcDbScale
 70
     0
300
1:40
140
1.0
141
40.0
290
     0
  0
SCALE
  5
4CE
102
{ACAD_REACTORS
330
4C3
102
}
330
4C3
100
AcDbScale
 70
     0
300
1:50
140
1.0
141
50.0
290
     0
  0
SCALE
  5
4CF
102
{ACAD_REACTORS
330
4C3
102
}
330
4C3
100
AcDbScale
 70
     0
300
1:100
140
1.0
141
100.0
290
     0
  0
SCALE
  5
4D0
102
{ACAD_REACTORS
330
4C3
102
}
330
4C3
100
AcDbScale
 70
     0
300
2:1
140
2.0
141
1.0
290
     0
  0
SCALE
  5
4D1
102
{ACAD_REACTORS
330
4C3
102
}
330
4C3
100
AcDbScale
 70
     0
300
4:1
140
4.0
141
1.0
290
     0
  0
SCALE
  5
4D2
102
{ACAD_REACTORS
330
4C3
102
}
330
4C3
100
AcDbScale
 70
     0
300
8:1
140
8.0
141
1.0
290
     0
  0
SCALE
  5
4D3
102
{ACAD_REACTORS
330
4C3
102
}
330
4C3
100
AcDbScale
 70
     0
300
10:1
140
10.0
141
1.0
290
     0
  0
SCALE
  5
4D4
102
{ACAD_REACTORS
330
4C3
102
}
330
4C3
100
AcDbScale
 70
     0
300
100:1
140
100.0
141
1.0
290
     0
  0
ACDBSECTIONVIEWSTYLE
  5
50F
102
{ACAD_REACTORS
330
50E
102
}
330
50E
100
AcDbModelDocViewStyle
 70
     0
  3
Metric50
290
     0
100
AcDbSectionViewStyle
 70
     0
 71
     0
 90
      102
 71
     1
340
11
 62
   256
 40
5.0
340
0
340
0
 62
   256
 40
5.0
300
I, O, Q, S, X, Z
 40
10.0
 90
        0
 40
2.5
 90
        0
 71
     2
340
16
 90
       25
 62
   256
340
16
 90
       50
 62
   256
 40
5.0
 40
2.5
 40
5.0
 71
     3
340
11
 62
   256
 40
5.0
 90
        0
 40
15.0
 90
        1
300
%<\AcVar ViewSectionStartId>%-%<\AcVar ViewSectionEndId>% (%<\AcVar ViewScale \f "%sn">%)
 71
     4
 62
   256
 62
   257
300
ANSI31
 40
1.0
 90
        0
290
     0
290
     0
 90
        6
 40
0.0
 40
1.570796326794896
 40
0.2617993877991494
 40
1.308996938995747
 40
-0.2617993877991494
 40
1.832595714594046
  0
TABLESTYLE
  5
4C2
102
{ACAD_XDICTIONARY
360
4D7
102
}
102
{ACAD_REACTORS
330
4C1
102
}
330
4C1
100
AcDbTableStyle
  3
Standard
 70
     0
 71
     0
 40
1.5
 41
1.5
280
     0
281
     0
  7
STANDARD
140
4.5
170
     2
 62
     0
 63
     7
283
     0
 90
      512
 91
        0
  1

274
    -2
284
     1
 64
     0
275
    -2
285
     1
 65
     0
276
    -2
286
     1
 66
     0
277
    -2
287
     1
 67
     0
278
    -2
288
     1
 68
     0
279
    -2
289
     1
 69
     0
  7
STANDARD
140
6.0
170
     5
 62
     0
 63
     7
283
     0
 90
      512
 91
        0
  1

274
    -2
284
     1
 64
     0
275
    -2
285
     1
 65
     0
276
    -2
286
     1
 66
     0
277
    -2
287
     1
 67
     0
278
    -2
288
     1
 68
     0
279
    -2
289
     1
 69
     0
  7
STANDARD
140
4.5
170
     5
 62
     0
 63
     7
283
     0
 90
      512
 91
        0
  1

274
    -2
284
     1
 64
     0
275
    -2
285
     1
 65
     0
276
    -2
286
     1
 66
     0
277
    -2
287
     1
 67
     0
278
    -2
288
     1
 68
     0
279
    -2
289
     1
 69
     0
  0
VISUALSTYLE
  5
4B2
102
{ACAD_XDICTIONARY
360
A3A
102
}
102
{ACAD_REACTORS
330
4AC
102
}
330
4AC
100
AcDbVisualStyle
  2
2dWireframe
 70
     4
 71
     0
 72
     2
 73
     0
 90
        0
 40
-0.6
 41
-30.0
 62
     5
 63
     7
421
 16777215
 74
     1
 91
        4
 64
     7
 65
   257
 75
     1
175
     1
 42
1.0
 92
        0
 66
   257
 43
1.0
 76
     1
 77
     6
 78
     2
 67
     7
 79
     5
170
     0
171
     0
290
     0
174
     0
 93
        1
 44
0.0
173
     0
291
     0
 45
0.0
1001
ACAD
1000
AcDbSavedByObjectVersion
1070
     0
  0
VISUALSTYLE
  5
4B4
102
{ACAD_XDICTIONARY
360
A3E
102
}
102
{ACAD_REACTORS
330
4AC
102
}
330
4AC
100
AcDbVisualStyle
  2
3D Hidden
 70
     6
 71
     1
 72
     2
 73
     2
 90
        0
 40
-0.6
 41
-30.0
 62
     5
 63
     7
421
 16777215
 74
     2
 91
        2
 64
     7
 65
   257
 75
     2
175
     1
 42
179.0
 92
        0
 66
   257
 43
1.0
 76
     1
 77
     6
 78
     2
 67
     7
 79
     3
170
     0
171
     0
290
     0
174
     0
 93
        1
 44
0.0
173
     0
291
     0
 45
0.0
1001
ACAD
1000
AcDbSavedByObjectVersion
1070
     0
  0
VISUALSTYLE
  5
4B3
102
{ACAD_XDICTIONARY
360
A3C
102
}
102
{ACAD_REACTORS
330
4AC
102
}
330
4AC
100
AcDbVisualStyle
  2
3dWireframe
 70
     5
 71
     0
 72
     2
 73
     0
 90
        0
 40
-0.6
 41
-30.0
 62
     5
 63
     7
421
 16777215
 74
     1
 91
        4
 64
     7
 65
   257
 75
     1
175
     1
 42
1.0
 92
        0
 66
   257
 43
1.0
 76
     1
 77
     6
 78
     2
 67
     7
 79
     5
170
     0
171
     0
290
     0
174
     0
 93
        1
 44
0.0
173
     0
291
     0
 45
0.0
1001
ACAD
1000
AcDbSavedByObjectVersion
1070
     0
  0
VISUALSTYLE
  5
4B1
102
{ACAD_XDICTIONARY
360
A38
102
}
102
{ACAD_REACTORS
330
4AC
102
}
330
4AC
100
AcDbVisualStyle
  2
Basic
 70
     7
 71
     1
 72
     0
 73
     1
 90
        0
 40
-0.6
 41
-30.0
 62
     5
 63
     7
421
 16777215
 74
     0
 91
        4
 64
     7
 65
   257
 75
     1
175
     1
 42
1.0
 92
        8
 66
     7
 43
1.0
 76
     1
 77
     6
 78
     2
 67
     7
 79
     5
170
     0
171
     0
290
     0
174
     0
 93
        1
 44
0.0
173
     0
291
     1
 45
0.0
1001
ACAD
1000
AcDbSavedByObjectVersion
1070
     0
  0
VISUALSTYLE
  5
4B8
102
{ACAD_XDICTIONARY
360
A46
102
}
102
{ACAD_REACTORS
330
4AC
102
}
330
4AC
100
AcDbVisualStyle
  2
Brighten
 70
    12
 71
     2
 72
     2
 73
     0
 90
        0
 40
-0.6
 41
-30.0
 62
     5
 63
     7
421
 16777215
 74
     1
 91
        4
 64
     7
 65
   257
 75
     1
175
     1
 42
1.0
 92
        8
 66
     7
 43
1.0
 76
     1
 77
     6
 78
     2
 67
     7
 79
     5
170
     0
171
     0
290
     0
174
     0
 93
        1
 44
50.0
173
     0
291
     1
 45
0.0
1001
ACAD
1000
AcDbSavedByObjectVersion
1070
     0
  0
VISUALSTYLE
  5
4BC
102
{ACAD_XDICTIONARY
360
A4E
102
}
102
{ACAD_REACTORS
330
4AC
102
}
330
4AC
100
AcDbVisualStyle
  2
ColorChange
 70
    16
 71
     2
 72
     2
 73
     3
 90
        0
 40
-0.6
 41
-30.0
 62
     5
 63
     8
421
  8421504
 74
     1
 91
        4
 64
     7
 65
   257
 75
     1
175
     1
 42
1.0
 92
        8
 66
     8
424
  8421504
 43
1.0
 76
     1
 77
     6
 78
     2
 67
     7
 79
     5
170
     0
171
     0
290
     0
174
     0
 93
        1
 44
0.0
173
     0
291
     1
 45
0.0
1001
ACAD
1000
AcDbSavedByObjectVersion
1070
     0
  0
VISUALSTYLE
  5
4B5
102
{ACAD_XDICTIONARY
360
A40
102
}
102
{ACAD_REACTORS
330
4AC
102
}
330
4AC
100
AcDbVisualStyle
  2
Conceptual
 70
     9
 71
     3
 72
     2
 73
     0
 90
        0
 40
-0.6
 41
-30.0
 62
     5
 63
     7
421
 16777215
 74
     2
 91
        2
 64
     7
 65
   257
 75
     1
175
     1
 42
179.0
 92
        8
 66
     7
 43
1.0
 76
     1
 77
     6
 78
     2
 67
     7
 79
     3
170
     0
171
     0
290
     0
174
     0
 93
        1
 44
0.0
173
     0
291
     0
 45
0.0
1001
ACAD
1000
AcDbSavedByObjectVersion
1070
     0
  0
VISUALSTYLE
  5
4B7
102
{ACAD_XDICTIONARY
360
A44
102
}
102
{ACAD_REACTORS
330
4AC
102
}
330
4AC
100
AcDbVisualStyle
  2
Dim
 70
    11
 71
     2
 72
     2
 73
     0
 90
        0
 40
-0.6
 41
-30.0
 62
     5
 63
     7
421
 16777215
 74
     1
 91
        4
 64
     7
 65
   257
 75
     1
175
     1
 42
1.0
 92
        8
 66
     7
 43
1.0
 76
     1
 77
     6
 78
     2
 67
     7
 79
     5
170
     0
171
     0
290
     0
174
     0
 93
        1
 44
-50.0
173
     0
291
     1
 45
0.0
1001
ACAD
1000
AcDbSavedByObjectVersion
1070
     0
  0
VISUALSTYLE
  5
4BF
102
{ACAD_XDICTIONARY
360
A54
102
}
102
{ACAD_REACTORS
330
4AC
102
}
330
4AC
100
AcDbVisualStyle
  2
EdgeColorOff
 70
    22
 71
     2
 72
     2
 73
     0
 90
        0
 40
-0.6
 41
-30.0
 62
     5
 63
     7
421
 16777215
 74
     1
 91
        4
 64
     7
 65
   257
 75
     1
175
     1
 42
1.0
 92
        8
 66
     7
 43
1.0
 76
     1
 77
     6
 78
     2
 67
     7
 79
     5
170
     0
171
     0
290
     0
174
     0
 93
        1
 44
0.0
173
     0
291
     1
 45
0.0
1001
ACAD
1000
AcDbSavedByObjectVersion
1070
     0
  0
VISUALSTYLE
  5
4BB
102
{ACAD_XDICTIONARY
360
A4C
102
}
102
{ACAD_REACTORS
330
4AC
102
}
330
4AC
100
AcDbVisualStyle
  2
Facepattern
 70
    15
 71
     2
 72
     2
 73
     0
 90
        0
 40
-0.6
 41
-30.0
 62
     5
 63
     7
421
 16777215
 74
     1
 91
        4
 64
     7
 65
   257
 75
     1
175
     1
 42
1.0
 92
        8
 66
     7
 43
1.0
 76
     1
 77
     6
 78
     2
 67
     7
 79
     5
170
     0
171
     0
290
     0
174
     0
 93
        1
 44
0.0
173
     0
291
     1
 45
0.0
1001
ACAD
1000
AcDbSavedByObjectVersion
1070
     0
  0
VISUALSTYLE
  5
4AD
102
{ACAD_XDICTIONARY
360
A30
102
}
102
{ACAD_REACTORS
330
4AC
102
}
330
4AC
100
AcDbVisualStyle
  2
Flat
 70
     0
 71
     2
 72
     1
 73
     1
 90
        2
 40
-0.6
 41
30.0
 62
     5
 63
     7
421
 16777215
 74
     0
 91
        4
 64
     7
 65
   257
 75
     1
175
     1
 42
1.0
 92
        8
 66
     7
 43
1.0
 76
     1
 77
     6
 78
     2
 67
     7
 79
     5
170
     0
171
     0
290
     0
174
     0
 93
       13
 44
0.0
173
     0
291
     1
 45
0.0
1001
ACAD
1000
AcDbSavedByObjectVersion
1070
     0
  0
VISUALSTYLE
  5
4AE
102
{ACAD_XDICTIONARY
360
A32
102
}
102
{ACAD_REACTORS
330
4AC
102
}
330
4AC
100
AcDbVisualStyle
  2
FlatWithEdges
 70
     1
 71
     2
 72
     1
 73
     1
 90
        2
 40
-0.6
 41
30.0
 62
     5
 63
     7
421
 16777215
 74
     1
 91
        4
 64
     7
 65
   257
 75
     1
175
     1
 42
1.0
 92
        0
 66
   257
 43
1.0
 76
     1
 77
     6
 78
     2
 67
     7
 79
     5
170
     0
171
     0
290
     0
174
     0
 93
       13
 44
0.0
173
     0
291
     1
 45
0.0
1001
ACAD
1000
AcDbSavedByObjectVersion
1070
     0
  0
VISUALSTYLE
  5
4AF
102
{ACAD_XDICTIONARY
360
A34
102
}
102
{ACAD_REACTORS
330
4AC
102
}
330
4AC
100
AcDbVisualStyle
  2
Gouraud
 70
     2
 71
     2
 72
     2
 73
     1
 90
        2
 40
-0.6
 41
30.0
 62
     5
 63
     7
421
 16777215
 74
     0
 91
        4
 64
     7
 65
   257
 75
     1
175
     1
 42
1.0
 92
        0
 66
     7
 43
1.0
 76
     1
 77
     6
 78
     2
 67
     7
 79
     5
170
     0
171
     0
290
     0
174
     0
 93
       13
 44
0.0
173
     0
291
     1
 45
0.0
1001
ACAD
1000
AcDbSavedByObjectVersion
1070
     0
  0
VISUALSTYLE
  5
4B0
102
{ACAD_XDICTIONARY
360
A36
102
}
102
{ACAD_REACTORS
330
4AC
102
}
330
4AC
100
AcDbVisualStyle
  2
GouraudWithEdges
 70
     3
 71
     2
 72
     2
 73
     1
 90
        2
 40
-0.6
 41
30.0
 62
     5
 63
     7
421
 16777215
 74
     1
 91
        4
 64
     7
 65
   257
 75
     1
175
     1
 42
1.0
 92
        0
 66
   257
 43
1.0
 76
     1
 77
     6
 78
     2
 67
     7
 79
     5
170
     0
171
     0
290
     0
174
     0
 93
       13
 44
0.0
173
     0
291
     1
 45
0.0
1001
ACAD
1000
AcDbSavedByObjectVersion
1070
     0
  0
VISUALSTYLE
  5
508
102
{ACAD_XDICTIONARY
360
A58
102
}
102
{ACAD_REACTORS
330
4AC
102
}
330
4AC
100
AcDbVisualStyle
  2
Hidden
 70
     6
 71
     1
 72
     2
 73
     2
 90
        0
 40
-0.6
 41
-30.0
 62
     5
 63
     7
421
 16777215
 74
     2
 91
        2
 64
     7
 65
   257
 75
     2
175
     1
 42
40.0
 92
        0
 66
   257
 43
1.0
 76
     1
 77
     6
 78
     2
 67
     7
 79
     3
170
     0
171
     0
290
     0
174
     0
 93
        1
 44
0.0
173
     0
291
     0
 45
0.0
1001
ACAD
1000
AcDbSavedByObjectVersion
1070
     0
  0
VISUALSTYLE
  5
4BD
102
{ACAD_XDICTIONARY
360
A50
102
}
102
{ACAD_REACTORS
330
4AC
102
}
330
4AC
100
AcDbVisualStyle
  2
JitterOff
 70
    20
 71
     2
 72
     2
 73
     0
 90
        0
 40
-0.6
 41
-30.0
 62
     5
 63
     7
421
 16777215
 74
     1
 91
        4
 64
     7
 65
   257
 75
     1
175
     1
 42
1.0
 92
       10
 66
     7
 43
1.0
 76
     1
 77
     6
 78
     2
 67
     7
 79
     5
170
     0
171
     0
290
     0
174
     0
 93
        1
 44
0.0
173
     0
291
     1
 45
0.0
1001
ACAD
1000
AcDbSavedByObjectVersion
1070
     0
  0
VISUALSTYLE
  5
4BA
102
{ACAD_XDICTIONARY
360
A4A
102
}
102
{ACAD_REACTORS
330
4AC
102
}
330
4AC
100
AcDbVisualStyle
  2
Linepattern
 70
    14
 71
     2
 72
     2
 73
     0
 90
        0
 40
-0.6
 41
-30.0
 62
     5
 63
     7
421
 16777215
 74
     1
 91
        4
 64
     7
 65
   257
 75
     7
175
     7
 42
1.0
 92
        8
 66
     7
 43
1.0
 76
     1
 77
     6
 78
     2
 67
     7
 79
     5
170
     0
171
     0
290
     0
174
     0
 93
        1
 44
0.0
173
     0
291
     1
 45
0.0
1001
ACAD
1000
AcDbSavedByObjectVersion
1070
     0
  0
VISUALSTYLE
  5
4BE
102
{ACAD_XDICTIONARY
360
A52
102
}
102
{ACAD_REACTORS
330
4AC
102
}
330
4AC
100
AcDbVisualStyle
  2
OverhangOff
 70
    21
 71
     2
 72
     2
 73
     0
 90
        0
 40
-0.6
 41
-30.0
 62
     5
 63
     7
421
 16777215
 74
     1
 91
        4
 64
     7
 65
   257
 75
     1
175
     1
 42
1.0
 92
        9
 66
     7
 43
1.0
 76
     1
 77
     6
 78
     2
 67
     7
 79
     5
170
     0
171
     0
290
     0
174
     0
 93
        1
 44
0.0
173
     0
291
     1
 45
0.0
1001
ACAD
1000
AcDbSavedByObjectVersion
1070
     0
  0
VISUALSTYLE
  5
4B6
102
{ACAD_XDICTIONARY
360
A42
102
}
102
{ACAD_REACTORS
330
4AC
102
}
330
4AC
100
AcDbVisualStyle
  2
Realistic
 70
     8
 71
     2
 72
     2
 73
     0
 90
        0
 40
-0.6
 41
-30.0
 62
     5
 63
     7
421
 16777215
 74
     1
 91
        0
 64
     7
 65
   257
 75
     1
175
     1
 42
1.0
 92
        8
 66
     8
424
  7895160
 43
1.0
 76
     1
 77
     6
 78
     2
 67
     7
 79
     5
170
     0
171
     0
290
     0
174
     0
 93
       13
 44
0.0
173
     0
291
     0
 45
0.0
1001
ACAD
1000
AcDbSavedByObjectVersion
1070
     0
  0
VISUALSTYLE
  5
50D
102
{ACAD_XDICTIONARY
360
A62
102
}
102
{ACAD_REACTORS
330
4AC
102
}
330
4AC
100
AcDbVisualStyle
  2
Shaded
 70
    27
 71
     2
 72
     2
 73
     1
 90
        2
 40
-0.6
 41
30.0
 62
     5
 63
     7
421
 16777215
 74
     0
 91
        4
 64
     7
 65
   257
 75
     1
175
     1
 42
1.0
 92
        8
 66
   257
 43
1.0
 76
     1
 77
     6
 78
     2
 67
     8
425
  7895160
 79
     3
170
     0
171
     0
290
     0
174
     0
 93
        5
 44
0.0
173
     0
291
     0
 45
0.0
1001
ACAD
1000
AcDbSavedByObjectVersion
1070
     0
  0
VISUALSTYLE
  5
50C
102
{ACAD_XDICTIONARY
360
A60
102
}
102
{ACAD_REACTORS
330
4AC
102
}
330
4AC
100
AcDbVisualStyle
  2
Shaded with edges
 70
    26
 71
     2
 72
     2
 73
     1
 90
        2
 40
-0.6
 41
30.0
 62
     5
 63
     7
421
 16777215
 74
     1
 91
       10
 64
     7
 65
   257
 75
     2
175
     1
 42
1.0
 92
        8
 66
   257
 43
1.0
 76
     1
 77
     6
 78
     2
 67
     7
 79
     3
170
     0
171
     0
290
     0
174
     0
 93
        5
 44
0.0
173
     0
291
     0
 45
0.0
1001
ACAD
1000
AcDbSavedByObjectVersion
1070
     0
  0
VISUALSTYLE
  5
509
102
{ACAD_XDICTIONARY
360
A5A
102
}
102
{ACAD_REACTORS
330
4AC
102
}
330
4AC
100
AcDbVisualStyle
  2
Shades of Gray
 70
    23
 71
     2
 72
     2
 73
     3
 90
        0
 40
-0.6
 41
-30.0
 62
     5
 63
     7
421
 16777215
 74
     2
 91
        2
 64
     7
 65
     7
 75
     1
175
     1
 42
40.0
 92
        8
 66
     7
 43
1.0
 76
     1
 77
     6
 78
     2
 67
     7
 79
     3
170
     0
171
     0
290
     0
174
     0
 93
        1
 44
0.0
173
     0
291
     0
 45
0.0
1001
ACAD
1000
AcDbSavedByObjectVersion
1070
     0
  0
VISUALSTYLE
  5
50A
102
{ACAD_XDICTIONARY
360
A5C
102
}
102
{ACAD_REACTORS
330
4AC
102
}
330
4AC
100
AcDbVisualStyle
  2
Sketchy
 70
    24
 71
     1
 72
     2
 73
     2
 90
        0
 40
-0.6
 41
-30.0
 62
     5
 63
     7
421
 16777215
 74
     2
 91
        2
 64
     7
 65
     7
 75
     1
175
     1
 42
40.0
 92
       11
 66
     7
 43
1.0
 76
     1
 77
     6
 78
     2
 67
     7
 79
     6
170
     0
171
     0
290
     0
174
     0
 93
        1
 44
0.0
173
     0
291
     0
 45
0.0
1001
ACAD
1000
AcDbSavedByObjectVersion
1070
     0
  0
VISUALSTYLE
  5
4B9
102
{ACAD_XDICTIONARY
360
A48
102
}
102
{ACAD_REACTORS
330
4AC
102
}
330
4AC
100
AcDbVisualStyle
  2
Thicken
 70
    13
 71
     2
 72
     2
 73
     0
 90
        0
 40
-0.6
 41
-30.0
 62
     5
 63
     7
421
 16777215
 74
     1
 91
        4
 64
     7
 65
   257
 75
     1
175
     1
 42
1.0
 92
       12
 66
     7
 43
1.0
 76
     1
 77
     6
 78
     2
 67
     7
 79
     5
170
     0
171
     0
290
     0
174
     0
 93
        1
 44
0.0
173
     0
291
     1
 45
0.0
1001
ACAD
1000
AcDbSavedByObjectVersion
1070
     0
  0
VISUALSTYLE
  5
507
102
{ACAD_XDICTIONARY
360
A56
102
}
102
{ACAD_REACTORS
330
4AC
102
}
330
4AC
100
AcDbVisualStyle
  2
Wireframe
 70
     5
 71
     0
 72
     2
 73
     0
 90
        0
 40
-0.6
 41
-30.0
 62
     5
 63
     7
421
 16777215
 74
     1
 91
        4
 64
     7
 65
   257
 75
     1
175
     1
 42
1.0
 92
        0
 66
   257
 43
1.0
 76
     1
 77
     6
 78
     2
 67
     7
 79
     3
170
     0
171
     0
290
     0
174
     0
 93
        1
 44
0.0
173
     0
291
     0
 45
0.0
1001
ACAD
1000
AcDbSavedByObjectVersion
1070
     0
  0
VISUALSTYLE
  5
50B
102
{ACAD_XDICTIONARY
360
A5E
102
}
102
{ACAD_REACTORS
330
4AC
102
}
330
4AC
100
AcDbVisualStyle
  2
X-Ray
 70
    25
 71
     2
 72
     2
 73
     1
 90
        1
 40
0.5
 41
-30.0
 62
     5
 63
     7
421
 16777215
 74
     1
 91
        0
 64
     7
 65
   257
 75
     1
175
     1
 42
1.0
 92
        8
 66
     7
 43
1.0
 76
     1
 77
     6
 78
     2
 67
     7
 79
     3
170
     0
171
     0
290
     0
174
     0
 93
       13
 44
0.0
173
     0
291
     0
 45
0.0
1001
ACAD
1000
AcDbSavedByObjectVersion
1070
     0
  0
DICTIONARYVAR
  5
504
102
{ACAD_REACTORS
330
501
102
}
330
501
100
DictionaryVariables
280
     0
  1
1:1
  0
DICTIONARYVAR
  5
503
102
{ACAD_REACTORS
330
501
102
}
330
501
100
DictionaryVariables
280
     0
  1
STANDARD
  0
DICTIONARYVAR
  5
502
102
{ACAD_REACTORS
330
501
102
}
330
501
100
DictionaryVariables
280
     0
  1
STANDARD
  0
DICTIONARYVAR
  5
9D5
102
{ACAD_REACTORS
330
501
102
}
330
501
100
DictionaryVariables
280
     0
  1
Metric50
  0
DICTIONARYVAR
  5
9D6
102
{ACAD_REACTORS
330
501
102
}
330
501
100
DictionaryVariables
280
     0
  1
Metric50
  0
DICTIONARYVAR
  5
9D7
102
{ACAD_REACTORS
330
501
102
}
330
501
100
DictionaryVariables
280
     0
  1
2
  0
DICTIONARY
  5
A2F
102
{ACAD_REACTORS
330
A2D
102
}
330
A2D
100
AcDbDictionary
281
     1
  0
DICTIONARY
  5
A2E
102
{ACAD_REACTORS
330
A2D
102
}
330
A2D
100
AcDbDictionary
281
     1
  3
8796083807872
350
A28
  3
8796083807888
350
A29
  3
8796083807904
350
A2A
  3
8796083807920
350
A2B
  3
8796083807936
350
A2C
  0
DICTIONARY
  5
49D
330
49C
100
AcDbDictionary
280
     1
281
     1
  3
BUMPTILE
360
49F
  3
DIFFUSETILE
360
49E
  3
OPACITYTILE
360
4A2
  3
REFLECTIONTILE
360
4A1
  3
REFRACTIONTILE
360
4A3
  3
SPECULARTILE
360
4A0
  0
DICTIONARY
  5
495
330
494
100
AcDbDictionary
280
     1
281
     1
  3
BUMPTILE
360
497
  3
DIFFUSETILE
360
496
  3
OPACITYTILE
360
49A
  3
REFLECTIONTILE
360
499
  3
REFRACTIONTILE
360
49B
  3
SPECULARTILE
360
498
  0
DICTIONARY
  5
4A5
330
4A4
100
AcDbDictionary
280
     1
281
     1
  3
BUMPTILE
360
4A7
  3
DIFFUSETILE
360
4A6
  3
OPACITYTILE
360
4AA
  3
REFLECTIONTILE
360
4A9
  3
REFRACTIONTILE
360
4AB
  3
SPECULARTILE
360
4A8
  0
DICTIONARY
  5
4D7
330
4C2
100
AcDbDictionary
280
     1
281
     1
  3
ACAD_ROUNDTRIP_2008_TABLESTYLE_CELLSTYLEMAP
360
A26
  0
DICTIONARY
  5
A3A
330
4B2
100
AcDbDictionary
280
     1
281
     1
  3
ACAD_XREC_ROUNDTRIP
360
A3B
  0
DICTIONARY
  5
A3E
330
4B4
100
AcDbDictionary
280
     1
281
     1
  3
ACAD_XREC_ROUNDTRIP
360
A3F
  0
DICTIONARY
  5
A3C
330
4B3
100
AcDbDictionary
280
     1
281
     1
  3
ACAD_XREC_ROUNDTRIP
360
A3D
  0
DICTIONARY
  5
A38
330
4B1
100
AcDbDictionary
280
     1
281
     1
  3
ACAD_XREC_ROUNDTRIP
360
A39
  0
DICTIONARY
  5
A46
330
4B8
100
AcDbDictionary
280
     1
281
     1
  3
ACAD_XREC_ROUNDTRIP
360
A47
  0
DICTIONARY
  5
A4E
330
4BC
100
AcDbDictionary
280
     1
281
     1
  3
ACAD_XREC_ROUNDTRIP
360
A4F
  0
DICTIONARY
  5
A40
330
4B5
100
AcDbDictionary
280
     1
281
     1
  3
ACAD_XREC_ROUNDTRIP
360
A41
  0
DICTIONARY
  5
A44
330
4B7
100
AcDbDictionary
280
     1
281
     1
  3
ACAD_XREC_ROUNDTRIP
360
A45
  0
DICTIONARY
  5
A54
330
4BF
100
AcDbDictionary
280
     1
281
     1
  3
ACAD_XREC_ROUNDTRIP
360
A55
  0
DICTIONARY
  5
A4C
330
4BB
100
AcDbDictionary
280
     1
281
     1
  3
ACAD_XREC_ROUNDTRIP
360
A4D
  0
DICTIONARY
  5
A30
330
4AD
100
AcDbDictionary
280
     1
281
     1
  3
ACAD_XREC_ROUNDTRIP
360
A31
  0
DICTIONARY
  5
A32
330
4AE
100
AcDbDictionary
280
     1
281
     1
  3
ACAD_XREC_ROUNDTRIP
360
A33
  0
DICTIONARY
  5
A34
330
4AF
100
AcDbDictionary
280
     1
281
     1
  3
ACAD_XREC_ROUNDTRIP
360
A35
  0
DICTIONARY
  5
A36
330
4B0
100
AcDbDictionary
280
     1
281
     1
  3
ACAD_XREC_ROUNDTRIP
360
A37
  0
DICTIONARY
  5
A58
330
508
100
AcDbDictionary
280
     1
281
     1
  3
ACAD_XREC_ROUNDTRIP
360
A59
  0
DICTIONARY
  5
A50
330
4BD
100
AcDbDictionary
280
     1
281
     1
  3
ACAD_XREC_ROUNDTRIP
360
A51
  0
DICTIONARY
  5
A4A
330
4BA
100
AcDbDictionary
280
     1
281
     1
  3
ACAD_XREC_ROUNDTRIP
360
A4B
  0
DICTIONARY
  5
A52
330
4BE
100
AcDbDictionary
280
     1
281
     1
  3
ACAD_XREC_ROUNDTRIP
360
A53
  0
DICTIONARY
  5
A42
330
4B6
100
AcDbDictionary
280
     1
281
     1
  3
ACAD_XREC_ROUNDTRIP
360
A43
  0
DICTIONARY
  5
A62
330
50D
100
AcDbDictionary
280
     1
281
     1
  3
ACAD_XREC_ROUNDTRIP
360
A63
  0
DICTIONARY
  5
A60
330
50C
100
AcDbDictionary
280
     1
281
     1
  3
ACAD_XREC_ROUNDTRIP
360
A61
  0
DICTIONARY
  5
A5A
330
509
100
AcDbDictionary
280
     1
281
     1
  3
ACAD_XREC_ROUNDTRIP
360
A5B
  0
DICTIONARY
  5
A5C
330
50A
100
AcDbDictionary
280
     1
281
     1
  3
ACAD_XREC_ROUNDTRIP
360
A5D
  0
DICTIONARY
  5
A48
330
4B9
100
AcDbDictionary
280
     1
281
     1
  3
ACAD_XREC_ROUNDTRIP
360
A49
  0
DICTIONARY
  5
A56
330
507
100
AcDbDictionary
280
     1
281
     1
  3
ACAD_XREC_ROUNDTRIP
360
A57
  0
DICTIONARY
  5
A5E
330
50B
100
AcDbDictionary
280
     1
281
     1
  3
ACAD_XREC_ROUNDTRIP
360
A5F
  0
XRECORD
  5
A28
102
{ACAD_REACTORS
330
A2E
102
}
330
A2E
100
AcDbXrecord
280
     1
  1
AcDb_Thumbnail_Schema
102
{ATTRRECORD
341
A29
  2
AcDbDs::TreatedAsObjectData
280
     1
291
     1
102
ATTRRECORD}
102
{ATTRRECORD
341
A2A
  2
AcDbDs::Legacy
280
     1
291
     1
102
ATTRRECORD}
  2
AcDbDs::ID
280
    10
 91
        8
102
{ATTRRECORD
341
A2B
  2
AcDs:Indexable
280
     1
291
     1
102
ATTRRECORD}
102
{ATTRRECORD
341
A2C
  2
AcDbDs::HandleAttribute
280
     7
282
     1
102
ATTRRECORD}
  2
Thumbnail_Data
280
    15
 91
        0
  0
XRECORD
  5
A29
102
{ACAD_REACTORS
330
A2E
102
}
330
A2E
100
AcDbXrecord
280
     1
  1
AcDbDs::TreatedAsObjectDataSchema
  2
AcDbDs::TreatedAsObjectData
280
     1
 91
        0
  0
XRECORD
  5
A2A
102
{ACAD_REACTORS
330
A2E
102
}
330
A2E
100
AcDbXrecord
280
     1
  1
AcDbDs::LegacySchema
  2
AcDbDs::Legacy
280
     1
 91
        0
  0
XRECORD
  5
A2B
102
{ACAD_REACTORS
330
A2E
102
}
330
A2E
100
AcDbXrecord
280
     1
  1
AcDbDs::IndexedPropertySchema
  2
AcDs:Indexable
280
     1
 91
        0
  0
XRECORD
  5
A2C
102
{ACAD_REACTORS
330
A2E
102
}
330
A2E
100
AcDbXrecord
280
     1
  1
AcDbDs::HandleAttributeSchema
  2
AcDbDs::HandleAttribute
280
     7
 91
        1
284
     1
  0
XRECORD
  5
49F
102
{ACAD_REACTORS
330
49D
102
}
330
49D
100
AcDbXrecord
280
     1
270
     1
271
     1
  0
XRECORD
  5
49E
102
{ACAD_REACTORS
330
49D
102
}
330
49D
100
AcDbXrecord
280
     1
270
     1
271
     1
  0
XRECORD
  5
4A2
102
{ACAD_REACTORS
330
49D
102
}
330
49D
100
AcDbXrecord
280
     1
270
     1
271
     1
  0
XRECORD
  5
4A1
102
{ACAD_REACTORS
330
49D
102
}
330
49D
100
AcDbXrecord
280
     1
270
     1
271
     1
  0
XRECORD
  5
4A3
102
{ACAD_REACTORS
330
49D
102
}
330
49D
100
AcDbXrecord
280
     1
270
     1
271
     1
  0
XRECORD
  5
4A0
102
{ACAD_REACTORS
330
49D
102
}
330
49D
100
AcDbXrecord
280
     1
270
     1
271
     1
  0
XRECORD
  5
497
102
{ACAD_REACTORS
330
495
102
}
330
495
100
AcDbXrecord
280
     1
270
     1
271
     1
  0
XRECORD
  5
496
102
{ACAD_REACTORS
330
495
102
}
330
495
100
AcDbXrecord
280
     1
270
     1
271
     1
  0
XRECORD
  5
49A
102
{ACAD_REACTORS
330
495
102
}
330
495
100
AcDbXrecord
280
     1
270
     1
271
     1
  0
XRECORD
  5
499
102
{ACAD_REACTORS
330
495
102
}
330
495
100
AcDbXrecord
280
     1
270
     1
271
     1
  0
XRECORD
  5
49B
102
{ACAD_REACTORS
330
495
102
}
330
495
100
AcDbXrecord
280
     1
270
     1
271
     1
  0
XRECORD
  5
498
102
{ACAD_REACTORS
330
495
102
}
330
495
100
AcDbXrecord
280
     1
270
     1
271
     1
  0
XRECORD
  5
4A7
102
{ACAD_REACTORS
330
4A5
102
}
330
4A5
100
AcDbXrecord
280
     1
270
     1
271
     1
  0
XRECORD
  5
4A6
102
{ACAD_REACTORS
330
4A5
102
}
330
4A5
100
AcDbXrecord
280
     1
270
     1
271
     1
  0
XRECORD
  5
4AA
102
{ACAD_REACTORS
330
4A5
102
}
330
4A5
100
AcDbXrecord
280
     1
270
     1
271
     1
  0
XRECORD
  5
4A9
102
{ACAD_REACTORS
330
4A5
102
}
330
4A5
100
AcDbXrecord
280
     1
270
     1
271
     1
  0
XRECORD
  5
4AB
102
{ACAD_REACTORS
330
4A5
102
}
330
4A5
100
AcDbXrecord
280
     1
270
     1
271
     1
  0
XRECORD
  5
4A8
102
{ACAD_REACTORS
330
4A5
102
}
330
4A5
100
AcDbXrecord
280
     1
270
     1
271
     1
  0
CELLSTYLEMAP
  5
A26
102
{ACAD_REACTORS
330
4D7
102
}
330
4D7
100
AcDbCellStyleMap
 90
        3
300
CELLSTYLE
  1
TABLEFORMAT_BEGIN
 90
        5
170
     1
 91
        0
 92
    32768
 62
   257
 93
        1
300
CONTENTFORMAT
  1
CONTENTFORMAT_BEGIN
 90
        0
 91
        0
 92
      512
 93
        0
300

 40
0.0
140
1.0
 94
        5
 62
     0
340
11
144
6.0
309
CONTENTFORMAT_END
171
     1
301
MARGIN
  1
CELLMARGIN_BEGIN
 40
1.5
 40
1.5
 40
1.5
 40
1.5
 40
4.5
 40
4.5
309
CELLMARGIN_END
 94
        6
 95
        1
302
GRIDFORMAT
  1
GRIDFORMAT_BEGIN
 90
        0
 91
        1
 62
     0
 92
       -2
340
0
 93
        0
 40
1.125
309
GRIDFORMAT_END
 95
        2
302
GRIDFORMAT
  1
GRIDFORMAT_BEGIN
 90
        0
 91
        1
 62
     0
 92
       -2
340
0
 93
        0
 40
1.125
309
GRIDFORMAT_END
 95
        4
302
GRIDFORMAT
  1
GRIDFORMAT_BEGIN
 90
        0
 91
        1
 62
     0
 92
       -2
340
0
 93
        0
 40
1.125
309
GRIDFORMAT_END
 95
        8
302
GRIDFORMAT
  1
GRIDFORMAT_BEGIN
 90
        0
 91
        1
 62
     0
 92
       -2
340
0
 93
        0
 40
1.125
309
GRIDFORMAT_END
 95
       16
302
GRIDFORMAT
  1
GRIDFORMAT_BEGIN
 90
        0
 91
        1
 62
     0
 92
       -2
340
0
 93
        0
 40
1.125
309
GRIDFORMAT_END
 95
       32
302
GRIDFORMAT
  1
GRIDFORMAT_BEGIN
 90
        0
 91
        1
 62
     0
 92
       -2
340
0
 93
        0
 40
1.125
309
GRIDFORMAT_END
309
TABLEFORMAT_END
  1
CELLSTYLE_BEGIN
 90
        1
 91
        1
300
_TITLE
309
CELLSTYLE_END
300
CELLSTYLE
  1
TABLEFORMAT_BEGIN
 90
        5
170
     1
 91
        0
 92
        0
 62
   257
 93
        1
300
CONTENTFORMAT
  1
CONTENTFORMAT_BEGIN
 90
        0
 91
        0
 92
      512
 93
        0
300

 40
0.0
140
1.0
 94
        5
 62
     0
340
11
144
4.5
309
CONTENTFORMAT_END
171
     1
301
MARGIN
  1
CELLMARGIN_BEGIN
 40
1.5
 40
1.5
 40
1.5
 40
1.5
 40
4.5
 40
4.5
309
CELLMARGIN_END
 94
        6
 95
        1
302
GRIDFORMAT
  1
GRIDFORMAT_BEGIN
 90
        0
 91
        1
 62
     0
 92
       -2
340
0
 93
        0
 40
1.125
309
GRIDFORMAT_END
 95
        2
302
GRIDFORMAT
  1
GRIDFORMAT_BEGIN
 90
        0
 91
        1
 62
     0
 92
       -2
340
0
 93
        0
 40
1.125
309
GRIDFORMAT_END
 95
        4
302
GRIDFORMAT
  1
GRIDFORMAT_BEGIN
 90
        0
 91
        1
 62
     0
 92
       -2
340
0
 93
        0
 40
1.125
309
GRIDFORMAT_END
 95
        8
302
GRIDFORMAT
  1
GRIDFORMAT_BEGIN
 90
        0
 91
        1
 62
     0
 92
       -2
340
0
 93
        0
 40
1.125
309
GRIDFORMAT_END
 95
       16
302
GRIDFORMAT
  1
GRIDFORMAT_BEGIN
 90
        0
 91
        1
 62
     0
 92
       -2
340
0
 93
        0
 40
1.125
309
GRIDFORMAT_END
 95
       32
302
GRIDFORMAT
  1
GRIDFORMAT_BEGIN
 90
        0
 91
        1
 62
     0
 92
       -2
340
0
 93
        0
 40
1.125
309
GRIDFORMAT_END
309
TABLEFORMAT_END
  1
CELLSTYLE_BEGIN
 90
        2
 91
        1
300
_HEADER
309
CELLSTYLE_END
300
CELLSTYLE
  1
TABLEFORMAT_BEGIN
 90
        5
170
     1
 91
        0
 92
        0
 62
   257
 93
        1
300
CONTENTFORMAT
  1
CONTENTFORMAT_BEGIN
 90
        0
 91
        0
 92
      512
 93
        0
300

 40
0.0
140
1.0
 94
        2
 62
     0
340
11
144
4.5
309
CONTENTFORMAT_END
171
     1
301
MARGIN
  1
CELLMARGIN_BEGIN
 40
1.5
 40
1.5
 40
1.5
 40
1.5
 40
4.5
 40
4.5
309
CELLMARGIN_END
 94
        6
 95
        1
302
GRIDFORMAT
  1
GRIDFORMAT_BEGIN
 90
        0
 91
        1
 62
     0
 92
       -2
340
0
 93
        0
 40
1.125
309
GRIDFORMAT_END
 95
        2
302
GRIDFORMAT
  1
GRIDFORMAT_BEGIN
 90
        0
 91
        1
 62
     0
 92
       -2
340
0
 93
        0
 40
1.125
309
GRIDFORMAT_END
 95
        4
302
GRIDFORMAT
  1
GRIDFORMAT_BEGIN
 90
        0
 91
        1
 62
     0
 92
       -2
340
0
 93
        0
 40
1.125
309
GRIDFORMAT_END
 95
        8
302
GRIDFORMAT
  1
GRIDFORMAT_BEGIN
 90
        0
 91
        1
 62
     0
 92
       -2
340
0
 93
        0
 40
1.125
309
GRIDFORMAT_END
 95
       16
302
GRIDFORMAT
  1
GRIDFORMAT_BEGIN
 90
        0
 91
        1
 62
     0
 92
       -2
340
0
 93
        0
 40
1.125
309
GRIDFORMAT_END
 95
       32
302
GRIDFORMAT
  1
GRIDFORMAT_BEGIN
 90
        0
 91
        1
 62
     0
 92
       -2
340
0
 93
        0
 40
1.125
309
GRIDFORMAT_END
309
TABLEFORMAT_END
  1
CELLSTYLE_BEGIN
 90
        3
 91
        2
300
_DATA
309
CELLSTYLE_END
  0
XRECORD
  5
A3B
102
{ACAD_REACTORS
330
A3A
102
}
330
A3A
100
AcDbXrecord
280
     1
102
RTVSPost2010Prop28
280
     1
102
RTVSPost2010PropOp28
 70
     1
102
RTVSPost2010Prop29
280
     1
102
RTVSPost2010PropOp29
 70
     1
102
RTVSPost2010Prop30
280
     0
102
RTVSPost2010PropOp30
 70
     1
102
RTVSPost2010Prop31
280
     0
102
RTVSPost2010PropOp31
 70
     1
102
RTVSPost2010Prop32
280
     0
102
RTVSPost2010PropOp32
 70
     1
102
RTVSPost2010Prop33
280
     0
102
RTVSPost2010PropOp33
 70
     1
102
RTVSPost2010Prop34
280
     0
102
RTVSPost2010PropOp34
 70
     1
102
RTVSPost2010Prop35
280
     0
102
RTVSPost2010PropOp35
 70
     1
102
RTVSPost2010Prop36
280
     0
102
RTVSPost2010PropOp36
 70
     1
102
RTVSPost2010Prop37
 90
       50
102
RTVSPost2010PropOp37
 70
     1
102
RTVSPost2010Prop38
140
0.0
102
RTVSPost2010PropOp38
 70
     1
102
RTVSPost2010Prop39
140
1.0
102
RTVSPost2010PropOp39
 70
     1
102
RTVSPost2010Prop40
 90
        0
102
RTVSPost2010PropOp40
 70
     1
102
RTVSPost2010Prop41ColorIndex
 90
       18
102
RTVSPost2010Prop41ColorRGB
 90
        0
102
RTVSPost2010PropOp41
 70
     1
102
RTVSPost2010Prop42
 90
       50
102
RTVSPost2010PropOp42
 70
     1
102
RTVSPost2010Prop43
 90
        3
102
RTVSPost2010PropOp43
 70
     1
102
RTVSPost2010Prop44ColorIndex
 90
        5
102
RTVSPost2010Prop44ColorRGB
 90
      255
102
RTVSPost2010PropOp44
 70
     1
102
RTVSPost2010Prop45
280
     0
102
RTVSPost2010PropOp45
 70
     1
102
RTVSPost2010Prop46
 90
       50
102
RTVSPost2010PropOp46
 70
     1
102
RTVSPost2010Prop47
 90
       50
102
RTVSPost2010PropOp47
 70
     1
102
RTVSPost2010Prop48
 90
       50
102
RTVSPost2010PropOp48
 70
     1
102
RTVSPost2010Prop49
280
     0
102
RTVSPost2010PropOp49
 70
     1
102
RTVSPost2010Prop50
 90
       50
102
RTVSPost2010PropOp50
 70
     1
102
RTVSPost2010Prop51ColorIndex
 90
      256
102
RTVSPost2010Prop51ColorRGB
 90
-16777216
102
RTVSPost2010PropOp51
 70
     0
102
RTVSPost2010Prop52
140
1.0
102
RTVSPost2010PropOp52
 70
     0
102
RTVSPost2010Prop53
 90
        2
102
RTVSPost2010PropOp53
 70
     1
102
RTVSPost2010Prop54
  1
strokes_ogs.tif
102
RTVSPost2010PropOp54
 70
     1
102
RTVSPost2010Prop55
280
     0
102
RTVSPost2010PropOp55
 70
     1
102
RTVSPost2010Prop56
140
1.0
102
RTVSPost2010PropOp56
 70
     1
102
RTVSPost2010Prop57
140
1.0
102
RTVSPost2010PropOp57
 70
     1
102
RTVSPropertyOp0
 70
     1
102
RTVSPropertyOp1
 70
     1
102
RTVSPropertyOp2
 70
     1
102
RTVSPropertyOp3
 70
     1
102
RTVSPropertyOp4
 70
     1
102
RTVSPropertyOp5
 70
     1
102
RTVSPropertyOp6
 70
     1
102
RTVSPropertyOp7
 70
     1
102
RTVSPropertyOp8
 70
     1
102
RTVSPropertyOp9
 70
     1
102
RTVSPropertyOp10
 70
     1
102
RTVSPropertyOp11
 70
     1
102
RTVSPropertyOp12
 70
     1
102
RTVSPropertyOp13
 70
     1
102
RTVSPropertyOp14
 70
     1
102
RTVSPropertyOp15
 70
     1
102
RTVSPropertyOp16
 70
     1
102
RTVSPropertyOp17
 70
     1
102
RTVSPropertyOp18
 70
     1
102
RTVSPropertyOp19
 70
     1
102
RTVSPropertyOp20
 70
     1
102
RTVSPropertyOp21
 70
     1
102
RTVSPropertyOp22
 70
     1
102
RTVSPropertyOp23
 70
     1
102
RTVSPropertyOp24
 70
     1
102
RTVSPropertyOp25
 70
     1
102
RTVSPropertyOp26
 70
     1
102
RTVSPropertyOp27
 70
     1
102
RTVSPropertyOp28
 70
     1
102
RTVSPropertyOp29
 70
     1
102
RTVSPropertyOp30
 70
     1
102
RTVSPropertyOp31
 70
     1
102
RTVSPropertyOp32
 70
     1
102
RTVSPropertyOp33
 70
     1
102
RTVSPropertyOp34
 70
     1
102
RTVSPropertyOp35
 70
     1
102
RTVSPropertyOp36
 70
     1
102
RTVSPropertyOp37
 70
     1
102
RTVSPropertyOp38
 70
     1
102
RTVSPropertyOp39
 70
     1
102
RTVSPropertyOp40
 70
     1
102
RTVSPropertyOp41
 70
     1
102
RTVSPropertyOp42
 70
     1
102
RTVSPropertyOp43
 70
     1
102
RTVSPropertyOp44
 70
     1
102
RTVSPropertyOp45
 70
     1
102
RTVSPropertyOp46
 70
     1
102
RTVSPropertyOp47
 70
     1
102
RTVSPropertyOp48
 70
     1
102
RTVSPropertyOp49
 70
     1
102
RTVSPropertyOp50
 70
     1
102
RTVSPropertyOp51
 70
     0
102
RTVSPropertyOp52
 70
     0
102
RTVSPropertyOp53
 70
     1
102
RTVSPropertyOp54
 70
     1
102
RTVSPropertyOp55
 70
     1
102
RTVSPropertyOp56
 70
     1
102
RTVSPropertyOp57
 70
     1
102
RTVSPropertyOp58
 70
     1
102
RTVSPropertyOp59
 70
     1
102
RTVSPropertyOp60
 70
     1
102
RTVSPropertyOp61
 70
     1
102
RTVSPropertyOp62
 70
     1
  0
XRECORD
  5
A3F
102
{ACAD_REACTORS
330
A3E
102
}
330
A3E
100
AcDbXrecord
280
     1
102
RTVSPost2010Prop28
280
     0
102
RTVSPost2010PropOp28
 70
     1
102
RTVSPost2010Prop29
280
     1
102
RTVSPost2010PropOp29
 70
     1
102
RTVSPost2010Prop30
280
     1
102
RTVSPost2010PropOp30
 70
     1
102
RTVSPost2010Prop31
280
     0
102
RTVSPost2010PropOp31
 70
     1
102
RTVSPost2010Prop32
280
     0
102
RTVSPost2010PropOp32
 70
     1
102
RTVSPost2010Prop33
280
     0
102
RTVSPost2010PropOp33
 70
     1
102
RTVSPost2010Prop34
280
     0
102
RTVSPost2010PropOp34
 70
     1
102
RTVSPost2010Prop35
280
     0
102
RTVSPost2010PropOp35
 70
     1
102
RTVSPost2010Prop36
280
     0
102
RTVSPost2010PropOp36
 70
     1
102
RTVSPost2010Prop37
 90
       50
102
RTVSPost2010PropOp37
 70
     1
102
RTVSPost2010Prop38
140
0.0
102
RTVSPost2010PropOp38
 70
     1
102
RTVSPost2010Prop39
140
1.0
102
RTVSPost2010PropOp39
 70
     1
102
RTVSPost2010Prop40
 90
        0
102
RTVSPost2010PropOp40
 70
     1
102
RTVSPost2010Prop41ColorIndex
 90
       18
102
RTVSPost2010Prop41ColorRGB
 90
        0
102
RTVSPost2010PropOp41
 70
     1
102
RTVSPost2010Prop42
 90
       50
102
RTVSPost2010PropOp42
 70
     1
102
RTVSPost2010Prop43
 90
        3
102
RTVSPost2010PropOp43
 70
     1
102
RTVSPost2010Prop44ColorIndex
 90
        5
102
RTVSPost2010Prop44ColorRGB
 90
      255
102
RTVSPost2010PropOp44
 70
     1
102
RTVSPost2010Prop45
280
     0
102
RTVSPost2010PropOp45
 70
     1
102
RTVSPost2010Prop46
 90
       50
102
RTVSPost2010PropOp46
 70
     1
102
RTVSPost2010Prop47
 90
       50
102
RTVSPost2010PropOp47
 70
     1
102
RTVSPost2010Prop48
 90
       50
102
RTVSPost2010PropOp48
 70
     1
102
RTVSPost2010Prop49
280
     0
102
RTVSPost2010PropOp49
 70
     1
102
RTVSPost2010Prop50
 90
       50
102
RTVSPost2010PropOp50
 70
     1
102
RTVSPost2010Prop51ColorIndex
 90
      256
102
RTVSPost2010Prop51ColorRGB
 90
-16777216
102
RTVSPost2010PropOp51
 70
     0
102
RTVSPost2010Prop52
140
1.0
102
RTVSPost2010PropOp52
 70
     0
102
RTVSPost2010Prop53
 90
        2
102
RTVSPost2010PropOp53
 70
     1
102
RTVSPost2010Prop54
  1
strokes_ogs.tif
102
RTVSPost2010PropOp54
 70
     1
102
RTVSPost2010Prop55
280
     0
102
RTVSPost2010PropOp55
 70
     1
102
RTVSPost2010Prop56
140
1.0
102
RTVSPost2010PropOp56
 70
     1
102
RTVSPost2010Prop57
140
1.0
102
RTVSPost2010PropOp57
 70
     1
102
RTVSPropertyOp0
 70
     1
102
RTVSPropertyOp1
 70
     1
102
RTVSPropertyOp2
 70
     1
102
RTVSPropertyOp3
 70
     1
102
RTVSPropertyOp4
 70
     1
102
RTVSPropertyOp5
 70
     1
102
RTVSPropertyOp6
 70
     1
102
RTVSPropertyOp7
 70
     1
102
RTVSPropertyOp8
 70
     1
102
RTVSPropertyOp9
 70
     1
102
RTVSPropertyOp10
 70
     1
102
RTVSPropertyOp11
 70
     1
102
RTVSPropertyOp12
 70
     1
102
RTVSPropertyOp13
 70
     1
102
RTVSPropertyOp14
 70
     1
102
RTVSPropertyOp15
 70
     1
102
RTVSPropertyOp16
 70
     1
102
RTVSPropertyOp17
 70
     1
102
RTVSPropertyOp18
 70
     1
102
RTVSPropertyOp19
 70
     1
102
RTVSPropertyOp20
 70
     1
102
RTVSPropertyOp21
 70
     1
102
RTVSPropertyOp22
 70
     1
102
RTVSPropertyOp23
 70
     1
102
RTVSPropertyOp24
 70
     1
102
RTVSPropertyOp25
 70
     1
102
RTVSPropertyOp26
 70
     1
102
RTVSPropertyOp27
 70
     1
102
RTVSPropertyOp28
 70
     1
102
RTVSPropertyOp29
 70
     1
102
RTVSPropertyOp30
 70
     1
102
RTVSPropertyOp31
 70
     1
102
RTVSPropertyOp32
 70
     1
102
RTVSPropertyOp33
 70
     1
102
RTVSPropertyOp34
 70
     1
102
RTVSPropertyOp35
 70
     1
102
RTVSPropertyOp36
 70
     1
102
RTVSPropertyOp37
 70
     1
102
RTVSPropertyOp38
 70
     1
102
RTVSPropertyOp39
 70
     1
102
RTVSPropertyOp40
 70
     1
102
RTVSPropertyOp41
 70
     1
102
RTVSPropertyOp42
 70
     1
102
RTVSPropertyOp43
 70
     1
102
RTVSPropertyOp44
 70
     1
102
RTVSPropertyOp45
 70
     1
102
RTVSPropertyOp46
 70
     1
102
RTVSPropertyOp47
 70
     1
102
RTVSPropertyOp48
 70
     1
102
RTVSPropertyOp49
 70
     1
102
RTVSPropertyOp50
 70
     1
102
RTVSPropertyOp51
 70
     0
102
RTVSPropertyOp52
 70
     0
102
RTVSPropertyOp53
 70
     1
102
RTVSPropertyOp54
 70
     1
102
RTVSPropertyOp55
 70
     1
102
RTVSPropertyOp56
 70
     1
102
RTVSPropertyOp57
 70
     1
102
RTVSPropertyOp58
 70
     1
102
RTVSPropertyOp59
 70
     1
102
RTVSPropertyOp60
 70
     1
102
RTVSPropertyOp61
 70
     1
102
RTVSPropertyOp62
 70
     1
  0
XRECORD
  5
A3D
102
{ACAD_REACTORS
330
A3C
102
}
330
A3C
100
AcDbXrecord
280
     1
102
RTVSPost2010Prop28
280
     0
102
RTVSPost2010PropOp28
 70
     1
102
RTVSPost2010Prop29
280
     1
102
RTVSPost2010PropOp29
 70
     1
102
RTVSPost2010Prop30
280
     1
102
RTVSPost2010PropOp30
 70
     1
102
RTVSPost2010Prop31
280
     0
102
RTVSPost2010PropOp31
 70
     1
102
RTVSPost2010Prop32
280
     0
102
RTVSPost2010PropOp32
 70
     1
102
RTVSPost2010Prop33
280
     0
102
RTVSPost2010PropOp33
 70
     1
102
RTVSPost2010Prop34
280
     0
102
RTVSPost2010PropOp34
 70
     1
102
RTVSPost2010Prop35
280
     0
102
RTVSPost2010PropOp35
 70
     1
102
RTVSPost2010Prop36
280
     0
102
RTVSPost2010PropOp36
 70
     1
102
RTVSPost2010Prop37
 90
       50
102
RTVSPost2010PropOp37
 70
     1
102
RTVSPost2010Prop38
140
0.0
102
RTVSPost2010PropOp38
 70
     1
102
RTVSPost2010Prop39
140
1.0
102
RTVSPost2010PropOp39
 70
     1
102
RTVSPost2010Prop40
 90
        0
102
RTVSPost2010PropOp40
 70
     1
102
RTVSPost2010Prop41ColorIndex
 90
       18
102
RTVSPost2010Prop41ColorRGB
 90
        0
102
RTVSPost2010PropOp41
 70
     1
102
RTVSPost2010Prop42
 90
       50
102
RTVSPost2010PropOp42
 70
     1
102
RTVSPost2010Prop43
 90
        3
102
RTVSPost2010PropOp43
 70
     1
102
RTVSPost2010Prop44ColorIndex
 90
        5
102
RTVSPost2010Prop44ColorRGB
 90
      255
102
RTVSPost2010PropOp44
 70
     1
102
RTVSPost2010Prop45
280
     0
102
RTVSPost2010PropOp45
 70
     1
102
RTVSPost2010Prop46
 90
       50
102
RTVSPost2010PropOp46
 70
     1
102
RTVSPost2010Prop47
 90
       50
102
RTVSPost2010PropOp47
 70
     1
102
RTVSPost2010Prop48
 90
       50
102
RTVSPost2010PropOp48
 70
     1
102
RTVSPost2010Prop49
280
     0
102
RTVSPost2010PropOp49
 70
     1
102
RTVSPost2010Prop50
 90
       50
102
RTVSPost2010PropOp50
 70
     1
102
RTVSPost2010Prop51ColorIndex
 90
      256
102
RTVSPost2010Prop51ColorRGB
 90
-16777216
102
RTVSPost2010PropOp51
 70
     0
102
RTVSPost2010Prop52
140
1.0
102
RTVSPost2010PropOp52
 70
     0
102
RTVSPost2010Prop53
 90
        2
102
RTVSPost2010PropOp53
 70
     1
102
RTVSPost2010Prop54
  1
strokes_ogs.tif
102
RTVSPost2010PropOp54
 70
     1
102
RTVSPost2010Prop55
280
     0
102
RTVSPost2010PropOp55
 70
     1
102
RTVSPost2010Prop56
140
1.0
102
RTVSPost2010PropOp56
 70
     1
102
RTVSPost2010Prop57
140
1.0
102
RTVSPost2010PropOp57
 70
     1
102
RTVSPropertyOp0
 70
     1
102
RTVSPropertyOp1
 70
     1
102
RTVSPropertyOp2
 70
     1
102
RTVSPropertyOp3
 70
     1
102
RTVSPropertyOp4
 70
     1
102
RTVSPropertyOp5
 70
     1
102
RTVSPropertyOp6
 70
     1
102
RTVSPropertyOp7
 70
     1
102
RTVSPropertyOp8
 70
     1
102
RTVSPropertyOp9
 70
     1
102
RTVSPropertyOp10
 70
     1
102
RTVSPropertyOp11
 70
     1
102
RTVSPropertyOp12
 70
     1
102
RTVSPropertyOp13
 70
     1
102
RTVSPropertyOp14
 70
     1
102
RTVSPropertyOp15
 70
     1
102
RTVSPropertyOp16
 70
     1
102
RTVSPropertyOp17
 70
     1
102
RTVSPropertyOp18
 70
     1
102
RTVSPropertyOp19
 70
     1
102
RTVSPropertyOp20
 70
     1
102
RTVSPropertyOp21
 70
     1
102
RTVSPropertyOp22
 70
     1
102
RTVSPropertyOp23
 70
     1
102
RTVSPropertyOp24
 70
     1
102
RTVSPropertyOp25
 70
     1
102
RTVSPropertyOp26
 70
     1
102
RTVSPropertyOp27
 70
     1
102
RTVSPropertyOp28
 70
     1
102
RTVSPropertyOp29
 70
     1
102
RTVSPropertyOp30
 70
     1
102
RTVSPropertyOp31
 70
     1
102
RTVSPropertyOp32
 70
     1
102
RTVSPropertyOp33
 70
     1
102
RTVSPropertyOp34
 70
     1
102
RTVSPropertyOp35
 70
     1
102
RTVSPropertyOp36
 70
     1
102
RTVSPropertyOp37
 70
     1
102
RTVSPropertyOp38
 70
     1
102
RTVSPropertyOp39
 70
     1
102
RTVSPropertyOp40
 70
     1
102
RTVSPropertyOp41
 70
     1
102
RTVSPropertyOp42
 70
     1
102
RTVSPropertyOp43
 70
     1
102
RTVSPropertyOp44
 70
     1
102
RTVSPropertyOp45
 70
     1
102
RTVSPropertyOp46
 70
     1
102
RTVSPropertyOp47
 70
     1
102
RTVSPropertyOp48
 70
     1
102
RTVSPropertyOp49
 70
     1
102
RTVSPropertyOp50
 70
     1
102
RTVSPropertyOp51
 70
     0
102
RTVSPropertyOp52
 70
     0
102
RTVSPropertyOp53
 70
     1
102
RTVSPropertyOp54
 70
     1
102
RTVSPropertyOp55
 70
     1
102
RTVSPropertyOp56
 70
     1
102
RTVSPropertyOp57
 70
     1
102
RTVSPropertyOp58
 70
     1
102
RTVSPropertyOp59
 70
     1
102
RTVSPropertyOp60
 70
     1
102
RTVSPropertyOp61
 70
     1
102
RTVSPropertyOp62
 70
     1
  0
XRECORD
  5
A39
102
{ACAD_REACTORS
330
A38
102
}
330
A38
100
AcDbXrecord
280
     1
102
RTVSPost2010Prop28
280
     0
102
RTVSPost2010PropOp28
 70
     1
102
RTVSPost2010Prop29
280
     1
102
RTVSPost2010PropOp29
 70
     1
102
RTVSPost2010Prop30
280
     1
102
RTVSPost2010PropOp30
 70
     1
102
RTVSPost2010Prop31
280
     0
102
RTVSPost2010PropOp31
 70
     1
102
RTVSPost2010Prop32
280
     0
102
RTVSPost2010PropOp32
 70
     1
102
RTVSPost2010Prop33
280
     0
102
RTVSPost2010PropOp33
 70
     1
102
RTVSPost2010Prop34
280
     0
102
RTVSPost2010PropOp34
 70
     1
102
RTVSPost2010Prop35
280
     0
102
RTVSPost2010PropOp35
 70
     1
102
RTVSPost2010Prop36
280
     0
102
RTVSPost2010PropOp36
 70
     1
102
RTVSPost2010Prop37
 90
       50
102
RTVSPost2010PropOp37
 70
     1
102
RTVSPost2010Prop38
140
0.0
102
RTVSPost2010PropOp38
 70
     1
102
RTVSPost2010Prop39
140
1.0
102
RTVSPost2010PropOp39
 70
     1
102
RTVSPost2010Prop40
 90
        0
102
RTVSPost2010PropOp40
 70
     1
102
RTVSPost2010Prop41ColorIndex
 90
       18
102
RTVSPost2010Prop41ColorRGB
 90
        0
102
RTVSPost2010PropOp41
 70
     1
102
RTVSPost2010Prop42
 90
       50
102
RTVSPost2010PropOp42
 70
     1
102
RTVSPost2010Prop43
 90
        3
102
RTVSPost2010PropOp43
 70
     1
102
RTVSPost2010Prop44ColorIndex
 90
        5
102
RTVSPost2010Prop44ColorRGB
 90
      255
102
RTVSPost2010PropOp44
 70
     1
102
RTVSPost2010Prop45
280
     0
102
RTVSPost2010PropOp45
 70
     1
102
RTVSPost2010Prop46
 90
       50
102
RTVSPost2010PropOp46
 70
     1
102
RTVSPost2010Prop47
 90
       50
102
RTVSPost2010PropOp47
 70
     1
102
RTVSPost2010Prop48
 90
       50
102
RTVSPost2010PropOp48
 70
     1
102
RTVSPost2010Prop49
280
     0
102
RTVSPost2010PropOp49
 70
     1
102
RTVSPost2010Prop50
 90
       50
102
RTVSPost2010PropOp50
 70
     1
102
RTVSPost2010Prop51ColorIndex
 90
      256
102
RTVSPost2010Prop51ColorRGB
 90
-16777216
102
RTVSPost2010PropOp51
 70
     0
102
RTVSPost2010Prop52
140
1.0
102
RTVSPost2010PropOp52
 70
     0
102
RTVSPost2010Prop53
 90
        2
102
RTVSPost2010PropOp53
 70
     1
102
RTVSPost2010Prop54
  1
strokes_ogs.tif
102
RTVSPost2010PropOp54
 70
     1
102
RTVSPost2010Prop55
280
     0
102
RTVSPost2010PropOp55
 70
     1
102
RTVSPost2010Prop56
140
1.0
102
RTVSPost2010PropOp56
 70
     1
102
RTVSPost2010Prop57
140
1.0
102
RTVSPost2010PropOp57
 70
     1
102
RTVSPropertyOp0
 70
     1
102
RTVSPropertyOp1
 70
     1
102
RTVSPropertyOp2
 70
     1
102
RTVSPropertyOp3
 70
     1
102
RTVSPropertyOp4
 70
     1
102
RTVSPropertyOp5
 70
     1
102
RTVSPropertyOp6
 70
     1
102
RTVSPropertyOp7
 70
     1
102
RTVSPropertyOp8
 70
     1
102
RTVSPropertyOp9
 70
     1
102
RTVSPropertyOp10
 70
     1
102
RTVSPropertyOp11
 70
     1
102
RTVSPropertyOp12
 70
     1
102
RTVSPropertyOp13
 70
     1
102
RTVSPropertyOp14
 70
     1
102
RTVSPropertyOp15
 70
     1
102
RTVSPropertyOp16
 70
     1
102
RTVSPropertyOp17
 70
     1
102
RTVSPropertyOp18
 70
     1
102
RTVSPropertyOp19
 70
     1
102
RTVSPropertyOp20
 70
     1
102
RTVSPropertyOp21
 70
     1
102
RTVSPropertyOp22
 70
     1
102
RTVSPropertyOp23
 70
     1
102
RTVSPropertyOp24
 70
     1
102
RTVSPropertyOp25
 70
     1
102
RTVSPropertyOp26
 70
     1
102
RTVSPropertyOp27
 70
     1
102
RTVSPropertyOp28
 70
     1
102
RTVSPropertyOp29
 70
     1
102
RTVSPropertyOp30
 70
     1
102
RTVSPropertyOp31
 70
     1
102
RTVSPropertyOp32
 70
     1
102
RTVSPropertyOp33
 70
     1
102
RTVSPropertyOp34
 70
     1
102
RTVSPropertyOp35
 70
     1
102
RTVSPropertyOp36
 70
     1
102
RTVSPropertyOp37
 70
     1
102
RTVSPropertyOp38
 70
     1
102
RTVSPropertyOp39
 70
     1
102
RTVSPropertyOp40
 70
     1
102
RTVSPropertyOp41
 70
     1
102
RTVSPropertyOp42
 70
     1
102
RTVSPropertyOp43
 70
     1
102
RTVSPropertyOp44
 70
     1
102
RTVSPropertyOp45
 70
     1
102
RTVSPropertyOp46
 70
     1
102
RTVSPropertyOp47
 70
     1
102
RTVSPropertyOp48
 70
     1
102
RTVSPropertyOp49
 70
     1
102
RTVSPropertyOp50
 70
     1
102
RTVSPropertyOp51
 70
     0
102
RTVSPropertyOp52
 70
     0
102
RTVSPropertyOp53
 70
     1
102
RTVSPropertyOp54
 70
     1
102
RTVSPropertyOp55
 70
     1
102
RTVSPropertyOp56
 70
     1
102
RTVSPropertyOp57
 70
     1
102
RTVSPropertyOp58
 70
     1
102
RTVSPropertyOp59
 70
     1
102
RTVSPropertyOp60
 70
     1
102
RTVSPropertyOp61
 70
     1
102
RTVSPropertyOp62
 70
     1
  0
XRECORD
  5
A47
102
{ACAD_REACTORS
330
A46
102
}
330
A46
100
AcDbXrecord
280
     1
102
RTVSPost2010Prop28
280
     0
102
RTVSPost2010PropOp28
 70
     1
102
RTVSPost2010Prop29
280
     1
102
RTVSPost2010PropOp29
 70
     1
102
RTVSPost2010Prop30
280
     1
102
RTVSPost2010PropOp30
 70
     1
102
RTVSPost2010Prop31
280
     0
102
RTVSPost2010PropOp31
 70
     1
102
RTVSPost2010Prop32
280
     0
102
RTVSPost2010PropOp32
 70
     1
102
RTVSPost2010Prop33
280
     0
102
RTVSPost2010PropOp33
 70
     1
102
RTVSPost2010Prop34
280
     0
102
RTVSPost2010PropOp34
 70
     1
102
RTVSPost2010Prop35
280
     0
102
RTVSPost2010PropOp35
 70
     1
102
RTVSPost2010Prop36
280
     0
102
RTVSPost2010PropOp36
 70
     1
102
RTVSPost2010Prop37
 90
       50
102
RTVSPost2010PropOp37
 70
     1
102
RTVSPost2010Prop38
140
0.0
102
RTVSPost2010PropOp38
 70
     1
102
RTVSPost2010Prop39
140
1.0
102
RTVSPost2010PropOp39
 70
     1
102
RTVSPost2010Prop40
 90
        0
102
RTVSPost2010PropOp40
 70
     1
102
RTVSPost2010Prop41ColorIndex
 90
       18
102
RTVSPost2010Prop41ColorRGB
 90
        0
102
RTVSPost2010PropOp41
 70
     1
102
RTVSPost2010Prop42
 90
       50
102
RTVSPost2010PropOp42
 70
     1
102
RTVSPost2010Prop43
 90
        3
102
RTVSPost2010PropOp43
 70
     1
102
RTVSPost2010Prop44ColorIndex
 90
        5
102
RTVSPost2010Prop44ColorRGB
 90
      255
102
RTVSPost2010PropOp44
 70
     1
102
RTVSPost2010Prop45
280
     0
102
RTVSPost2010PropOp45
 70
     1
102
RTVSPost2010Prop46
 90
       50
102
RTVSPost2010PropOp46
 70
     1
102
RTVSPost2010Prop47
 90
       50
102
RTVSPost2010PropOp47
 70
     1
102
RTVSPost2010Prop48
 90
       50
102
RTVSPost2010PropOp48
 70
     1
102
RTVSPost2010Prop49
280
     0
102
RTVSPost2010PropOp49
 70
     1
102
RTVSPost2010Prop50
 90
       50
102
RTVSPost2010PropOp50
 70
     1
102
RTVSPost2010Prop51ColorIndex
 90
      256
102
RTVSPost2010Prop51ColorRGB
 90
-16777216
102
RTVSPost2010PropOp51
 70
     0
102
RTVSPost2010Prop52
140
1.0
102
RTVSPost2010PropOp52
 70
     0
102
RTVSPost2010Prop53
 90
        2
102
RTVSPost2010PropOp53
 70
     1
102
RTVSPost2010Prop54
  1
strokes_ogs.tif
102
RTVSPost2010PropOp54
 70
     1
102
RTVSPost2010Prop55
280
     0
102
RTVSPost2010PropOp55
 70
     1
102
RTVSPost2010Prop56
140
1.0
102
RTVSPost2010PropOp56
 70
     1
102
RTVSPost2010Prop57
140
1.0
102
RTVSPost2010PropOp57
 70
     1
102
RTVSPropertyOp0
 70
     1
102
RTVSPropertyOp1
 70
     1
102
RTVSPropertyOp2
 70
     1
102
RTVSPropertyOp3
 70
     1
102
RTVSPropertyOp4
 70
     1
102
RTVSPropertyOp5
 70
     1
102
RTVSPropertyOp6
 70
     1
102
RTVSPropertyOp7
 70
     1
102
RTVSPropertyOp8
 70
     1
102
RTVSPropertyOp9
 70
     1
102
RTVSPropertyOp10
 70
     1
102
RTVSPropertyOp11
 70
     1
102
RTVSPropertyOp12
 70
     1
102
RTVSPropertyOp13
 70
     1
102
RTVSPropertyOp14
 70
     1
102
RTVSPropertyOp15
 70
     1
102
RTVSPropertyOp16
 70
     1
102
RTVSPropertyOp17
 70
     1
102
RTVSPropertyOp18
 70
     1
102
RTVSPropertyOp19
 70
     1
102
RTVSPropertyOp20
 70
     1
102
RTVSPropertyOp21
 70
     1
102
RTVSPropertyOp22
 70
     1
102
RTVSPropertyOp23
 70
     1
102
RTVSPropertyOp24
 70
     1
102
RTVSPropertyOp25
 70
     1
102
RTVSPropertyOp26
 70
     1
102
RTVSPropertyOp27
 70
     1
102
RTVSPropertyOp28
 70
     1
102
RTVSPropertyOp29
 70
     1
102
RTVSPropertyOp30
 70
     1
102
RTVSPropertyOp31
 70
     1
102
RTVSPropertyOp32
 70
     1
102
RTVSPropertyOp33
 70
     1
102
RTVSPropertyOp34
 70
     1
102
RTVSPropertyOp35
 70
     1
102
RTVSPropertyOp36
 70
     1
102
RTVSPropertyOp37
 70
     1
102
RTVSPropertyOp38
 70
     1
102
RTVSPropertyOp39
 70
     1
102
RTVSPropertyOp40
 70
     1
102
RTVSPropertyOp41
 70
     1
102
RTVSPropertyOp42
 70
     1
102
RTVSPropertyOp43
 70
     1
102
RTVSPropertyOp44
 70
     1
102
RTVSPropertyOp45
 70
     1
102
RTVSPropertyOp46
 70
     1
102
RTVSPropertyOp47
 70
     1
102
RTVSPropertyOp48
 70
     1
102
RTVSPropertyOp49
 70
     1
102
RTVSPropertyOp50
 70
     1
102
RTVSPropertyOp51
 70
     0
102
RTVSPropertyOp52
 70
     0
102
RTVSPropertyOp53
 70
     1
102
RTVSPropertyOp54
 70
     1
102
RTVSPropertyOp55
 70
     1
102
RTVSPropertyOp56
 70
     1
102
RTVSPropertyOp57
 70
     1
102
RTVSPropertyOp58
 70
     1
102
RTVSPropertyOp59
 70
     1
102
RTVSPropertyOp60
 70
     1
102
RTVSPropertyOp61
 70
     1
102
RTVSPropertyOp62
 70
     1
  0
XRECORD
  5
A4F
102
{ACAD_REACTORS
330
A4E
102
}
330
A4E
100
AcDbXrecord
280
     1
102
RTVSPost2010Prop28
280
     0
102
RTVSPost2010PropOp28
 70
     1
102
RTVSPost2010Prop29
280
     1
102
RTVSPost2010PropOp29
 70
     1
102
RTVSPost2010Prop30
280
     1
102
RTVSPost2010PropOp30
 70
     1
102
RTVSPost2010Prop31
280
     0
102
RTVSPost2010PropOp31
 70
     1
102
RTVSPost2010Prop32
280
     0
102
RTVSPost2010PropOp32
 70
     1
102
RTVSPost2010Prop33
280
     0
102
RTVSPost2010PropOp33
 70
     1
102
RTVSPost2010Prop34
280
     0
102
RTVSPost2010PropOp34
 70
     1
102
RTVSPost2010Prop35
280
     0
102
RTVSPost2010PropOp35
 70
     1
102
RTVSPost2010Prop36
280
     0
102
RTVSPost2010PropOp36
 70
     1
102
RTVSPost2010Prop37
 90
       50
102
RTVSPost2010PropOp37
 70
     1
102
RTVSPost2010Prop38
140
0.0
102
RTVSPost2010PropOp38
 70
     1
102
RTVSPost2010Prop39
140
1.0
102
RTVSPost2010PropOp39
 70
     1
102
RTVSPost2010Prop40
 90
        0
102
RTVSPost2010PropOp40
 70
     1
102
RTVSPost2010Prop41ColorIndex
 90
       18
102
RTVSPost2010Prop41ColorRGB
 90
        0
102
RTVSPost2010PropOp41
 70
     1
102
RTVSPost2010Prop42
 90
       50
102
RTVSPost2010PropOp42
 70
     1
102
RTVSPost2010Prop43
 90
        3
102
RTVSPost2010PropOp43
 70
     1
102
RTVSPost2010Prop44ColorIndex
 90
        5
102
RTVSPost2010Prop44ColorRGB
 90
      255
102
RTVSPost2010PropOp44
 70
     1
102
RTVSPost2010Prop45
280
     0
102
RTVSPost2010PropOp45
 70
     1
102
RTVSPost2010Prop46
 90
       50
102
RTVSPost2010PropOp46
 70
     1
102
RTVSPost2010Prop47
 90
       50
102
RTVSPost2010PropOp47
 70
     1
102
RTVSPost2010Prop48
 90
       50
102
RTVSPost2010PropOp48
 70
     1
102
RTVSPost2010Prop49
280
     0
102
RTVSPost2010PropOp49
 70
     1
102
RTVSPost2010Prop50
 90
       50
102
RTVSPost2010PropOp50
 70
     1
102
RTVSPost2010Prop51ColorIndex
 90
      256
102
RTVSPost2010Prop51ColorRGB
 90
-16777216
102
RTVSPost2010PropOp51
 70
     0
102
RTVSPost2010Prop52
140
1.0
102
RTVSPost2010PropOp52
 70
     0
102
RTVSPost2010Prop53
 90
        2
102
RTVSPost2010PropOp53
 70
     1
102
RTVSPost2010Prop54
  1
strokes_ogs.tif
102
RTVSPost2010PropOp54
 70
     1
102
RTVSPost2010Prop55
280
     0
102
RTVSPost2010PropOp55
 70
     1
102
RTVSPost2010Prop56
140
1.0
102
RTVSPost2010PropOp56
 70
     1
102
RTVSPost2010Prop57
140
1.0
102
RTVSPost2010PropOp57
 70
     1
102
RTVSPropertyOp0
 70
     1
102
RTVSPropertyOp1
 70
     1
102
RTVSPropertyOp2
 70
     1
102
RTVSPropertyOp3
 70
     1
102
RTVSPropertyOp4
 70
     1
102
RTVSPropertyOp5
 70
     1
102
RTVSPropertyOp6
 70
     1
102
RTVSPropertyOp7
 70
     1
102
RTVSPropertyOp8
 70
     1
102
RTVSPropertyOp9
 70
     1
102
RTVSPropertyOp10
 70
     1
102
RTVSPropertyOp11
 70
     1
102
RTVSPropertyOp12
 70
     1
102
RTVSPropertyOp13
 70
     1
102
RTVSPropertyOp14
 70
     1
102
RTVSPropertyOp15
 70
     1
102
RTVSPropertyOp16
 70
     1
102
RTVSPropertyOp17
 70
     1
102
RTVSPropertyOp18
 70
     1
102
RTVSPropertyOp19
 70
     1
102
RTVSPropertyOp20
 70
     1
102
RTVSPropertyOp21
 70
     1
102
RTVSPropertyOp22
 70
     1
102
RTVSPropertyOp23
 70
     1
102
RTVSPropertyOp24
 70
     1
102
RTVSPropertyOp25
 70
     1
102
RTVSPropertyOp26
 70
     1
102
RTVSPropertyOp27
 70
     1
102
RTVSPropertyOp28
 70
     1
102
RTVSPropertyOp29
 70
     1
102
RTVSPropertyOp30
 70
     1
102
RTVSPropertyOp31
 70
     1
102
RTVSPropertyOp32
 70
     1
102
RTVSPropertyOp33
 70
     1
102
RTVSPropertyOp34
 70
     1
102
RTVSPropertyOp35
 70
     1
102
RTVSPropertyOp36
 70
     1
102
RTVSPropertyOp37
 70
     1
102
RTVSPropertyOp38
 70
     1
102
RTVSPropertyOp39
 70
     1
102
RTVSPropertyOp40
 70
     1
102
RTVSPropertyOp41
 70
     1
102
RTVSPropertyOp42
 70
     1
102
RTVSPropertyOp43
 70
     1
102
RTVSPropertyOp44
 70
     1
102
RTVSPropertyOp45
 70
     1
102
RTVSPropertyOp46
 70
     1
102
RTVSPropertyOp47
 70
     1
102
RTVSPropertyOp48
 70
     1
102
RTVSPropertyOp49
 70
     1
102
RTVSPropertyOp50
 70
     1
102
RTVSPropertyOp51
 70
     0
102
RTVSPropertyOp52
 70
     0
102
RTVSPropertyOp53
 70
     1
102
RTVSPropertyOp54
 70
     1
102
RTVSPropertyOp55
 70
     1
102
RTVSPropertyOp56
 70
     1
102
RTVSPropertyOp57
 70
     1
102
RTVSPropertyOp58
 70
     1
102
RTVSPropertyOp59
 70
     1
102
RTVSPropertyOp60
 70
     1
102
RTVSPropertyOp61
 70
     1
102
RTVSPropertyOp62
 70
     1
  0
XRECORD
  5
A41
102
{ACAD_REACTORS
330
A40
102
}
330
A40
100
AcDbXrecord
280
     1
102
RTVSPost2010Prop28
280
     0
102
RTVSPost2010PropOp28
 70
     1
102
RTVSPost2010Prop29
280
     1
102
RTVSPost2010PropOp29
 70
     1
102
RTVSPost2010Prop30
280
     1
102
RTVSPost2010PropOp30
 70
     1
102
RTVSPost2010Prop31
280
     0
102
RTVSPost2010PropOp31
 70
     1
102
RTVSPost2010Prop32
280
     0
102
RTVSPost2010PropOp32
 70
     1
102
RTVSPost2010Prop33
280
     0
102
RTVSPost2010PropOp33
 70
     1
102
RTVSPost2010Prop34
280
     0
102
RTVSPost2010PropOp34
 70
     1
102
RTVSPost2010Prop35
280
     0
102
RTVSPost2010PropOp35
 70
     1
102
RTVSPost2010Prop36
280
     0
102
RTVSPost2010PropOp36
 70
     1
102
RTVSPost2010Prop37
 90
       50
102
RTVSPost2010PropOp37
 70
     1
102
RTVSPost2010Prop38
140
0.0
102
RTVSPost2010PropOp38
 70
     1
102
RTVSPost2010Prop39
140
1.0
102
RTVSPost2010PropOp39
 70
     1
102
RTVSPost2010Prop40
 90
        0
102
RTVSPost2010PropOp40
 70
     1
102
RTVSPost2010Prop41ColorIndex
 90
       18
102
RTVSPost2010Prop41ColorRGB
 90
        0
102
RTVSPost2010PropOp41
 70
     1
102
RTVSPost2010Prop42
 90
       50
102
RTVSPost2010PropOp42
 70
     1
102
RTVSPost2010Prop43
 90
        3
102
RTVSPost2010PropOp43
 70
     1
102
RTVSPost2010Prop44ColorIndex
 90
        5
102
RTVSPost2010Prop44ColorRGB
 90
      255
102
RTVSPost2010PropOp44
 70
     1
102
RTVSPost2010Prop45
280
     0
102
RTVSPost2010PropOp45
 70
     1
102
RTVSPost2010Prop46
 90
       50
102
RTVSPost2010PropOp46
 70
     1
102
RTVSPost2010Prop47
 90
       50
102
RTVSPost2010PropOp47
 70
     1
102
RTVSPost2010Prop48
 90
       50
102
RTVSPost2010PropOp48
 70
     1
102
RTVSPost2010Prop49
280
     0
102
RTVSPost2010PropOp49
 70
     1
102
RTVSPost2010Prop50
 90
       50
102
RTVSPost2010PropOp50
 70
     1
102
RTVSPost2010Prop51ColorIndex
 90
      256
102
RTVSPost2010Prop51ColorRGB
 90
-16777216
102
RTVSPost2010PropOp51
 70
     0
102
RTVSPost2010Prop52
140
1.0
102
RTVSPost2010PropOp52
 70
     0
102
RTVSPost2010Prop53
 90
        2
102
RTVSPost2010PropOp53
 70
     1
102
RTVSPost2010Prop54
  1
strokes_ogs.tif
102
RTVSPost2010PropOp54
 70
     1
102
RTVSPost2010Prop55
280
     0
102
RTVSPost2010PropOp55
 70
     1
102
RTVSPost2010Prop56
140
1.0
102
RTVSPost2010PropOp56
 70
     1
102
RTVSPost2010Prop57
140
1.0
102
RTVSPost2010PropOp57
 70
     1
102
RTVSPropertyOp0
 70
     1
102
RTVSPropertyOp1
 70
     1
102
RTVSPropertyOp2
 70
     1
102
RTVSPropertyOp3
 70
     1
102
RTVSPropertyOp4
 70
     1
102
RTVSPropertyOp5
 70
     1
102
RTVSPropertyOp6
 70
     1
102
RTVSPropertyOp7
 70
     1
102
RTVSPropertyOp8
 70
     1
102
RTVSPropertyOp9
 70
     1
102
RTVSPropertyOp10
 70
     1
102
RTVSPropertyOp11
 70
     1
102
RTVSPropertyOp12
 70
     1
102
RTVSPropertyOp13
 70
     1
102
RTVSPropertyOp14
 70
     1
102
RTVSPropertyOp15
 70
     1
102
RTVSPropertyOp16
 70
     1
102
RTVSPropertyOp17
 70
     1
102
RTVSPropertyOp18
 70
     1
102
RTVSPropertyOp19
 70
     1
102
RTVSPropertyOp20
 70
     1
102
RTVSPropertyOp21
 70
     1
102
RTVSPropertyOp22
 70
     1
102
RTVSPropertyOp23
 70
     1
102
RTVSPropertyOp24
 70
     1
102
RTVSPropertyOp25
 70
     1
102
RTVSPropertyOp26
 70
     1
102
RTVSPropertyOp27
 70
     1
102
RTVSPropertyOp28
 70
     1
102
RTVSPropertyOp29
 70
     1
102
RTVSPropertyOp30
 70
     1
102
RTVSPropertyOp31
 70
     1
102
RTVSPropertyOp32
 70
     1
102
RTVSPropertyOp33
 70
     1
102
RTVSPropertyOp34
 70
     1
102
RTVSPropertyOp35
 70
     1
102
RTVSPropertyOp36
 70
     1
102
RTVSPropertyOp37
 70
     1
102
RTVSPropertyOp38
 70
     1
102
RTVSPropertyOp39
 70
     1
102
RTVSPropertyOp40
 70
     1
102
RTVSPropertyOp41
 70
     1
102
RTVSPropertyOp42
 70
     1
102
RTVSPropertyOp43
 70
     1
102
RTVSPropertyOp44
 70
     1
102
RTVSPropertyOp45
 70
     1
102
RTVSPropertyOp46
 70
     1
102
RTVSPropertyOp47
 70
     1
102
RTVSPropertyOp48
 70
     1
102
RTVSPropertyOp49
 70
     1
102
RTVSPropertyOp50
 70
     1
102
RTVSPropertyOp51
 70
     0
102
RTVSPropertyOp52
 70
     0
102
RTVSPropertyOp53
 70
     1
102
RTVSPropertyOp54
 70
     1
102
RTVSPropertyOp55
 70
     1
102
RTVSPropertyOp56
 70
     1
102
RTVSPropertyOp57
 70
     1
102
RTVSPropertyOp58
 70
     1
102
RTVSPropertyOp59
 70
     1
102
RTVSPropertyOp60
 70
     1
102
RTVSPropertyOp61
 70
     1
102
RTVSPropertyOp62
 70
     1
  0
XRECORD
  5
A45
102
{ACAD_REACTORS
330
A44
102
}
330
A44
100
AcDbXrecord
280
     1
102
RTVSPost2010Prop28
280
     0
102
RTVSPost2010PropOp28
 70
     1
102
RTVSPost2010Prop29
280
     1
102
RTVSPost2010PropOp29
 70
     1
102
RTVSPost2010Prop30
280
     1
102
RTVSPost2010PropOp30
 70
     1
102
RTVSPost2010Prop31
280
     0
102
RTVSPost2010PropOp31
 70
     1
102
RTVSPost2010Prop32
280
     0
102
RTVSPost2010PropOp32
 70
     1
102
RTVSPost2010Prop33
280
     0
102
RTVSPost2010PropOp33
 70
     1
102
RTVSPost2010Prop34
280
     0
102
RTVSPost2010PropOp34
 70
     1
102
RTVSPost2010Prop35
280
     0
102
RTVSPost2010PropOp35
 70
     1
102
RTVSPost2010Prop36
280
     0
102
RTVSPost2010PropOp36
 70
     1
102
RTVSPost2010Prop37
 90
       50
102
RTVSPost2010PropOp37
 70
     1
102
RTVSPost2010Prop38
140
0.0
102
RTVSPost2010PropOp38
 70
     1
102
RTVSPost2010Prop39
140
1.0
102
RTVSPost2010PropOp39
 70
     1
102
RTVSPost2010Prop40
 90
        0
102
RTVSPost2010PropOp40
 70
     1
102
RTVSPost2010Prop41ColorIndex
 90
       18
102
RTVSPost2010Prop41ColorRGB
 90
        0
102
RTVSPost2010PropOp41
 70
     1
102
RTVSPost2010Prop42
 90
       50
102
RTVSPost2010PropOp42
 70
     1
102
RTVSPost2010Prop43
 90
        3
102
RTVSPost2010PropOp43
 70
     1
102
RTVSPost2010Prop44ColorIndex
 90
        5
102
RTVSPost2010Prop44ColorRGB
 90
      255
102
RTVSPost2010PropOp44
 70
     1
102
RTVSPost2010Prop45
280
     0
102
RTVSPost2010PropOp45
 70
     1
102
RTVSPost2010Prop46
 90
       50
102
RTVSPost2010PropOp46
 70
     1
102
RTVSPost2010Prop47
 90
       50
102
RTVSPost2010PropOp47
 70
     1
102
RTVSPost2010Prop48
 90
       50
102
RTVSPost2010PropOp48
 70
     1
102
RTVSPost2010Prop49
280
     0
102
RTVSPost2010PropOp49
 70
     1
102
RTVSPost2010Prop50
 90
       50
102
RTVSPost2010PropOp50
 70
     1
102
RTVSPost2010Prop51ColorIndex
 90
      256
102
RTVSPost2010Prop51ColorRGB
 90
-16777216
102
RTVSPost2010PropOp51
 70
     0
102
RTVSPost2010Prop52
140
1.0
102
RTVSPost2010PropOp52
 70
     0
102
RTVSPost2010Prop53
 90
        2
102
RTVSPost2010PropOp53
 70
     1
102
RTVSPost2010Prop54
  1
strokes_ogs.tif
102
RTVSPost2010PropOp54
 70
     1
102
RTVSPost2010Prop55
280
     0
102
RTVSPost2010PropOp55
 70
     1
102
RTVSPost2010Prop56
140
1.0
102
RTVSPost2010PropOp56
 70
     1
102
RTVSPost2010Prop57
140
1.0
102
RTVSPost2010PropOp57
 70
     1
102
RTVSPropertyOp0
 70
     1
102
RTVSPropertyOp1
 70
     1
102
RTVSPropertyOp2
 70
     1
102
RTVSPropertyOp3
 70
     1
102
RTVSPropertyOp4
 70
     1
102
RTVSPropertyOp5
 70
     1
102
RTVSPropertyOp6
 70
     1
102
RTVSPropertyOp7
 70
     1
102
RTVSPropertyOp8
 70
     1
102
RTVSPropertyOp9
 70
     1
102
RTVSPropertyOp10
 70
     1
102
RTVSPropertyOp11
 70
     1
102
RTVSPropertyOp12
 70
     1
102
RTVSPropertyOp13
 70
     1
102
RTVSPropertyOp14
 70
     1
102
RTVSPropertyOp15
 70
     1
102
RTVSPropertyOp16
 70
     1
102
RTVSPropertyOp17
 70
     1
102
RTVSPropertyOp18
 70
     1
102
RTVSPropertyOp19
 70
     1
102
RTVSPropertyOp20
 70
     1
102
RTVSPropertyOp21
 70
     1
102
RTVSPropertyOp22
 70
     1
102
RTVSPropertyOp23
 70
     1
102
RTVSPropertyOp24
 70
     1
102
RTVSPropertyOp25
 70
     1
102
RTVSPropertyOp26
 70
     1
102
RTVSPropertyOp27
 70
     1
102
RTVSPropertyOp28
 70
     1
102
RTVSPropertyOp29
 70
     1
102
RTVSPropertyOp30
 70
     1
102
RTVSPropertyOp31
 70
     1
102
RTVSPropertyOp32
 70
     1
102
RTVSPropertyOp33
 70
     1
102
RTVSPropertyOp34
 70
     1
102
RTVSPropertyOp35
 70
     1
102
RTVSPropertyOp36
 70
     1
102
RTVSPropertyOp37
 70
     1
102
RTVSPropertyOp38
 70
     1
102
RTVSPropertyOp39
 70
     1
102
RTVSPropertyOp40
 70
     1
102
RTVSPropertyOp41
 70
     1
102
RTVSPropertyOp42
 70
     1
102
RTVSPropertyOp43
 70
     1
102
RTVSPropertyOp44
 70
     1
102
RTVSPropertyOp45
 70
     1
102
RTVSPropertyOp46
 70
     1
102
RTVSPropertyOp47
 70
     1
102
RTVSPropertyOp48
 70
     1
102
RTVSPropertyOp49
 70
     1
102
RTVSPropertyOp50
 70
     1
102
RTVSPropertyOp51
 70
     0
102
RTVSPropertyOp52
 70
     0
102
RTVSPropertyOp53
 70
     1
102
RTVSPropertyOp54
 70
     1
102
RTVSPropertyOp55
 70
     1
102
RTVSPropertyOp56
 70
     1
102
RTVSPropertyOp57
 70
     1
102
RTVSPropertyOp58
 70
     1
102
RTVSPropertyOp59
 70
     1
102
RTVSPropertyOp60
 70
     1
102
RTVSPropertyOp61
 70
     1
102
RTVSPropertyOp62
 70
     1
  0
XRECORD
  5
A55
102
{ACAD_REACTORS
330
A54
102
}
330
A54
100
AcDbXrecord
280
     1
102
RTVSPost2010Prop28
280
     0
102
RTVSPost2010PropOp28
 70
     1
102
RTVSPost2010Prop29
280
     1
102
RTVSPost2010PropOp29
 70
     1
102
RTVSPost2010Prop30
280
     1
102
RTVSPost2010PropOp30
 70
     1
102
RTVSPost2010Prop31
280
     0
102
RTVSPost2010PropOp31
 70
     1
102
RTVSPost2010Prop32
280
     0
102
RTVSPost2010PropOp32
 70
     1
102
RTVSPost2010Prop33
280
     0
102
RTVSPost2010PropOp33
 70
     1
102
RTVSPost2010Prop34
280
     0
102
RTVSPost2010PropOp34
 70
     1
102
RTVSPost2010Prop35
280
     0
102
RTVSPost2010PropOp35
 70
     1
102
RTVSPost2010Prop36
280
     0
102
RTVSPost2010PropOp36
 70
     1
102
RTVSPost2010Prop37
 90
       50
102
RTVSPost2010PropOp37
 70
     1
102
RTVSPost2010Prop38
140
0.0
102
RTVSPost2010PropOp38
 70
     1
102
RTVSPost2010Prop39
140
1.0
102
RTVSPost2010PropOp39
 70
     1
102
RTVSPost2010Prop40
 90
        0
102
RTVSPost2010PropOp40
 70
     1
102
RTVSPost2010Prop41ColorIndex
 90
       18
102
RTVSPost2010Prop41ColorRGB
 90
        0
102
RTVSPost2010PropOp41
 70
     1
102
RTVSPost2010Prop42
 90
       50
102
RTVSPost2010PropOp42
 70
     1
102
RTVSPost2010Prop43
 90
        3
102
RTVSPost2010PropOp43
 70
     1
102
RTVSPost2010Prop44ColorIndex
 90
        5
102
RTVSPost2010Prop44ColorRGB
 90
      255
102
RTVSPost2010PropOp44
 70
     1
102
RTVSPost2010Prop45
280
     0
102
RTVSPost2010PropOp45
 70
     1
102
RTVSPost2010Prop46
 90
       50
102
RTVSPost2010PropOp46
 70
     1
102
RTVSPost2010Prop47
 90
       50
102
RTVSPost2010PropOp47
 70
     1
102
RTVSPost2010Prop48
 90
       50
102
RTVSPost2010PropOp48
 70
     1
102
RTVSPost2010Prop49
280
     0
102
RTVSPost2010PropOp49
 70
     1
102
RTVSPost2010Prop50
 90
       50
102
RTVSPost2010PropOp50
 70
     1
102
RTVSPost2010Prop51ColorIndex
 90
      256
102
RTVSPost2010Prop51ColorRGB
 90
-16777216
102
RTVSPost2010PropOp51
 70
     0
102
RTVSPost2010Prop52
140
1.0
102
RTVSPost2010PropOp52
 70
     0
102
RTVSPost2010Prop53
 90
        2
102
RTVSPost2010PropOp53
 70
     1
102
RTVSPost2010Prop54
  1
strokes_ogs.tif
102
RTVSPost2010PropOp54
 70
     1
102
RTVSPost2010Prop55
280
     0
102
RTVSPost2010PropOp55
 70
     1
102
RTVSPost2010Prop56
140
1.0
102
RTVSPost2010PropOp56
 70
     1
102
RTVSPost2010Prop57
140
1.0
102
RTVSPost2010PropOp57
 70
     1
102
RTVSPropertyOp0
 70
     0
102
RTVSPropertyOp1
 70
     0
102
RTVSPropertyOp2
 70
     0
102
RTVSPropertyOp3
 70
     0
102
RTVSPropertyOp4
 70
     0
102
RTVSPropertyOp5
 70
     0
102
RTVSPropertyOp6
 70
     0
102
RTVSPropertyOp7
 70
     0
102
RTVSPropertyOp8
 70
     0
102
RTVSPropertyOp9
 70
     0
102
RTVSPropertyOp10
 70
     0
102
RTVSPropertyOp11
 70
     0
102
RTVSPropertyOp12
 70
     0
102
RTVSPropertyOp13
 70
     0
102
RTVSPropertyOp14
 70
     2
102
RTVSPropertyOp15
 70
     0
102
RTVSPropertyOp16
 70
     0
102
RTVSPropertyOp17
 70
     0
102
RTVSPropertyOp18
 70
     0
102
RTVSPropertyOp19
 70
     0
102
RTVSPropertyOp20
 70
     0
102
RTVSPropertyOp21
 70
     0
102
RTVSPropertyOp22
 70
     0
102
RTVSPropertyOp23
 70
     0
102
RTVSPropertyOp24
 70
     0
102
RTVSPropertyOp25
 70
     0
102
RTVSPropertyOp26
 70
     0
102
RTVSPropertyOp27
 70
     0
102
RTVSPropertyOp28
 70
     1
102
RTVSPropertyOp29
 70
     1
102
RTVSPropertyOp30
 70
     1
102
RTVSPropertyOp31
 70
     1
102
RTVSPropertyOp32
 70
     1
102
RTVSPropertyOp33
 70
     1
102
RTVSPropertyOp34
 70
     1
102
RTVSPropertyOp35
 70
     1
102
RTVSPropertyOp36
 70
     1
102
RTVSPropertyOp37
 70
     1
102
RTVSPropertyOp38
 70
     1
102
RTVSPropertyOp39
 70
     1
102
RTVSPropertyOp40
 70
     1
102
RTVSPropertyOp41
 70
     1
102
RTVSPropertyOp42
 70
     1
102
RTVSPropertyOp43
 70
     1
102
RTVSPropertyOp44
 70
     1
102
RTVSPropertyOp45
 70
     1
102
RTVSPropertyOp46
 70
     1
102
RTVSPropertyOp47
 70
     1
102
RTVSPropertyOp48
 70
     1
102
RTVSPropertyOp49
 70
     1
102
RTVSPropertyOp50
 70
     1
102
RTVSPropertyOp51
 70
     0
102
RTVSPropertyOp52
 70
     0
102
RTVSPropertyOp53
 70
     1
102
RTVSPropertyOp54
 70
     1
102
RTVSPropertyOp55
 70
     1
102
RTVSPropertyOp56
 70
     1
102
RTVSPropertyOp57
 70
     1
102
RTVSPropertyOp58
 70
     1
102
RTVSPropertyOp59
 70
     1
102
RTVSPropertyOp60
 70
     1
102
RTVSPropertyOp61
 70
     1
102
RTVSPropertyOp62
 70
     1
  0
XRECORD
  5
A4D
102
{ACAD_REACTORS
330
A4C
102
}
330
A4C
100
AcDbXrecord
280
     1
102
RTVSPost2010Prop28
280
     0
102
RTVSPost2010PropOp28
 70
     1
102
RTVSPost2010Prop29
280
     1
102
RTVSPost2010PropOp29
 70
     1
102
RTVSPost2010Prop30
280
     1
102
RTVSPost2010PropOp30
 70
     1
102
RTVSPost2010Prop31
280
     0
102
RTVSPost2010PropOp31
 70
     1
102
RTVSPost2010Prop32
280
     0
102
RTVSPost2010PropOp32
 70
     1
102
RTVSPost2010Prop33
280
     0
102
RTVSPost2010PropOp33
 70
     1
102
RTVSPost2010Prop34
280
     0
102
RTVSPost2010PropOp34
 70
     1
102
RTVSPost2010Prop35
280
     0
102
RTVSPost2010PropOp35
 70
     1
102
RTVSPost2010Prop36
280
     0
102
RTVSPost2010PropOp36
 70
     1
102
RTVSPost2010Prop37
 90
       50
102
RTVSPost2010PropOp37
 70
     1
102
RTVSPost2010Prop38
140
0.0
102
RTVSPost2010PropOp38
 70
     1
102
RTVSPost2010Prop39
140
1.0
102
RTVSPost2010PropOp39
 70
     1
102
RTVSPost2010Prop40
 90
        0
102
RTVSPost2010PropOp40
 70
     1
102
RTVSPost2010Prop41ColorIndex
 90
       18
102
RTVSPost2010Prop41ColorRGB
 90
        0
102
RTVSPost2010PropOp41
 70
     1
102
RTVSPost2010Prop42
 90
       50
102
RTVSPost2010PropOp42
 70
     1
102
RTVSPost2010Prop43
 90
        3
102
RTVSPost2010PropOp43
 70
     1
102
RTVSPost2010Prop44ColorIndex
 90
        5
102
RTVSPost2010Prop44ColorRGB
 90
      255
102
RTVSPost2010PropOp44
 70
     1
102
RTVSPost2010Prop45
280
     0
102
RTVSPost2010PropOp45
 70
     1
102
RTVSPost2010Prop46
 90
       50
102
RTVSPost2010PropOp46
 70
     1
102
RTVSPost2010Prop47
 90
       50
102
RTVSPost2010PropOp47
 70
     1
102
RTVSPost2010Prop48
 90
       50
102
RTVSPost2010PropOp48
 70
     1
102
RTVSPost2010Prop49
280
     0
102
RTVSPost2010PropOp49
 70
     1
102
RTVSPost2010Prop50
 90
       50
102
RTVSPost2010PropOp50
 70
     1
102
RTVSPost2010Prop51ColorIndex
 90
      256
102
RTVSPost2010Prop51ColorRGB
 90
-16777216
102
RTVSPost2010PropOp51
 70
     0
102
RTVSPost2010Prop52
140
1.0
102
RTVSPost2010PropOp52
 70
     0
102
RTVSPost2010Prop53
 90
        2
102
RTVSPost2010PropOp53
 70
     1
102
RTVSPost2010Prop54
  1
strokes_ogs.tif
102
RTVSPost2010PropOp54
 70
     1
102
RTVSPost2010Prop55
280
     0
102
RTVSPost2010PropOp55
 70
     1
102
RTVSPost2010Prop56
140
1.0
102
RTVSPost2010PropOp56
 70
     1
102
RTVSPost2010Prop57
140
1.0
102
RTVSPost2010PropOp57
 70
     1
102
RTVSPropertyOp0
 70
     1
102
RTVSPropertyOp1
 70
     1
102
RTVSPropertyOp2
 70
     1
102
RTVSPropertyOp3
 70
     1
102
RTVSPropertyOp4
 70
     1
102
RTVSPropertyOp5
 70
     1
102
RTVSPropertyOp6
 70
     1
102
RTVSPropertyOp7
 70
     1
102
RTVSPropertyOp8
 70
     1
102
RTVSPropertyOp9
 70
     1
102
RTVSPropertyOp10
 70
     1
102
RTVSPropertyOp11
 70
     1
102
RTVSPropertyOp12
 70
     1
102
RTVSPropertyOp13
 70
     1
102
RTVSPropertyOp14
 70
     1
102
RTVSPropertyOp15
 70
     1
102
RTVSPropertyOp16
 70
     1
102
RTVSPropertyOp17
 70
     1
102
RTVSPropertyOp18
 70
     1
102
RTVSPropertyOp19
 70
     1
102
RTVSPropertyOp20
 70
     1
102
RTVSPropertyOp21
 70
     1
102
RTVSPropertyOp22
 70
     1
102
RTVSPropertyOp23
 70
     1
102
RTVSPropertyOp24
 70
     1
102
RTVSPropertyOp25
 70
     1
102
RTVSPropertyOp26
 70
     1
102
RTVSPropertyOp27
 70
     1
102
RTVSPropertyOp28
 70
     1
102
RTVSPropertyOp29
 70
     1
102
RTVSPropertyOp30
 70
     1
102
RTVSPropertyOp31
 70
     1
102
RTVSPropertyOp32
 70
     1
102
RTVSPropertyOp33
 70
     1
102
RTVSPropertyOp34
 70
     1
102
RTVSPropertyOp35
 70
     1
102
RTVSPropertyOp36
 70
     1
102
RTVSPropertyOp37
 70
     1
102
RTVSPropertyOp38
 70
     1
102
RTVSPropertyOp39
 70
     1
102
RTVSPropertyOp40
 70
     1
102
RTVSPropertyOp41
 70
     1
102
RTVSPropertyOp42
 70
     1
102
RTVSPropertyOp43
 70
     1
102
RTVSPropertyOp44
 70
     1
102
RTVSPropertyOp45
 70
     1
102
RTVSPropertyOp46
 70
     1
102
RTVSPropertyOp47
 70
     1
102
RTVSPropertyOp48
 70
     1
102
RTVSPropertyOp49
 70
     1
102
RTVSPropertyOp50
 70
     1
102
RTVSPropertyOp51
 70
     0
102
RTVSPropertyOp52
 70
     0
102
RTVSPropertyOp53
 70
     1
102
RTVSPropertyOp54
 70
     1
102
RTVSPropertyOp55
 70
     1
102
RTVSPropertyOp56
 70
     1
102
RTVSPropertyOp57
 70
     1
102
RTVSPropertyOp58
 70
     1
102
RTVSPropertyOp59
 70
     1
102
RTVSPropertyOp60
 70
     1
102
RTVSPropertyOp61
 70
     1
102
RTVSPropertyOp62
 70
     1
  0
XRECORD
  5
A31
102
{ACAD_REACTORS
330
A30
102
}
330
A30
100
AcDbXrecord
280
     1
102
RTVSPost2010Prop28
280
     0
102
RTVSPost2010PropOp28
 70
     1
102
RTVSPost2010Prop29
280
     1
102
RTVSPost2010PropOp29
 70
     1
102
RTVSPost2010Prop30
280
     1
102
RTVSPost2010PropOp30
 70
     1
102
RTVSPost2010Prop31
280
     0
102
RTVSPost2010PropOp31
 70
     1
102
RTVSPost2010Prop32
280
     0
102
RTVSPost2010PropOp32
 70
     1
102
RTVSPost2010Prop33
280
     0
102
RTVSPost2010PropOp33
 70
     1
102
RTVSPost2010Prop34
280
     0
102
RTVSPost2010PropOp34
 70
     1
102
RTVSPost2010Prop35
280
     0
102
RTVSPost2010PropOp35
 70
     1
102
RTVSPost2010Prop36
280
     0
102
RTVSPost2010PropOp36
 70
     1
102
RTVSPost2010Prop37
 90
       50
102
RTVSPost2010PropOp37
 70
     1
102
RTVSPost2010Prop38
140
0.0
102
RTVSPost2010PropOp38
 70
     1
102
RTVSPost2010Prop39
140
1.0
102
RTVSPost2010PropOp39
 70
     1
102
RTVSPost2010Prop40
 90
        0
102
RTVSPost2010PropOp40
 70
     1
102
RTVSPost2010Prop41ColorIndex
 90
       18
102
RTVSPost2010Prop41ColorRGB
 90
        0
102
RTVSPost2010PropOp41
 70
     1
102
RTVSPost2010Prop42
 90
       50
102
RTVSPost2010PropOp42
 70
     1
102
RTVSPost2010Prop43
 90
        3
102
RTVSPost2010PropOp43
 70
     1
102
RTVSPost2010Prop44ColorIndex
 90
        5
102
RTVSPost2010Prop44ColorRGB
 90
      255
102
RTVSPost2010PropOp44
 70
     1
102
RTVSPost2010Prop45
280
     0
102
RTVSPost2010PropOp45
 70
     1
102
RTVSPost2010Prop46
 90
       50
102
RTVSPost2010PropOp46
 70
     1
102
RTVSPost2010Prop47
 90
       50
102
RTVSPost2010PropOp47
 70
     1
102
RTVSPost2010Prop48
 90
       50
102
RTVSPost2010PropOp48
 70
     1
102
RTVSPost2010Prop49
280
     0
102
RTVSPost2010PropOp49
 70
     1
102
RTVSPost2010Prop50
 90
       50
102
RTVSPost2010PropOp50
 70
     1
102
RTVSPost2010Prop51ColorIndex
 90
      256
102
RTVSPost2010Prop51ColorRGB
 90
-16777216
102
RTVSPost2010PropOp51
 70
     0
102
RTVSPost2010Prop52
140
1.0
102
RTVSPost2010PropOp52
 70
     0
102
RTVSPost2010Prop53
 90
        2
102
RTVSPost2010PropOp53
 70
     1
102
RTVSPost2010Prop54
  1
strokes_ogs.tif
102
RTVSPost2010PropOp54
 70
     1
102
RTVSPost2010Prop55
280
     0
102
RTVSPost2010PropOp55
 70
     1
102
RTVSPost2010Prop56
140
1.0
102
RTVSPost2010PropOp56
 70
     1
102
RTVSPost2010Prop57
140
1.0
102
RTVSPost2010PropOp57
 70
     1
102
RTVSPropertyOp0
 70
     1
102
RTVSPropertyOp1
 70
     1
102
RTVSPropertyOp2
 70
     1
102
RTVSPropertyOp3
 70
     1
102
RTVSPropertyOp4
 70
     1
102
RTVSPropertyOp5
 70
     1
102
RTVSPropertyOp6
 70
     1
102
RTVSPropertyOp7
 70
     1
102
RTVSPropertyOp8
 70
     1
102
RTVSPropertyOp9
 70
     1
102
RTVSPropertyOp10
 70
     1
102
RTVSPropertyOp11
 70
     1
102
RTVSPropertyOp12
 70
     1
102
RTVSPropertyOp13
 70
     1
102
RTVSPropertyOp14
 70
     1
102
RTVSPropertyOp15
 70
     1
102
RTVSPropertyOp16
 70
     1
102
RTVSPropertyOp17
 70
     1
102
RTVSPropertyOp18
 70
     1
102
RTVSPropertyOp19
 70
     1
102
RTVSPropertyOp20
 70
     1
102
RTVSPropertyOp21
 70
     1
102
RTVSPropertyOp22
 70
     1
102
RTVSPropertyOp23
 70
     1
102
RTVSPropertyOp24
 70
     1
102
RTVSPropertyOp25
 70
     1
102
RTVSPropertyOp26
 70
     1
102
RTVSPropertyOp27
 70
     1
102
RTVSPropertyOp28
 70
     1
102
RTVSPropertyOp29
 70
     1
102
RTVSPropertyOp30
 70
     1
102
RTVSPropertyOp31
 70
     1
102
RTVSPropertyOp32
 70
     1
102
RTVSPropertyOp33
 70
     1
102
RTVSPropertyOp34
 70
     1
102
RTVSPropertyOp35
 70
     1
102
RTVSPropertyOp36
 70
     1
102
RTVSPropertyOp37
 70
     1
102
RTVSPropertyOp38
 70
     1
102
RTVSPropertyOp39
 70
     1
102
RTVSPropertyOp40
 70
     1
102
RTVSPropertyOp41
 70
     1
102
RTVSPropertyOp42
 70
     1
102
RTVSPropertyOp43
 70
     1
102
RTVSPropertyOp44
 70
     1
102
RTVSPropertyOp45
 70
     1
102
RTVSPropertyOp46
 70
     1
102
RTVSPropertyOp47
 70
     1
102
RTVSPropertyOp48
 70
     1
102
RTVSPropertyOp49
 70
     1
102
RTVSPropertyOp50
 70
     1
102
RTVSPropertyOp51
 70
     0
102
RTVSPropertyOp52
 70
     0
102
RTVSPropertyOp53
 70
     1
102
RTVSPropertyOp54
 70
     1
102
RTVSPropertyOp55
 70
     1
102
RTVSPropertyOp56
 70
     1
102
RTVSPropertyOp57
 70
     1
102
RTVSPropertyOp58
 70
     1
102
RTVSPropertyOp59
 70
     1
102
RTVSPropertyOp60
 70
     1
102
RTVSPropertyOp61
 70
     1
102
RTVSPropertyOp62
 70
     1
  0
XRECORD
  5
A33
102
{ACAD_REACTORS
330
A32
102
}
330
A32
100
AcDbXrecord
280
     1
102
RTVSPost2010Prop28
280
     0
102
RTVSPost2010PropOp28
 70
     1
102
RTVSPost2010Prop29
280
     1
102
RTVSPost2010PropOp29
 70
     1
102
RTVSPost2010Prop30
280
     1
102
RTVSPost2010PropOp30
 70
     1
102
RTVSPost2010Prop31
280
     0
102
RTVSPost2010PropOp31
 70
     1
102
RTVSPost2010Prop32
280
     0
102
RTVSPost2010PropOp32
 70
     1
102
RTVSPost2010Prop33
280
     0
102
RTVSPost2010PropOp33
 70
     1
102
RTVSPost2010Prop34
280
     0
102
RTVSPost2010PropOp34
 70
     1
102
RTVSPost2010Prop35
280
     0
102
RTVSPost2010PropOp35
 70
     1
102
RTVSPost2010Prop36
280
     0
102
RTVSPost2010PropOp36
 70
     1
102
RTVSPost2010Prop37
 90
       50
102
RTVSPost2010PropOp37
 70
     1
102
RTVSPost2010Prop38
140
0.0
102
RTVSPost2010PropOp38
 70
     1
102
RTVSPost2010Prop39
140
1.0
102
RTVSPost2010PropOp39
 70
     1
102
RTVSPost2010Prop40
 90
        0
102
RTVSPost2010PropOp40
 70
     1
102
RTVSPost2010Prop41ColorIndex
 90
       18
102
RTVSPost2010Prop41ColorRGB
 90
        0
102
RTVSPost2010PropOp41
 70
     1
102
RTVSPost2010Prop42
 90
       50
102
RTVSPost2010PropOp42
 70
     1
102
RTVSPost2010Prop43
 90
        3
102
RTVSPost2010PropOp43
 70
     1
102
RTVSPost2010Prop44ColorIndex
 90
        5
102
RTVSPost2010Prop44ColorRGB
 90
      255
102
RTVSPost2010PropOp44
 70
     1
102
RTVSPost2010Prop45
280
     0
102
RTVSPost2010PropOp45
 70
     1
102
RTVSPost2010Prop46
 90
       50
102
RTVSPost2010PropOp46
 70
     1
102
RTVSPost2010Prop47
 90
       50
102
RTVSPost2010PropOp47
 70
     1
102
RTVSPost2010Prop48
 90
       50
102
RTVSPost2010PropOp48
 70
     1
102
RTVSPost2010Prop49
280
     0
102
RTVSPost2010PropOp49
 70
     1
102
RTVSPost2010Prop50
 90
       50
102
RTVSPost2010PropOp50
 70
     1
102
RTVSPost2010Prop51ColorIndex
 90
      256
102
RTVSPost2010Prop51ColorRGB
 90
-16777216
102
RTVSPost2010PropOp51
 70
     0
102
RTVSPost2010Prop52
140
1.0
102
RTVSPost2010PropOp52
 70
     0
102
RTVSPost2010Prop53
 90
        2
102
RTVSPost2010PropOp53
 70
     1
102
RTVSPost2010Prop54
  1
strokes_ogs.tif
102
RTVSPost2010PropOp54
 70
     1
102
RTVSPost2010Prop55
280
     0
102
RTVSPost2010PropOp55
 70
     1
102
RTVSPost2010Prop56
140
1.0
102
RTVSPost2010PropOp56
 70
     1
102
RTVSPost2010Prop57
140
1.0
102
RTVSPost2010PropOp57
 70
     1
102
RTVSPropertyOp0
 70
     1
102
RTVSPropertyOp1
 70
     1
102
RTVSPropertyOp2
 70
     1
102
RTVSPropertyOp3
 70
     1
102
RTVSPropertyOp4
 70
     1
102
RTVSPropertyOp5
 70
     1
102
RTVSPropertyOp6
 70
     1
102
RTVSPropertyOp7
 70
     1
102
RTVSPropertyOp8
 70
     1
102
RTVSPropertyOp9
 70
     1
102
RTVSPropertyOp10
 70
     1
102
RTVSPropertyOp11
 70
     1
102
RTVSPropertyOp12
 70
     1
102
RTVSPropertyOp13
 70
     1
102
RTVSPropertyOp14
 70
     1
102
RTVSPropertyOp15
 70
     1
102
RTVSPropertyOp16
 70
     1
102
RTVSPropertyOp17
 70
     1
102
RTVSPropertyOp18
 70
     1
102
RTVSPropertyOp19
 70
     1
102
RTVSPropertyOp20
 70
     1
102
RTVSPropertyOp21
 70
     1
102
RTVSPropertyOp22
 70
     1
102
RTVSPropertyOp23
 70
     1
102
RTVSPropertyOp24
 70
     1
102
RTVSPropertyOp25
 70
     1
102
RTVSPropertyOp26
 70
     1
102
RTVSPropertyOp27
 70
     1
102
RTVSPropertyOp28
 70
     1
102
RTVSPropertyOp29
 70
     1
102
RTVSPropertyOp30
 70
     1
102
RTVSPropertyOp31
 70
     1
102
RTVSPropertyOp32
 70
     1
102
RTVSPropertyOp33
 70
     1
102
RTVSPropertyOp34
 70
     1
102
RTVSPropertyOp35
 70
     1
102
RTVSPropertyOp36
 70
     1
102
RTVSPropertyOp37
 70
     1
102
RTVSPropertyOp38
 70
     1
102
RTVSPropertyOp39
 70
     1
102
RTVSPropertyOp40
 70
     1
102
RTVSPropertyOp41
 70
     1
102
RTVSPropertyOp42
 70
     1
102
RTVSPropertyOp43
 70
     1
102
RTVSPropertyOp44
 70
     1
102
RTVSPropertyOp45
 70
     1
102
RTVSPropertyOp46
 70
     1
102
RTVSPropertyOp47
 70
     1
102
RTVSPropertyOp48
 70
     1
102
RTVSPropertyOp49
 70
     1
102
RTVSPropertyOp50
 70
     1
102
RTVSPropertyOp51
 70
     0
102
RTVSPropertyOp52
 70
     0
102
RTVSPropertyOp53
 70
     1
102
RTVSPropertyOp54
 70
     1
102
RTVSPropertyOp55
 70
     1
102
RTVSPropertyOp56
 70
     1
102
RTVSPropertyOp57
 70
     1
102
RTVSPropertyOp58
 70
     1
102
RTVSPropertyOp59
 70
     1
102
RTVSPropertyOp60
 70
     1
102
RTVSPropertyOp61
 70
     1
102
RTVSPropertyOp62
 70
     1
  0
XRECORD
  5
A35
102
{ACAD_REACTORS
330
A34
102
}
330
A34
100
AcDbXrecord
280
     1
102
RTVSPost2010Prop28
280
     0
102
RTVSPost2010PropOp28
 70
     1
102
RTVSPost2010Prop29
280
     1
102
RTVSPost2010PropOp29
 70
     1
102
RTVSPost2010Prop30
280
     1
102
RTVSPost2010PropOp30
 70
     1
102
RTVSPost2010Prop31
280
     0
102
RTVSPost2010PropOp31
 70
     1
102
RTVSPost2010Prop32
280
     0
102
RTVSPost2010PropOp32
 70
     1
102
RTVSPost2010Prop33
280
     0
102
RTVSPost2010PropOp33
 70
     1
102
RTVSPost2010Prop34
280
     0
102
RTVSPost2010PropOp34
 70
     1
102
RTVSPost2010Prop35
280
     0
102
RTVSPost2010PropOp35
 70
     1
102
RTVSPost2010Prop36
280
     0
102
RTVSPost2010PropOp36
 70
     1
102
RTVSPost2010Prop37
 90
       50
102
RTVSPost2010PropOp37
 70
     1
102
RTVSPost2010Prop38
140
0.0
102
RTVSPost2010PropOp38
 70
     1
102
RTVSPost2010Prop39
140
1.0
102
RTVSPost2010PropOp39
 70
     1
102
RTVSPost2010Prop40
 90
        0
102
RTVSPost2010PropOp40
 70
     1
102
RTVSPost2010Prop41ColorIndex
 90
       18
102
RTVSPost2010Prop41ColorRGB
 90
        0
102
RTVSPost2010PropOp41
 70
     1
102
RTVSPost2010Prop42
 90
       50
102
RTVSPost2010PropOp42
 70
     1
102
RTVSPost2010Prop43
 90
        3
102
RTVSPost2010PropOp43
 70
     1
102
RTVSPost2010Prop44ColorIndex
 90
        5
102
RTVSPost2010Prop44ColorRGB
 90
      255
102
RTVSPost2010PropOp44
 70
     1
102
RTVSPost2010Prop45
280
     0
102
RTVSPost2010PropOp45
 70
     1
102
RTVSPost2010Prop46
 90
       50
102
RTVSPost2010PropOp46
 70
     1
102
RTVSPost2010Prop47
 90
       50
102
RTVSPost2010PropOp47
 70
     1
102
RTVSPost2010Prop48
 90
       50
102
RTVSPost2010PropOp48
 70
     1
102
RTVSPost2010Prop49
280
     0
102
RTVSPost2010PropOp49
 70
     1
102
RTVSPost2010Prop50
 90
       50
102
RTVSPost2010PropOp50
 70
     1
102
RTVSPost2010Prop51ColorIndex
 90
      256
102
RTVSPost2010Prop51ColorRGB
 90
-16777216
102
RTVSPost2010PropOp51
 70
     0
102
RTVSPost2010Prop52
140
1.0
102
RTVSPost2010PropOp52
 70
     0
102
RTVSPost2010Prop53
 90
        2
102
RTVSPost2010PropOp53
 70
     1
102
RTVSPost2010Prop54
  1
strokes_ogs.tif
102
RTVSPost2010PropOp54
 70
     1
102
RTVSPost2010Prop55
280
     0
102
RTVSPost2010PropOp55
 70
     1
102
RTVSPost2010Prop56
140
1.0
102
RTVSPost2010PropOp56
 70
     1
102
RTVSPost2010Prop57
140
1.0
102
RTVSPost2010PropOp57
 70
     1
102
RTVSPropertyOp0
 70
     1
102
RTVSPropertyOp1
 70
     1
102
RTVSPropertyOp2
 70
     1
102
RTVSPropertyOp3
 70
     1
102
RTVSPropertyOp4
 70
     1
102
RTVSPropertyOp5
 70
     1
102
RTVSPropertyOp6
 70
     1
102
RTVSPropertyOp7
 70
     1
102
RTVSPropertyOp8
 70
     1
102
RTVSPropertyOp9
 70
     1
102
RTVSPropertyOp10
 70
     1
102
RTVSPropertyOp11
 70
     1
102
RTVSPropertyOp12
 70
     1
102
RTVSPropertyOp13
 70
     1
102
RTVSPropertyOp14
 70
     1
102
RTVSPropertyOp15
 70
     1
102
RTVSPropertyOp16
 70
     1
102
RTVSPropertyOp17
 70
     1
102
RTVSPropertyOp18
 70
     1
102
RTVSPropertyOp19
 70
     1
102
RTVSPropertyOp20
 70
     1
102
RTVSPropertyOp21
 70
     1
102
RTVSPropertyOp22
 70
     1
102
RTVSPropertyOp23
 70
     1
102
RTVSPropertyOp24
 70
     1
102
RTVSPropertyOp25
 70
     1
102
RTVSPropertyOp26
 70
     1
102
RTVSPropertyOp27
 70
     1
102
RTVSPropertyOp28
 70
     1
102
RTVSPropertyOp29
 70
     1
102
RTVSPropertyOp30
 70
     1
102
RTVSPropertyOp31
 70
     1
102
RTVSPropertyOp32
 70
     1
102
RTVSPropertyOp33
 70
     1
102
RTVSPropertyOp34
 70
     1
102
RTVSPropertyOp35
 70
     1
102
RTVSPropertyOp36
 70
     1
102
RTVSPropertyOp37
 70
     1
102
RTVSPropertyOp38
 70
     1
102
RTVSPropertyOp39
 70
     1
102
RTVSPropertyOp40
 70
     1
102
RTVSPropertyOp41
 70
     1
102
RTVSPropertyOp42
 70
     1
102
RTVSPropertyOp43
 70
     1
102
RTVSPropertyOp44
 70
     1
102
RTVSPropertyOp45
 70
     1
102
RTVSPropertyOp46
 70
     1
102
RTVSPropertyOp47
 70
     1
102
RTVSPropertyOp48
 70
     1
102
RTVSPropertyOp49
 70
     1
102
RTVSPropertyOp50
 70
     1
102
RTVSPropertyOp51
 70
     0
102
RTVSPropertyOp52
 70
     0
102
RTVSPropertyOp53
 70
     1
102
RTVSPropertyOp54
 70
     1
102
RTVSPropertyOp55
 70
     1
102
RTVSPropertyOp56
 70
     1
102
RTVSPropertyOp57
 70
     1
102
RTVSPropertyOp58
 70
     1
102
RTVSPropertyOp59
 70
     1
102
RTVSPropertyOp60
 70
     1
102
RTVSPropertyOp61
 70
     1
102
RTVSPropertyOp62
 70
     1
  0
XRECORD
  5
A37
102
{ACAD_REACTORS
330
A36
102
}
330
A36
100
AcDbXrecord
280
     1
102
RTVSPost2010Prop28
280
     0
102
RTVSPost2010PropOp28
 70
     1
102
RTVSPost2010Prop29
280
     1
102
RTVSPost2010PropOp29
 70
     1
102
RTVSPost2010Prop30
280
     1
102
RTVSPost2010PropOp30
 70
     1
102
RTVSPost2010Prop31
280
     0
102
RTVSPost2010PropOp31
 70
     1
102
RTVSPost2010Prop32
280
     0
102
RTVSPost2010PropOp32
 70
     1
102
RTVSPost2010Prop33
280
     0
102
RTVSPost2010PropOp33
 70
     1
102
RTVSPost2010Prop34
280
     0
102
RTVSPost2010PropOp34
 70
     1
102
RTVSPost2010Prop35
280
     0
102
RTVSPost2010PropOp35
 70
     1
102
RTVSPost2010Prop36
280
     0
102
RTVSPost2010PropOp36
 70
     1
102
RTVSPost2010Prop37
 90
       50
102
RTVSPost2010PropOp37
 70
     1
102
RTVSPost2010Prop38
140
0.0
102
RTVSPost2010PropOp38
 70
     1
102
RTVSPost2010Prop39
140
1.0
102
RTVSPost2010PropOp39
 70
     1
102
RTVSPost2010Prop40
 90
        0
102
RTVSPost2010PropOp40
 70
     1
102
RTVSPost2010Prop41ColorIndex
 90
       18
102
RTVSPost2010Prop41ColorRGB
 90
        0
102
RTVSPost2010PropOp41
 70
     1
102
RTVSPost2010Prop42
 90
       50
102
RTVSPost2010PropOp42
 70
     1
102
RTVSPost2010Prop43
 90
        3
102
RTVSPost2010PropOp43
 70
     1
102
RTVSPost2010Prop44ColorIndex
 90
        5
102
RTVSPost2010Prop44ColorRGB
 90
      255
102
RTVSPost2010PropOp44
 70
     1
102
RTVSPost2010Prop45
280
     0
102
RTVSPost2010PropOp45
 70
     1
102
RTVSPost2010Prop46
 90
       50
102
RTVSPost2010PropOp46
 70
     1
102
RTVSPost2010Prop47
 90
       50
102
RTVSPost2010PropOp47
 70
     1
102
RTVSPost2010Prop48
 90
       50
102
RTVSPost2010PropOp48
 70
     1
102
RTVSPost2010Prop49
280
     0
102
RTVSPost2010PropOp49
 70
     1
102
RTVSPost2010Prop50
 90
       50
102
RTVSPost2010PropOp50
 70
     1
102
RTVSPost2010Prop51ColorIndex
 90
      256
102
RTVSPost2010Prop51ColorRGB
 90
-16777216
102
RTVSPost2010PropOp51
 70
     0
102
RTVSPost2010Prop52
140
1.0
102
RTVSPost2010PropOp52
 70
     0
102
RTVSPost2010Prop53
 90
        2
102
RTVSPost2010PropOp53
 70
     1
102
RTVSPost2010Prop54
  1
strokes_ogs.tif
102
RTVSPost2010PropOp54
 70
     1
102
RTVSPost2010Prop55
280
     0
102
RTVSPost2010PropOp55
 70
     1
102
RTVSPost2010Prop56
140
1.0
102
RTVSPost2010PropOp56
 70
     1
102
RTVSPost2010Prop57
140
1.0
102
RTVSPost2010PropOp57
 70
     1
102
RTVSPropertyOp0
 70
     1
102
RTVSPropertyOp1
 70
     1
102
RTVSPropertyOp2
 70
     1
102
RTVSPropertyOp3
 70
     1
102
RTVSPropertyOp4
 70
     1
102
RTVSPropertyOp5
 70
     1
102
RTVSPropertyOp6
 70
     1
102
RTVSPropertyOp7
 70
     1
102
RTVSPropertyOp8
 70
     1
102
RTVSPropertyOp9
 70
     1
102
RTVSPropertyOp10
 70
     1
102
RTVSPropertyOp11
 70
     1
102
RTVSPropertyOp12
 70
     1
102
RTVSPropertyOp13
 70
     1
102
RTVSPropertyOp14
 70
     1
102
RTVSPropertyOp15
 70
     1
102
RTVSPropertyOp16
 70
     1
102
RTVSPropertyOp17
 70
     1
102
RTVSPropertyOp18
 70
     1
102
RTVSPropertyOp19
 70
     1
102
RTVSPropertyOp20
 70
     1
102
RTVSPropertyOp21
 70
     1
102
RTVSPropertyOp22
 70
     1
102
RTVSPropertyOp23
 70
     1
102
RTVSPropertyOp24
 70
     1
102
RTVSPropertyOp25
 70
     1
102
RTVSPropertyOp26
 70
     1
102
RTVSPropertyOp27
 70
     1
102
RTVSPropertyOp28
 70
     1
102
RTVSPropertyOp29
 70
     1
102
RTVSPropertyOp30
 70
     1
102
RTVSPropertyOp31
 70
     1
102
RTVSPropertyOp32
 70
     1
102
RTVSPropertyOp33
 70
     1
102
RTVSPropertyOp34
 70
     1
102
RTVSPropertyOp35
 70
     1
102
RTVSPropertyOp36
 70
     1
102
RTVSPropertyOp37
 70
     1
102
RTVSPropertyOp38
 70
     1
102
RTVSPropertyOp39
 70
     1
102
RTVSPropertyOp40
 70
     1
102
RTVSPropertyOp41
 70
     1
102
RTVSPropertyOp42
 70
     1
102
RTVSPropertyOp43
 70
     1
102
RTVSPropertyOp44
 70
     1
102
RTVSPropertyOp45
 70
     1
102
RTVSPropertyOp46
 70
     1
102
RTVSPropertyOp47
 70
     1
102
RTVSPropertyOp48
 70
     1
102
RTVSPropertyOp49
 70
     1
102
RTVSPropertyOp50
 70
     1
102
RTVSPropertyOp51
 70
     0
102
RTVSPropertyOp52
 70
     0
102
RTVSPropertyOp53
 70
     1
102
RTVSPropertyOp54
 70
     1
102
RTVSPropertyOp55
 70
     1
102
RTVSPropertyOp56
 70
     1
102
RTVSPropertyOp57
 70
     1
102
RTVSPropertyOp58
 70
     1
102
RTVSPropertyOp59
 70
     1
102
RTVSPropertyOp60
 70
     1
102
RTVSPropertyOp61
 70
     1
102
RTVSPropertyOp62
 70
     1
  0
XRECORD
  5
A59
102
{ACAD_REACTORS
330
A58
102
}
330
A58
100
AcDbXrecord
280
     1
102
RTVSPost2010Prop28
280
     0
102
RTVSPost2010PropOp28
 70
     1
102
RTVSPost2010Prop29
280
     1
102
RTVSPost2010PropOp29
 70
     1
102
RTVSPost2010Prop30
280
     1
102
RTVSPost2010PropOp30
 70
     1
102
RTVSPost2010Prop31
280
     0
102
RTVSPost2010PropOp31
 70
     1
102
RTVSPost2010Prop32
280
     0
102
RTVSPost2010PropOp32
 70
     1
102
RTVSPost2010Prop33
280
     0
102
RTVSPost2010PropOp33
 70
     1
102
RTVSPost2010Prop34
280
     0
102
RTVSPost2010PropOp34
 70
     1
102
RTVSPost2010Prop35
280
     0
102
RTVSPost2010PropOp35
 70
     1
102
RTVSPost2010Prop36
280
     0
102
RTVSPost2010PropOp36
 70
     1
102
RTVSPost2010Prop37
 90
       50
102
RTVSPost2010PropOp37
 70
     1
102
RTVSPost2010Prop38
140
0.0
102
RTVSPost2010PropOp38
 70
     1
102
RTVSPost2010Prop39
140
1.0
102
RTVSPost2010PropOp39
 70
     1
102
RTVSPost2010Prop40
 90
        0
102
RTVSPost2010PropOp40
 70
     1
102
RTVSPost2010Prop41ColorIndex
 90
       18
102
RTVSPost2010Prop41ColorRGB
 90
        0
102
RTVSPost2010PropOp41
 70
     1
102
RTVSPost2010Prop42
 90
       50
102
RTVSPost2010PropOp42
 70
     1
102
RTVSPost2010Prop43
 90
        3
102
RTVSPost2010PropOp43
 70
     1
102
RTVSPost2010Prop44ColorIndex
 90
        5
102
RTVSPost2010Prop44ColorRGB
 90
      255
102
RTVSPost2010PropOp44
 70
     1
102
RTVSPost2010Prop45
280
     0
102
RTVSPost2010PropOp45
 70
     1
102
RTVSPost2010Prop46
 90
       50
102
RTVSPost2010PropOp46
 70
     1
102
RTVSPost2010Prop47
 90
       50
102
RTVSPost2010PropOp47
 70
     1
102
RTVSPost2010Prop48
 90
       50
102
RTVSPost2010PropOp48
 70
     1
102
RTVSPost2010Prop49
280
     0
102
RTVSPost2010PropOp49
 70
     1
102
RTVSPost2010Prop50
 90
       50
102
RTVSPost2010PropOp50
 70
     1
102
RTVSPost2010Prop51ColorIndex
 90
      256
102
RTVSPost2010Prop51ColorRGB
 90
-16777216
102
RTVSPost2010PropOp51
 70
     0
102
RTVSPost2010Prop52
140
1.0
102
RTVSPost2010PropOp52
 70
     0
102
RTVSPost2010Prop53
 90
        2
102
RTVSPost2010PropOp53
 70
     1
102
RTVSPost2010Prop54
  1
strokes_ogs.tif
102
RTVSPost2010PropOp54
 70
     1
102
RTVSPost2010Prop55
280
     0
102
RTVSPost2010PropOp55
 70
     1
102
RTVSPost2010Prop56
140
1.0
102
RTVSPost2010PropOp56
 70
     1
102
RTVSPost2010Prop57
140
1.0
102
RTVSPost2010PropOp57
 70
     1
102
RTVSPropertyOp0
 70
     1
102
RTVSPropertyOp1
 70
     1
102
RTVSPropertyOp2
 70
     1
102
RTVSPropertyOp3
 70
     1
102
RTVSPropertyOp4
 70
     1
102
RTVSPropertyOp5
 70
     1
102
RTVSPropertyOp6
 70
     1
102
RTVSPropertyOp7
 70
     1
102
RTVSPropertyOp8
 70
     1
102
RTVSPropertyOp9
 70
     1
102
RTVSPropertyOp10
 70
     1
102
RTVSPropertyOp11
 70
     1
102
RTVSPropertyOp12
 70
     1
102
RTVSPropertyOp13
 70
     1
102
RTVSPropertyOp14
 70
     1
102
RTVSPropertyOp15
 70
     1
102
RTVSPropertyOp16
 70
     1
102
RTVSPropertyOp17
 70
     1
102
RTVSPropertyOp18
 70
     1
102
RTVSPropertyOp19
 70
     1
102
RTVSPropertyOp20
 70
     1
102
RTVSPropertyOp21
 70
     1
102
RTVSPropertyOp22
 70
     1
102
RTVSPropertyOp23
 70
     1
102
RTVSPropertyOp24
 70
     1
102
RTVSPropertyOp25
 70
     1
102
RTVSPropertyOp26
 70
     1
102
RTVSPropertyOp27
 70
     1
102
RTVSPropertyOp28
 70
     1
102
RTVSPropertyOp29
 70
     1
102
RTVSPropertyOp30
 70
     1
102
RTVSPropertyOp31
 70
     1
102
RTVSPropertyOp32
 70
     1
102
RTVSPropertyOp33
 70
     1
102
RTVSPropertyOp34
 70
     1
102
RTVSPropertyOp35
 70
     1
102
RTVSPropertyOp36
 70
     1
102
RTVSPropertyOp37
 70
     1
102
RTVSPropertyOp38
 70
     1
102
RTVSPropertyOp39
 70
     1
102
RTVSPropertyOp40
 70
     1
102
RTVSPropertyOp41
 70
     1
102
RTVSPropertyOp42
 70
     1
102
RTVSPropertyOp43
 70
     1
102
RTVSPropertyOp44
 70
     1
102
RTVSPropertyOp45
 70
     1
102
RTVSPropertyOp46
 70
     1
102
RTVSPropertyOp47
 70
     1
102
RTVSPropertyOp48
 70
     1
102
RTVSPropertyOp49
 70
     1
102
RTVSPropertyOp50
 70
     1
102
RTVSPropertyOp51
 70
     0
102
RTVSPropertyOp52
 70
     0
102
RTVSPropertyOp53
 70
     1
102
RTVSPropertyOp54
 70
     1
102
RTVSPropertyOp55
 70
     1
102
RTVSPropertyOp56
 70
     1
102
RTVSPropertyOp57
 70
     1
102
RTVSPropertyOp58
 70
     1
102
RTVSPropertyOp59
 70
     1
102
RTVSPropertyOp60
 70
     1
102
RTVSPropertyOp61
 70
     1
102
RTVSPropertyOp62
 70
     1
  0
XRECORD
  5
A51
102
{ACAD_REACTORS
330
A50
102
}
330
A50
100
AcDbXrecord
280
     1
102
RTVSPost2010Prop28
280
     0
102
RTVSPost2010PropOp28
 70
     1
102
RTVSPost2010Prop29
280
     1
102
RTVSPost2010PropOp29
 70
     1
102
RTVSPost2010Prop30
280
     1
102
RTVSPost2010PropOp30
 70
     1
102
RTVSPost2010Prop31
280
     0
102
RTVSPost2010PropOp31
 70
     1
102
RTVSPost2010Prop32
280
     0
102
RTVSPost2010PropOp32
 70
     1
102
RTVSPost2010Prop33
280
     0
102
RTVSPost2010PropOp33
 70
     1
102
RTVSPost2010Prop34
280
     0
102
RTVSPost2010PropOp34
 70
     1
102
RTVSPost2010Prop35
280
     0
102
RTVSPost2010PropOp35
 70
     1
102
RTVSPost2010Prop36
280
     0
102
RTVSPost2010PropOp36
 70
     1
102
RTVSPost2010Prop37
 90
       50
102
RTVSPost2010PropOp37
 70
     1
102
RTVSPost2010Prop38
140
0.0
102
RTVSPost2010PropOp38
 70
     1
102
RTVSPost2010Prop39
140
1.0
102
RTVSPost2010PropOp39
 70
     1
102
RTVSPost2010Prop40
 90
        0
102
RTVSPost2010PropOp40
 70
     1
102
RTVSPost2010Prop41ColorIndex
 90
       18
102
RTVSPost2010Prop41ColorRGB
 90
        0
102
RTVSPost2010PropOp41
 70
     1
102
RTVSPost2010Prop42
 90
       50
102
RTVSPost2010PropOp42
 70
     1
102
RTVSPost2010Prop43
 90
        3
102
RTVSPost2010PropOp43
 70
     1
102
RTVSPost2010Prop44ColorIndex
 90
        5
102
RTVSPost2010Prop44ColorRGB
 90
      255
102
RTVSPost2010PropOp44
 70
     1
102
RTVSPost2010Prop45
280
     0
102
RTVSPost2010PropOp45
 70
     1
102
RTVSPost2010Prop46
 90
       50
102
RTVSPost2010PropOp46
 70
     1
102
RTVSPost2010Prop47
 90
       50
102
RTVSPost2010PropOp47
 70
     1
102
RTVSPost2010Prop48
 90
       50
102
RTVSPost2010PropOp48
 70
     1
102
RTVSPost2010Prop49
280
     0
102
RTVSPost2010PropOp49
 70
     1
102
RTVSPost2010Prop50
 90
       50
102
RTVSPost2010PropOp50
 70
     1
102
RTVSPost2010Prop51ColorIndex
 90
      256
102
RTVSPost2010Prop51ColorRGB
 90
-16777216
102
RTVSPost2010PropOp51
 70
     0
102
RTVSPost2010Prop52
140
1.0
102
RTVSPost2010PropOp52
 70
     0
102
RTVSPost2010Prop53
 90
        2
102
RTVSPost2010PropOp53
 70
     1
102
RTVSPost2010Prop54
  1
strokes_ogs.tif
102
RTVSPost2010PropOp54
 70
     1
102
RTVSPost2010Prop55
280
     0
102
RTVSPost2010PropOp55
 70
     1
102
RTVSPost2010Prop56
140
1.0
102
RTVSPost2010PropOp56
 70
     1
102
RTVSPost2010Prop57
140
1.0
102
RTVSPost2010PropOp57
 70
     1
102
RTVSPropertyOp0
 70
     0
102
RTVSPropertyOp1
 70
     0
102
RTVSPropertyOp2
 70
     0
102
RTVSPropertyOp3
 70
     0
102
RTVSPropertyOp4
 70
     0
102
RTVSPropertyOp5
 70
     0
102
RTVSPropertyOp6
 70
     0
102
RTVSPropertyOp7
 70
     0
102
RTVSPropertyOp8
 70
     0
102
RTVSPropertyOp9
 70
     0
102
RTVSPropertyOp10
 70
     0
102
RTVSPropertyOp11
 70
     0
102
RTVSPropertyOp12
 70
     0
102
RTVSPropertyOp13
 70
     0
102
RTVSPropertyOp14
 70
     2
102
RTVSPropertyOp15
 70
     0
102
RTVSPropertyOp16
 70
     0
102
RTVSPropertyOp17
 70
     0
102
RTVSPropertyOp18
 70
     0
102
RTVSPropertyOp19
 70
     0
102
RTVSPropertyOp20
 70
     0
102
RTVSPropertyOp21
 70
     0
102
RTVSPropertyOp22
 70
     0
102
RTVSPropertyOp23
 70
     0
102
RTVSPropertyOp24
 70
     0
102
RTVSPropertyOp25
 70
     0
102
RTVSPropertyOp26
 70
     0
102
RTVSPropertyOp27
 70
     0
102
RTVSPropertyOp28
 70
     1
102
RTVSPropertyOp29
 70
     1
102
RTVSPropertyOp30
 70
     1
102
RTVSPropertyOp31
 70
     1
102
RTVSPropertyOp32
 70
     1
102
RTVSPropertyOp33
 70
     1
102
RTVSPropertyOp34
 70
     1
102
RTVSPropertyOp35
 70
     1
102
RTVSPropertyOp36
 70
     1
102
RTVSPropertyOp37
 70
     1
102
RTVSPropertyOp38
 70
     1
102
RTVSPropertyOp39
 70
     1
102
RTVSPropertyOp40
 70
     1
102
RTVSPropertyOp41
 70
     1
102
RTVSPropertyOp42
 70
     1
102
RTVSPropertyOp43
 70
     1
102
RTVSPropertyOp44
 70
     1
102
RTVSPropertyOp45
 70
     1
102
RTVSPropertyOp46
 70
     1
102
RTVSPropertyOp47
 70
     1
102
RTVSPropertyOp48
 70
     1
102
RTVSPropertyOp49
 70
     1
102
RTVSPropertyOp50
 70
     1
102
RTVSPropertyOp51
 70
     0
102
RTVSPropertyOp52
 70
     0
102
RTVSPropertyOp53
 70
     1
102
RTVSPropertyOp54
 70
     1
102
RTVSPropertyOp55
 70
     1
102
RTVSPropertyOp56
 70
     1
102
RTVSPropertyOp57
 70
     1
102
RTVSPropertyOp58
 70
     1
102
RTVSPropertyOp59
 70
     1
102
RTVSPropertyOp60
 70
     1
102
RTVSPropertyOp61
 70
     1
102
RTVSPropertyOp62
 70
     1
  0
XRECORD
  5
A4B
102
{ACAD_REACTORS
330
A4A
102
}
330
A4A
100
AcDbXrecord
280
     1
102
RTVSPost2010Prop28
280
     0
102
RTVSPost2010PropOp28
 70
     1
102
RTVSPost2010Prop29
280
     1
102
RTVSPost2010PropOp29
 70
     1
102
RTVSPost2010Prop30
280
     1
102
RTVSPost2010PropOp30
 70
     1
102
RTVSPost2010Prop31
280
     0
102
RTVSPost2010PropOp31
 70
     1
102
RTVSPost2010Prop32
280
     0
102
RTVSPost2010PropOp32
 70
     1
102
RTVSPost2010Prop33
280
     0
102
RTVSPost2010PropOp33
 70
     1
102
RTVSPost2010Prop34
280
     0
102
RTVSPost2010PropOp34
 70
     1
102
RTVSPost2010Prop35
280
     0
102
RTVSPost2010PropOp35
 70
     1
102
RTVSPost2010Prop36
280
     0
102
RTVSPost2010PropOp36
 70
     1
102
RTVSPost2010Prop37
 90
       50
102
RTVSPost2010PropOp37
 70
     1
102
RTVSPost2010Prop38
140
0.0
102
RTVSPost2010PropOp38
 70
     1
102
RTVSPost2010Prop39
140
1.0
102
RTVSPost2010PropOp39
 70
     1
102
RTVSPost2010Prop40
 90
        0
102
RTVSPost2010PropOp40
 70
     1
102
RTVSPost2010Prop41ColorIndex
 90
       18
102
RTVSPost2010Prop41ColorRGB
 90
        0
102
RTVSPost2010PropOp41
 70
     1
102
RTVSPost2010Prop42
 90
       50
102
RTVSPost2010PropOp42
 70
     1
102
RTVSPost2010Prop43
 90
        3
102
RTVSPost2010PropOp43
 70
     1
102
RTVSPost2010Prop44ColorIndex
 90
        5
102
RTVSPost2010Prop44ColorRGB
 90
      255
102
RTVSPost2010PropOp44
 70
     1
102
RTVSPost2010Prop45
280
     0
102
RTVSPost2010PropOp45
 70
     1
102
RTVSPost2010Prop46
 90
       50
102
RTVSPost2010PropOp46
 70
     1
102
RTVSPost2010Prop47
 90
       50
102
RTVSPost2010PropOp47
 70
     1
102
RTVSPost2010Prop48
 90
       50
102
RTVSPost2010PropOp48
 70
     1
102
RTVSPost2010Prop49
280
     0
102
RTVSPost2010PropOp49
 70
     1
102
RTVSPost2010Prop50
 90
       50
102
RTVSPost2010PropOp50
 70
     1
102
RTVSPost2010Prop51ColorIndex
 90
      256
102
RTVSPost2010Prop51ColorRGB
 90
-16777216
102
RTVSPost2010PropOp51
 70
     0
102
RTVSPost2010Prop52
140
1.0
102
RTVSPost2010PropOp52
 70
     0
102
RTVSPost2010Prop53
 90
        2
102
RTVSPost2010PropOp53
 70
     1
102
RTVSPost2010Prop54
  1
strokes_ogs.tif
102
RTVSPost2010PropOp54
 70
     1
102
RTVSPost2010Prop55
280
     0
102
RTVSPost2010PropOp55
 70
     1
102
RTVSPost2010Prop56
140
1.0
102
RTVSPost2010PropOp56
 70
     1
102
RTVSPost2010Prop57
140
1.0
102
RTVSPost2010PropOp57
 70
     1
102
RTVSPropertyOp0
 70
     1
102
RTVSPropertyOp1
 70
     1
102
RTVSPropertyOp2
 70
     1
102
RTVSPropertyOp3
 70
     1
102
RTVSPropertyOp4
 70
     1
102
RTVSPropertyOp5
 70
     1
102
RTVSPropertyOp6
 70
     1
102
RTVSPropertyOp7
 70
     1
102
RTVSPropertyOp8
 70
     1
102
RTVSPropertyOp9
 70
     1
102
RTVSPropertyOp10
 70
     1
102
RTVSPropertyOp11
 70
     1
102
RTVSPropertyOp12
 70
     1
102
RTVSPropertyOp13
 70
     1
102
RTVSPropertyOp14
 70
     1
102
RTVSPropertyOp15
 70
     1
102
RTVSPropertyOp16
 70
     1
102
RTVSPropertyOp17
 70
     1
102
RTVSPropertyOp18
 70
     1
102
RTVSPropertyOp19
 70
     1
102
RTVSPropertyOp20
 70
     1
102
RTVSPropertyOp21
 70
     1
102
RTVSPropertyOp22
 70
     1
102
RTVSPropertyOp23
 70
     1
102
RTVSPropertyOp24
 70
     1
102
RTVSPropertyOp25
 70
     1
102
RTVSPropertyOp26
 70
     1
102
RTVSPropertyOp27
 70
     1
102
RTVSPropertyOp28
 70
     1
102
RTVSPropertyOp29
 70
     1
102
RTVSPropertyOp30
 70
     1
102
RTVSPropertyOp31
 70
     1
102
RTVSPropertyOp32
 70
     1
102
RTVSPropertyOp33
 70
     1
102
RTVSPropertyOp34
 70
     1
102
RTVSPropertyOp35
 70
     1
102
RTVSPropertyOp36
 70
     1
102
RTVSPropertyOp37
 70
     1
102
RTVSPropertyOp38
 70
     1
102
RTVSPropertyOp39
 70
     1
102
RTVSPropertyOp40
 70
     1
102
RTVSPropertyOp41
 70
     1
102
RTVSPropertyOp42
 70
     1
102
RTVSPropertyOp43
 70
     1
102
RTVSPropertyOp44
 70
     1
102
RTVSPropertyOp45
 70
     1
102
RTVSPropertyOp46
 70
     1
102
RTVSPropertyOp47
 70
     1
102
RTVSPropertyOp48
 70
     1
102
RTVSPropertyOp49
 70
     1
102
RTVSPropertyOp50
 70
     1
102
RTVSPropertyOp51
 70
     0
102
RTVSPropertyOp52
 70
     0
102
RTVSPropertyOp53
 70
     1
102
RTVSPropertyOp54
 70
     1
102
RTVSPropertyOp55
 70
     1
102
RTVSPropertyOp56
 70
     1
102
RTVSPropertyOp57
 70
     1
102
RTVSPropertyOp58
 70
     1
102
RTVSPropertyOp59
 70
     1
102
RTVSPropertyOp60
 70
     1
102
RTVSPropertyOp61
 70
     1
102
RTVSPropertyOp62
 70
     1
  0
XRECORD
  5
A53
102
{ACAD_REACTORS
330
A52
102
}
330
A52
100
AcDbXrecord
280
     1
102
RTVSPost2010Prop28
280
     0
102
RTVSPost2010PropOp28
 70
     1
102
RTVSPost2010Prop29
280
     1
102
RTVSPost2010PropOp29
 70
     1
102
RTVSPost2010Prop30
280
     1
102
RTVSPost2010PropOp30
 70
     1
102
RTVSPost2010Prop31
280
     0
102
RTVSPost2010PropOp31
 70
     1
102
RTVSPost2010Prop32
280
     0
102
RTVSPost2010PropOp32
 70
     1
102
RTVSPost2010Prop33
280
     0
102
RTVSPost2010PropOp33
 70
     1
102
RTVSPost2010Prop34
280
     0
102
RTVSPost2010PropOp34
 70
     1
102
RTVSPost2010Prop35
280
     0
102
RTVSPost2010PropOp35
 70
     1
102
RTVSPost2010Prop36
280
     0
102
RTVSPost2010PropOp36
 70
     1
102
RTVSPost2010Prop37
 90
       50
102
RTVSPost2010PropOp37
 70
     1
102
RTVSPost2010Prop38
140
0.0
102
RTVSPost2010PropOp38
 70
     1
102
RTVSPost2010Prop39
140
1.0
102
RTVSPost2010PropOp39
 70
     1
102
RTVSPost2010Prop40
 90
        0
102
RTVSPost2010PropOp40
 70
     1
102
RTVSPost2010Prop41ColorIndex
 90
       18
102
RTVSPost2010Prop41ColorRGB
 90
        0
102
RTVSPost2010PropOp41
 70
     1
102
RTVSPost2010Prop42
 90
       50
102
RTVSPost2010PropOp42
 70
     1
102
RTVSPost2010Prop43
 90
        3
102
RTVSPost2010PropOp43
 70
     1
102
RTVSPost2010Prop44ColorIndex
 90
        5
102
RTVSPost2010Prop44ColorRGB
 90
      255
102
RTVSPost2010PropOp44
 70
     1
102
RTVSPost2010Prop45
280
     0
102
RTVSPost2010PropOp45
 70
     1
102
RTVSPost2010Prop46
 90
       50
102
RTVSPost2010PropOp46
 70
     1
102
RTVSPost2010Prop47
 90
       50
102
RTVSPost2010PropOp47
 70
     1
102
RTVSPost2010Prop48
 90
       50
102
RTVSPost2010PropOp48
 70
     1
102
RTVSPost2010Prop49
280
     0
102
RTVSPost2010PropOp49
 70
     1
102
RTVSPost2010Prop50
 90
       50
102
RTVSPost2010PropOp50
 70
     1
102
RTVSPost2010Prop51ColorIndex
 90
      256
102
RTVSPost2010Prop51ColorRGB
 90
-16777216
102
RTVSPost2010PropOp51
 70
     0
102
RTVSPost2010Prop52
140
1.0
102
RTVSPost2010PropOp52
 70
     0
102
RTVSPost2010Prop53
 90
        2
102
RTVSPost2010PropOp53
 70
     1
102
RTVSPost2010Prop54
  1
strokes_ogs.tif
102
RTVSPost2010PropOp54
 70
     1
102
RTVSPost2010Prop55
280
     0
102
RTVSPost2010PropOp55
 70
     1
102
RTVSPost2010Prop56
140
1.0
102
RTVSPost2010PropOp56
 70
     1
102
RTVSPost2010Prop57
140
1.0
102
RTVSPost2010PropOp57
 70
     1
102
RTVSPropertyOp0
 70
     0
102
RTVSPropertyOp1
 70
     0
102
RTVSPropertyOp2
 70
     0
102
RTVSPropertyOp3
 70
     0
102
RTVSPropertyOp4
 70
     0
102
RTVSPropertyOp5
 70
     0
102
RTVSPropertyOp6
 70
     0
102
RTVSPropertyOp7
 70
     0
102
RTVSPropertyOp8
 70
     0
102
RTVSPropertyOp9
 70
     0
102
RTVSPropertyOp10
 70
     0
102
RTVSPropertyOp11
 70
     0
102
RTVSPropertyOp12
 70
     0
102
RTVSPropertyOp13
 70
     0
102
RTVSPropertyOp14
 70
     2
102
RTVSPropertyOp15
 70
     0
102
RTVSPropertyOp16
 70
     0
102
RTVSPropertyOp17
 70
     0
102
RTVSPropertyOp18
 70
     0
102
RTVSPropertyOp19
 70
     0
102
RTVSPropertyOp20
 70
     0
102
RTVSPropertyOp21
 70
     0
102
RTVSPropertyOp22
 70
     0
102
RTVSPropertyOp23
 70
     0
102
RTVSPropertyOp24
 70
     0
102
RTVSPropertyOp25
 70
     0
102
RTVSPropertyOp26
 70
     0
102
RTVSPropertyOp27
 70
     0
102
RTVSPropertyOp28
 70
     1
102
RTVSPropertyOp29
 70
     1
102
RTVSPropertyOp30
 70
     1
102
RTVSPropertyOp31
 70
     1
102
RTVSPropertyOp32
 70
     1
102
RTVSPropertyOp33
 70
     1
102
RTVSPropertyOp34
 70
     1
102
RTVSPropertyOp35
 70
     1
102
RTVSPropertyOp36
 70
     1
102
RTVSPropertyOp37
 70
     1
102
RTVSPropertyOp38
 70
     1
102
RTVSPropertyOp39
 70
     1
102
RTVSPropertyOp40
 70
     1
102
RTVSPropertyOp41
 70
     1
102
RTVSPropertyOp42
 70
     1
102
RTVSPropertyOp43
 70
     1
102
RTVSPropertyOp44
 70
     1
102
RTVSPropertyOp45
 70
     1
102
RTVSPropertyOp46
 70
     1
102
RTVSPropertyOp47
 70
     1
102
RTVSPropertyOp48
 70
     1
102
RTVSPropertyOp49
 70
     1
102
RTVSPropertyOp50
 70
     1
102
RTVSPropertyOp51
 70
     0
102
RTVSPropertyOp52
 70
     0
102
RTVSPropertyOp53
 70
     1
102
RTVSPropertyOp54
 70
     1
102
RTVSPropertyOp55
 70
     1
102
RTVSPropertyOp56
 70
     1
102
RTVSPropertyOp57
 70
     1
102
RTVSPropertyOp58
 70
     1
102
RTVSPropertyOp59
 70
     1
102
RTVSPropertyOp60
 70
     1
102
RTVSPropertyOp61
 70
     1
102
RTVSPropertyOp62
 70
     1
  0
XRECORD
  5
A43
102
{ACAD_REACTORS
330
A42
102
}
330
A42
100
AcDbXrecord
280
     1
102
RTVSPost2010Prop28
280
     0
102
RTVSPost2010PropOp28
 70
     1
102
RTVSPost2010Prop29
280
     1
102
RTVSPost2010PropOp29
 70
     1
102
RTVSPost2010Prop30
280
     1
102
RTVSPost2010PropOp30
 70
     1
102
RTVSPost2010Prop31
280
     0
102
RTVSPost2010PropOp31
 70
     1
102
RTVSPost2010Prop32
280
     0
102
RTVSPost2010PropOp32
 70
     1
102
RTVSPost2010Prop33
280
     0
102
RTVSPost2010PropOp33
 70
     1
102
RTVSPost2010Prop34
280
     0
102
RTVSPost2010PropOp34
 70
     1
102
RTVSPost2010Prop35
280
     0
102
RTVSPost2010PropOp35
 70
     1
102
RTVSPost2010Prop36
280
     0
102
RTVSPost2010PropOp36
 70
     1
102
RTVSPost2010Prop37
 90
       50
102
RTVSPost2010PropOp37
 70
     1
102
RTVSPost2010Prop38
140
0.0
102
RTVSPost2010PropOp38
 70
     1
102
RTVSPost2010Prop39
140
1.0
102
RTVSPost2010PropOp39
 70
     1
102
RTVSPost2010Prop40
 90
        0
102
RTVSPost2010PropOp40
 70
     1
102
RTVSPost2010Prop41ColorIndex
 90
       18
102
RTVSPost2010Prop41ColorRGB
 90
        0
102
RTVSPost2010PropOp41
 70
     1
102
RTVSPost2010Prop42
 90
       50
102
RTVSPost2010PropOp42
 70
     1
102
RTVSPost2010Prop43
 90
        3
102
RTVSPost2010PropOp43
 70
     1
102
RTVSPost2010Prop44ColorIndex
 90
        5
102
RTVSPost2010Prop44ColorRGB
 90
      255
102
RTVSPost2010PropOp44
 70
     1
102
RTVSPost2010Prop45
280
     0
102
RTVSPost2010PropOp45
 70
     1
102
RTVSPost2010Prop46
 90
       50
102
RTVSPost2010PropOp46
 70
     1
102
RTVSPost2010Prop47
 90
       50
102
RTVSPost2010PropOp47
 70
     1
102
RTVSPost2010Prop48
 90
       50
102
RTVSPost2010PropOp48
 70
     1
102
RTVSPost2010Prop49
280
     0
102
RTVSPost2010PropOp49
 70
     1
102
RTVSPost2010Prop50
 90
       50
102
RTVSPost2010PropOp50
 70
     1
102
RTVSPost2010Prop51ColorIndex
 90
      256
102
RTVSPost2010Prop51ColorRGB
 90
-16777216
102
RTVSPost2010PropOp51
 70
     0
102
RTVSPost2010Prop52
140
1.0
102
RTVSPost2010PropOp52
 70
     0
102
RTVSPost2010Prop53
 90
        2
102
RTVSPost2010PropOp53
 70
     1
102
RTVSPost2010Prop54
  1
strokes_ogs.tif
102
RTVSPost2010PropOp54
 70
     1
102
RTVSPost2010Prop55
280
     0
102
RTVSPost2010PropOp55
 70
     1
102
RTVSPost2010Prop56
140
1.0
102
RTVSPost2010PropOp56
 70
     1
102
RTVSPost2010Prop57
140
1.0
102
RTVSPost2010PropOp57
 70
     1
102
RTVSPropertyOp0
 70
     1
102
RTVSPropertyOp1
 70
     1
102
RTVSPropertyOp2
 70
     1
102
RTVSPropertyOp3
 70
     1
102
RTVSPropertyOp4
 70
     1
102
RTVSPropertyOp5
 70
     1
102
RTVSPropertyOp6
 70
     1
102
RTVSPropertyOp7
 70
     1
102
RTVSPropertyOp8
 70
     1
102
RTVSPropertyOp9
 70
     1
102
RTVSPropertyOp10
 70
     1
102
RTVSPropertyOp11
 70
     1
102
RTVSPropertyOp12
 70
     1
102
RTVSPropertyOp13
 70
     1
102
RTVSPropertyOp14
 70
     1
102
RTVSPropertyOp15
 70
     1
102
RTVSPropertyOp16
 70
     1
102
RTVSPropertyOp17
 70
     1
102
RTVSPropertyOp18
 70
     1
102
RTVSPropertyOp19
 70
     1
102
RTVSPropertyOp20
 70
     1
102
RTVSPropertyOp21
 70
     1
102
RTVSPropertyOp22
 70
     1
102
RTVSPropertyOp23
 70
     1
102
RTVSPropertyOp24
 70
     1
102
RTVSPropertyOp25
 70
     1
102
RTVSPropertyOp26
 70
     1
102
RTVSPropertyOp27
 70
     1
102
RTVSPropertyOp28
 70
     1
102
RTVSPropertyOp29
 70
     1
102
RTVSPropertyOp30
 70
     1
102
RTVSPropertyOp31
 70
     1
102
RTVSPropertyOp32
 70
     1
102
RTVSPropertyOp33
 70
     1
102
RTVSPropertyOp34
 70
     1
102
RTVSPropertyOp35
 70
     1
102
RTVSPropertyOp36
 70
     1
102
RTVSPropertyOp37
 70
     1
102
RTVSPropertyOp38
 70
     1
102
RTVSPropertyOp39
 70
     1
102
RTVSPropertyOp40
 70
     1
102
RTVSPropertyOp41
 70
     1
102
RTVSPropertyOp42
 70
     1
102
RTVSPropertyOp43
 70
     1
102
RTVSPropertyOp44
 70
     1
102
RTVSPropertyOp45
 70
     1
102
RTVSPropertyOp46
 70
     1
102
RTVSPropertyOp47
 70
     1
102
RTVSPropertyOp48
 70
     1
102
RTVSPropertyOp49
 70
     1
102
RTVSPropertyOp50
 70
     1
102
RTVSPropertyOp51
 70
     0
102
RTVSPropertyOp52
 70
     0
102
RTVSPropertyOp53
 70
     1
102
RTVSPropertyOp54
 70
     1
102
RTVSPropertyOp55
 70
     1
102
RTVSPropertyOp56
 70
     1
102
RTVSPropertyOp57
 70
     1
102
RTVSPropertyOp58
 70
     1
102
RTVSPropertyOp59
 70
     1
102
RTVSPropertyOp60
 70
     1
102
RTVSPropertyOp61
 70
     1
102
RTVSPropertyOp62
 70
     1
  0
XRECORD
  5
A63
102
{ACAD_REACTORS
330
A62
102
}
330
A62
100
AcDbXrecord
280
     1
102
RTVSPost2010Prop28
280
     0
102
RTVSPost2010PropOp28
 70
     1
102
RTVSPost2010Prop29
280
     1
102
RTVSPost2010PropOp29
 70
     1
102
RTVSPost2010Prop30
280
     1
102
RTVSPost2010PropOp30
 70
     1
102
RTVSPost2010Prop31
280
     0
102
RTVSPost2010PropOp31
 70
     1
102
RTVSPost2010Prop32
280
     0
102
RTVSPost2010PropOp32
 70
     1
102
RTVSPost2010Prop33
280
     0
102
RTVSPost2010PropOp33
 70
     1
102
RTVSPost2010Prop34
280
     0
102
RTVSPost2010PropOp34
 70
     1
102
RTVSPost2010Prop35
280
     0
102
RTVSPost2010PropOp35
 70
     1
102
RTVSPost2010Prop36
280
     0
102
RTVSPost2010PropOp36
 70
     1
102
RTVSPost2010Prop37
 90
       50
102
RTVSPost2010PropOp37
 70
     1
102
RTVSPost2010Prop38
140
0.0
102
RTVSPost2010PropOp38
 70
     1
102
RTVSPost2010Prop39
140
1.0
102
RTVSPost2010PropOp39
 70
     1
102
RTVSPost2010Prop40
 90
        0
102
RTVSPost2010PropOp40
 70
     1
102
RTVSPost2010Prop41ColorIndex
 90
       18
102
RTVSPost2010Prop41ColorRGB
 90
        0
102
RTVSPost2010PropOp41
 70
     1
102
RTVSPost2010Prop42
 90
       50
102
RTVSPost2010PropOp42
 70
     1
102
RTVSPost2010Prop43
 90
        3
102
RTVSPost2010PropOp43
 70
     1
102
RTVSPost2010Prop44ColorIndex
 90
        5
102
RTVSPost2010Prop44ColorRGB
 90
      255
102
RTVSPost2010PropOp44
 70
     1
102
RTVSPost2010Prop45
280
     0
102
RTVSPost2010PropOp45
 70
     1
102
RTVSPost2010Prop46
 90
       50
102
RTVSPost2010PropOp46
 70
     1
102
RTVSPost2010Prop47
 90
       50
102
RTVSPost2010PropOp47
 70
     1
102
RTVSPost2010Prop48
 90
       50
102
RTVSPost2010PropOp48
 70
     1
102
RTVSPost2010Prop49
280
     0
102
RTVSPost2010PropOp49
 70
     1
102
RTVSPost2010Prop50
 90
       50
102
RTVSPost2010PropOp50
 70
     1
102
RTVSPost2010Prop51ColorIndex
 90
      256
102
RTVSPost2010Prop51ColorRGB
 90
-16777216
102
RTVSPost2010PropOp51
 70
     0
102
RTVSPost2010Prop52
140
1.0
102
RTVSPost2010PropOp52
 70
     0
102
RTVSPost2010Prop53
 90
        2
102
RTVSPost2010PropOp53
 70
     1
102
RTVSPost2010Prop54
  1
strokes_ogs.tif
102
RTVSPost2010PropOp54
 70
     1
102
RTVSPost2010Prop55
280
     0
102
RTVSPost2010PropOp55
 70
     1
102
RTVSPost2010Prop56
140
1.0
102
RTVSPost2010PropOp56
 70
     1
102
RTVSPost2010Prop57
140
1.0
102
RTVSPost2010PropOp57
 70
     1
102
RTVSPropertyOp0
 70
     1
102
RTVSPropertyOp1
 70
     1
102
RTVSPropertyOp2
 70
     1
102
RTVSPropertyOp3
 70
     1
102
RTVSPropertyOp4
 70
     1
102
RTVSPropertyOp5
 70
     1
102
RTVSPropertyOp6
 70
     1
102
RTVSPropertyOp7
 70
     1
102
RTVSPropertyOp8
 70
     1
102
RTVSPropertyOp9
 70
     1
102
RTVSPropertyOp10
 70
     1
102
RTVSPropertyOp11
 70
     1
102
RTVSPropertyOp12
 70
     1
102
RTVSPropertyOp13
 70
     1
102
RTVSPropertyOp14
 70
     1
102
RTVSPropertyOp15
 70
     1
102
RTVSPropertyOp16
 70
     1
102
RTVSPropertyOp17
 70
     1
102
RTVSPropertyOp18
 70
     1
102
RTVSPropertyOp19
 70
     1
102
RTVSPropertyOp20
 70
     1
102
RTVSPropertyOp21
 70
     1
102
RTVSPropertyOp22
 70
     1
102
RTVSPropertyOp23
 70
     1
102
RTVSPropertyOp24
 70
     1
102
RTVSPropertyOp25
 70
     1
102
RTVSPropertyOp26
 70
     1
102
RTVSPropertyOp27
 70
     1
102
RTVSPropertyOp28
 70
     1
102
RTVSPropertyOp29
 70
     1
102
RTVSPropertyOp30
 70
     1
102
RTVSPropertyOp31
 70
     1
102
RTVSPropertyOp32
 70
     1
102
RTVSPropertyOp33
 70
     1
102
RTVSPropertyOp34
 70
     1
102
RTVSPropertyOp35
 70
     1
102
RTVSPropertyOp36
 70
     1
102
RTVSPropertyOp37
 70
     1
102
RTVSPropertyOp38
 70
     1
102
RTVSPropertyOp39
 70
     1
102
RTVSPropertyOp40
 70
     1
102
RTVSPropertyOp41
 70
     1
102
RTVSPropertyOp42
 70
     1
102
RTVSPropertyOp43
 70
     1
102
RTVSPropertyOp44
 70
     1
102
RTVSPropertyOp45
 70
     1
102
RTVSPropertyOp46
 70
     1
102
RTVSPropertyOp47
 70
     1
102
RTVSPropertyOp48
 70
     1
102
RTVSPropertyOp49
 70
     1
102
RTVSPropertyOp50
 70
     1
102
RTVSPropertyOp51
 70
     0
102
RTVSPropertyOp52
 70
     0
102
RTVSPropertyOp53
 70
     1
102
RTVSPropertyOp54
 70
     1
102
RTVSPropertyOp55
 70
     1
102
RTVSPropertyOp56
 70
     1
102
RTVSPropertyOp57
 70
     1
102
RTVSPropertyOp58
 70
     1
102
RTVSPropertyOp59
 70
     1
102
RTVSPropertyOp60
 70
     1
102
RTVSPropertyOp61
 70
     1
102
RTVSPropertyOp62
 70
     1
  0
XRECORD
  5
A61
102
{ACAD_REACTORS
330
A60
102
}
330
A60
100
AcDbXrecord
280
     1
102
RTVSPost2010Prop28
280
     0
102
RTVSPost2010PropOp28
 70
     1
102
RTVSPost2010Prop29
280
     1
102
RTVSPost2010PropOp29
 70
     1
102
RTVSPost2010Prop30
280
     1
102
RTVSPost2010PropOp30
 70
     1
102
RTVSPost2010Prop31
280
     0
102
RTVSPost2010PropOp31
 70
     1
102
RTVSPost2010Prop32
280
     0
102
RTVSPost2010PropOp32
 70
     1
102
RTVSPost2010Prop33
280
     0
102
RTVSPost2010PropOp33
 70
     1
102
RTVSPost2010Prop34
280
     0
102
RTVSPost2010PropOp34
 70
     1
102
RTVSPost2010Prop35
280
     0
102
RTVSPost2010PropOp35
 70
     1
102
RTVSPost2010Prop36
280
     0
102
RTVSPost2010PropOp36
 70
     1
102
RTVSPost2010Prop37
 90
       50
102
RTVSPost2010PropOp37
 70
     1
102
RTVSPost2010Prop38
140
0.0
102
RTVSPost2010PropOp38
 70
     1
102
RTVSPost2010Prop39
140
1.0
102
RTVSPost2010PropOp39
 70
     1
102
RTVSPost2010Prop40
 90
        0
102
RTVSPost2010PropOp40
 70
     1
102
RTVSPost2010Prop41ColorIndex
 90
       18
102
RTVSPost2010Prop41ColorRGB
 90
        0
102
RTVSPost2010PropOp41
 70
     1
102
RTVSPost2010Prop42
 90
       50
102
RTVSPost2010PropOp42
 70
     1
102
RTVSPost2010Prop43
 90
        3
102
RTVSPost2010PropOp43
 70
     1
102
RTVSPost2010Prop44ColorIndex
 90
        5
102
RTVSPost2010Prop44ColorRGB
 90
      255
102
RTVSPost2010PropOp44
 70
     1
102
RTVSPost2010Prop45
280
     0
102
RTVSPost2010PropOp45
 70
     1
102
RTVSPost2010Prop46
 90
       50
102
RTVSPost2010PropOp46
 70
     1
102
RTVSPost2010Prop47
 90
       50
102
RTVSPost2010PropOp47
 70
     1
102
RTVSPost2010Prop48
 90
       50
102
RTVSPost2010PropOp48
 70
     1
102
RTVSPost2010Prop49
280
     0
102
RTVSPost2010PropOp49
 70
     1
102
RTVSPost2010Prop50
 90
       50
102
RTVSPost2010PropOp50
 70
     1
102
RTVSPost2010Prop51ColorIndex
 90
      256
102
RTVSPost2010Prop51ColorRGB
 90
-16777216
102
RTVSPost2010PropOp51
 70
     0
102
RTVSPost2010Prop52
140
1.0
102
RTVSPost2010PropOp52
 70
     0
102
RTVSPost2010Prop53
 90
        2
102
RTVSPost2010PropOp53
 70
     1
102
RTVSPost2010Prop54
  1
strokes_ogs.tif
102
RTVSPost2010PropOp54
 70
     1
102
RTVSPost2010Prop55
280
     0
102
RTVSPost2010PropOp55
 70
     1
102
RTVSPost2010Prop56
140
1.0
102
RTVSPost2010PropOp56
 70
     1
102
RTVSPost2010Prop57
140
1.0
102
RTVSPost2010PropOp57
 70
     1
102
RTVSPropertyOp0
 70
     1
102
RTVSPropertyOp1
 70
     1
102
RTVSPropertyOp2
 70
     1
102
RTVSPropertyOp3
 70
     1
102
RTVSPropertyOp4
 70
     1
102
RTVSPropertyOp5
 70
     1
102
RTVSPropertyOp6
 70
     1
102
RTVSPropertyOp7
 70
     1
102
RTVSPropertyOp8
 70
     1
102
RTVSPropertyOp9
 70
     1
102
RTVSPropertyOp10
 70
     1
102
RTVSPropertyOp11
 70
     1
102
RTVSPropertyOp12
 70
     1
102
RTVSPropertyOp13
 70
     1
102
RTVSPropertyOp14
 70
     1
102
RTVSPropertyOp15
 70
     1
102
RTVSPropertyOp16
 70
     1
102
RTVSPropertyOp17
 70
     1
102
RTVSPropertyOp18
 70
     1
102
RTVSPropertyOp19
 70
     1
102
RTVSPropertyOp20
 70
     1
102
RTVSPropertyOp21
 70
     1
102
RTVSPropertyOp22
 70
     1
102
RTVSPropertyOp23
 70
     1
102
RTVSPropertyOp24
 70
     1
102
RTVSPropertyOp25
 70
     1
102
RTVSPropertyOp26
 70
     1
102
RTVSPropertyOp27
 70
     1
102
RTVSPropertyOp28
 70
     1
102
RTVSPropertyOp29
 70
     1
102
RTVSPropertyOp30
 70
     1
102
RTVSPropertyOp31
 70
     1
102
RTVSPropertyOp32
 70
     1
102
RTVSPropertyOp33
 70
     1
102
RTVSPropertyOp34
 70
     1
102
RTVSPropertyOp35
 70
     1
102
RTVSPropertyOp36
 70
     1
102
RTVSPropertyOp37
 70
     1
102
RTVSPropertyOp38
 70
     1
102
RTVSPropertyOp39
 70
     1
102
RTVSPropertyOp40
 70
     1
102
RTVSPropertyOp41
 70
     1
102
RTVSPropertyOp42
 70
     1
102
RTVSPropertyOp43
 70
     1
102
RTVSPropertyOp44
 70
     1
102
RTVSPropertyOp45
 70
     1
102
RTVSPropertyOp46
 70
     1
102
RTVSPropertyOp47
 70
     1
102
RTVSPropertyOp48
 70
     1
102
RTVSPropertyOp49
 70
     1
102
RTVSPropertyOp50
 70
     1
102
RTVSPropertyOp51
 70
     0
102
RTVSPropertyOp52
 70
     0
102
RTVSPropertyOp53
 70
     1
102
RTVSPropertyOp54
 70
     1
102
RTVSPropertyOp55
 70
     1
102
RTVSPropertyOp56
 70
     1
102
RTVSPropertyOp57
 70
     1
102
RTVSPropertyOp58
 70
     1
102
RTVSPropertyOp59
 70
     1
102
RTVSPropertyOp60
 70
     1
102
RTVSPropertyOp61
 70
     1
102
RTVSPropertyOp62
 70
     1
  0
XRECORD
  5
A5B
102
{ACAD_REACTORS
330
A5A
102
}
330
A5A
100
AcDbXrecord
280
     1
102
RTVSPost2010Prop28
280
     0
102
RTVSPost2010PropOp28
 70
     1
102
RTVSPost2010Prop29
280
     1
102
RTVSPost2010PropOp29
 70
     1
102
RTVSPost2010Prop30
280
     1
102
RTVSPost2010PropOp30
 70
     1
102
RTVSPost2010Prop31
280
     0
102
RTVSPost2010PropOp31
 70
     1
102
RTVSPost2010Prop32
280
     0
102
RTVSPost2010PropOp32
 70
     1
102
RTVSPost2010Prop33
280
     0
102
RTVSPost2010PropOp33
 70
     1
102
RTVSPost2010Prop34
280
     0
102
RTVSPost2010PropOp34
 70
     1
102
RTVSPost2010Prop35
280
     0
102
RTVSPost2010PropOp35
 70
     1
102
RTVSPost2010Prop36
280
     0
102
RTVSPost2010PropOp36
 70
     1
102
RTVSPost2010Prop37
 90
       50
102
RTVSPost2010PropOp37
 70
     1
102
RTVSPost2010Prop38
140
0.0
102
RTVSPost2010PropOp38
 70
     1
102
RTVSPost2010Prop39
140
1.0
102
RTVSPost2010PropOp39
 70
     1
102
RTVSPost2010Prop40
 90
        0
102
RTVSPost2010PropOp40
 70
     1
102
RTVSPost2010Prop41ColorIndex
 90
       18
102
RTVSPost2010Prop41ColorRGB
 90
        0
102
RTVSPost2010PropOp41
 70
     1
102
RTVSPost2010Prop42
 90
       50
102
RTVSPost2010PropOp42
 70
     1
102
RTVSPost2010Prop43
 90
        3
102
RTVSPost2010PropOp43
 70
     1
102
RTVSPost2010Prop44ColorIndex
 90
        5
102
RTVSPost2010Prop44ColorRGB
 90
      255
102
RTVSPost2010PropOp44
 70
     1
102
RTVSPost2010Prop45
280
     0
102
RTVSPost2010PropOp45
 70
     1
102
RTVSPost2010Prop46
 90
       50
102
RTVSPost2010PropOp46
 70
     1
102
RTVSPost2010Prop47
 90
       50
102
RTVSPost2010PropOp47
 70
     1
102
RTVSPost2010Prop48
 90
       50
102
RTVSPost2010PropOp48
 70
     1
102
RTVSPost2010Prop49
280
     0
102
RTVSPost2010PropOp49
 70
     1
102
RTVSPost2010Prop50
 90
       50
102
RTVSPost2010PropOp50
 70
     1
102
RTVSPost2010Prop51ColorIndex
 90
      256
102
RTVSPost2010Prop51ColorRGB
 90
-16777216
102
RTVSPost2010PropOp51
 70
     0
102
RTVSPost2010Prop52
140
1.0
102
RTVSPost2010PropOp52
 70
     0
102
RTVSPost2010Prop53
 90
        2
102
RTVSPost2010PropOp53
 70
     1
102
RTVSPost2010Prop54
  1
strokes_ogs.tif
102
RTVSPost2010PropOp54
 70
     1
102
RTVSPost2010Prop55
280
     0
102
RTVSPost2010PropOp55
 70
     1
102
RTVSPost2010Prop56
140
1.0
102
RTVSPost2010PropOp56
 70
     1
102
RTVSPost2010Prop57
140
1.0
102
RTVSPost2010PropOp57
 70
     1
102
RTVSPropertyOp0
 70
     1
102
RTVSPropertyOp1
 70
     1
102
RTVSPropertyOp2
 70
     1
102
RTVSPropertyOp3
 70
     1
102
RTVSPropertyOp4
 70
     1
102
RTVSPropertyOp5
 70
     1
102
RTVSPropertyOp6
 70
     1
102
RTVSPropertyOp7
 70
     1
102
RTVSPropertyOp8
 70
     1
102
RTVSPropertyOp9
 70
     1
102
RTVSPropertyOp10
 70
     1
102
RTVSPropertyOp11
 70
     1
102
RTVSPropertyOp12
 70
     1
102
RTVSPropertyOp13
 70
     1
102
RTVSPropertyOp14
 70
     1
102
RTVSPropertyOp15
 70
     1
102
RTVSPropertyOp16
 70
     1
102
RTVSPropertyOp17
 70
     1
102
RTVSPropertyOp18
 70
     1
102
RTVSPropertyOp19
 70
     1
102
RTVSPropertyOp20
 70
     1
102
RTVSPropertyOp21
 70
     1
102
RTVSPropertyOp22
 70
     1
102
RTVSPropertyOp23
 70
     1
102
RTVSPropertyOp24
 70
     1
102
RTVSPropertyOp25
 70
     1
102
RTVSPropertyOp26
 70
     1
102
RTVSPropertyOp27
 70
     1
102
RTVSPropertyOp28
 70
     1
102
RTVSPropertyOp29
 70
     1
102
RTVSPropertyOp30
 70
     1
102
RTVSPropertyOp31
 70
     1
102
RTVSPropertyOp32
 70
     1
102
RTVSPropertyOp33
 70
     1
102
RTVSPropertyOp34
 70
     1
102
RTVSPropertyOp35
 70
     1
102
RTVSPropertyOp36
 70
     1
102
RTVSPropertyOp37
 70
     1
102
RTVSPropertyOp38
 70
     1
102
RTVSPropertyOp39
 70
     1
102
RTVSPropertyOp40
 70
     1
102
RTVSPropertyOp41
 70
     1
102
RTVSPropertyOp42
 70
     1
102
RTVSPropertyOp43
 70
     1
102
RTVSPropertyOp44
 70
     1
102
RTVSPropertyOp45
 70
     1
102
RTVSPropertyOp46
 70
     1
102
RTVSPropertyOp47
 70
     1
102
RTVSPropertyOp48
 70
     1
102
RTVSPropertyOp49
 70
     1
102
RTVSPropertyOp50
 70
     1
102
RTVSPropertyOp51
 70
     0
102
RTVSPropertyOp52
 70
     0
102
RTVSPropertyOp53
 70
     1
102
RTVSPropertyOp54
 70
     1
102
RTVSPropertyOp55
 70
     1
102
RTVSPropertyOp56
 70
     1
102
RTVSPropertyOp57
 70
     1
102
RTVSPropertyOp58
 70
     1
102
RTVSPropertyOp59
 70
     1
102
RTVSPropertyOp60
 70
     1
102
RTVSPropertyOp61
 70
     1
102
RTVSPropertyOp62
 70
     1
  0
XRECORD
  5
A5D
102
{ACAD_REACTORS
330
A5C
102
}
330
A5C
100
AcDbXrecord
280
     1
102
RTVSPost2010Prop28
280
     0
102
RTVSPost2010PropOp28
 70
     1
102
RTVSPost2010Prop29
280
     1
102
RTVSPost2010PropOp29
 70
     1
102
RTVSPost2010Prop30
280
     1
102
RTVSPost2010PropOp30
 70
     1
102
RTVSPost2010Prop31
280
     0
102
RTVSPost2010PropOp31
 70
     1
102
RTVSPost2010Prop32
280
     0
102
RTVSPost2010PropOp32
 70
     1
102
RTVSPost2010Prop33
280
     0
102
RTVSPost2010PropOp33
 70
     1
102
RTVSPost2010Prop34
280
     0
102
RTVSPost2010PropOp34
 70
     1
102
RTVSPost2010Prop35
280
     0
102
RTVSPost2010PropOp35
 70
     1
102
RTVSPost2010Prop36
280
     0
102
RTVSPost2010PropOp36
 70
     1
102
RTVSPost2010Prop37
 90
       50
102
RTVSPost2010PropOp37
 70
     1
102
RTVSPost2010Prop38
140
0.0
102
RTVSPost2010PropOp38
 70
     1
102
RTVSPost2010Prop39
140
1.0
102
RTVSPost2010PropOp39
 70
     1
102
RTVSPost2010Prop40
 90
        0
102
RTVSPost2010PropOp40
 70
     1
102
RTVSPost2010Prop41ColorIndex
 90
       18
102
RTVSPost2010Prop41ColorRGB
 90
        0
102
RTVSPost2010PropOp41
 70
     1
102
RTVSPost2010Prop42
 90
       50
102
RTVSPost2010PropOp42
 70
     1
102
RTVSPost2010Prop43
 90
        3
102
RTVSPost2010PropOp43
 70
     1
102
RTVSPost2010Prop44ColorIndex
 90
        5
102
RTVSPost2010Prop44ColorRGB
 90
      255
102
RTVSPost2010PropOp44
 70
     1
102
RTVSPost2010Prop45
280
     0
102
RTVSPost2010PropOp45
 70
     1
102
RTVSPost2010Prop46
 90
       50
102
RTVSPost2010PropOp46
 70
     1
102
RTVSPost2010Prop47
 90
       50
102
RTVSPost2010PropOp47
 70
     1
102
RTVSPost2010Prop48
 90
       50
102
RTVSPost2010PropOp48
 70
     1
102
RTVSPost2010Prop49
280
     0
102
RTVSPost2010PropOp49
 70
     1
102
RTVSPost2010Prop50
 90
       50
102
RTVSPost2010PropOp50
 70
     1
102
RTVSPost2010Prop51ColorIndex
 90
      256
102
RTVSPost2010Prop51ColorRGB
 90
-16777216
102
RTVSPost2010PropOp51
 70
     0
102
RTVSPost2010Prop52
140
1.0
102
RTVSPost2010PropOp52
 70
     0
102
RTVSPost2010Prop53
 90
        2
102
RTVSPost2010PropOp53
 70
     1
102
RTVSPost2010Prop54
  1
strokes_ogs.tif
102
RTVSPost2010PropOp54
 70
     1
102
RTVSPost2010Prop55
280
     0
102
RTVSPost2010PropOp55
 70
     1
102
RTVSPost2010Prop56
140
1.0
102
RTVSPost2010PropOp56
 70
     1
102
RTVSPost2010Prop57
140
1.0
102
RTVSPost2010PropOp57
 70
     1
102
RTVSPropertyOp0
 70
     1
102
RTVSPropertyOp1
 70
     1
102
RTVSPropertyOp2
 70
     1
102
RTVSPropertyOp3
 70
     1
102
RTVSPropertyOp4
 70
     1
102
RTVSPropertyOp5
 70
     1
102
RTVSPropertyOp6
 70
     1
102
RTVSPropertyOp7
 70
     1
102
RTVSPropertyOp8
 70
     1
102
RTVSPropertyOp9
 70
     1
102
RTVSPropertyOp10
 70
     1
102
RTVSPropertyOp11
 70
     1
102
RTVSPropertyOp12
 70
     1
102
RTVSPropertyOp13
 70
     1
102
RTVSPropertyOp14
 70
     1
102
RTVSPropertyOp15
 70
     1
102
RTVSPropertyOp16
 70
     1
102
RTVSPropertyOp17
 70
     1
102
RTVSPropertyOp18
 70
     1
102
RTVSPropertyOp19
 70
     1
102
RTVSPropertyOp20
 70
     1
102
RTVSPropertyOp21
 70
     1
102
RTVSPropertyOp22
 70
     1
102
RTVSPropertyOp23
 70
     1
102
RTVSPropertyOp24
 70
     1
102
RTVSPropertyOp25
 70
     1
102
RTVSPropertyOp26
 70
     1
102
RTVSPropertyOp27
 70
     1
102
RTVSPropertyOp28
 70
     1
102
RTVSPropertyOp29
 70
     1
102
RTVSPropertyOp30
 70
     1
102
RTVSPropertyOp31
 70
     1
102
RTVSPropertyOp32
 70
     1
102
RTVSPropertyOp33
 70
     1
102
RTVSPropertyOp34
 70
     1
102
RTVSPropertyOp35
 70
     1
102
RTVSPropertyOp36
 70
     1
102
RTVSPropertyOp37
 70
     1
102
RTVSPropertyOp38
 70
     1
102
RTVSPropertyOp39
 70
     1
102
RTVSPropertyOp40
 70
     1
102
RTVSPropertyOp41
 70
     1
102
RTVSPropertyOp42
 70
     1
102
RTVSPropertyOp43
 70
     1
102
RTVSPropertyOp44
 70
     1
102
RTVSPropertyOp45
 70
     1
102
RTVSPropertyOp46
 70
     1
102
RTVSPropertyOp47
 70
     1
102
RTVSPropertyOp48
 70
     1
102
RTVSPropertyOp49
 70
     1
102
RTVSPropertyOp50
 70
     1
102
RTVSPropertyOp51
 70
     0
102
RTVSPropertyOp52
 70
     0
102
RTVSPropertyOp53
 70
     1
102
RTVSPropertyOp54
 70
     1
102
RTVSPropertyOp55
 70
     1
102
RTVSPropertyOp56
 70
     1
102
RTVSPropertyOp57
 70
     1
102
RTVSPropertyOp58
 70
     1
102
RTVSPropertyOp59
 70
     1
102
RTVSPropertyOp60
 70
     1
102
RTVSPropertyOp61
 70
     1
102
RTVSPropertyOp62
 70
     1
  0
XRECORD
  5
A49
102
{ACAD_REACTORS
330
A48
102
}
330
A48
100
AcDbXrecord
280
     1
102
RTVSPost2010Prop28
280
     0
102
RTVSPost2010PropOp28
 70
     1
102
RTVSPost2010Prop29
280
     1
102
RTVSPost2010PropOp29
 70
     1
102
RTVSPost2010Prop30
280
     1
102
RTVSPost2010PropOp30
 70
     1
102
RTVSPost2010Prop31
280
     0
102
RTVSPost2010PropOp31
 70
     1
102
RTVSPost2010Prop32
280
     0
102
RTVSPost2010PropOp32
 70
     1
102
RTVSPost2010Prop33
280
     0
102
RTVSPost2010PropOp33
 70
     1
102
RTVSPost2010Prop34
280
     0
102
RTVSPost2010PropOp34
 70
     1
102
RTVSPost2010Prop35
280
     0
102
RTVSPost2010PropOp35
 70
     1
102
RTVSPost2010Prop36
280
     0
102
RTVSPost2010PropOp36
 70
     1
102
RTVSPost2010Prop37
 90
       50
102
RTVSPost2010PropOp37
 70
     1
102
RTVSPost2010Prop38
140
0.0
102
RTVSPost2010PropOp38
 70
     1
102
RTVSPost2010Prop39
140
1.0
102
RTVSPost2010PropOp39
 70
     1
102
RTVSPost2010Prop40
 90
        0
102
RTVSPost2010PropOp40
 70
     1
102
RTVSPost2010Prop41ColorIndex
 90
       18
102
RTVSPost2010Prop41ColorRGB
 90
        0
102
RTVSPost2010PropOp41
 70
     1
102
RTVSPost2010Prop42
 90
       50
102
RTVSPost2010PropOp42
 70
     1
102
RTVSPost2010Prop43
 90
        3
102
RTVSPost2010PropOp43
 70
     1
102
RTVSPost2010Prop44ColorIndex
 90
        5
102
RTVSPost2010Prop44ColorRGB
 90
      255
102
RTVSPost2010PropOp44
 70
     1
102
RTVSPost2010Prop45
280
     0
102
RTVSPost2010PropOp45
 70
     1
102
RTVSPost2010Prop46
 90
       50
102
RTVSPost2010PropOp46
 70
     1
102
RTVSPost2010Prop47
 90
       50
102
RTVSPost2010PropOp47
 70
     1
102
RTVSPost2010Prop48
 90
       50
102
RTVSPost2010PropOp48
 70
     1
102
RTVSPost2010Prop49
280
     0
102
RTVSPost2010PropOp49
 70
     1
102
RTVSPost2010Prop50
 90
       50
102
RTVSPost2010PropOp50
 70
     1
102
RTVSPost2010Prop51ColorIndex
 90
      256
102
RTVSPost2010Prop51ColorRGB
 90
-16777216
102
RTVSPost2010PropOp51
 70
     0
102
RTVSPost2010Prop52
140
1.0
102
RTVSPost2010PropOp52
 70
     0
102
RTVSPost2010Prop53
 90
        2
102
RTVSPost2010PropOp53
 70
     1
102
RTVSPost2010Prop54
  1
strokes_ogs.tif
102
RTVSPost2010PropOp54
 70
     1
102
RTVSPost2010Prop55
280
     0
102
RTVSPost2010PropOp55
 70
     1
102
RTVSPost2010Prop56
140
1.0
102
RTVSPost2010PropOp56
 70
     1
102
RTVSPost2010Prop57
140
1.0
102
RTVSPost2010PropOp57
 70
     1
102
RTVSPropertyOp0
 70
     1
102
RTVSPropertyOp1
 70
     1
102
RTVSPropertyOp2
 70
     1
102
RTVSPropertyOp3
 70
     1
102
RTVSPropertyOp4
 70
     1
102
RTVSPropertyOp5
 70
     1
102
RTVSPropertyOp6
 70
     1
102
RTVSPropertyOp7
 70
     1
102
RTVSPropertyOp8
 70
     1
102
RTVSPropertyOp9
 70
     1
102
RTVSPropertyOp10
 70
     1
102
RTVSPropertyOp11
 70
     1
102
RTVSPropertyOp12
 70
     1
102
RTVSPropertyOp13
 70
     1
102
RTVSPropertyOp14
 70
     1
102
RTVSPropertyOp15
 70
     1
102
RTVSPropertyOp16
 70
     1
102
RTVSPropertyOp17
 70
     1
102
RTVSPropertyOp18
 70
     1
102
RTVSPropertyOp19
 70
     1
102
RTVSPropertyOp20
 70
     1
102
RTVSPropertyOp21
 70
     1
102
RTVSPropertyOp22
 70
     1
102
RTVSPropertyOp23
 70
     1
102
RTVSPropertyOp24
 70
     1
102
RTVSPropertyOp25
 70
     1
102
RTVSPropertyOp26
 70
     1
102
RTVSPropertyOp27
 70
     1
102
RTVSPropertyOp28
 70
     1
102
RTVSPropertyOp29
 70
     1
102
RTVSPropertyOp30
 70
     1
102
RTVSPropertyOp31
 70
     1
102
RTVSPropertyOp32
 70
     1
102
RTVSPropertyOp33
 70
     1
102
RTVSPropertyOp34
 70
     1
102
RTVSPropertyOp35
 70
     1
102
RTVSPropertyOp36
 70
     1
102
RTVSPropertyOp37
 70
     1
102
RTVSPropertyOp38
 70
     1
102
RTVSPropertyOp39
 70
     1
102
RTVSPropertyOp40
 70
     1
102
RTVSPropertyOp41
 70
     1
102
RTVSPropertyOp42
 70
     1
102
RTVSPropertyOp43
 70
     1
102
RTVSPropertyOp44
 70
     1
102
RTVSPropertyOp45
 70
     1
102
RTVSPropertyOp46
 70
     1
102
RTVSPropertyOp47
 70
     1
102
RTVSPropertyOp48
 70
     1
102
RTVSPropertyOp49
 70
     1
102
RTVSPropertyOp50
 70
     1
102
RTVSPropertyOp51
 70
     0
102
RTVSPropertyOp52
 70
     0
102
RTVSPropertyOp53
 70
     1
102
RTVSPropertyOp54
 70
     1
102
RTVSPropertyOp55
 70
     1
102
RTVSPropertyOp56
 70
     1
102
RTVSPropertyOp57
 70
     1
102
RTVSPropertyOp58
 70
     1
102
RTVSPropertyOp59
 70
     1
102
RTVSPropertyOp60
 70
     1
102
RTVSPropertyOp61
 70
     1
102
RTVSPropertyOp62
 70
     1
  0
XRECORD
  5
A57
102
{ACAD_REACTORS
330
A56
102
}
330
A56
100
AcDbXrecord
280
     1
102
RTVSPost2010Prop28
280
     0
102
RTVSPost2010PropOp28
 70
     1
102
RTVSPost2010Prop29
280
     1
102
RTVSPost2010PropOp29
 70
     1
102
RTVSPost2010Prop30
280
     1
102
RTVSPost2010PropOp30
 70
     1
102
RTVSPost2010Prop31
280
     0
102
RTVSPost2010PropOp31
 70
     1
102
RTVSPost2010Prop32
280
     0
102
RTVSPost2010PropOp32
 70
     1
102
RTVSPost2010Prop33
280
     0
102
RTVSPost2010PropOp33
 70
     1
102
RTVSPost2010Prop34
280
     0
102
RTVSPost2010PropOp34
 70
     1
102
RTVSPost2010Prop35
280
     0
102
RTVSPost2010PropOp35
 70
     1
102
RTVSPost2010Prop36
280
     0
102
RTVSPost2010PropOp36
 70
     1
102
RTVSPost2010Prop37
 90
       50
102
RTVSPost2010PropOp37
 70
     1
102
RTVSPost2010Prop38
140
0.0
102
RTVSPost2010PropOp38
 70
     1
102
RTVSPost2010Prop39
140
1.0
102
RTVSPost2010PropOp39
 70
     1
102
RTVSPost2010Prop40
 90
        0
102
RTVSPost2010PropOp40
 70
     1
102
RTVSPost2010Prop41ColorIndex
 90
       18
102
RTVSPost2010Prop41ColorRGB
 90
        0
102
RTVSPost2010PropOp41
 70
     1
102
RTVSPost2010Prop42
 90
       50
102
RTVSPost2010PropOp42
 70
     1
102
RTVSPost2010Prop43
 90
        3
102
RTVSPost2010PropOp43
 70
     1
102
RTVSPost2010Prop44ColorIndex
 90
        5
102
RTVSPost2010Prop44ColorRGB
 90
      255
102
RTVSPost2010PropOp44
 70
     1
102
RTVSPost2010Prop45
280
     0
102
RTVSPost2010PropOp45
 70
     1
102
RTVSPost2010Prop46
 90
       50
102
RTVSPost2010PropOp46
 70
     1
102
RTVSPost2010Prop47
 90
       50
102
RTVSPost2010PropOp47
 70
     1
102
RTVSPost2010Prop48
 90
       50
102
RTVSPost2010PropOp48
 70
     1
102
RTVSPost2010Prop49
280
     0
102
RTVSPost2010PropOp49
 70
     1
102
RTVSPost2010Prop50
 90
       50
102
RTVSPost2010PropOp50
 70
     1
102
RTVSPost2010Prop51ColorIndex
 90
      256
102
RTVSPost2010Prop51ColorRGB
 90
-16777216
102
RTVSPost2010PropOp51
 70
     0
102
RTVSPost2010Prop52
140
1.0
102
RTVSPost2010PropOp52
 70
     0
102
RTVSPost2010Prop53
 90
        2
102
RTVSPost2010PropOp53
 70
     1
102
RTVSPost2010Prop54
  1
strokes_ogs.tif
102
RTVSPost2010PropOp54
 70
     1
102
RTVSPost2010Prop55
280
     0
102
RTVSPost2010PropOp55
 70
     1
102
RTVSPost2010Prop56
140
1.0
102
RTVSPost2010PropOp56
 70
     1
102
RTVSPost2010Prop57
140
1.0
102
RTVSPost2010PropOp57
 70
     1
102
RTVSPropertyOp0
 70
     1
102
RTVSPropertyOp1
 70
     1
102
RTVSPropertyOp2
 70
     1
102
RTVSPropertyOp3
 70
     1
102
RTVSPropertyOp4
 70
     1
102
RTVSPropertyOp5
 70
     1
102
RTVSPropertyOp6
 70
     1
102
RTVSPropertyOp7
 70
     1
102
RTVSPropertyOp8
 70
     1
102
RTVSPropertyOp9
 70
     1
102
RTVSPropertyOp10
 70
     1
102
RTVSPropertyOp11
 70
     1
102
RTVSPropertyOp12
 70
     1
102
RTVSPropertyOp13
 70
     1
102
RTVSPropertyOp14
 70
     1
102
RTVSPropertyOp15
 70
     1
102
RTVSPropertyOp16
 70
     1
102
RTVSPropertyOp17
 70
     1
102
RTVSPropertyOp18
 70
     1
102
RTVSPropertyOp19
 70
     1
102
RTVSPropertyOp20
 70
     1
102
RTVSPropertyOp21
 70
     1
102
RTVSPropertyOp22
 70
     1
102
RTVSPropertyOp23
 70
     1
102
RTVSPropertyOp24
 70
     1
102
RTVSPropertyOp25
 70
     1
102
RTVSPropertyOp26
 70
     1
102
RTVSPropertyOp27
 70
     1
102
RTVSPropertyOp28
 70
     1
102
RTVSPropertyOp29
 70
     1
102
RTVSPropertyOp30
 70
     1
102
RTVSPropertyOp31
 70
     1
102
RTVSPropertyOp32
 70
     1
102
RTVSPropertyOp33
 70
     1
102
RTVSPropertyOp34
 70
     1
102
RTVSPropertyOp35
 70
     1
102
RTVSPropertyOp36
 70
     1
102
RTVSPropertyOp37
 70
     1
102
RTVSPropertyOp38
 70
     1
102
RTVSPropertyOp39
 70
     1
102
RTVSPropertyOp40
 70
     1
102
RTVSPropertyOp41
 70
     1
102
RTVSPropertyOp42
 70
     1
102
RTVSPropertyOp43
 70
     1
102
RTVSPropertyOp44
 70
     1
102
RTVSPropertyOp45
 70
     1
102
RTVSPropertyOp46
 70
     1
102
RTVSPropertyOp47
 70
     1
102
RTVSPropertyOp48
 70
     1
102
RTVSPropertyOp49
 70
     1
102
RTVSPropertyOp50
 70
     1
102
RTVSPropertyOp51
 70
     0
102
RTVSPropertyOp52
 70
     0
102
RTVSPropertyOp53
 70
     1
102
RTVSPropertyOp54
 70
     1
102
RTVSPropertyOp55
 70
     1
102
RTVSPropertyOp56
 70
     1
102
RTVSPropertyOp57
 70
     1
102
RTVSPropertyOp58
 70
     1
102
RTVSPropertyOp59
 70
     1
102
RTVSPropertyOp60
 70
     1
102
RTVSPropertyOp61
 70
     1
102
RTVSPropertyOp62
 70
     1
  0
XRECORD
  5
A5F
102
{ACAD_REACTORS
330
A5E
102
}
330
A5E
100
AcDbXrecord
280
     1
102
RTVSPost2010Prop28
280
     0
102
RTVSPost2010PropOp28
 70
     1
102
RTVSPost2010Prop29
280
     1
102
RTVSPost2010PropOp29
 70
     1
102
RTVSPost2010Prop30
280
     1
102
RTVSPost2010PropOp30
 70
     1
102
RTVSPost2010Prop31
280
     0
102
RTVSPost2010PropOp31
 70
     1
102
RTVSPost2010Prop32
280
     0
102
RTVSPost2010PropOp32
 70
     1
102
RTVSPost2010Prop33
280
     0
102
RTVSPost2010PropOp33
 70
     1
102
RTVSPost2010Prop34
280
     0
102
RTVSPost2010PropOp34
 70
     1
102
RTVSPost2010Prop35
280
     0
102
RTVSPost2010PropOp35
 70
     1
102
RTVSPost2010Prop36
280
     0
102
RTVSPost2010PropOp36
 70
     1
102
RTVSPost2010Prop37
 90
       50
102
RTVSPost2010PropOp37
 70
     1
102
RTVSPost2010Prop38
140
0.0
102
RTVSPost2010PropOp38
 70
     1
102
RTVSPost2010Prop39
140
1.0
102
RTVSPost2010PropOp39
 70
     1
102
RTVSPost2010Prop40
 90
        0
102
RTVSPost2010PropOp40
 70
     1
102
RTVSPost2010Prop41ColorIndex
 90
       18
102
RTVSPost2010Prop41ColorRGB
 90
        0
102
RTVSPost2010PropOp41
 70
     1
102
RTVSPost2010Prop42
 90
       50
102
RTVSPost2010PropOp42
 70
     1
102
RTVSPost2010Prop43
 90
        3
102
RTVSPost2010PropOp43
 70
     1
102
RTVSPost2010Prop44ColorIndex
 90
        5
102
RTVSPost2010Prop44ColorRGB
 90
      255
102
RTVSPost2010PropOp44
 70
     1
102
RTVSPost2010Prop45
280
     0
102
RTVSPost2010PropOp45
 70
     1
102
RTVSPost2010Prop46
 90
       50
102
RTVSPost2010PropOp46
 70
     1
102
RTVSPost2010Prop47
 90
       50
102
RTVSPost2010PropOp47
 70
     1
102
RTVSPost2010Prop48
 90
       50
102
RTVSPost2010PropOp48
 70
     1
102
RTVSPost2010Prop49
280
     0
102
RTVSPost2010PropOp49
 70
     1
102
RTVSPost2010Prop50
 90
       50
102
RTVSPost2010PropOp50
 70
     1
102
RTVSPost2010Prop51ColorIndex
 90
      256
102
RTVSPost2010Prop51ColorRGB
 90
-16777216
102
RTVSPost2010PropOp51
 70
     0
102
RTVSPost2010Prop52
140
1.0
102
RTVSPost2010PropOp52
 70
     0
102
RTVSPost2010Prop53
 90
        2
102
RTVSPost2010PropOp53
 70
     1
102
RTVSPost2010Prop54
  1
strokes_ogs.tif
102
RTVSPost2010PropOp54
 70
     1
102
RTVSPost2010Prop55
280
     0
102
RTVSPost2010PropOp55
 70
     1
102
RTVSPost2010Prop56
140
1.0
102
RTVSPost2010PropOp56
 70
     1
102
RTVSPost2010Prop57
140
1.0
102
RTVSPost2010PropOp57
 70
     1
102
RTVSPropertyOp0
 70
     1
102
RTVSPropertyOp1
 70
     1
102
RTVSPropertyOp2
 70
     1
102
RTVSPropertyOp3
 70
     1
102
RTVSPropertyOp4
 70
     1
102
RTVSPropertyOp5
 70
     1
102
RTVSPropertyOp6
 70
     1
102
RTVSPropertyOp7
 70
     1
102
RTVSPropertyOp8
 70
     1
102
RTVSPropertyOp9
 70
     1
102
RTVSPropertyOp10
 70
     1
102
RTVSPropertyOp11
 70
     1
102
RTVSPropertyOp12
 70
     1
102
RTVSPropertyOp13
 70
     1
102
RTVSPropertyOp14
 70
     1
102
RTVSPropertyOp15
 70
     1
102
RTVSPropertyOp16
 70
     1
102
RTVSPropertyOp17
 70
     1
102
RTVSPropertyOp18
 70
     1
102
RTVSPropertyOp19
 70
     1
102
RTVSPropertyOp20
 70
     1
102
RTVSPropertyOp21
 70
     1
102
RTVSPropertyOp22
 70
     1
102
RTVSPropertyOp23
 70
     1
102
RTVSPropertyOp24
 70
     1
102
RTVSPropertyOp25
 70
     1
102
RTVSPropertyOp26
 70
     1
102
RTVSPropertyOp27
 70
     1
102
RTVSPropertyOp28
 70
     1
102
RTVSPropertyOp29
 70
     1
102
RTVSPropertyOp30
 70
     1
102
RTVSPropertyOp31
 70
     1
102
RTVSPropertyOp32
 70
     1
102
RTVSPropertyOp33
 70
     1
102
RTVSPropertyOp34
 70
     1
102
RTVSPropertyOp35
 70
     1
102
RTVSPropertyOp36
 70
     1
102
RTVSPropertyOp37
 70
     1
102
RTVSPropertyOp38
 70
     1
102
RTVSPropertyOp39
 70
     1
102
RTVSPropertyOp40
 70
     1
102
RTVSPropertyOp41
 70
     1
102
RTVSPropertyOp42
 70
     1
102
RTVSPropertyOp43
 70
     1
102
RTVSPropertyOp44
 70
     1
102
RTVSPropertyOp45
 70
     1
102
RTVSPropertyOp46
 70
     1
102
RTVSPropertyOp47
 70
     1
102
RTVSPropertyOp48
 70
     1
102
RTVSPropertyOp49
 70
     1
102
RTVSPropertyOp50
 70
     1
102
RTVSPropertyOp51
 70
     0
102
RTVSPropertyOp52
 70
     0
102
RTVSPropertyOp53
 70
     1
102
RTVSPropertyOp54
 70
     1
102
RTVSPropertyOp55
 70
     1
102
RTVSPropertyOp56
 70
     1
102
RTVSPropertyOp57
 70
     1
102
RTVSPropertyOp58
 70
     1
102
RTVSPropertyOp59
 70
     1
102
RTVSPropertyOp60
 70
     1
102
RTVSPropertyOp61
 70
     1
102
RTVSPropertyOp62
 70
     1
  0
ENDSEC
  0
EOF
