  0
SECTION
  2
HEADER
  9
$ACADVER
  1
AC1018
  9
$ACADMAINTVER
 70
    76
  9
$DWGCODEPAGE
  3
ANSI_936
  9
$INSBASE
 10
0.0
 20
0.0
 30
0.0
  9
$EXTMIN
 10
385.6359486245683
 20
-10.83483982229878
 30
0.0
  9
$EXTMAX
 10
11637.53149117483
 20
5428.329069013762
 30
0.0
  9
$LIMMIN
 10
0.0
 20
0.0
  9
$LIMMAX
 10
420.0
 20
297.0
  9
$ORTHOMODE
 70
     1
  9
$REGENMODE
 70
     1
  9
$FILLMODE
 70
     1
  9
$QTEXTMODE
 70
     0
  9
$MIRRTEXT
 70
     1
  9
$LTSCALE
 40
1.0
  9
$ATTMODE
 70
     1
  9
$TEXTSIZE
 40
30.0
  9
$TRACEWID
 40
1.0
  9
$TEXTSTYLE
  7
CARTOUCHE
  9
$CLAYER
  8
Dim
  9
$CELTYPE
  6
ByLayer
  9
$CECOLOR
 62
   256
  9
$CELTSCALE
 40
30.0
  9
$DISPSILH
 70
     0
  9
$DIMSCALE
 40
1.0
  9
$DIMASZ
 40
7.0
  9
$DIMEXO
 40
0.625
  9
$DIMDLI
 40
3.75
  9
$DIMRND
 40
0.0
  9
$DIMDLE
 40
0.0
  9
$DIMEXE
 40
1.25
  9
$DIMTP
 40
0.0
  9
$DIMTM
 40
0.0
  9
$DIMTXT
 40
5.0
  9
$DIMCEN
 40
0.9
  9
$DIMTSZ
 40
0.0
  9
$DIMTOL
 70
     0
  9
$DIMLIM
 70
     0
  9
$DIMTIH
 70
     1
  9
$DIMTOH
 70
     1
  9
$DIMSE1
 70
     0
  9
$DIMSE2
 70
     0
  9
$DIMTAD
 70
     1
  9
$DIMZIN
 70
     8
  9
$DIMBLK
  1

  9
$DIMASO
 70
     1
  9
$DIMSHO
 70
     1
  9
$DIMPOST
  1

  9
$DIMAPOST
  1

  9
$DIMALT
 70
     0
  9
$DIMALTD
 70
     3
  9
$DIMALTF
 40
0.03937007874016
  9
$DIMLFAC
 40
1.0
  9
$DIMTOFL
 70
     1
  9
$DIMTVP
 40
0.0
  9
$DIMTIX
 70
     0
  9
$DIMSOXD
 70
     0
  9
$DIMSAH
 70
     0
  9
$DIMBLK1
  1

  9
$DIMBLK2
  1

  9
$DIMSTYLE
  2
ISO-25
  9
$DIMCLRD
 70
     0
  9
$DIMCLRE
 70
     0
  9
$DIMCLRT
 70
     0
  9
$DIMTFAC
 40
1.0
  9
$DIMGAP
 40
1.5
  9
$DIMJUST
 70
     0
  9
$DIMSD1
 70
     0
  9
$DIMSD2
 70
     0
  9
$DIMTOLJ
 70
     0
  9
$DIMTZIN
 70
     8
  9
$DIMALTZ
 70
     0
  9
$DIMALTTZ
 70
     0
  9
$DIMUPT
 70
     0
  9
$DIMDEC
 70
     0
  9
$DIMTDEC
 70
     0
  9
$DIMALTU
 70
     2
  9
$DIMALTTD
 70
     3
  9
$DIMTXSTY
  7
Standard
  9
$DIMAUNIT
 70
     0
  9
$DIMADEC
 70
     0
  9
$DIMALTRND
 40
0.0
  9
$DIMAZIN
 70
     0
  9
$DIMDSEP
 70
    44
  9
$DIMATFIT
 70
     3
  9
$DIMFRAC
 70
     0
  9
$DIMLDRBLK
  1

  9
$DIMLUNIT
 70
     2
  9
$DIMLWD
 70
    -2
  9
$DIMLWE
 70
    -2
  9
$DIMTMOVE
 70
     0
  9
$LUNITS
 70
     2
  9
$LUPREC
 70
     4
  9
$SKETCHINC
 40
1.0
  9
$FILLETRAD
 40
5.0
  9
$AUNITS
 70
     0
  9
$AUPREC
 70
     0
  9
$MENU
  1
.
  9
$ELEVATION
 40
0.0
  9
$PELEVATION
 40
0.0
  9
$THICKNESS
 40
0.0
  9
$LIMCHECK
 70
     0
  9
$CHAMFERA
 40
0.0
  9
$CHAMFERB
 40
0.0
  9
$CHAMFERC
 40
20.0
  9
$CHAMFERD
 40
0.0
  9
$SKPOLY
 70
     0
  9
$TDCREATE
 40
2451808.814548149
  9
$TDUCREATE
 40
2451808.481214815
  9
$TDUPDATE
 40
2454657.593211991
  9
$TDUUPDATE
 40
2454657.259878657
  9
$TDINDWG
 40
12.9272732986
  9
$TDUSRTIMER
 40
12.9272727199
  9
$USRTIMER
 70
     1
  9
$ANGBASE
 50
0.0
  9
$ANGDIR
 70
     0
  9
$PDMODE
 70
     0
  9
$PDSIZE
 40
0.0
  9
$PLINEWID
 40
0.0
  9
$SPLFRAME
 70
     0
  9
$SPLINETYPE
 70
     6
  9
$SPLINESEGS
 70
     8
  9
$HANDSEED
  5
20D81
  9
$SURFTAB1
 70
     6
  9
$SURFTAB2
 70
     6
  9
$SURFTYPE
 70
     6
  9
$SURFU
 70
     6
  9
$SURFV
 70
     6
  9
$UCSBASE
  2

  9
$UCSNAME
  2

  9
$UCSORG
 10
0.0
 20
0.0
 30
0.0
  9
$UCSXDIR
 10
1.0
 20
0.0
 30
0.0
  9
$UCSYDIR
 10
0.0
 20
1.0
 30
0.0
  9
$UCSORTHOREF
  2

  9
$UCSORTHOVIEW
 70
     0
  9
$UCSORGTOP
 10
0.0
 20
0.0
 30
0.0
  9
$UCSORGBOTTOM
 10
0.0
 20
0.0
 30
0.0
  9
$UCSORGLEFT
 10
0.0
 20
0.0
 30
0.0
  9
$UCSORGRIGHT
 10
0.0
 20
0.0
 30
0.0
  9
$UCSORGFRONT
 10
0.0
 20
0.0
 30
0.0
  9
$UCSORGBACK
 10
0.0
 20
0.0
 30
0.0
  9
$PUCSBASE
  2

  9
$PUCSNAME
  2

  9
$PUCSORG
 10
0.0
 20
0.0
 30
0.0
  9
$PUCSXDIR
 10
1.0
 20
0.0
 30
0.0
  9
$PUCSYDIR
 10
0.0
 20
1.0
 30
0.0
  9
$PUCSORTHOREF
  2

  9
$PUCSORTHOVIEW
 70
     0
  9
$PUCSORGTOP
 10
0.0
 20
0.0
 30
0.0
  9
$PUCSORGBOTTOM
 10
0.0
 20
0.0
 30
0.0
  9
$PUCSORGLEFT
 10
0.0
 20
0.0
 30
0.0
  9
$PUCSORGRIGHT
 10
0.0
 20
0.0
 30
0.0
  9
$PUCSORGFRONT
 10
0.0
 20
0.0
 30
0.0
  9
$PUCSORGBACK
 10
0.0
 20
0.0
 30
0.0
  9
$USERI1
 70
     0
  9
$USERI2
 70
     0
  9
$USERI3
 70
     0
  9
$USERI4
 70
     0
  9
$USERI5
 70
     0
  9
$USERR1
 40
0.0
  9
$USERR2
 40
0.0
  9
$USERR3
 40
0.0
  9
$USERR4
 40
0.0
  9
$USERR5
 40
0.0
  9
$WORLDVIEW
 70
     1
  9
$SHADEDGE
 70
     3
  9
$SHADEDIF
 70
    70
  9
$TILEMODE
 70
     1
  9
$MAXACTVP
 70
    64
  9
$PINSBASE
 10
0.0
 20
0.0
 30
0.0
  9
$PLIMCHECK
 70
     0
  9
$PEXTMIN
 10
137.288862374573
 20
102.170733853839
 30
0.0
  9
$PEXTMAX
 10
1254.888862374573
 20
1829.370733853839
 30
0.0
  9
$PLIMMIN
 10
-36.7242431640625
 20
-41.80416584014892
  9
$PLIMMAX
 10
2933.382263183594
 20
2057.929110527039
  9
$UNITMODE
 70
     0
  9
$VISRETAIN
 70
     1
  9
$PLINEGEN
 70
     0
  9
$PSLTSCALE
 70
     1
  9
$TREEDEPTH
 70
  3020
  9
$CMLSTYLE
  2
Standard
  9
$CMLJUST
 70
     0
  9
$CMLSCALE
 40
20.0
  9
$PROXYGRAPHICS
 70
     1
  9
$MEASUREMENT
 70
     0
  9
$CELWEIGHT
370
    -1
  9
$ENDCAPS
280
     0
  9
$JOINSTYLE
280
     0
  9
$LWDISPLAY
290
     0
  9
$INSUNITS
 70
     4
  9
$HYPERLINKBASE
  1

  9
$STYLESHEET
  1
acad.ctb
  9
$XEDIT
290
     1
  9
$CEPSNTYPE
380
     0
  9
$PSTYLEMODE
290
     1
  9
$FINGERPRINTGUID
  2
{2FFE8626-8EC8-11D4-85B7-00C04F172506}
  9
$VERSIONGUID
  2
{031F02C7-244C-4085-B355-EF48F6BA2078}
  9
$EXTNAMES
290
     1
  9
$PSVPSCALE
 40
1.0
  9
$OLESTARTUP
290
     0
  9
$SORTENTS
280
    96
  9
$INDEXCTL
280
     0
  9
$HIDETEXT
280
     0
  9
$XCLIPFRAME
290
     0
  9
$HALOGAP
280
     0
  9
$OBSCOLOR
 70
   257
  9
$OBSLTYPE
280
     0
  9
$INTERSECTIONDISPLAY
280
     0
  9
$INTERSECTIONCOLOR
 70
   257
  9
$DIMASSOC
280
     1
  9
$PROJECTNAME
  1

  0
ENDSEC
  0
SECTION
  2
CLASSES
  0
CLASS
  1
ACDBDICTIONARYWDFLT
  2
AcDbDictionaryWithDefault
  3
ObjectDBX Classes
 90
        0
 91
        1
280
     0
281
     0
  0
CLASS
  1
DICTIONARYVAR
  2
AcDbDictionaryVar
  3
ObjectDBX Classes
 90
        0
 91
        3
280
     0
281
     0
  0
CLASS
  1
LAYER_INDEX
  2
AcDbLayerIndex
  3
ObjectDBX Classes
 90
        0
 91
        0
280
     0
281
     0
  0
CLASS
  1
SPATIAL_INDEX
  2
AcDbSpatialIndex
  3
ObjectDBX Classes
 90
        0
 91
        0
280
     0
281
     0
  0
CLASS
  1
IDBUFFER
  2
AcDbIdBuffer
  3
ObjectDBX Classes
 90
        0
 91
        0
280
     0
281
     0
  0
CLASS
  1
ACME_DOCUMENT
  2
AcMeDbDoc
  3
AcMeServices
 90
        0
 91
        2
280
     0
281
     0
  0
CLASS
  1
AMGSETTINGSOBJ
  2
AmgSettingsObj
  3
"AcadM|Product Description: AutoCAD Mechanical 2000|Company: Autodesk"
 90
        0
 91
        3
280
     0
281
     0
  0
CLASS
  1
ACMESCOPE
  2
AcMeScope
  3
AcMeServices
 90
        0
 91
        1
280
     0
281
     0
  0
CLASS
  1
ACMECOMMANDHISTORY
  2
AcMeCommandHistory
  3
AcMeServices
 90
        0
 91
        1
280
     0
281
     0
  0
CLASS
  1
ACIMSYSVARMAN
  2
AcImSysVarManager
  3
AcMeServices
 90
        0
 91
        5
280
     0
281
     0
  0
CLASS
  1
ACIMINTSYSVAR
  2
AcImIntSysVar
  3
AcMeServices
 90
        0
 91
       26
280
     0
281
     0
  0
CLASS
  1
ACMEDRAWINGMAN
  2
AcMeDrawingMan
  3
AcMeServices
 90
        0
 91
        1
280
     0
281
     0
  0
CLASS
  1
ACMEVIEW
  2
AcMeView
  3
AcMeServices
 90
        0
 91
        1
280
     0
281
     0
  0
CLASS
  1
ACDBENTITYCACHE
  2
AcMeEntityCache
  3
AcMeServices
 90
        0
 91
        1
280
     0
281
     0
  0
CLASS
  1
GSMANAGER
  2
AcMeGSManager
  3
AcMeServices
 90
        0
 91
        1
280
     0
281
     0
  0
CLASS
  1
AMDTINTERNALREACTOR
  2
AmdtInternalReactor
  3
AcMeServices
 90
        0
 91
        2
280
     0
281
     0
  0
CLASS
  1
ACMESTATEMGR
  2
AcMeStateMgr
  3
AcMeServices
 90
        0
 91
        1
280
     0
281
     0
  0
CLASS
  1
ACGREFMASTER
  2
AcGrefMaster
  3
AcAttribServices
 90
        0
 91
        1
280
     0
281
     0
  0
CLASS
  1
AM_DRAWING_MGR
  2
AcDmDwgMgr
  3
AcMechDwgViewMgmt
 90
        0
 91
        1
280
     0
281
     0
  0
CLASS
  1
AM_DWG_DOCUMENT
  2
AcDmDwgDocument
  3
AcMechDwgViewMgmt
 90
        0
 91
        1
280
     0
281
     0
  0
CLASS
  1
AM_DWG_SHEET
  2
AcDmSheet
  3
AcMechDwgViewMgmt
 90
        0
 91
        1
280
     0
281
     0
  0
CLASS
  1
AM_VIEWDIMPARMAP
  2
AcDmViewDimParMap
  3
AcMechDwgViewMgmt
 90
        0
 91
        1
280
     0
281
     0
  0
CLASS
  1
ACIMREALSYSVAR
  2
AcImRealSysVar
  3
AcMeServices
 90
        0
 91
        1
280
     0
281
     0
  0
CLASS
  1
AM_DWGMGR_NAME
  2
AcDmDwgMgrName
  3
AcMechDwgViewMgmt
 90
        0
 91
        1
280
     0
281
     0
  0
CLASS
  1
ACME_DATABASE
  2
AcMeDbDatabase
  3
AcMeServices
 90
        0
 91
        1
280
     0
281
     0
  0
CLASS
  1
ACRFINSADJUSTERMGR
  2
AcRfInsAdjusterMgr
  3
AcMeServices
 90
        0
 91
        1
280
     0
281
     0
  0
CLASS
  1
ACGREFACADMASTER
  2
AcGrefacadMaster
  3
AcGrefServices
 90
        0
 91
        1
280
     0
281
     0
  0
CLASS
  1
AMDTMENUSTATEMGR
  2
AmdtMenuStateMgr
  3
McadcomServices
 90
        0
 91
        1
280
     0
281
     0
  0
CLASS
  1
AMDTMCOMMENUSTATE
  2
AmdtMcomMenuState
  3
McadcomServices
 90
        0
 91
        1
280
     0
281
     0
  0
CLASS
  1
AMIMASTER
  2
AmiMaster
  3
AmiServices
 90
        0
 91
        1
280
     0
281
     0
  0
CLASS
  1
MAPIAMMOUDLE
  2
MApiAmModule
  3
MApiAmServices
 90
        0
 91
        1
280
     0
281
     0
  0
CLASS
  1
AMDTADMENUSTATE
  2
AmdtAdMenuState
  3
DesignerServices
 90
        0
 91
        1
280
     0
281
     0
  0
CLASS
  1
ADAPPL
  2
AcAdAppl
  3
DesignerServices
 90
        0
 91
        1
280
     0
281
     0
  0
CLASS
  1
DEPMGR
  2
AcAdDepMgr
  3
DesignerServices
 90
        0
 91
        1
280
     0
281
     0
  0
CLASS
  1
PARAMMGR
  2
AcAdParamMgr
  3
DesignerServices
 90
        0
 91
        1
280
     0
281
     0
  0
CLASS
  1
PARAMSCOPE
  2
AcAdParamScope
  3
DesignerServices
 90
        0
 91
        1
280
     0
281
     0
  0
CLASS
  1
NAMEDAPPL
  2
AcAdNamedAppl
  3
DesignerServices
 90
        0
 91
        1
280
     0
281
     0
  0
CLASS
  1
AMDTDMMENUSTATE
  2
AmdtDmMenuState
  3
AcMechDwgViewMgmt
 90
        0
 91
        1
280
     0
281
     0
  0
CLASS
  1
AMDTAMMENUSTATE
  2
AmdtAmMenuState
  3
DesignerAssemblies
 90
        0
 91
        1
280
     0
281
     0
  0
CLASS
  1
ACIMSTRSYSVAR
  2
AcImStrSysVar
  3
AcMeServices
 90
        0
 91
        5
280
     0
281
     0
  0
CLASS
  1
ACAMPROJECT
  2
AcAmProject
  3
DesignerAssemblies
 90
        0
 91
        1
280
     0
281
     0
  0
CLASS
  1
ACAMGRCOMPDEF
  2
AcAmGrCompDef
  3
DesignerAssemblies
 90
        0
 91
        1
280
     0
281
     0
  0
CLASS
  1
ACCMCONTEXT
  2
AcCmContext
  3
DesignerAssemblies
 90
        0
 91
        1
280
     0
281
     0
  0
CLASS
  1
ACAMCOMPDEF
  2
AcAmCompDef
  3
DesignerAssemblies
 90
        0
 91
        1
280
     0
281
     0
  0
CLASS
  1
ACAMCOMPDEFMGR
  2
AcAmCompDefMgr
  3
DesignerAssemblies
 90
        0
 91
        1
280
     0
281
     0
  0
CLASS
  1
AMCONTEXTMGR
  2
AcAmContextMgr
  3
DesignerAssemblies
 90
        0
 91
        1
280
     0
281
     0
  0
CLASS
  1
ACAMCONTEXTMODELER
  2
AcAmContextModeler
  3
DesignerAssemblies
 90
        0
 91
        1
280
     0
281
     0
  0
CLASS
  1
ACMDATADICTIONARY
  2
AcmDataDictionary
  3
"AcmSymBB|Product Description: AutoCAD Mechanical 2004 DX|Company: Autodesk"
 90
        0
 91
        1
280
     0
281
     0
  0
CLASS
  1
CATALOGSTATE
  2
AcAmCatalogState
  3
DesignerAssemblies
 90
        0
 91
        1
280
     0
281
     0
  0
CLASS
  1
ACAMGRCOMPDEFSET
  2
AcAmGrCompDefSet
  3
DesignerAssemblies
 90
        0
 91
        1
280
     0
281
     0
  0
CLASS
  1
AMDTBROWSERDBTAB
  2
AmdtBrowserDbTab
  3
McadcomServices
 90
        0
 91
        1
280
     0
281
     0
  0
CLASS
  1
CBROWSERAPPOBJECT
  2
CBrowserAppObject
  3
McadcomServices
 90
        0
 91
        3
280
     0
281
     0
  0
CLASS
  1
DM_PLACEHOLDER
  2
AcDmSelsetPlaceholder
  3
AcMechDwgViewMgmt
 90
        0
 91
        1
280
     0
281
     0
  0
CLASS
  1
ACMSTANDARDANSI
  2
AcmStandardANSI
  3
"Amdt_StdImp|Product Description: AutoCAD Mechanical 2004 DX|Company: Autodesk"
 90
        0
 91
        1
280
     0
281
     0
  0
CLASS
  1
AMGOBJPROPCFG
  2
AmgObjPropCfg
  3
"AmgLay|Product Description: AutoCAD Mechanical 2000|Company: Autodesk"
 90
        1
 91
        1
280
     0
281
     0
  0
CLASS
  1
ACMSURFSTANDARDANSI
  2
AcmSurfTextStdANSI
  3
"Amdt_StdImp|Product Description: AutoCAD Mechanical 2004 DX|Company: Autodesk"
 90
        0
 91
        1
280
     0
281
     0
  0
CLASS
  1
ACMFCFSTANDARDANSI
  2
AcmFCFStdANSI
  3
"Amdt_StdImp|Product Description: AutoCAD Mechanical 2004 DX|Company: Autodesk"
 90
        0
 91
        1
280
     0
281
     0
  0
CLASS
  1
ACMWELDSTANDARDANSI
  2
AcmWeldingStdANSI
  3
"Amdt_StdImp|Product Description: AutoCAD Mechanical 2004 DX|Company: Autodesk"
 90
        0
 91
        1
280
     0
281
     0
  0
CLASS
  1
ACMIDSTANDARDANSI
  2
AcmIdStdANSI
  3
"Amdt_StdImp|Product Description: AutoCAD Mechanical 2004 DX|Company: Autodesk"
 90
        0
 91
        1
280
     0
281
     0
  0
CLASS
  1
ACMDATUMSTANDARDANSI
  2
AcmDatumStdANSI
  3
"Amdt_StdImp|Product Description: AutoCAD Mechanical 2004 DX|Company: Autodesk"
 90
        0
 91
        1
280
     0
281
     0
  0
CLASS
  1
ACMBOMSTANDARDANSI
  2
AcmBOMStdANSI
  3
"Amdt_StdImp|Product Description: AutoCAD Mechanical 2004 DX|Company: Autodesk"
 90
        0
 91
        1
280
     0
281
     0
  0
CLASS
  1
ACMDETAILSTANDARDANSI
  2
AmdtDetailSymStdANSI
  3
"Amdt_StdImp|Product Description: AutoCAD Mechanical 2004 DX|Company: Autodesk"
 90
        0
 91
        1
280
     0
281
     0
  0
CLASS
  1
ACMSECTIONSTANDARDANSI
  2
AmdtSectionSymStdANSI
  3
"Amdt_StdImp|Product Description: AutoCAD Mechanical 2004 DX|Company: Autodesk"
 90
        0
 91
        1
280
     0
281
     0
  0
CLASS
  1
ACMCENTERLINESTANDARDANSI
  2
AmdtCenterLineStdANSI
  3
"Amdt_StdImp|Product Description: AutoCAD Mechanical 2004 DX|Company: Autodesk"
 90
        0
 91
        1
280
     0
281
     0
  0
CLASS
  1
ACMTHREADLINESTANDARDANSI
  2
AmdtThreadLineStdANSI
  3
"Amdt_StdImp|Product Description: AutoCAD Mechanical 2004 DX|Company: Autodesk"
 90
        0
 91
        1
280
     0
281
     0
  0
CLASS
  1
ACMNOTESTANDARDANSI
  2
AmdtNoteStdANSI
  3
"Amdt_StdImp|Product Description: AutoCAD Mechanical 2004 DX|Company: Autodesk"
 90
        0
 91
        1
280
     0
281
     0
  0
CLASS
  1
AMDTNOTETEMPLATEDB
  2
AmdtNoteTemplateDB
  3
AMDT_STDIMP_MODULE_NAME
 90
        0
 91
        4
280
     0
281
     0
  0
CLASS
  1
ACAMGLAYSTD
  2
AcAmgLayStd
  3
"AcAmgLayStd|Product Description: AutoCAD Mechanical 2000|Company: Autodesk"
 90
        0
 91
        1
280
     0
281
     0
  0
CLASS
  1
ACAMGDIMSTD
  2
AcAmgDimStd
  3
"AcAmgDimStd|Product Description: AutoCAD Mechanical 2000|Company: Autodesk"
 90
        0
 91
        1
280
     0
281
     0
  0
CLASS
  1
ACAMGHOLECHARTSTDANSI
  2
AcAmgHoleChartStdANSI
  3
ACMSYMBB_MODULE_NAME
 90
        0
 91
        1
280
     0
281
     0
  0
CLASS
  1
ACAMGTITLESTD
  2
AcAmgTitleStd
  3
"TITLEAPP"
 90
        0
 91
        1
280
     0
281
     0
  0
CLASS
  1
ACAMGFILTERDAT
  2
AcAmgFilterDat
  3
"AcadM|Product Description: AutoCAD Mechanical 2000|Company: Autodesk"
 90
        0
 91
        6
280
     0
281
     0
  0
CLASS
  1
SORTENTSTABLE
  2
AcDbSortentsTable
  3
ObjectDBX Classes
 90
        0
 91
        1
280
     0
281
     0
  0
CLASS
  1
TABLESTYLE
  2
AcDbTableStyle
  3
ObjectDBX Classes
 90
     2047
 91
        1
280
     0
281
     0
  0
CLASS
  1
ACMDATAENTRYBLOCK
  2
AcmDataEntryBlock
  3
"AcmSymBB|Product Description: AutoCAD Mechanical 2004 DX|Company: Autodesk"
 90
        0
 91
        0
280
     0
281
     0
  0
ENDSEC
  0
SECTION
  2
TABLES
  0
TABLE
  2
VPORT
  5
8
330
0
100
AcDbSymbolTable
 70
     5
  0
VPORT
  5
20D80
330
8
100
AcDbSymbolTableRecord
100
AcDbViewportTableRecord
  2
*Active
 70
     0
 10
0.0
 20
0.0
 11
1.0
 21
1.0
 12
11210.27049111998
 22
2841.314190895457
 13
0.0
 23
0.0
 14
10.0
 24
10.0
 15
10.0
 25
10.0
 16
0.0
 26
0.0
 36
1.0
 17
0.0
 27
0.0
 37
0.0
 40
885.186020089648
 41
1.504492939666238
 42
50.0
 43
0.0
 44
0.0
 50
0.0
 51
0.0
 71
     0
 72
 20000
 73
     1
 74
     1
 75
     0
 76
     0
 77
     0
 78
     0
281
     0
 65
     1
110
0.0
120
0.0
130
0.0
111
1.0
121
0.0
131
0.0
112
0.0
122
1.0
132
0.0
 79
     0
146
0.0
  0
ENDTAB
  0
TABLE
  2
LTYPE
  5
5
330
0
100
AcDbSymbolTable
 70
    13
  0
LTYPE
  5
14
330
5
100
AcDbSymbolTableRecord
100
AcDbLinetypeTableRecord
  2
ByBlock
 70
     0
  3

 72
    65
 73
     0
 40
0.0
  0
LTYPE
  5
15
330
5
100
AcDbSymbolTableRecord
100
AcDbLinetypeTableRecord
  2
ByLayer
 70
     0
  3

 72
    65
 73
     0
 40
0.0
  0
LTYPE
  5
16
330
5
100
AcDbSymbolTableRecord
100
AcDbLinetypeTableRecord
  2
Continuous
 70
     0
  3
Solid line
 72
    65
 73
     0
 40
0.0
  0
LTYPE
  5
B12F
330
5
100
AcDbSymbolTableRecord
100
AcDbLinetypeTableRecord
  2
AXES
 70
     0
  3
Centre ____ _ ____ _ ____ _ ____ _ ____ _ ____
 72
    65
 73
     4
 40
2.0
 49
1.25
 74
     0
 49
-0.25
 74
     0
 49
0.25
 74
     0
 49
-0.25
 74
     0
  0
LTYPE
  5
B130
330
5
100
AcDbSymbolTableRecord
100
AcDbLinetypeTableRecord
  2
CACHE
 70
     0
  3
Caché __ __ __ __ __ __ __ __ __ __ __ __ __ __
 72
    65
 73
     2
 40
0.375
 49
0.25
 74
     0
 49
-0.125
 74
     0
  0
LTYPE
  5
E98B
330
5
100
AcDbSymbolTableRecord
100
AcDbLinetypeTableRecord
  2
FANTOME2
 70
     0
  3
Fant\U+00F4me (x.5) ___ _ _ ___ _ _ ___ _ _ ___ _ _
 72
    65
 73
     6
 40
1.25
 49
0.625
 74
     0
 49
-0.125
 74
     0
 49
0.125
 74
     0
 49
-0.125
 74
     0
 49
0.125
 74
     0
 49
-0.125
 74
     0
  0
LTYPE
  5
1A237
330
5
100
AcDbSymbolTableRecord
100
AcDbLinetypeTableRecord
  2
HIDDEN
 70
     0
  3
Hidden __ __ __ __ __ __ __ __ __ __ __ __ __ _
 72
    65
 73
     2
 40
0.375
 49
0.25
 74
     0
 49
-0.125
 74
     0
  0
LTYPE
  5
1A238
330
5
100
AcDbSymbolTableRecord
100
AcDbLinetypeTableRecord
  2
PHANTOM2
 70
     0
  3
Phantom (.5x) ___ _ _ ___ _ _ ___ _ _ ___ _ _
 72
    65
 73
     6
 40
1.25
 49
0.625
 74
     0
 49
-0.125
 74
     0
 49
0.125
 74
     0
 49
-0.125
 74
     0
 49
0.125
 74
     0
 49
-0.125
 74
     0
  0
LTYPE
  5
1A239
330
5
100
AcDbSymbolTableRecord
100
AcDbLinetypeTableRecord
  2
CENTER
 70
     0
  3
Center ____ _ ____ _ ____ _ ____ _ ____ _ ____
 72
    65
 73
     4
 40
2.0
 49
1.25
 74
     0
 49
-0.25
 74
     0
 49
0.25
 74
     0
 49
-0.25
 74
     0
  0
LTYPE
  5
1A283
330
5
100
AcDbSymbolTableRecord
100
AcDbLinetypeTableRecord
  2
Amconstr
 70
     0
  3
_______________________
 72
    65
 73
     2
 40
9999.0
 49
9999.0
 74
     0
 49
0.0
 74
     0
  0
LTYPE
  5
1A289
330
5
100
AcDbSymbolTableRecord
100
AcDbLinetypeTableRecord
  2
CENTER2
 70
     0
  3
Center (.5x) ___ _ ___ _ ___ _ ___ _ ___ _ ___
 72
    65
 73
     4
 40
1.125
 49
0.75
 74
     0
 49
-0.125
 74
     0
 49
0.125
 74
     0
 49
-0.125
 74
     0
  0
LTYPE
  5
1A28A
330
5
100
AcDbSymbolTableRecord
100
AcDbLinetypeTableRecord
  2
HIDDEN2
 70
     0
  3
Hidden (.5x) _ _ _ _ _ _ _ _ _ _ _ _ _ _ _ _ _
 72
    65
 73
     2
 40
0.1875
 49
0.125
 74
     0
 49
-0.0625
 74
     0
  0
LTYPE
  5
1A28B
330
5
100
AcDbSymbolTableRecord
100
AcDbLinetypeTableRecord
  2
Amzigzag2
 70
     0
  3
/\/-/\/-/\/-/\/-/\/-/\/
 72
    65
 73
     2
 40
0.4401
 49
0.0001
 74
     4
 75
   135
340
1A287
 46
0.0016
 50
0.0
 44
0.0
 45
0.0
 49
-0.4400000000000001
 74
     0
  0
LTYPE
  5
1A299
330
5
100
AcDbSymbolTableRecord
100
AcDbLinetypeTableRecord
  2
ACANSTGB
 70
     0
  3
__ . . __ . .
 72
    65
 73
     6
 40
0.35433070866
 49
0.15748031496
 74
     0
 49
-0.03937007874
 74
     0
 49
0.03937007874
 74
     0
 49
-0.03937007874
 74
     0
 49
0.03937007874
 74
     0
 49
-0.03937007874
 74
     0
  0
LTYPE
  5
1A29A
330
5
100
AcDbSymbolTableRecord
100
AcDbLinetypeTableRecord
  2
ACANSTGL
 70
     0
  3
_ _ _ _ _
 72
    65
 73
     2
 40
0.11811023622
 49
0.07874015748
 74
     0
 49
-0.03937007874
 74
     0
  0
ENDTAB
  0
TABLE
  2
LAYER
  5
2
102
{ACAD_XDICTIONARY
360
1E8B9
102
}
330
0
100
AcDbSymbolTable
 70
    14
  0
LAYER
  5
10
330
2
100
AcDbSymbolTableRecord
100
AcDbLayerTableRecord
  2
0
 70
     0
 62
     7
  6
Continuous
370
    60
390
F
  0
LAYER
  5
108
330
2
100
AcDbSymbolTableRecord
100
AcDbLayerTableRecord
  2
CARTOUCHE
 70
     0
 62
     7
  6
Continuous
370
    25
390
F
  0
LAYER
  5
19C
330
2
100
AcDbSymbolTableRecord
100
AcDbLayerTableRecord
  2
EPURE
 70
     0
 62
     8
  6
Continuous
370
    40
390
F
  0
LAYER
  5
2B7
330
2
100
AcDbSymbolTableRecord
100
AcDbLayerTableRecord
  2
Defpoints
 70
     0
 62
     7
  6
Continuous
290
     0
370
    -3
390
F
  0
LAYER
  5
B131
330
2
100
AcDbSymbolTableRecord
100
AcDbLayerTableRecord
  2
AXE
 70
     0
 62
     4
  6
AXES
370
    25
390
F
  0
LAYER
  5
B132
330
2
100
AcDbSymbolTableRecord
100
AcDbLayerTableRecord
  2
CACHE
 70
     0
 62
     1
  6
CACHE
370
    40
390
F
  0
LAYER
  5
B133
330
2
100
AcDbSymbolTableRecord
100
AcDbLayerTableRecord
  2
HACHURE
 70
     0
 62
     3
  6
Continuous
370
    25
390
F
  0
LAYER
  5
B134
330
2
100
AcDbSymbolTableRecord
100
AcDbLayerTableRecord
  2
FANTOME
 70
     0
 62
    40
  6
FANTOME2
370
    25
390
F
  0
LAYER
  5
B135
330
2
100
AcDbSymbolTableRecord
100
AcDbLayerTableRecord
  2
Dim
 70
     0
 62
     2
  6
Continuous
370
    20
390
F
  0
LAYER
  5
14C5B
330
2
100
AcDbSymbolTableRecord
100
AcDbLayerTableRecord
  2
meuble
 70
     0
 62
  -202
  6
Continuous
370
    40
390
F
  0
LAYER
  5
1B1BB
330
2
100
AcDbSymbolTableRecord
100
AcDbLayerTableRecord
  2
titleblock
 70
     0
 62
     2
  6
Continuous
370
    -3
390
F
  0
LAYER
  5
1B6F9
330
2
100
AcDbSymbolTableRecord
100
AcDbLayerTableRecord
  2
AM_VIEWS
 70
     5
 62
    -1
  6
Continuous
290
     0
370
    15
390
F
  0
LAYER
  5
1BBAA
330
2
100
AcDbSymbolTableRecord
100
AcDbLayerTableRecord
  2
3467
 70
     0
 62
     7
  6
Continuous
370
    -3
390
F
  0
LAYER
  5
1CF7F
330
2
100
AcDbSymbolTableRecord
100
AcDbLayerTableRecord
  2
1
 70
     0
 62
     1
  6
CENTER2
370
    -3
390
F
  0
ENDTAB
  0
TABLE
  2
STYLE
  5
3
330
0
100
AcDbSymbolTable
 70
     6
  0
STYLE
  5
11
330
3
100
AcDbSymbolTableRecord
100
AcDbTextStyleTableRecord
  2
Standard
 70
     0
 40
0.0
 41
1.0
 50
0.0
 71
     0
 42
2.5
  3
txt
  4

  0
STYLE
  5
10B
330
3
100
AcDbSymbolTableRecord
100
AcDbTextStyleTableRecord
  2
CARTOUCHE
 70
     0
 40
30.0
 41
1.0
 50
0.0
 71
     0
 42
30.0
  3
ARIAL.TTF
  4

1001
ACAD
1000
Arial
1071
       34
  0
STYLE
  5
1A287
330
3
100
AcDbSymbolTableRecord
100
AcDbTextStyleTableRecord
  2

 70
     1
 40
0.0
 41
1.0
 50
0.0
 71
     0
 42
30.0
  3
ltypeshp.shx
  4

  0
STYLE
  5
1A28C
330
3
100
AcDbSymbolTableRecord
100
AcDbTextStyleTableRecord
  2
ACANSTS
 70
     0
 40
1.0
 41
1.0
 50
0.0
 71
     0
 42
30.0
  3
romans.shx
  4
gbcbig.shx
  0
STYLE
  5
1A298
330
3
100
AcDbSymbolTableRecord
100
AcDbTextStyleTableRecord
  2
ACANSGDT
 70
     0
 40
0.0
 41
1.0
 50
0.0
 71
     0
 42
30.0
  3
amgdtans.shx
  4

  0
STYLE
  5
20D42
330
3
100
AcDbSymbolTableRecord
100
AcDbTextStyleTableRecord
  2
hz
 70
     0
 40
30.0
 41
1.0
 50
0.0
 71
     0
 42
30.0
  3

  4

1001
ACAD
1000
SimSun
1071
    34306
  0
ENDTAB
  0
TABLE
  2
VIEW
  5
6
330
0
100
AcDbSymbolTable
 70
     0
  0
ENDTAB
  0
TABLE
  2
UCS
  5
7
330
0
100
AcDbSymbolTable
 70
     0
  0
ENDTAB
  0
TABLE
  2
APPID
  5
9
330
0
100
AcDbSymbolTable
 70
    17
  0
APPID
  5
12
330
9
100
AcDbSymbolTableRecord
100
AcDbRegAppTableRecord
  2
ACAD
 70
     0
  0
APPID
  5
10E
330
9
100
AcDbSymbolTableRecord
100
AcDbRegAppTableRecord
  2
CONTENTBLOCKICON
 70
     0
  0
APPID
  5
1A21B
330
9
100
AcDbSymbolTableRecord
100
AcDbRegAppTableRecord
  2
MCAD_NO_VIS
 70
     0
  0
APPID
  5
1A21C
330
9
100
AcDbSymbolTableRecord
100
AcDbRegAppTableRecord
  2
ACAD_TEMP_GRAPHIC
 70
     0
  0
APPID
  5
1A24E
330
9
100
AcDbSymbolTableRecord
100
AcDbRegAppTableRecord
  2
AD_DRAW
 70
     0
  0
APPID
  5
1A251
330
9
100
AcDbSymbolTableRecord
100
AcDbRegAppTableRecord
  2
ACATTRIBSERVICES
 70
     0
  0
APPID
  5
1A26F
330
9
100
AcDbSymbolTableRecord
100
AcDbRegAppTableRecord
  2
DESIGNERASSEMBLIES
 70
     0
  0
APPID
  5
1A275
330
9
100
AcDbSymbolTableRecord
100
AcDbRegAppTableRecord
  2
ACADM_DIM_EDIT
 70
     0
  0
APPID
  5
1A276
330
9
100
AcDbSymbolTableRecord
100
AcDbRegAppTableRecord
  2
AMDT_DM_ADJ
 70
     0
  0
APPID
  5
1B6FA
330
9
100
AcDbSymbolTableRecord
100
AcDbRegAppTableRecord
  2
GENIUS_GENSCREG_15
 70
     0
  0
APPID
  5
1B6FB
330
9
100
AcDbSymbolTableRecord
100
AcDbRegAppTableRecord
  2
GENIUS_GENODEF_13
 70
     0
  0
APPID
  5
1B6FC
330
9
100
AcDbSymbolTableRecord
100
AcDbRegAppTableRecord
  2
GENIUS_GENOBJ-N-SDF_13
 70
     0
  0
APPID
  5
1BA65
330
9
100
AcDbSymbolTableRecord
100
AcDbRegAppTableRecord
  2
DCO15
 70
     0
  0
APPID
  5
1BAAE
330
9
100
AcDbSymbolTableRecord
100
AcDbRegAppTableRecord
  2
GENIUS_GENDTOL_13
 70
     0
  0
APPID
  5
20625
330
9
100
AcDbSymbolTableRecord
100
AcDbRegAppTableRecord
  2
ACAD_DSTYLE_DIMARC_LENGTH_SYMBOL
 70
     0
  0
APPID
  5
20626
330
9
100
AcDbSymbolTableRecord
100
AcDbRegAppTableRecord
  2
ACAD_DSTYLE_DIMJOGGED_JOGANGLE_SYMBOL
 70
     0
  0
APPID
  5
20A3B
330
9
100
AcDbSymbolTableRecord
100
AcDbRegAppTableRecord
  2
ACAD_EXEMPT_FROM_CAD_STANDARDS
 70
     0
  0
ENDTAB
  0
TABLE
  2
DIMSTYLE
  5
A
330
0
100
AcDbSymbolTable
 70
     8
100
AcDbDimStyleTable
 71
     2
340
27
340
1CDA4
  0
DIMSTYLE
105
27
102
{ACAD_REACTORS
330
1547F
330
15495
330
17CEA
330
17D06
330
17CF8
102
}
330
A
100
AcDbSymbolTableRecord
100
AcDbDimStyleTableRecord
  2
ISO-25
 70
     0
 41
7.0
 42
0.625
 43
3.75
 44
1.25
 77
     1
 78
     8
140
5.0
141
0.9
143
0.03937007874016
147
1.5
171
     3
172
     1
271
     0
272
     0
274
     3
278
    44
283
     0
284
     8
340
11
  0
DIMSTYLE
105
1A2A3
330
A
100
AcDbSymbolTableRecord
100
AcDbDimStyleTableRecord
  2
AM_ANSI
 70
     0
  4
mm
 41
0.1
 42
0.05
 43
0.5
 44
0.1
 47
0.1
 48
0.1
 78
     7
 79
     2
140
0.12
141
0.0
146
0.71
147
0.06
176
   256
177
   256
178
     2
274
     4
284
     7
340
11
371
    -1
372
    -1
1001
ACAD_DSTYLE_DIMARC_LENGTH_SYMBOL
1070
   379
1070
     1
1001
ACAD_DSTYLE_DIMJOGGED_JOGANGLE_SYMBOL
1070
   384
1040
0.7853981633974483
  0
DIMSTYLE
105
1A2A4
330
A
100
AcDbSymbolTableRecord
100
AcDbDimStyleTableRecord
  2
AM_ANSI$3
 70
     0
  4
mm
 41
0.1
 42
0.05
 43
0.5
 44
0.1
 47
0.1
 48
0.1
 78
     7
 79
     2
140
0.12
141
0.0
146
0.71
147
0.06
176
   256
177
   256
178
     2
274
     4
284
     7
288
     1
289
     0
340
11
371
    -1
372
    -1
1001
ACAD_DSTYLE_DIMARC_LENGTH_SYMBOL
1070
   379
1070
     1
1001
ACAD_DSTYLE_DIMJOGGED_JOGANGLE_SYMBOL
1070
   384
1040
0.7853981633974483
  0
DIMSTYLE
105
1A2A5
330
A
100
AcDbSymbolTableRecord
100
AcDbDimStyleTableRecord
  2
AM_ANSI$4
 70
     0
  4
mm
 41
0.1
 42
0.05
 43
0.5
 44
0.1
 47
0.1
 48
0.1
 78
     7
 79
     2
140
0.12
141
0.0
146
0.71
147
0.06
176
   256
177
   256
178
     2
274
     4
284
     7
288
     1
289
     0
340
11
371
    -1
372
    -1
1001
ACAD_DSTYLE_DIMARC_LENGTH_SYMBOL
1070
   379
1070
     1
1001
ACAD_DSTYLE_DIMJOGGED_JOGANGLE_SYMBOL
1070
   384
1040
0.7853981633974483
  0
DIMSTYLE
105
1A2A6
330
A
100
AcDbSymbolTableRecord
100
AcDbDimStyleTableRecord
  2
AM_ANSI$7
 70
     0
  4
mm
 41
0.1
 42
0.05
 43
0.5
 44
0.1
 47
0.1
 48
0.1
 78
     7
 79
     2
140
0.24
141
0.0
146
0.71
147
0.06
176
   256
177
   256
178
     2
274
     4
284
     7
340
11
371
    -1
372
    -1
1001
ACAD_DSTYLE_DIMARC_LENGTH_SYMBOL
1070
   379
1070
     1
1001
ACAD_DSTYLE_DIMJOGGED_JOGANGLE_SYMBOL
1070
   384
1040
0.7853981633974483
  0
DIMSTYLE
105
1A2A7
330
A
100
AcDbSymbolTableRecord
100
AcDbDimStyleTableRecord
  2
AM_ANSI$SF
 70
     0
  4
mm
 41
0.1
 42
0.05
 43
0.5
 44
0.1
 47
0.1
 48
0.1
 75
     1
 76
     1
 78
     7
 79
     2
140
0.12
141
0.0
146
0.71
147
0.06
176
   256
177
   256
178
     2
274
     4
284
     7
340
11
371
    -1
372
    -1
1001
ACAD_DSTYLE_DIMARC_LENGTH_SYMBOL
1070
   379
1070
     1
1001
ACAD_DSTYLE_DIMJOGGED_JOGANGLE_SYMBOL
1070
   384
1040
0.7853981633974483
  0
DIMSTYLE
105
1A2AC
330
A
100
AcDbSymbolTableRecord
100
AcDbDimStyleTableRecord
  2
AM_ANSI$SH
 70
     0
  4
mm
 41
0.1
 42
0.05
 43
0.5
 44
0.1
 47
0.1
 48
0.1
 75
     1
 76
     1
 78
     7
 79
     2
140
0.12
141
0.0
146
0.71
147
0.06
173
     1
176
   256
177
   256
178
     2
274
     4
284
     7
340
11
343
1A2A8
371
    -1
372
    -1
1001
ACAD_DSTYLE_DIMARC_LENGTH_SYMBOL
1070
   379
1070
     1
1001
ACAD_DSTYLE_DIMJOGGED_JOGANGLE_SYMBOL
1070
   384
1040
0.7853981633974483
  0
DIMSTYLE
105
1CDA4
330
A
100
AcDbSymbolTableRecord
100
AcDbDimStyleTableRecord
  2
instruction
 70
     0
  3
\X
  4
"
 40
50.0
 44
0.12
 78
     8
 79
     2
143
0.03937
177
   256
179
     2
271
     2
272
     2
340
11
372
    -1
  0
ENDTAB
  0
TABLE
  2
BLOCK_RECORD
  5
1
330
0
100
AcDbSymbolTable
 70
   156
  0
BLOCK_RECORD
  5
1F
102
{ACAD_XDICTIONARY
360
165F6
102
}
330
1
100
AcDbSymbolTableRecord
100
AcDbBlockTableRecord
  2
*Model_Space
340
22
  0
BLOCK_RECORD
  5
1B
330
1
100
AcDbSymbolTableRecord
100
AcDbBlockTableRecord
  2
*Paper_Space
340
1E
  0
BLOCK_RECORD
  5
104
330
1
100
AcDbSymbolTableRecord
100
AcDbBlockTableRecord
  2
A$C5A200222
340
0
102
{BLKREFS
331
204
331
55E9
331
5633
102
}
  0
BLOCK_RECORD
  5
15480
330
1
100
AcDbSymbolTableRecord
100
AcDbBlockTableRecord
  2
*D1
340
0
  0
BLOCK_RECORD
  5
15496
330
1
100
AcDbSymbolTableRecord
100
AcDbBlockTableRecord
  2
*D2
340
0
  0
BLOCK_RECORD
  5
17CEB
330
1
100
AcDbSymbolTableRecord
100
AcDbBlockTableRecord
  2
*D3
340
0
  0
BLOCK_RECORD
  5
17CF9
330
1
100
AcDbSymbolTableRecord
100
AcDbBlockTableRecord
  2
*D4
340
0
  0
BLOCK_RECORD
  5
17D07
330
1
100
AcDbSymbolTableRecord
100
AcDbBlockTableRecord
  2
*D5
340
0
  0
BLOCK_RECORD
  5
1A2A8
330
1
100
AcDbSymbolTableRecord
100
AcDbBlockTableRecord
  2
GENAXEH
340
0
  0
BLOCK_RECORD
  5
1B16B
330
1
100
AcDbSymbolTableRecord
100
AcDbBlockTableRecord
  2
C_ARROW_BL1
340
0
102
{BLKREFS
331
203E6
331
2055B
102
}
  0
BLOCK_RECORD
  5
1B17F
330
1
100
AcDbSymbolTableRecord
100
AcDbBlockTableRecord
  2
C_ARROW_BL2
340
0
102
{BLKREFS
331
203E7
331
2055C
102
}
  0
BLOCK_RECORD
  5
1B193
330
1
100
AcDbSymbolTableRecord
100
AcDbBlockTableRecord
  2
C_ARROW_BL3
340
0
102
{BLKREFS
331
203E8
331
2055D
102
}
  0
BLOCK_RECORD
  5
1B3E6
330
1
100
AcDbSymbolTableRecord
100
AcDbBlockTableRecord
  2
C_ARROW_BL0
340
0
102
{BLKREFS
331
203E5
331
2055A
102
}
  0
BLOCK_RECORD
  5
1D055
330
1
100
AcDbSymbolTableRecord
100
AcDbBlockTableRecord
  2
_None
340
0
  0
ENDTAB
  0
ENDSEC
  0
SECTION
  2
BLOCKS
  0
BLOCK
  5
20
330
1F
100
AcDbEntity
  8
0
100
AcDbBlockBegin
  2
*Model_Space
 70
     0
 10
0.0
 20
0.0
 30
0.0
  3
*Model_Space
  1

  0
ENDBLK
  5
21
330
1F
100
AcDbEntity
  8
0
100
AcDbBlockEnd
  0
BLOCK
  5
1C
330
1B
100
AcDbEntity
 67
     1
  8
0
100
AcDbBlockBegin
  2
*Paper_Space
 70
     0
 10
0.0
 20
0.0
 30
0.0
  3
*Paper_Space
  1

  0
ENDBLK
  5
1D
330
1B
100
AcDbEntity
 67
     1
  8
0
100
AcDbBlockEnd
  0
BLOCK
  5
106
330
104
100
AcDbEntity
  8
0
100
AcDbBlockBegin
  2
A$C5A200222
 70
     2
 10
0.0
 20
0.0
 30
0.0
  3
A$C5A200222
  1

  0
ATTDEF
  5
105
330
104
100
AcDbEntity
  8
CARTOUCHE
100
AcDbText
 10
49.16234619052466
 20
9.293497088441654
 30
0.0
 40
28.0
  1

  7
CARTOUCHE
 72
     1
 11
49.16234619052466
 21
9.293497088441654
 31
0.0
100
AcDbAttributeDefinition
  3
désignation
  2
DESI
 70
     0
  0
ENDBLK
  5
107
330
104
100
AcDbEntity
  8
0
100
AcDbBlockEnd
  0
BLOCK
  5
1548A
330
15480
100
AcDbEntity
  8
0
 48
30.0
100
AcDbBlockBegin
  2
*D1
 70
     1
 10
0.0
 20
0.0
 30
0.0
  3
*D1
  1

  0
LINE
  5
17A59
330
15480
100
AcDbEntity
  8
meuble
 62
     0
 48
30.0
370
    -2
100
AcDbLine
 10
427.5778930184751
 20
1846.714744725729
 30
0.0
 11
427.5778930184751
 21
1814.534393002236
 31
0.0
  0
LINE
  5
17A5A
330
15480
100
AcDbEntity
  8
meuble
 62
     0
 48
30.0
370
    -2
100
AcDbLine
 10
1295.577893018474
 20
1846.714744725729
 30
0.0
 11
1295.577893018474
 21
1814.534393002236
 31
0.0
  0
LINE
  5
17A5B
330
15480
100
AcDbEntity
  8
meuble
 62
     0
 48
30.0
370
    -2
100
AcDbLine
 10
434.5778930184751
 20
1815.784393002235
 30
0.0
 11
1288.577893018474
 21
1815.784393002235
 31
0.0
  0
SOLID
  5
17A5C
330
15480
100
AcDbEntity
  8
meuble
 62
     0
 48
30.0
100
AcDbTrace
 10
434.5778930184751
 20
1816.951059668902
 30
0.0
 11
434.5778930184751
 21
1814.617726335569
 31
0.0
 12
427.5778930184751
 22
1815.784393002235
 32
0.0
 13
427.5778930184751
 23
1815.784393002235
 33
0.0
  0
SOLID
  5
17A5D
330
15480
100
AcDbEntity
  8
meuble
 62
     0
 48
30.0
100
AcDbTrace
 10
1288.577893018474
 20
1816.951059668902
 30
0.0
 11
1288.577893018474
 21
1814.617726335569
 31
0.0
 12
1295.577893018474
 22
1815.784393002235
 32
0.0
 13
1295.577893018474
 23
1815.784393002235
 33
0.0
  0
MTEXT
  5
17A5E
330
15480
100
AcDbEntity
  8
meuble
 62
     0
 48
30.0
100
AcDbMText
 10
861.5778930184745
 20
1821.284393002235
 30
0.0
 40
8.0
 41
0.0
 71
     5
 72
     1
  1
868
 73
     1
 44
1.0
  0
POINT
  5
17A5F
330
15480
100
AcDbEntity
  8
Defpoints
 62
     0
 48
30.0
100
AcDbPoint
 10
427.5778930184751
 20
1847.339744725729
 30
0.0
  0
POINT
  5
17A60
330
15480
100
AcDbEntity
  8
Defpoints
 62
     0
 48
30.0
100
AcDbPoint
 10
1295.577893018474
 20
1847.339744725729
 30
0.0
  0
POINT
  5
17A61
330
15480
100
AcDbEntity
  8
Defpoints
 62
     0
 48
30.0
100
AcDbPoint
 10
1295.577893018474
 20
1815.784393002235
 30
0.0
  0
ENDBLK
  5
1548B
330
15480
100
AcDbEntity
  8
0
 48
30.0
100
AcDbBlockEnd
  0
BLOCK
  5
154A0
330
15496
100
AcDbEntity
  8
0
 48
30.0
100
AcDbBlockBegin
  2
*D2
 70
     1
 10
0.0
 20
0.0
 30
0.0
  3
*D2
  1

  0
LINE
  5
17A62
330
15496
100
AcDbEntity
  8
meuble
 62
     0
 48
30.0
370
    -2
100
AcDbLine
 10
900.9204366211603
 20
1449.349773646584
 30
0.0
 11
900.9204366211603
 21
1418.566696459667
 31
0.0
  0
LINE
  5
17A63
330
15496
100
AcDbEntity
  8
meuble
 62
     0
 48
30.0
370
    -2
100
AcDbLine
 10
501.9204366211606
 20
1486.534497304597
 30
0.0
 11
501.9204366211606
 21
1418.566696459667
 31
0.0
  0
LINE
  5
17A64
330
15496
100
AcDbEntity
  8
meuble
 62
     0
 48
30.0
370
    -2
100
AcDbLine
 10
893.9204366211603
 20
1419.816696459667
 30
0.0
 11
508.9204366211606
 21
1419.816696459667
 31
0.0
  0
SOLID
  5
17A65
330
15496
100
AcDbEntity
  8
meuble
 62
     0
 48
30.0
100
AcDbTrace
 10
893.9204366211603
 20
1420.983363126334
 30
0.0
 11
893.9204366211603
 21
1418.650029793001
 31
0.0
 12
900.9204366211603
 22
1419.816696459667
 32
0.0
 13
900.9204366211603
 23
1419.816696459667
 33
0.0
  0
SOLID
  5
17A66
330
15496
100
AcDbEntity
  8
meuble
 62
     0
 48
30.0
100
AcDbTrace
 10
508.9204366211606
 20
1420.983363126334
 30
0.0
 11
508.9204366211606
 21
1418.650029793001
 31
0.0
 12
501.9204366211606
 22
1419.816696459667
 32
0.0
 13
501.9204366211606
 23
1419.816696459667
 33
0.0
  0
MTEXT
  5
17A67
330
15496
100
AcDbEntity
  8
meuble
 62
     0
 48
30.0
100
AcDbMText
 10
701.4204366211604
 20
1425.316696459668
 30
0.0
 40
8.0
 41
0.0
 71
     5
 72
     1
  1
399
 73
     1
 44
1.0
  0
POINT
  5
17A68
330
15496
100
AcDbEntity
  8
Defpoints
 62
     0
 48
30.0
100
AcDbPoint
 10
900.9204366211603
 20
1449.974773646585
 30
0.0
  0
POINT
  5
17A69
330
15496
100
AcDbEntity
  8
Defpoints
 62
     0
 48
30.0
100
AcDbPoint
 10
501.9204366211606
 20
1487.159497304597
 30
0.0
  0
POINT
  5
17A6A
330
15496
100
AcDbEntity
  8
Defpoints
 62
     0
 48
30.0
100
AcDbPoint
 10
501.9204366211606
 20
1419.816696459667
 30
0.0
  0
ENDBLK
  5
154A1
330
15496
100
AcDbEntity
  8
0
 48
30.0
100
AcDbBlockEnd
  0
BLOCK
  5
17CF6
330
17CEB
100
AcDbEntity
  8
0
 48
30.0
100
AcDbBlockBegin
  2
*D3
 70
     1
 10
0.0
 20
0.0
 30
0.0
  3
*D3
  1

  0
LINE
  5
17CEC
330
17CEB
100
AcDbEntity
  8
meuble
 62
     0
 48
30.0
370
    -2
100
AcDbLine
 10
641.6751291513932
 20
1618.1057543906
 30
0.0
 11
692.3361671280145
 21
1618.1057543906
 31
0.0
  0
LINE
  5
17CED
330
17CEB
100
AcDbEntity
  8
meuble
 62
     0
 48
30.0
370
    -2
100
AcDbLine
 10
644.9365517295083
 20
1653.159497304597
 30
0.0
 11
692.3361671280145
 21
1653.159497304597
 31
0.0
  0
LINE
  5
17CEE
330
17CEB
100
AcDbEntity
  8
meuble
 62
     0
 48
30.0
370
    -2
100
AcDbLine
 10
691.0861671280144
 20
1625.1057543906
 30
0.0
 11
691.0861671280144
 21
1631.632625847599
 31
0.0
  0
LINE
  5
17CEF
330
17CEB
100
AcDbEntity
  8
meuble
 62
     0
 48
30.0
370
    -2
100
AcDbLine
 10
691.0861671280144
 20
1646.159497304597
 30
0.0
 11
691.0861671280144
 21
1639.632625847599
 31
0.0
  0
SOLID
  5
17CF0
330
17CEB
100
AcDbEntity
  8
meuble
 62
     0
 48
30.0
100
AcDbTrace
 10
689.9195004613479
 20
1625.1057543906
 30
0.0
 11
692.2528337946811
 21
1625.1057543906
 31
0.0
 12
691.0861671280144
 22
1618.1057543906
 32
0.0
 13
691.0861671280144
 23
1618.1057543906
 33
0.0
  0
SOLID
  5
17CF1
330
17CEB
100
AcDbEntity
  8
meuble
 62
     0
 48
30.0
100
AcDbTrace
 10
689.9195004613479
 20
1646.159497304597
 30
0.0
 11
692.2528337946811
 21
1646.159497304597
 31
0.0
 12
691.0861671280144
 22
1653.159497304597
 32
0.0
 13
691.0861671280144
 23
1653.159497304597
 33
0.0
  0
MTEXT
  5
17CF2
330
17CEB
100
AcDbEntity
  8
meuble
 62
     0
 48
30.0
100
AcDbMText
 10
691.0861671280143
 20
1635.632625847599
 30
0.0
 40
5.0
 41
0.0
 71
     5
 72
     1
  1
35
 73
     1
 44
1.0
  0
POINT
  5
17CF3
330
17CEB
100
AcDbEntity
  8
Defpoints
 62
     0
 48
30.0
100
AcDbPoint
 10
641.0501291513932
 20
1618.1057543906
 30
0.0
  0
POINT
  5
17CF4
330
17CEB
100
AcDbEntity
  8
Defpoints
 62
     0
 48
30.0
100
AcDbPoint
 10
644.3115517295083
 20
1653.159497304597
 30
0.0
  0
POINT
  5
17CF5
330
17CEB
100
AcDbEntity
  8
Defpoints
 62
     0
 48
30.0
100
AcDbPoint
 10
691.0861671280144
 20
1653.159497304597
 30
0.0
  0
ENDBLK
  5
17CF7
330
17CEB
100
AcDbEntity
  8
0
 48
30.0
100
AcDbBlockEnd
  0
BLOCK
  5
17D04
330
17CF9
100
AcDbEntity
  8
0
 48
30.0
100
AcDbBlockBegin
  2
*D4
 70
     1
 10
0.0
 20
0.0
 30
0.0
  3
*D4
  1

  0
LINE
  5
17CFA
330
17CF9
100
AcDbEntity
  8
meuble
 62
     0
 48
30.0
370
    -2
100
AcDbLine
 10
754.5336227636339
 20
2013.534035582607
 30
0.0
 11
801.5090282608216
 21
2013.534035582607
 31
0.0
  0
LINE
  5
17CFB
330
17CF9
100
AcDbEntity
  8
meuble
 62
     0
 48
30.0
370
    -2
100
AcDbLine
 10
719.7028930184747
 20
1985.027284130809
 30
0.0
 11
801.5090282608216
 21
1985.027284130809
 31
0.0
  0
LINE
  5
17CFC
330
17CF9
100
AcDbEntity
  8
meuble
 62
     0
 48
30.0
370
    -2
100
AcDbLine
 10
800.2590282608217
 20
2006.534035582607
 30
0.0
 11
800.2590282608217
 21
2003.280659856708
 31
0.0
  0
LINE
  5
17CFD
330
17CF9
100
AcDbEntity
  8
meuble
 62
     0
 48
30.0
370
    -2
100
AcDbLine
 10
800.2590282608217
 20
1992.027284130809
 30
0.0
 11
800.2590282608217
 21
1995.280659856708
 31
0.0
  0
SOLID
  5
17CFE
330
17CF9
100
AcDbEntity
  8
meuble
 62
     0
 48
30.0
100
AcDbTrace
 10
799.092361594155
 20
2006.534035582607
 30
0.0
 11
801.4256949274882
 21
2006.534035582607
 31
0.0
 12
800.2590282608217
 22
2013.534035582607
 32
0.0
 13
800.2590282608217
 23
2013.534035582607
 33
0.0
  0
SOLID
  5
17CFF
330
17CF9
100
AcDbEntity
  8
meuble
 62
     0
 48
30.0
100
AcDbTrace
 10
799.092361594155
 20
1992.027284130809
 30
0.0
 11
801.4256949274882
 21
1992.027284130809
 31
0.0
 12
800.2590282608217
 22
1985.027284130809
 32
0.0
 13
800.2590282608217
 23
1985.027284130809
 33
0.0
  0
MTEXT
  5
17D00
330
17CF9
100
AcDbEntity
  8
meuble
 62
     0
 48
30.0
100
AcDbMText
 10
800.2590282608213
 20
1999.280659856708
 30
0.0
 40
5.0
 41
0.0
 71
     5
 72
     1
  1
29
 73
     1
 44
1.0
  0
POINT
  5
17D01
330
17CF9
100
AcDbEntity
  8
Defpoints
 62
     0
 48
30.0
100
AcDbPoint
 10
753.9086227636339
 20
2013.534035582607
 30
0.0
  0
POINT
  5
17D02
330
17CF9
100
AcDbEntity
  8
Defpoints
 62
     0
 48
30.0
100
AcDbPoint
 10
719.0778930184746
 20
1985.027284130809
 30
0.0
  0
POINT
  5
17D03
330
17CF9
100
AcDbEntity
  8
Defpoints
 62
     0
 48
30.0
100
AcDbPoint
 10
800.2590282608217
 20
1985.027284130809
 30
0.0
  0
ENDBLK
  5
17D05
330
17CF9
100
AcDbEntity
  8
0
 48
30.0
100
AcDbBlockEnd
  0
BLOCK
  5
17D13
330
17D07
100
AcDbEntity
  8
0
 48
30.0
100
AcDbBlockBegin
  2
*D5
 70
     1
 10
0.0
 20
0.0
 30
0.0
  3
*D5
  1

  0
LINE
  5
17D08
330
17D07
100
AcDbEntity
  8
meuble
 62
     0
 48
30.0
370
    -2
100
AcDbLine
 10
409.7870054658869
 20
2012.008864853417
 30
0.0
 11
386.0526152912353
 21
2012.008864853417
 31
0.0
  0
LINE
  5
17D09
330
17D07
100
AcDbEntity
  8
meuble
 62
     0
 48
30.0
370
    -2
100
AcDbLine
 10
409.8444419372829
 20
2006.763000465914
 30
0.0
 11
386.0526152912353
 21
2006.763000465914
 31
0.0
  0
LINE
  5
17D0A
330
17D07
100
AcDbEntity
  8
meuble
 62
     0
 48
30.0
370
    -2
100
AcDbLine
 10
387.3026152912353
 20
2019.008864853417
 30
0.0
 11
387.3026152912353
 21
2026.008864853417
 31
0.0
  0
LINE
  5
17D0B
330
17D07
100
AcDbEntity
  8
meuble
 62
     0
 48
30.0
370
    -2
100
AcDbLine
 10
387.3026152912353
 20
1999.763000465913
 30
0.0
 11
387.3026152912353
 21
1992.763000465913
 31
0.0
  0
LINE
  5
17D0C
330
17D07
100
AcDbEntity
  8
meuble
 62
     0
 48
30.0
370
    -2
100
AcDbLine
 10
387.3026152912353
 20
2012.008864853417
 30
0.0
 11
387.3026152912353
 21
2006.763000465914
 31
0.0
  0
SOLID
  5
17D0D
330
17D07
100
AcDbEntity
  8
meuble
 62
     0
 48
30.0
100
AcDbTrace
 10
386.1359486245686
 20
2019.008864853417
 30
0.0
 11
388.469281957902
 21
2019.008864853417
 31
0.0
 12
387.3026152912353
 22
2012.008864853417
 32
0.0
 13
387.3026152912353
 23
2012.008864853417
 33
0.0
  0
SOLID
  5
17D0E
330
17D07
100
AcDbEntity
  8
meuble
 62
     0
 48
30.0
100
AcDbTrace
 10
386.1359486245686
 20
1999.763000465913
 30
0.0
 11
388.469281957902
 21
1999.763000465913
 31
0.0
 12
387.3026152912353
 22
2006.763000465914
 32
0.0
 13
387.3026152912353
 23
2006.763000465914
 33
0.0
  0
MTEXT
  5
17D0F
330
17D07
100
AcDbEntity
  8
meuble
 62
     0
 48
30.0
100
AcDbMText
 10
387.3026152912349
 20
2009.385932659665
 30
0.0
 40
5.0
 41
0.0
 71
     5
 72
     1
  1
5
 73
     1
 44
1.0
  0
POINT
  5
17D10
330
17D07
100
AcDbEntity
  8
Defpoints
 62
     0
 48
30.0
100
AcDbPoint
 10
410.4120054658869
 20
2012.008864853417
 30
0.0
  0
POINT
  5
17D11
330
17D07
100
AcDbEntity
  8
Defpoints
 62
     0
 48
30.0
100
AcDbPoint
 10
410.4694419372829
 20
2006.763000465914
 30
0.0
  0
POINT
  5
17D12
330
17D07
100
AcDbEntity
  8
Defpoints
 62
     0
 48
30.0
100
AcDbPoint
 10
387.3026152912353
 20
2006.763000465914
 30
0.0
  0
ENDBLK
  5
17D14
330
17D07
100
AcDbEntity
  8
0
 48
30.0
100
AcDbBlockEnd
  0
BLOCK
  5
1A2AA
330
1A2A8
100
AcDbEntity
  8
0
 48
30.0
100
AcDbBlockBegin
  2
GENAXEH
 70
     0
 10
0.0
 20
0.0
 30
0.0
  3
GENAXEH
  1

  0
LINE
  5
1A2A9
330
1A2A8
100
AcDbEntity
  8
0
100
AcDbLine
 10
-1.0
 20
0.0
 30
0.0
 11
1.0
 21
0.0
 31
0.0
  0
ENDBLK
  5
1A2AB
330
1A2A8
100
AcDbEntity
  8
0
 48
30.0
100
AcDbBlockEnd
  0
BLOCK
  5
1B16C
330
1B16B
100
AcDbEntity
  8
0
 62
     2
100
AcDbBlockBegin
  2
C_ARROW_BL1
 70
     0
 10
17.0
 20
0.3125
 30
0.0
  3
C_ARROW_BL1
  1

  0
LINE
  5
1B16D
330
1B16B
100
AcDbEntity
  8
0
  6
Continuous
100
AcDbLine
 10
17.0
 20
0.5
 30
0.0
 11
16.90625
 21
0.3125
 31
0.0
  0
LINE
  5
1B16E
330
1B16B
100
AcDbEntity
  8
0
  6
Continuous
100
AcDbLine
 10
17.0
 20
0.5
 30
0.0
 11
17.09375
 21
0.3125
 31
0.0
  0
LINE
  5
1B16F
330
1B16B
100
AcDbEntity
  8
0
  6
Continuous
100
AcDbLine
 10
17.0234375
 20
0.3125
 30
0.0
 11
17.09375
 21
0.3125
 31
0.0
  0
LINE
  5
1B170
330
1B16B
100
AcDbEntity
  8
0
  6
Continuous
100
AcDbLine
 10
17.0234375
 20
0.125
 30
0.0
 11
17.0234375
 21
0.3125
 31
0.0
  0
LINE
  5
1B171
330
1B16B
100
AcDbEntity
  8
0
  6
Continuous
100
AcDbLine
 10
17.0234375
 20
0.125
 30
0.0
 11
16.9765625
 21
0.125
 31
0.0
  0
LINE
  5
1B172
330
1B16B
100
AcDbEntity
  8
0
  6
Continuous
100
AcDbLine
 10
16.9765625
 20
0.3125
 30
0.0
 11
16.9765625
 21
0.125
 31
0.0
  0
LINE
  5
1B173
330
1B16B
100
AcDbEntity
  8
0
  6
Continuous
100
AcDbLine
 10
16.90625
 20
0.3125
 30
0.0
 11
16.9765625
 21
0.3125
 31
0.0
  0
POLYLINE
  5
1B174
330
1B16B
100
AcDbEntity
  8
0
  6
Continuous
 62
     7
100
AcDb2dPolyline
 66
     1
 10
0.0
 20
0.0
 30
0.0
 70
     1
  0
VERTEX
  5
1B175
330
1B174
100
AcDbEntity
  8
0
  6
Continuous
 62
     7
100
AcDbVertex
100
AcDb2dVertex
 10
17.0
 20
0.5
 30
0.0
  0
VERTEX
  5
1B176
330
1B174
100
AcDbEntity
  8
0
  6
Continuous
 62
     7
100
AcDbVertex
100
AcDb2dVertex
 10
17.09375
 20
0.3125
 30
0.0
  0
VERTEX
  5
1B177
330
1B174
100
AcDbEntity
  8
0
  6
Continuous
 62
     7
100
AcDbVertex
100
AcDb2dVertex
 10
17.0234375
 20
0.3125
 30
0.0
  0
VERTEX
  5
1B178
330
1B174
100
AcDbEntity
  8
0
  6
Continuous
 62
     7
100
AcDbVertex
100
AcDb2dVertex
 10
17.0234375
 20
0.125
 30
0.0
  0
VERTEX
  5
1B179
330
1B174
100
AcDbEntity
  8
0
  6
Continuous
 62
     7
100
AcDbVertex
100
AcDb2dVertex
 10
16.9765625
 20
0.125
 30
0.0
  0
VERTEX
  5
1B17A
330
1B174
100
AcDbEntity
  8
0
  6
Continuous
 62
     7
100
AcDbVertex
100
AcDb2dVertex
 10
16.9765625
 20
0.3125
 30
0.0
  0
VERTEX
  5
1B17B
330
1B174
100
AcDbEntity
  8
0
  6
Continuous
 62
     7
100
AcDbVertex
100
AcDb2dVertex
 10
16.90625
 20
0.3125
 30
0.0
  0
VERTEX
  5
1B17C
330
1B174
100
AcDbEntity
  8
0
  6
Continuous
 62
     7
100
AcDbVertex
100
AcDb2dVertex
 10
17.0
 20
0.5
 30
0.0
  0
SEQEND
  5
1B17D
330
1B174
100
AcDbEntity
  8
0
  6
Continuous
 62
     7
  0
ENDBLK
  5
1B17E
330
1B16B
100
AcDbEntity
  8
0
 62
     0
100
AcDbBlockEnd
  0
BLOCK
  5
1B180
330
1B17F
100
AcDbEntity
  8
0
 62
     2
100
AcDbBlockBegin
  2
C_ARROW_BL2
 70
     0
 10
17.0
 20
21.6875
 30
0.0
  3
C_ARROW_BL2
  1

  0
LINE
  5
1B181
330
1B17F
100
AcDbEntity
  8
0
  6
Continuous
100
AcDbLine
 10
17.0
 20
21.5
 30
0.0
 11
17.09375
 21
21.6875
 31
0.0
  0
LINE
  5
1B182
330
1B17F
100
AcDbEntity
  8
0
  6
Continuous
100
AcDbLine
 10
17.0
 20
21.5
 30
0.0
 11
16.90625
 21
21.6875
 31
0.0
  0
LINE
  5
1B183
330
1B17F
100
AcDbEntity
  8
0
  6
Continuous
100
AcDbLine
 10
16.9765625
 20
21.6875
 30
0.0
 11
16.90625
 21
21.6875
 31
0.0
  0
LINE
  5
1B184
330
1B17F
100
AcDbEntity
  8
0
  6
Continuous
100
AcDbLine
 10
16.9765625
 20
21.875
 30
0.0
 11
16.9765625
 21
21.6875
 31
0.0
  0
LINE
  5
1B185
330
1B17F
100
AcDbEntity
  8
0
  6
Continuous
100
AcDbLine
 10
16.9765625
 20
21.875
 30
0.0
 11
17.0234375
 21
21.875
 31
0.0
  0
LINE
  5
1B186
330
1B17F
100
AcDbEntity
  8
0
  6
Continuous
100
AcDbLine
 10
17.0234375
 20
21.6875
 30
0.0
 11
17.0234375
 21
21.875
 31
0.0
  0
LINE
  5
1B187
330
1B17F
100
AcDbEntity
  8
0
  6
Continuous
100
AcDbLine
 10
17.09375
 20
21.6875
 30
0.0
 11
17.0234375
 21
21.6875
 31
0.0
  0
POLYLINE
  5
1B188
330
1B17F
100
AcDbEntity
  8
0
  6
Continuous
 62
     7
100
AcDb2dPolyline
 66
     1
 10
0.0
 20
0.0
 30
0.0
 70
     1
  0
VERTEX
  5
1B189
330
1B188
100
AcDbEntity
  8
0
  6
Continuous
 62
     7
100
AcDbVertex
100
AcDb2dVertex
 10
17.0
 20
21.5
 30
0.0
  0
VERTEX
  5
1B18A
330
1B188
100
AcDbEntity
  8
0
  6
Continuous
 62
     7
100
AcDbVertex
100
AcDb2dVertex
 10
16.90625
 20
21.6875
 30
0.0
  0
VERTEX
  5
1B18B
330
1B188
100
AcDbEntity
  8
0
  6
Continuous
 62
     7
100
AcDbVertex
100
AcDb2dVertex
 10
16.9765625
 20
21.6875
 30
0.0
  0
VERTEX
  5
1B18C
330
1B188
100
AcDbEntity
  8
0
  6
Continuous
 62
     7
100
AcDbVertex
100
AcDb2dVertex
 10
16.9765625
 20
21.875
 30
0.0
  0
VERTEX
  5
1B18D
330
1B188
100
AcDbEntity
  8
0
  6
Continuous
 62
     7
100
AcDbVertex
100
AcDb2dVertex
 10
17.0234375
 20
21.875
 30
0.0
  0
VERTEX
  5
1B18E
330
1B188
100
AcDbEntity
  8
0
  6
Continuous
 62
     7
100
AcDbVertex
100
AcDb2dVertex
 10
17.0234375
 20
21.6875
 30
0.0
  0
VERTEX
  5
1B18F
330
1B188
100
AcDbEntity
  8
0
  6
Continuous
 62
     7
100
AcDbVertex
100
AcDb2dVertex
 10
17.09375
 20
21.6875
 30
0.0
  0
VERTEX
  5
1B190
330
1B188
100
AcDbEntity
  8
0
  6
Continuous
 62
     7
100
AcDbVertex
100
AcDb2dVertex
 10
17.0
 20
21.5
 30
0.0
  0
SEQEND
  5
1B191
330
1B188
100
AcDbEntity
  8
0
  6
Continuous
 62
     7
  0
ENDBLK
  5
1B192
330
1B17F
100
AcDbEntity
  8
0
 62
     0
100
AcDbBlockEnd
  0
BLOCK
  5
1B194
330
1B193
100
AcDbEntity
  8
0
 62
     2
100
AcDbBlockBegin
  2
C_ARROW_BL3
 70
     0
 10
0.3125
 20
11.0
 30
0.0
  3
C_ARROW_BL3
  1

  0
LINE
  5
1B195
330
1B193
100
AcDbEntity
  8
0
  6
Continuous
100
AcDbLine
 10
0.5
 20
11.0
 30
0.0
 11
0.3125
 21
11.09375
 31
0.0
  0
LINE
  5
1B196
330
1B193
100
AcDbEntity
  8
0
  6
Continuous
100
AcDbLine
 10
0.5
 20
11.0
 30
0.0
 11
0.3125
 21
10.90625
 31
0.0
  0
LINE
  5
1B197
330
1B193
100
AcDbEntity
  8
0
  6
Continuous
100
AcDbLine
 10
0.3125
 20
10.9765625
 30
0.0
 11
0.3125
 21
10.90625
 31
0.0
  0
LINE
  5
1B198
330
1B193
100
AcDbEntity
  8
0
  6
Continuous
100
AcDbLine
 10
0.125
 20
10.9765625
 30
0.0
 11
0.3125
 21
10.9765625
 31
0.0
  0
LINE
  5
1B199
330
1B193
100
AcDbEntity
  8
0
  6
Continuous
100
AcDbLine
 10
0.125
 20
10.9765625
 30
0.0
 11
0.125
 21
11.0234375
 31
0.0
  0
LINE
  5
1B19A
330
1B193
100
AcDbEntity
  8
0
  6
Continuous
100
AcDbLine
 10
0.3125
 20
11.0234375
 30
0.0
 11
0.125
 21
11.0234375
 31
0.0
  0
LINE
  5
1B19B
330
1B193
100
AcDbEntity
  8
0
  6
Continuous
100
AcDbLine
 10
0.3125
 20
11.09375
 30
0.0
 11
0.3125
 21
11.0234375
 31
0.0
  0
POLYLINE
  5
1B19C
330
1B193
100
AcDbEntity
  8
0
  6
Continuous
 62
     7
100
AcDb2dPolyline
 66
     1
 10
0.0
 20
0.0
 30
0.0
 70
     1
  0
VERTEX
  5
1B19D
330
1B19C
100
AcDbEntity
  8
0
  6
Continuous
 62
     7
100
AcDbVertex
100
AcDb2dVertex
 10
0.5
 20
11.0
 30
0.0
  0
VERTEX
  5
1B19E
330
1B19C
100
AcDbEntity
  8
0
  6
Continuous
 62
     7
100
AcDbVertex
100
AcDb2dVertex
 10
0.3125
 20
10.90625
 30
0.0
  0
VERTEX
  5
1B19F
330
1B19C
100
AcDbEntity
  8
0
  6
Continuous
 62
     7
100
AcDbVertex
100
AcDb2dVertex
 10
0.3125
 20
10.9765625
 30
0.0
  0
VERTEX
  5
1B1A0
330
1B19C
100
AcDbEntity
  8
0
  6
Continuous
 62
     7
100
AcDbVertex
100
AcDb2dVertex
 10
0.125
 20
10.9765625
 30
0.0
  0
VERTEX
  5
1B1A1
330
1B19C
100
AcDbEntity
  8
0
  6
Continuous
 62
     7
100
AcDbVertex
100
AcDb2dVertex
 10
0.125
 20
11.0234375
 30
0.0
  0
VERTEX
  5
1B1A2
330
1B19C
100
AcDbEntity
  8
0
  6
Continuous
 62
     7
100
AcDbVertex
100
AcDb2dVertex
 10
0.3125
 20
11.0234375
 30
0.0
  0
VERTEX
  5
1B1A3
330
1B19C
100
AcDbEntity
  8
0
  6
Continuous
 62
     7
100
AcDbVertex
100
AcDb2dVertex
 10
0.3125
 20
11.09375
 30
0.0
  0
VERTEX
  5
1B1A4
330
1B19C
100
AcDbEntity
  8
0
  6
Continuous
 62
     7
100
AcDbVertex
100
AcDb2dVertex
 10
0.5
 20
11.0
 30
0.0
  0
SEQEND
  5
1B1A5
330
1B19C
100
AcDbEntity
  8
0
  6
Continuous
 62
     7
  0
ENDBLK
  5
1B1A6
330
1B193
100
AcDbEntity
  8
0
 62
     0
100
AcDbBlockEnd
  0
BLOCK
  5
1B3E7
330
1B3E6
100
AcDbEntity
  8
0
 62
     8
100
AcDbBlockBegin
  2
C_ARROW_BL0
 70
     0
 10
22.0
 20
33.6875
 30
0.0
  3
C_ARROW_BL0
  1

  0
LINE
  5
1B3E8
330
1B3E6
100
AcDbEntity
  8
titleblock
  6
HIDDEN
 62
     8
100
AcDbLine
 10
22.0
 20
33.5
 30
0.0
 11
22.09375
 21
33.6875
 31
0.0
  0
LINE
  5
1B3E9
330
1B3E6
100
AcDbEntity
  8
titleblock
  6
HIDDEN
 62
     8
100
AcDbLine
 10
22.0
 20
33.5
 30
0.0
 11
21.90625
 21
33.6875
 31
0.0
  0
LINE
  5
1B3EA
330
1B3E6
100
AcDbEntity
  8
titleblock
  6
HIDDEN
 62
     8
100
AcDbLine
 10
21.9765625
 20
33.6875
 30
0.0
 11
21.90625
 21
33.6875
 31
0.0
  0
LINE
  5
1B3EB
330
1B3E6
100
AcDbEntity
  8
titleblock
  6
HIDDEN
 62
     8
100
AcDbLine
 10
21.9765625
 20
33.875
 30
0.0
 11
21.9765625
 21
33.6875
 31
0.0
  0
LINE
  5
1B3EC
330
1B3E6
100
AcDbEntity
  8
titleblock
  6
HIDDEN
 62
     8
100
AcDbLine
 10
21.9765625
 20
33.875
 30
0.0
 11
22.0234375
 21
33.875
 31
0.0
  0
LINE
  5
1B3ED
330
1B3E6
100
AcDbEntity
  8
titleblock
  6
HIDDEN
 62
     8
100
AcDbLine
 10
22.0234375
 20
33.6875
 30
0.0
 11
22.0234375
 21
33.875
 31
0.0
  0
LINE
  5
1B3EE
330
1B3E6
100
AcDbEntity
  8
titleblock
  6
HIDDEN
 62
     8
100
AcDbLine
 10
22.09375
 20
33.6875
 30
0.0
 11
22.0234375
 21
33.6875
 31
0.0
  0
POLYLINE
  5
1B3EF
330
1B3E6
100
AcDbEntity
  8
titleblock
  6
HIDDEN
 62
     8
100
AcDb2dPolyline
 66
     1
 10
0.0
 20
0.0
 30
0.0
 70
     1
  0
VERTEX
  5
1B3F0
330
1B3EF
100
AcDbEntity
  8
titleblock
  6
HIDDEN
 62
     8
100
AcDbVertex
100
AcDb2dVertex
 10
22.0
 20
33.5
 30
0.0
  0
VERTEX
  5
1B3F1
330
1B3EF
100
AcDbEntity
  8
titleblock
  6
HIDDEN
 62
     8
100
AcDbVertex
100
AcDb2dVertex
 10
21.90625
 20
33.6875
 30
0.0
  0
VERTEX
  5
1B3F2
330
1B3EF
100
AcDbEntity
  8
titleblock
  6
HIDDEN
 62
     8
100
AcDbVertex
100
AcDb2dVertex
 10
21.9765625
 20
33.6875
 30
0.0
  0
VERTEX
  5
1B3F3
330
1B3EF
100
AcDbEntity
  8
titleblock
  6
HIDDEN
 62
     8
100
AcDbVertex
100
AcDb2dVertex
 10
21.9765625
 20
33.875
 30
0.0
  0
VERTEX
  5
1B3F4
330
1B3EF
100
AcDbEntity
  8
titleblock
  6
HIDDEN
 62
     8
100
AcDbVertex
100
AcDb2dVertex
 10
22.0234375
 20
33.875
 30
0.0
  0
VERTEX
  5
1B3F5
330
1B3EF
100
AcDbEntity
  8
titleblock
  6
HIDDEN
 62
     8
100
AcDbVertex
100
AcDb2dVertex
 10
22.0234375
 20
33.6875
 30
0.0
  0
VERTEX
  5
1B3F6
330
1B3EF
100
AcDbEntity
  8
titleblock
  6
HIDDEN
 62
     8
100
AcDbVertex
100
AcDb2dVertex
 10
22.09375
 20
33.6875
 30
0.0
  0
VERTEX
  5
1B3F7
330
1B3EF
100
AcDbEntity
  8
titleblock
  6
HIDDEN
 62
     8
100
AcDbVertex
100
AcDb2dVertex
 10
22.0
 20
33.5
 30
0.0
  0
SEQEND
  5
1B3F8
330
1B3EF
100
AcDbEntity
  8
titleblock
  6
HIDDEN
 62
     8
  0
ENDBLK
  5
1B3F9
330
1B3E6
100
AcDbEntity
  8
0
 62
     0
100
AcDbBlockEnd
  0
BLOCK
  5
1D056
330
1D055
100
AcDbEntity
  8
0
 48
30.0
100
AcDbBlockBegin
  2
_None
 70
     0
 10
0.0
 20
0.0
 30
0.0
  3
_None
  1

  0
ENDBLK
  5
1D057
330
1D055
100
AcDbEntity
  8
0
 48
30.0
100
AcDbBlockEnd
  0
ENDSEC
  0
SECTION
  2
ENTITIES
  0
INSERT
  5
204
330
1F
100
AcDbEntity
  8
0
100
AcDbBlockReference
 66
     1
  2
A$C5A200222
 10
1094.124270533617
 20
39.51226408437865
 30
0.0
 41
0.1399860248518507
 42
0.1399860248518063
 43
0.1399860248518059
  0
ATTRIB
  5
205
330
204
100
AcDbEntity
  8
CARTOUCHE
100
AcDbText
 10
1101.006311949217
 20
40.81322379876143
 30
0.0
 40
3.919608695850564
  1

  7
CARTOUCHE
 72
     1
 11
1101.006311949217
 21
40.81322379876143
 31
0.0
100
AcDbAttribute
  2
DESI
 70
     0
  0
SEQEND
  5
206
330
204
100
AcDbEntity
  8
0
  0
INSERT
  5
55E9
330
1F
100
AcDbEntity
  8
0
100
AcDbBlockReference
 66
     1
  2
A$C5A200222
 10
1119.690644404209
 20
53.49075096475495
 30
0.0
 41
0.1399860248518507
 42
0.1399860248518063
 43
0.1399860248518059
  0
ATTRIB
  5
55EA
330
55E9
100
AcDbEntity
  8
CARTOUCHE
100
AcDbText
 10
1126.572685819809
 20
54.79171067913772
 30
0.0
 40
3.919608695850564
  1

  7
CARTOUCHE
 72
     1
 11
1126.572685819809
 21
54.79171067913772
 31
0.0
100
AcDbAttribute
  2
DESI
 70
     0
  0
SEQEND
  5
55EB
330
55E9
100
AcDbEntity
  8
0
  0
MTEXT
  5
55EC
330
1F
100
AcDbEntity
  8
EPURE
 62
     8
370
    60
100
AcDbMText
 10
250.7275447938232
 20
664.4713700844484
 30
0.0
 40
2.5
 41
116.4676
 71
     1
 72
     5
  1

 73
     1
 44
1.0
  0
INSERT
  5
5633
330
1F
100
AcDbEntity
  8
0
100
AcDbBlockReference
 66
     1
  2
A$C5A200222
 10
1119.690644404209
 20
53.49075096475495
 30
0.0
 41
0.1399860248518507
 42
0.1399860248518063
 43
0.1399860248518059
  0
ATTRIB
  5
5634
330
5633
100
AcDbEntity
  8
CARTOUCHE
100
AcDbText
 10
1126.572685819809
 20
54.79171067913772
 30
0.0
 40
3.919608695850564
  1

  7
CARTOUCHE
 72
     1
 11
1126.572685819809
 21
54.79171067913772
 31
0.0
100
AcDbAttribute
  2
DESI
 70
     0
  0
SEQEND
  5
5635
330
5633
100
AcDbEntity
  8
0
  0
ATTDEF
  5
5649
330
1F
100
AcDbEntity
  8
CARTOUCHE
370
    20
100
AcDbText
 10
1024.507779978097
 20
32.42292628184623
 30
0.0
 40
2.5
  1

  7
CARTOUCHE
100
AcDbAttributeDefinition
  3
Date création dessin ?
  2

 70
     0
  0
ATTDEF
  5
564C
330
1F
100
AcDbEntity
  8
CARTOUCHE
370
    20
100
AcDbText
 10
1014.5758206535
 20
105.3731601772324
 30
0.0
 40
2.5
  1

  7
CARTOUCHE
 72
     4
 11
1014.5758206535
 21
105.3731601772324
 31
0.0
100
AcDbAttributeDefinition
  3
Indice de modification 1
  2

 70
     0
  0
ATTDEF
  5
564D
330
1F
100
AcDbEntity
  8
CARTOUCHE
370
    20
100
AcDbText
 10
1030.714534348872
 20
104.2400961622652
 30
0.0
 40
2.5
  1

  7
CARTOUCHE
100
AcDbAttributeDefinition
  3
Désignation de la modification 1?
  2

 70
     0
  0
ATTDEF
  5
564E
330
1F
100
AcDbEntity
  8
CARTOUCHE
370
    20
100
AcDbText
 10
1123.413511438482
 20
104.5590047457122
 30
0.0
 40
2.5
  1

  7
CARTOUCHE
100
AcDbAttributeDefinition
  3
Modif 1 dessiné par ?
  2

 70
     0
  0
ATTDEF
  5
564F
330
1F
100
AcDbEntity
  8
CARTOUCHE
370
    20
100
AcDbText
 10
1151.041202066866
 20
104.4313123253696
 30
0.0
 40
2.5
  1

  7
CARTOUCHE
100
AcDbAttributeDefinition
  3
Date du dessinmodif 1?
  2

 70
     0
  0
ATTDEF
  5
5650
330
1F
100
AcDbEntity
  8
CARTOUCHE
370
    20
100
AcDbText
 10
1166.769158065556
 20
104.4326372212686
 30
0.0
 40
2.5
  1

  7
CARTOUCHE
100
AcDbAttributeDefinition
  3
Approbation modif 1
  2

 70
     0
  0
ATTDEF
  5
5651
330
1F
100
AcDbEntity
  8
CARTOUCHE
370
    20
100
AcDbText
 10
1195.798632030118
 20
104.5263070178298
 30
0.0
 40
2.5
  1

  7
CARTOUCHE
100
AcDbAttributeDefinition
  3
Date d'approbation modif 1 ?
  2

 70
     0
  0
ATTDEF
  5
5652
330
1F
100
AcDbEntity
  8
CARTOUCHE
370
    20
100
AcDbText
 10
1015.778536237512
 20
110.9739563929997
 30
0.0
 40
2.5
  1

  7
CARTOUCHE
 72
     1
 11
1015.778536237512
 21
110.9739563929997
 31
0.0
100
AcDbAttributeDefinition
  3
Indice de modification n° 2 ?
  2

 70
     0
  0
ATTDEF
  5
5653
330
1F
100
AcDbEntity
  8
CARTOUCHE
370
    20
100
AcDbText
 10
1030.988474402764
 20
111.0458970024692
 30
0.0
 40
2.5
  1

  7
CARTOUCHE
100
AcDbAttributeDefinition
  3
Désignation de la modification N°2
  2

 70
     0
  0
ATTDEF
  5
5654
330
1F
100
AcDbEntity
  8
CARTOUCHE
370
    20
100
AcDbText
 10
1123.330742625184
 20
110.7616676857624
 30
0.0
 40
2.5
  1

  7
CARTOUCHE
100
AcDbAttributeDefinition
  3
Modif 2 dessiné par ?
  2

 70
     0
  0
ATTDEF
  5
5655
330
1F
100
AcDbEntity
  8
CARTOUCHE
370
    20
100
AcDbText
 10
1151.05661767344
 20
111.2150732192167
 30
0.0
 40
2.5
  1

  7
CARTOUCHE
100
AcDbAttributeDefinition
  3
Date du dessin modif 2
  2

 70
     0
  0
ATTDEF
  5
5656
330
1F
100
AcDbEntity
  8
CARTOUCHE
370
    20
100
AcDbText
 10
1166.359770054378
 20
111.2286238605361
 30
0.0
 40
2.5
  1

  7
CARTOUCHE
100
AcDbAttributeDefinition
  3
Nom d'approbation modif 2
  2

 70
     0
  0
ATTDEF
  5
5657
330
1F
100
AcDbEntity
  8
CARTOUCHE
370
    20
100
AcDbText
 10
1195.872792319823
 20
111.1013286826537
 30
0.0
 40
2.5
  1

  7
CARTOUCHE
100
AcDbAttributeDefinition
  3
Date d'approbation modif 2 ?
  2

 70
     0
  0
MTEXT
  5
583E
330
1F
100
AcDbEntity
  8
CARTOUCHE
100
AcDbMText
 10
1036.643802931894
 20
150.5988628641889
 30
0.0
 40
30.0
 41
28.2203
 71
     1
 72
     5
  1

  7
CARTOUCHE
 73
     1
 44
1.0
  0
ATTDEF
  5
58EA
330
1F
100
AcDbEntity
  8
CARTOUCHE
370
    20
100
AcDbText
 10
1064.374148059767
 20
31.80107358839496
 30
0.0
 40
2.5
  1

  7
CARTOUCHE
100
AcDbAttributeDefinition
  3
Date de vérification du dessin ?
  2

 70
     0
  0
MTEXT
  5
DDD8
330
1F
100
AcDbEntity
  8
Dim
 48
30.0
100
AcDbMText
 10
316.1097514420981
 20
400.4325153349418
 30
0.0
 40
30.0
 41
109.7182
 71
     1
 72
     5
  1

  7
CARTOUCHE
 73
     1
 44
1.0
  0
MTEXT
  5
E718
330
1F
100
AcDbEntity
  8
Dim
 48
30.0
100
AcDbMText
 10
919.4349768854662
 20
408.4365014768663
 30
0.0
 40
30.0
 41
27.6948
 71
     1
 72
     5
  1

  7
CARTOUCHE
 73
     1
 44
1.0
  0
LINE
  5
14D62
102
{ACAD_REACTORS
330
14E85
102
}
330
1F
100
AcDbEntity
  8
meuble
100
AcDbLine
 10
427.5778930184751
 20
1847.339744725729
 30
0.0
 11
427.577893018475
 21
1909.524468383741
 31
0.0
  0
LINE
  5
14D63
102
{ACAD_REACTORS
330
14E85
102
}
330
1F
100
AcDbEntity
  8
meuble
100
AcDbLine
 10
411.5778930184751
 20
1847.339744725729
 30
0.0
 11
411.5778930184751
 21
1885.524468383738
 31
0.0
  0
LINE
  5
14D64
102
{ACAD_REACTORS
330
14E85
102
}
330
1F
100
AcDbEntity
  8
meuble
100
AcDbLine
 10
443.5778930184751
 20
1847.339744725729
 30
0.0
 11
443.577893018475
 21
1909.524468383741
 31
0.0
  0
LINE
  5
14D65
102
{ACAD_REACTORS
330
14E85
102
}
330
1F
100
AcDbEntity
  8
meuble
 48
30.0
100
AcDbLine
 10
427.5778930184751
 20
1885.524468383738
 30
0.0
 11
411.5778930184751
 21
1885.524468383738
 31
0.0
  0
LINE
  5
14E22
330
1F
100
AcDbEntity
  8
meuble
 48
30.0
100
AcDbLine
 10
900.9204366211607
 20
1512.159497304597
 30
0.0
 11
884.920436621161
 21
1512.159497304597
 31
0.0
  0
LINE
  5
14E6C
330
1F
100
AcDbEntity
  8
meuble
 48
30.0
100
AcDbLine
 10
916.9204366211603
 20
1488.159497304594
 30
0.0
 11
900.9204366211603
 21
1488.159497304593
 31
0.0
  0
LINE
  5
14E6F
330
1F
100
AcDbEntity
  8
meuble
 48
30.0
100
AcDbLine
 10
900.9204366211607
 20
1512.159497304596
 30
0.0
 11
884.920436621161
 21
1512.159497304596
 31
0.0
  0
LINE
  5
14E7A
102
{ACAD_REACTORS
330
14E85
102
}
330
1F
100
AcDbEntity
  8
meuble
 48
30.0
100
AcDbLine
 10
427.577893018475
 20
1909.524468383741
 30
0.0
 11
443.577893018475
 21
1909.524468383741
 31
0.0
  0
LINE
  5
14E7C
102
{ACAD_REACTORS
330
14E85
102
}
330
1F
100
AcDbEntity
  8
meuble
 48
30.0
100
AcDbLine
 10
411.5778930184751
 20
1847.339744725729
 30
0.0
 11
443.5778930184751
 21
1847.339744725729
 31
0.0
  0
HATCH
  5
14E85
330
1F
100
AcDbEntity
  8
meuble
 48
30.0
100
AcDbHatch
 10
0.0
 20
0.0
 30
0.0
210
0.0
220
0.0
230
1.0
  2
ANSI34
 70
     0
 71
     1
 91
        2
 92
        7
 72
     0
 73
     1
 93
        4
 10
443.577893018475
 20
1909.524468383741
 10
427.577893018475
 20
1909.524468383741
 10
427.5778930184751
 20
1847.339744725729
 10
443.5778930184751
 20
1847.339744725729
 97
        4
330
14E7A
330
14D62
330
14E7C
330
14D64
 92
        7
 72
     0
 73
     1
 93
        4
 10
427.577893018475
 20
1885.524468383738
 10
411.5778930184751
 20
1885.524468383738
 10
411.5778930184751
 20
1847.339744725729
 10
427.5778930184751
 20
1847.339744725729
 97
        4
330
14D65
330
14D63
330
14E7C
330
14D62
 75
     0
 76
     1
 52
0.0
 41
10.0
 77
     0
 78
     4
 53
45.0
 43
0.0
 44
0.0
 45
-5.303300858899105
 46
5.303300858899106
 79
     0
 53
45.0
 43
1.76776695
 44
0.0
 45
-5.303300858899105
 46
5.303300858899106
 79
     0
 53
45.0
 43
3.535533909999999
 44
0.0
 45
-5.303300858899105
 46
5.303300858899106
 79
     0
 53
45.0
 43
5.30330086
 44
0.0
 45
-5.303300858899105
 46
5.303300858899106
 79
     0
 47
0.2304758686463881
 98
        2
 10
430.1133533715765
 20
1881.064760282322
 10
421.5851043759139
 20
1867.236200628038
  0
HATCH
  5
15241
330
1F
100
AcDbEntity
  8
meuble
 48
30.0
100
AcDbHatch
 10
0.0
 20
0.0
 30
0.0
210
0.0
220
0.0
230
1.0
  2
ANSI34
 70
     0
 71
     0
 91
        2
 92
        7
 72
     0
 73
     1
 93
        4
 10
1279.577893018474
 20
1909.524468383741
 10
1295.577893018474
 20
1909.524468383741
 10
1295.577893018474
 20
1847.339744725729
 10
1279.577893018474
 20
1847.339744725729
 97
        0
 92
        7
 72
     0
 73
     1
 93
        4
 10
1295.577893018474
 20
1885.524468383738
 10
1311.577893018474
 20
1885.524468383738
 10
1311.577893018474
 20
1847.339744725729
 10
1295.577893018474
 20
1847.339744725729
 97
        0
 75
     0
 76
     1
 52
0.0
 41
10.0
 77
     0
 78
     4
 53
135.0
 43
1723.155786036949
 44
0.0
 45
5.303300858899105
 46
5.303300858899106
 79
     0
 53
135.0
 43
1721.388019086949
 44
0.0
 45
5.303300858899105
 46
5.303300858899106
 79
     0
 53
135.0
 43
1719.620252126949
 44
0.0
 45
5.303300858899105
 46
5.303300858899106
 79
     0
 53
135.0
 43
1717.852485176949
 44
0.0
 45
5.303300858899105
 46
5.303300858899106
 79
     0
 47
0.2304758686463881
 98
        2
 10
1293.042432665372
 20
1881.064760282322
 10
1301.570681661035
 20
1867.236200628038
  0
LINE
  5
15242
330
1F
100
AcDbEntity
  8
meuble
100
AcDbLine
 10
1279.577893018474
 20
1847.339744725729
 30
0.0
 11
1279.577893018474
 21
1909.524468383741
 31
0.0
  0
LINE
  5
15243
330
1F
100
AcDbEntity
  8
meuble
100
AcDbLine
 10
1295.577893018474
 20
1847.339744725729
 30
0.0
 11
1295.577893018474
 21
1909.524468383741
 31
0.0
  0
LINE
  5
15244
330
1F
100
AcDbEntity
  8
meuble
 48
30.0
100
AcDbLine
 10
1311.577893018474
 20
1847.339744725729
 30
0.0
 11
1279.577893018474
 21
1847.339744725729
 31
0.0
  0
LINE
  5
15245
330
1F
100
AcDbEntity
  8
meuble
100
AcDbLine
 10
1311.577893018474
 20
1847.339744725729
 30
0.0
 11
1311.577893018474
 21
1885.524468383738
 31
0.0
  0
LINE
  5
15246
330
1F
100
AcDbEntity
  8
meuble
 48
30.0
100
AcDbLine
 10
1279.793613445372
 20
1909.524468383741
 30
0.0
 11
1295.577893018474
 21
1909.524468383741
 31
0.0
  0
LINE
  5
15247
330
1F
100
AcDbEntity
  8
meuble
 48
30.0
100
AcDbLine
 10
1311.577893018474
 20
1885.524468383738
 30
0.0
 11
1295.577893018474
 21
1885.524468383738
 31
0.0
  0
HATCH
  5
15252
330
1F
100
AcDbEntity
  8
meuble
 48
30.0
100
AcDbHatch
 10
0.0
 20
0.0
 30
0.0
210
0.0
220
0.0
230
1.0
  2
ANSI34
 70
     0
 71
     0
 91
        2
 92
        7
 72
     0
 73
     1
 93
        4
 10
884.9204366211605
 20
1512.159497304596
 10
900.9204366211605
 20
1512.159497304596
 10
900.9204366211603
 20
1449.974773646585
 10
884.9204366211603
 20
1449.974773646585
 97
        0
 92
        7
 72
     0
 73
     1
 93
        4
 10
900.9204366211605
 20
1488.159497304594
 10
916.9204366211603
 20
1488.159497304593
 10
916.9204366211603
 20
1449.974773646585
 10
900.9204366211603
 20
1449.974773646584
 97
        0
 75
     0
 76
     1
 52
0.0
 41
10.0
 77
     0
 78
     4
 53
135.0
 43
1328.498329639635
 44
-397.3649710791444
 45
5.303300858899105
 46
5.303300858899106
 79
     0
 53
135.0
 43
1326.730562689635
 44
-397.3649710791444
 45
5.303300858899105
 46
5.303300858899106
 79
     0
 53
135.0
 43
1324.962795729635
 44
-397.3649710791444
 45
5.303300858899105
 46
5.303300858899106
 79
     0
 53
135.0
 43
1323.195028779635
 44
-397.3649710791444
 45
5.303300858899105
 46
5.303300858899106
 79
     0
 47
0.2304758686463881
 98
        2
 10
898.3849762680589
 20
1483.699789203178
 10
906.9132252637215
 20
1469.871229548894
  0
LINE
  5
15253
330
1F
100
AcDbEntity
  8
meuble
 48
30.0
100
AcDbLine
 10
916.9204366211603
 20
1449.974773646585
 30
0.0
 11
884.9204366211603
 21
1449.974773646585
 31
0.0
  0
LINE
  5
15254
330
1F
100
AcDbEntity
  8
meuble
100
AcDbLine
 10
900.9204366211603
 20
1449.974773646585
 30
0.0
 11
900.9204366211605
 21
1512.159497304596
 31
0.0
  0
LINE
  5
15255
330
1F
100
AcDbEntity
  8
meuble
100
AcDbLine
 10
884.9204366211603
 20
1449.974773646585
 30
0.0
 11
884.9204366211605
 21
1512.159497304596
 31
0.0
  0
LINE
  5
15256
330
1F
100
AcDbEntity
  8
meuble
100
AcDbLine
 10
916.9204366211603
 20
1449.974773646585
 30
0.0
 11
916.9204366211603
 21
1488.159497304594
 31
0.0
  0
DIMENSION
  5
1547F
330
1F
100
AcDbEntity
  8
meuble
 48
30.0
100
AcDbDimension
  2
*D1
 10
1295.577893018474
 20
1815.784393002235
 30
0.0
 11
861.5778930184745
 21
1821.284393002235
 31
0.0
 70
    32
 71
     5
 42
867.9999999999989
  3
ISO-25
100
AcDbAlignedDimension
 13
427.5778930184751
 23
1847.339744725729
 33
0.0
 14
1295.577893018474
 24
1847.339744725729
 34
0.0
100
AcDbRotatedDimension
1001
ACAD
1000
DSTYLE
1002
{
1070
   140
1040
8.0
1070
   279
1070
     1
1002
}
  0
DIMENSION
  5
15495
330
1F
100
AcDbEntity
  8
meuble
 48
30.0
100
AcDbDimension
  2
*D2
 10
501.9204366211606
 20
1419.816696459667
 30
0.0
 11
701.4204366211604
 21
1425.316696459668
 31
0.0
 70
    32
 71
     5
 42
398.9999999999997
  3
ISO-25
100
AcDbAlignedDimension
 13
900.9204366211603
 23
1449.974773646585
 33
0.0
 14
501.9204366211606
 24
1487.159497304597
 34
0.0
100
AcDbRotatedDimension
1001
ACAD
1000
DSTYLE
1002
{
1070
   140
1040
8.0
1070
   279
1070
     1
1002
}
  0
LINE
  5
15C7B
330
1F
100
AcDbEntity
  8
meuble
 48
30.0
100
AcDbLine
 10
2462.158257765033
 20
5412.329069013762
 30
0.0
 11
2462.158257765033
 21
5396.329069013762
 31
0.0
  0
LINE
  5
15C7C
330
1F
100
AcDbEntity
  8
meuble
 48
30.0
100
AcDbLine
 10
2462.158257765033
 20
5412.329069013762
 30
0.0
 11
2462.158257765033
 21
5396.329069013762
 31
0.0
  0
HATCH
  5
15C7D
330
1F
100
AcDbEntity
  8
meuble
 48
30.0
100
AcDbHatch
 10
0.0
 20
0.0
 30
0.0
210
0.0
220
0.0
230
1.0
  2
ANSI34
 70
     0
 71
     0
 91
        2
 92
        7
 72
     0
 73
     1
 93
        4
 10
2462.158257765033
 20
5396.329069013762
 10
2462.158257765033
 20
5412.329069013762
 10
2524.342981423045
 20
5412.329069013762
 10
2524.342981423045
 20
5396.329069013762
 97
        0
 92
        7
 72
     0
 73
     1
 93
        4
 10
2486.158257765036
 20
5412.329069013762
 10
2486.158257765036
 20
5428.329069013762
 10
2524.342981423045
 20
5428.329069013762
 10
2524.342981423045
 20
5412.329069013762
 97
        0
 75
     0
 76
     1
 52
90.0
 41
10.0
 77
     0
 78
     4
 53
225.0
 43
4371.682726148773
 44
5839.906962032237
 45
-5.303300858899106
 46
5.303300858899105
 79
     0
 53
225.0
 43
4371.682726148773
 44
5838.139195082236
 45
-5.303300858899106
 46
5.303300858899105
 79
     0
 53
225.0
 43
4371.682726148773
 44
5836.371428122236
 45
-5.303300858899106
 46
5.303300858899105
 79
     0
 53
225.0
 43
4371.682726148773
 44
5834.603661172237
 45
-5.303300858899106
 46
5.303300858899105
 79
     0
 47
0.2304758686463881
 98
        2
 10
2490.617965866451
 20
5409.793608660661
 10
2504.446525520735
 20
5418.321857656323
  0
LINE
  5
15C7E
330
1F
100
AcDbEntity
  8
meuble
 48
30.0
100
AcDbLine
 10
2524.342981423045
 20
5428.329069013762
 30
0.0
 11
2524.342981423045
 21
5396.329069013762
 31
0.0
  0
LINE
  5
15CA4
330
1F
100
AcDbEntity
  8
meuble
100
AcDbLine
 10
2524.342981423045
 20
5396.329069013762
 30
0.0
 11
2462.158257765033
 21
5396.329069013762
 31
0.0
  0
LINE
  5
15CB4
330
1F
100
AcDbEntity
  8
meuble
100
AcDbLine
 10
2524.342981423045
 20
5412.329069013762
 30
0.0
 11
2462.158257765033
 21
5412.329069013762
 31
0.0
  0
LINE
  5
15CB5
330
1F
100
AcDbEntity
  8
meuble
100
AcDbLine
 10
2524.342981423045
 20
5428.329069013762
 30
0.0
 11
2486.158257765036
 21
5428.329069013762
 31
0.0
  0
LINE
  5
15CBC
330
1F
100
AcDbEntity
  8
meuble
 48
30.0
100
AcDbLine
 10
2486.158257765036
 20
5428.329069013762
 30
0.0
 11
2486.158257765036
 21
5412.329069013762
 31
0.0
  0
HATCH
  5
16365
330
1F
100
AcDbEntity
  8
meuble
 48
30.0
100
AcDbHatch
 10
0.0
 20
0.0
 30
0.0
210
0.0
220
0.0
230
1.0
  2
ANSI31
 70
     0
 71
     0
 91
        6
 92
        7
 72
     1
 73
     1
 93
       19
 10
2472.70249167207
 20
5373.329069013762
 42
0.0
 10
2473.70249167207
 20
5361.329069013762
 42
-0.1277526958528122
 10
2496.702491672071
 20
5328.329069013761
 42
0.0
 10
2532.865023732308
 20
5328.329069013761
 42
-0.3868445482386211
 10
2568.856683843759
 20
5358.723345716287
 42
-0.0051705363379835
 10
2753.062117446916
 20
5350.261968903417
 42
-0.3738205811661277
 10
2776.652969918597
 20
5327.475419062654
 42
0.0
 10
2781.903856431327
 20
5267.457511586286
 42
0.3888787318529919
 10
2791.865803412245
 20
5258.329069013762
 42
0.0
 10
3064.381902960204
 20
5258.329069013762
 42
0.3913220709711289
 10
3074.350884446739
 20
5267.542044159561
 42
0.0
 10
3075.057023643452
 20
5276.486473984602
 42
-0.3913220709711291
 10
3077.050819940759
 20
5278.329069013762
 42
0.0
 10
3103.354163403381
 20
5278.329069013762
 42
-0.3913220709711335
 10
3105.347959700688
 20
5276.486473984602
 42
0.0
 10
3106.054098897402
 20
5267.542044159561
 42
0.391322070971131
 10
3116.023080383936
 20
5258.329069013762
 42
0.0
 10
3177.70249167207
 20
5258.329069013762
 42
0.0
 10
3177.70249167207
 20
5323.329069013761
 42
0.0252579185322718
 97
        0
 92
       22
 72
     1
 73
     1
 93
       14
 10
2769.726001102603
 20
5352.969529678966
 42
-0.0143643489944103
 10
3169.702491672071
 20
5316.241485015627
 42
0.0
 10
3169.702491672071
 20
5266.329069013762
 42
0.0
 10
3116.023080383937
 20
5266.329069013762
 42
-0.3913220709711286
 10
3114.029284086629
 20
5268.171664042922
 42
0.0
 10
3113.323144889916
 20
5277.116093867962
 42
0.3913220709711291
 10
3103.354163403381
 20
5286.329069013762
 42
0.0
 10
3077.050819940759
 20
5286.329069013762
 42
0.3913220709711289
 10
3067.081838454225
 20
5277.116093867962
 42
0.0
 10
3066.375699257511
 20
5268.171664042922
 42
-0.3913220709711286
 10
3064.381902960204
 20
5266.329069013762
 42
0.0
 10
2791.865803412245
 20
5266.329069013762
 42
-0.3888787318529524
 10
2789.873414016061
 20
5268.154757528266
 42
0.0
 10
2784.622527503331
 20
5328.172665004635
 42
0.2308224195940116
 97
        0
 92
       22
 72
     1
 73
     1
 93
        4
 10
2550.709493403573
 20
5363.306447651499
 42
0.2212812564479907
 10
2526.445733752296
 20
5336.329069013761
 42
0.0
 10
2502.078822369505
 20
5336.329069013761
 42
0.1017241686231105
 10
2481.446500048837
 20
5365.144231344384
 42
-0.0024773954395523
 97
        0
 92
      136
 93
        4
 72
     1
 10
2841.594093477544
 20
5307.171298849882
 11
2841.594093477544
 21
5330.504632183215
 72
     1
 10
2841.594093477544
 20
5330.504632183215
 11
2849.094093477544
 21
5330.504632183215
 72
     1
 10
2849.094093477544
 20
5330.504632183215
 11
2849.094093477544
 21
5307.171298849882
 72
     1
 10
2849.094093477544
 20
5307.171298849882
 11
2841.594093477544
 21
5307.171298849882
 97
        0
 92
      136
 93
        4
 72
     1
 10
3055.440668391025
 20
5294.648073574741
 11
3055.440668391025
 21
5307.981406908074
 72
     1
 10
3055.440668391025
 20
5307.981406908073
 11
3062.940668391025
 21
5307.981406908073
 72
     1
 10
3062.940668391025
 20
5307.981406908073
 11
3062.940668391025
 21
5294.64807357474
 72
     1
 10
3062.940668391025
 20
5294.648073574741
 11
3055.440668391025
 21
5294.648073574741
 97
        0
 92
      136
 93
        4
 72
     1
 10
3119.279142085547
 20
5293.625033610925
 11
3119.279142085547
 21
5306.958366944257
 72
     1
 10
3119.279142085547
 20
5306.958366944257
 11
3126.779142085548
 21
5306.958366944257
 72
     1
 10
3126.779142085548
 20
5306.958366944257
 11
3126.779142085548
 21
5293.625033610925
 72
     1
 10
3126.779142085548
 20
5293.625033610925
 11
3119.279142085547
 21
5293.625033610925
 97
        0
 75
     0
 76
     1
 52
90.0
 41
30.0
 77
     0
 78
     1
 53
135.0
 43
3239.02574724702
 44
5103.737254562361
 45
-2.651650429449553
 46
-2.651650429449552
 79
     0
 47
1.116428049973947
 98
        3
 10
2750.787221953336
 20
5356.19726130319
 10
2750.787221953336
 20
5356.19726130319
 10
2750.787221953336
 20
5356.19726130319
  0
LINE
  5
16366
330
1F
100
AcDbEntity
  8
meuble
 48
30.0
100
AcDbLine
 10
2789.264141436515
 20
5183.329069013762
 30
0.0
 11
3067.70249167207
 21
5183.329069013762
 31
0.0
  0
LINE
  5
16367
330
1F
100
AcDbEntity
  8
meuble
 48
30.0
100
AcDbLine
 10
2791.865803412245
 20
5266.329069013762
 30
0.0
 11
3064.381902960204
 21
5266.329069013762
 31
0.0
  0
LINE
  5
16368
330
1F
100
AcDbEntity
  8
meuble
 48
30.0
100
AcDbLine
 10
2791.865803412245
 20
5258.329069013762
 30
0.0
 11
3064.381902960204
 21
5258.329069013762
 31
0.0
  0
ARC
  5
16369
330
1F
100
AcDbEntity
  8
meuble
 48
30.0
100
AcDbCircle
 10
2330.623912149303
 20
-1625.228902257232
 30
0.0
 40
6992.0
100
AcDbArc
 50
83.10757898047166
 51
86.39941887752026
  0
ARC
  5
1636A
330
1F
100
AcDbEntity
  8
meuble
 48
30.0
100
AcDbCircle
 10
2330.623912149303
 20
-1625.228902257232
 30
0.0
 40
7000.0
100
AcDbArc
 50
83.04953313516099
 51
88.83699114224304
  0
LINE
  5
1636B
330
1F
100
AcDbEntity
  8
meuble
 48
30.0
100
AcDbLine
 10
2484.450246329125
 20
5156.329069013762
 30
0.0
 11
3177.70249167207
 21
5156.329069013762
 31
0.0
  0
LINE
  5
1636C
330
1F
100
AcDbEntity
  8
meuble
 48
30.0
100
AcDbLine
 10
2481.872886284352
 20
5153.329069013762
 30
0.0
 11
3177.70249167207
 21
5153.329069013762
 31
0.0
  0
ARC
  5
1636D
330
1F
100
AcDbEntity
  8
meuble
 48
30.0
100
AcDbCircle
 10
3064.381902960204
 20
5268.329069013762
 30
0.0
 40
10.0
100
AcDbArc
 50
270.0
 51
355.4860115420078
  0
ARC
  5
1636E
330
1F
100
AcDbEntity
  8
meuble
 48
30.0
100
AcDbCircle
 10
3077.050819940759
 20
5276.329069013762
 30
0.0
 40
10.0
100
AcDbArc
 50
90.0
 51
175.4860115420077
  0
LINE
  5
1636F
330
1F
100
AcDbEntity
  8
meuble
 48
30.0
100
AcDbLine
 10
3169.702491672071
 20
5266.329069013762
 30
0.0
 11
3169.702491672071
 21
5316.24148501563
 31
0.0
  0
LINE
  5
16370
330
1F
100
AcDbEntity
  8
meuble
 48
30.0
100
AcDbLine
 10
3177.70249167207
 20
5153.329069013762
 30
0.0
 11
3177.70249167207
 21
5323.329069013762
 31
0.0
  0
LINE
  5
16371
330
1F
100
AcDbEntity
  8
meuble
 48
30.0
100
AcDbLine
 10
3112.70249167207
 20
5183.329069013762
 30
0.0
 11
3177.70249167207
 21
5183.329069013762
 31
0.0
  0
LINE
  5
16372
330
1F
100
AcDbEntity
  8
meuble
 48
30.0
100
AcDbLine
 10
3116.023080383937
 20
5266.329069013762
 30
0.0
 11
3169.702491672071
 21
5266.329069013762
 31
0.0
  0
LINE
  5
16373
330
1F
100
AcDbEntity
  8
meuble
 48
30.0
100
AcDbLine
 10
3116.023080383936
 20
5258.329069013762
 30
0.0
 11
3177.70249167207
 21
5258.329069013762
 31
0.0
  0
ARC
  5
16374
330
1F
100
AcDbEntity
  8
meuble
 48
30.0
100
AcDbCircle
 10
3116.023080383936
 20
5268.329069013762
 30
0.0
 40
2.0
100
AcDbArc
 50
184.5139884579922
 51
270.0
  0
ARC
  5
16375
330
1F
100
AcDbEntity
  8
meuble
 48
30.0
100
AcDbCircle
 10
3103.354163403381
 20
5276.329069013762
 30
0.0
 40
2.0
100
AcDbArc
 50
4.513988457992246
 51
90.0
  0
ARC
  5
16376
330
1F
100
AcDbEntity
  8
meuble
 48
30.0
100
AcDbCircle
 10
3077.050819940759
 20
5276.329069013762
 30
0.0
 40
2.0
100
AcDbArc
 50
90.0
 51
175.4860115420077
  0
ARC
  5
16377
330
1F
100
AcDbEntity
  8
meuble
 48
30.0
100
AcDbCircle
 10
3116.023080383936
 20
5268.329069013762
 30
0.0
 40
10.0
100
AcDbArc
 50
184.5139884579922
 51
270.0
  0
LINE
  5
16378
330
1F
100
AcDbEntity
  8
meuble
 48
30.0
100
AcDbLine
 10
3106.054098897402
 20
5267.542044159561
 30
0.0
 11
3105.347959700688
 21
5276.486473984602
 31
0.0
  0
ARC
  5
16379
330
1F
100
AcDbEntity
  8
meuble
 48
30.0
100
AcDbCircle
 10
3103.354163403381
 20
5276.329069013762
 30
0.0
 40
10.0
100
AcDbArc
 50
4.513988457992246
 51
90.0
  0
LINE
  5
1637A
330
1F
100
AcDbEntity
  8
meuble
 48
30.0
100
AcDbLine
 10
3114.029284086629
 20
5268.171664042922
 30
0.0
 11
3113.323144889916
 21
5277.116093867962
 31
0.0
  0
LINE
  5
1637B
330
1F
100
AcDbEntity
  8
meuble
 48
30.0
100
AcDbLine
 10
3112.70249167207
 20
5183.329069013762
 30
0.0
 11
3107.062887665413
 21
5254.764053098087
 31
0.0
  0
LINE
  5
1637C
330
1F
100
AcDbEntity
  8
meuble
 48
30.0
100
AcDbLine
 10
3075.057023643452
 20
5276.486473984602
 30
0.0
 11
3074.350884446739
 21
5267.542044159561
 31
0.0
  0
LINE
  5
1637D
330
1F
100
AcDbEntity
  8
meuble
 48
30.0
100
AcDbLine
 10
3077.050819940759
 20
5286.329069013762
 30
0.0
 11
3103.354163403381
 21
5286.329069013762
 31
0.0
  0
LINE
  5
1637E
330
1F
100
AcDbEntity
  8
meuble
 48
30.0
100
AcDbLine
 10
3077.050819940759
 20
5278.329069013762
 30
0.0
 11
3103.354163403381
 21
5278.329069013762
 31
0.0
  0
ARC
  5
1637F
330
1F
100
AcDbEntity
  8
meuble
 48
30.0
100
AcDbCircle
 10
3064.381902960204
 20
5268.329069013762
 30
0.0
 40
2.0
100
AcDbArc
 50
270.0
 51
355.4860115420078
  0
LINE
  5
16380
330
1F
100
AcDbEntity
  8
meuble
 48
30.0
100
AcDbLine
 10
3073.279434809955
 20
5253.970348760304
 30
0.0
 11
3067.70249167207
 21
5183.329069013762
 31
0.0
  0
LINE
  5
16381
330
1F
100
AcDbEntity
  8
meuble
 48
30.0
100
AcDbLine
 10
3067.081838454225
 20
5277.116093867962
 30
0.0
 11
3066.375699257511
 21
5268.171664042922
 31
0.0
  0
ARC
  5
16382
330
1F
100
AcDbEntity
  8
meuble
 48
30.0
100
AcDbCircle
 10
2251.855293761596
 20
-3551.764688749739
 30
0.0
 40
8916.125105317679
100
AcDbArc
 50
86.77632482626522
 51
87.96311858050071
  0
LINE
  5
16383
330
1F
100
AcDbEntity
  8
meuble
 48
30.0
100
AcDbLine
 10
2789.873414016061
 20
5268.154757528266
 30
0.0
 11
2784.622527503331
 21
5328.172665004635
 31
0.0
  0
LINE
  5
16384
330
1F
100
AcDbEntity
  8
meuble
 48
30.0
100
AcDbLine
 10
2781.903856431327
 20
5267.457511586286
 30
0.0
 11
2776.652969918597
 21
5327.475419062654
 31
0.0
  0
LINE
  5
16385
330
1F
100
AcDbEntity
  8
meuble
 48
30.0
100
AcDbLine
 10
2791.626335351714
 20
5156.329069013762
 30
0.0
 11
2782.215084630751
 21
5263.900156988778
 31
0.0
  0
ARC
  5
16386
330
1F
100
AcDbEntity
  8
meuble
 48
30.0
100
AcDbCircle
 10
2791.865803412244
 20
5268.329069013762
 30
0.0
 40
2.0
100
AcDbArc
 50
185.0
 51
270.0
  0
ARC
  5
16387
330
1F
100
AcDbEntity
  8
meuble
 48
30.0
100
AcDbCircle
 10
2791.865803412244
 20
5268.329069013762
 30
0.0
 40
10.0
100
AcDbArc
 50
185.0
 51
270.0
  0
LINE
  5
16388
330
1F
100
AcDbEntity
  8
meuble
 48
30.0
100
AcDbLine
 10
2788.700396848837
 20
5258.329069013762
 30
0.0
 11
2782.702491672071
 21
5258.329069013762
 31
0.0
  0
ARC
  5
16389
330
1F
100
AcDbEntity
  8
meuble
 48
30.0
100
AcDbCircle
 10
2751.748102466303
 20
5325.296525493961
 30
0.0
 40
33.0
100
AcDbArc
 50
4.999999999999982
 51
56.99004066617032
  0
ARC
  5
1638A
330
1F
100
AcDbEntity
  8
meuble
 48
30.0
100
AcDbCircle
 10
2751.748102466303
 20
5325.296525493961
 30
0.0
 40
25.0
100
AcDbArc
 50
4.999999999999982
 51
86.566717230384
  0
ARC
  5
1638B
330
1F
100
AcDbEntity
  8
meuble
 48
30.0
100
AcDbCircle
 10
2330.623912149303
 20
-1625.228902257232
 30
0.0
 40
6992.0
100
AcDbArc
 50
88.19621593727342
 51
88.76399198718941
  0
LINE
  5
1638C
330
1F
100
AcDbEntity
  8
meuble
 48
30.0
100
AcDbLine
 10
2502.078822369505
 20
5336.329069013761
 30
0.0
 11
2526.445733752296
 21
5336.329069013761
 31
0.0
  0
LINE
  5
1638D
330
1F
100
AcDbEntity
  8
meuble
 48
30.0
100
AcDbLine
 10
2510.70249167207
 20
5156.329069013762
 30
0.0
 11
2506.941188118199
 21
5202.539369818461
 31
0.0
  0
LINE
  5
1638E
330
1F
100
AcDbEntity
  8
meuble
 48
30.0
100
AcDbLine
 10
2496.702491672071
 20
5328.329069013761
 30
0.0
 11
2532.865023732308
 21
5328.329069013761
 31
0.0
  0
LINE
  5
1638F
330
1F
100
AcDbEntity
  8
meuble
 48
30.0
100
AcDbLine
 10
2532.585145510687
 20
5324.968714614604
 30
0.0
 11
2530.140258619925
 21
5254.956314362675
 31
0.0
  0
ARC
  5
16390
330
1F
100
AcDbEntity
  8
meuble
 48
30.0
100
AcDbCircle
 10
2567.563824456355
 20
5323.747232230017
 30
0.0
 40
35.0
100
AcDbArc
 50
88.04253244879943
 51
177.9999999999962
  0
ARC
  5
16391
330
1F
100
AcDbEntity
  8
meuble
 48
30.0
100
AcDbCircle
 10
2567.563824456355
 20
5323.747232230017
 30
0.0
 40
43.0
100
AcDbArc
 50
113.0765853618698
 51
162.9862702242748
  0
ARC
  5
16395
330
1F
100
AcDbEntity
  8
meuble
 48
30.0
100
AcDbCircle
 10
2421.678557812043
 20
5300.554812081015
 30
0.0
 40
88.0
100
AcDbArc
 50
23.98676741781128
 51
47.22031077269581
  0
ARC
  5
16396
330
1F
100
AcDbEntity
  8
meuble
 48
30.0
100
AcDbCircle
 10
2421.678557812043
 20
5300.554812081015
 30
0.0
 40
80.0
100
AcDbArc
 50
20.31481874206941
 51
49.43583794713836
  0
LINE
  5
16397
330
1F
100
AcDbEntity
  8
meuble
 48
30.0
100
AcDbLine
 10
2473.70249167207
 20
5361.329069013762
 30
0.0
 11
2472.70249167207
 21
5373.329069013762
 31
0.0
  0
LINE
  5
16586
330
1F
100
AcDbEntity
  8
meuble
 48
30.0
100
AcDbLine
 10
2501.758293812646
 20
5266.214928429544
 30
0.0
 11
2496.702491672071
 21
5328.329069013761
 31
0.0
  0
LINE
  5
16587
330
1F
100
AcDbEntity
  8
meuble
 48
30.0
100
AcDbLine
 10
2527.922812861752
 20
5191.456975990505
 30
0.0
 11
2526.69611931949
 21
5156.329069013762
 31
0.0
  0
DIMENSION
  5
17CEA
330
1F
100
AcDbEntity
  8
meuble
 48
30.0
100
AcDbDimension
  2
*D3
 10
691.0861671280144
 20
1653.159497304597
 30
0.0
 11
691.0861671280143
 21
1635.632625847599
 31
0.0
 70
    32
 71
     5
 42
35.05374291399767
  3
ISO-25
100
AcDbAlignedDimension
 13
641.0501291513932
 23
1618.1057543906
 33
0.0
 14
644.3115517295083
 24
1653.159497304597
 34
0.0
 50
90.0
100
AcDbRotatedDimension
1001
ACAD
1000
DSTYLE
1002
{
1070
   174
1070
     1
1070
   279
1070
     1
1002
}
  0
DIMENSION
  5
17CF8
330
1F
100
AcDbEntity
  8
meuble
 48
30.0
100
AcDbDimension
  2
*D4
 10
800.2590282608217
 20
1985.027284130809
 30
0.0
 11
800.2590282608213
 21
1999.280659856708
 31
0.0
 70
    32
 71
     5
 42
28.50675145179821
  3
ISO-25
100
AcDbAlignedDimension
 13
753.9086227636339
 23
2013.534035582607
 33
0.0
 14
719.0778930184746
 24
1985.027284130809
 34
0.0
 50
90.0
100
AcDbRotatedDimension
1001
ACAD
1000
DSTYLE
1002
{
1070
   174
1070
     1
1070
   279
1070
     1
1002
}
  0
DIMENSION
  5
17D06
330
1F
100
AcDbEntity
  8
meuble
 48
30.0
100
AcDbDimension
  2
*D5
 10
387.3026152912353
 20
2006.763000465914
 30
0.0
 11
387.3026152912349
 21
2009.385932659665
 31
0.0
 70
    32
 71
     5
 42
5.245864387503388
  3
ISO-25
100
AcDbAlignedDimension
 13
410.4120054658869
 23
2012.008864853417
 33
0.0
 14
410.4694419372829
 24
2006.763000465914
 34
0.0
 50
90.0
100
AcDbRotatedDimension
1001
ACAD
1000
DSTYLE
1002
{
1070
   174
1070
     1
1070
   279
1070
     1
1002
}
  0
LINE
  5
1A2D7
330
1F
100
AcDbEntity
  8
0
100
AcDbLine
 10
10750.53149117483
 20
2590.632088191494
 30
0.0
 11
10998.06534832667
 21
2590.632088191493
 31
0.0
  0
LINE
  5
1A2E3
330
1F
100
AcDbEntity
  8
0
100
AcDbLine
 10
10746.53149117483
 20
3052.632088191494
 30
0.0
 11
11190.03149117483
 21
3052.632088191494
 31
0.0
  0
LINE
  5
1A2E6
330
1F
100
AcDbEntity
  8
0
100
AcDbLine
 10
10742.53149117483
 20
2598.632088191495
 30
0.0
 11
10742.53149117483
 21
3048.632088191494
 31
0.0
  0
ARC
  5
1A373
330
1F
100
AcDbEntity
  8
0
100
AcDbCircle
 10
10750.53149117483
 20
2598.632088191495
 30
0.0
 40
8.0
100
AcDbArc
 50
180.0
 51
270.0
  0
ARC
  5
1A37B
330
1F
100
AcDbEntity
  8
0
100
AcDbCircle
 10
10746.53149117483
 20
3048.632088191494
 30
0.0
 40
4.0
100
AcDbArc
 50
90.0
 51
180.0
  0
ELLIPSE
  5
1A386
330
1F
100
AcDbEntity
  8
0
 48
30.0
100
AcDbEllipse
 10
11190.03149117483
 20
2747.632088191494
 30
0.0
 11
-219.8667519623652
 21
-0.7852383998641618
 31
0.0
210
0.0
220
0.0
230
1.0
 40
0.7959366226957086
 41
4.709546357245984
 42
7.851139010835787
  0
ARC
  5
1A463
330
1F
100
AcDbEntity
  8
0
 48
30.0
100
AcDbCircle
 10
11190.03149117483
 20
2897.632088191494
 30
0.0
 40
350.0
100
AcDbArc
 50
244.7485627019942
 51
270.0
  0
ARC
  5
1A5B2
330
1F
100
AcDbEntity
  8
EPURE
 48
30.0
100
AcDbCircle
 10
11190.03149117483
 20
2832.632088191493
 30
0.0
 40
36.0
100
AcDbArc
 50
90.0
 51
270.0
  0
ARC
  5
1D1CE
330
1F
100
AcDbEntity
  8
0
 48
30.0
100
AcDbCircle
 10
10998.06534832667
 20
2490.632088191494
 30
0.0
 40
100.0
100
AcDbArc
 50
64.74856270199414
 51
90.0
  0
MTEXT
  5
1D364
330
1F
100
AcDbEntity
  8
Dim
 48
30.0
100
AcDbMText
 10
10000.59914244029
 20
3029.579441870921
 30
0.0
 40
5.0
 41
0.0
 71
     9
 72
     1
  1

 73
     1
 44
1.0
  0
LINE
  5
20D33
330
1F
100
AcDbEntity
  8
0
100
AcDbLine
 10
11629.53149117483
 20
2590.632088191494
 30
0.0
 11
11381.99763402299
 21
2590.632088191493
 31
0.0
  0
LINE
  5
20D34
330
1F
100
AcDbEntity
  8
0
100
AcDbLine
 10
11633.53149117483
 20
3052.632088191494
 30
0.0
 11
11190.03149117483
 21
3052.632088191494
 31
0.0
  0
LINE
  5
20D35
330
1F
100
AcDbEntity
  8
0
100
AcDbLine
 10
11637.53149117483
 20
2598.632088191495
 30
0.0
 11
11637.53149117483
 21
3048.632088191494
 31
0.0
  0
ARC
  5
20D36
330
1F
100
AcDbEntity
  8
0
100
AcDbCircle
 10
11629.53149117483
 20
2598.632088191495
 30
0.0
 40
8.0
100
AcDbArc
 50
270.0
 51
0.000000000000007
  0
ARC
  5
20D37
330
1F
100
AcDbEntity
  8
0
100
AcDbCircle
 10
11633.53149117483
 20
3048.632088191494
 30
0.0
 40
4.0
100
AcDbArc
 50
0.000000000000007
 51
90.0
  0
ELLIPSE
  5
20D38
330
1F
100
AcDbEntity
  8
0
 48
30.0
100
AcDbEllipse
 10
11190.03149117483
 20
2747.632088191494
 30
0.0
 11
219.8667519623652
 21
-0.7852383998641618
 31
0.0
210
0.0
220
0.0
230
-1.0
 40
0.7959366226957086
 41
4.709546357245984
 42
7.851139010835787
  0
ARC
  5
20D39
330
1F
100
AcDbEntity
  8
0
 48
30.0
100
AcDbCircle
 10
11190.03149117483
 20
2897.632088191494
 30
0.0
 40
350.0
100
AcDbArc
 50
270.0
 51
295.2514372979172
  0
ARC
  5
20D3A
330
1F
100
AcDbEntity
  8
EPURE
 48
30.0
100
AcDbCircle
 10
11190.03149117483
 20
2832.632088191493
 30
0.0
 40
36.0
100
AcDbArc
 50
270.0
 51
90.0
  0
ARC
  5
20D3C
330
1F
100
AcDbEntity
  8
0
 48
30.0
100
AcDbCircle
 10
11381.99763402299
 20
2490.632088191494
 30
0.0
 40
100.0
100
AcDbArc
 50
90.0
 51
115.2514372979171
  0
CIRCLE
  5
20D4B
330
1F
100
AcDbEntity
  8
0
 48
30.0
100
AcDbCircle
 10
11190.03149117483
 20
2988.092850331181
 30
0.0
 40
17.5
  0
VIEWPORT
  5
1B09F
330
1B
100
AcDbEntity
 67
     1
  8
0
 48
30.0
100
AcDbViewport
 10
1592.570122010193
 20
1207.616494233723
 30
0.0
 40
4451.04754927695
 41
2958.503447855584
 68
     1
 69
     1
 12
1592.570122010193
 22
1207.616494233723
 13
0.0
 23
0.0
 14
10.0
 24
10.0
 15
10.0
 25
10.0
 16
0.0
 26
0.0
 36
1.0
 17
0.0
 27
0.0
 37
0.0
 42
50.0
 43
0.0
 44
0.0
 45
2958.503447855584
 50
0.0
 51
0.0
 72
 20000
331
1B6F9
 90
    32800
  1

281
     0
 71
     1
 74
     0
110
0.0
120
0.0
130
0.0
111
1.0
121
0.0
131
0.0
112
0.0
122
1.0
132
0.0
 79
     0
146
0.0
170
     0
  0
TEXT
  5
1B327
330
1B
100
AcDbEntity
 67
     1
  8
0
  6
Continuous
 62
     2
100
AcDbText
 10
121.0693784426404
 20
50.5281512366153
 30
0.0
 40
0.1
  1
 
 41
0.8
100
AcDbText
  0
TEXT
  5
1B5FD
330
1B
100
AcDbEntity
 67
     1
  8
0
  6
Continuous
 62
     2
100
AcDbText
 10
84.45644390406068
 20
53.03172459064722
 30
0.0
 40
0.1
  1
 
 41
0.8
100
AcDbText
  0
TEXT
  5
1B645
330
1B
100
AcDbEntity
 67
     1
  8
0
  6
Continuous
 62
     2
100
AcDbText
 10
87.25340233116069
 20
52.13347421394722
 30
0.0
 40
0.24
  1
 
 41
0.8
 51
0.000018724
100
AcDbText
  0
LWPOLYLINE
  5
1E471
102
{ACAD_REACTORS
330
1E473
102
}
330
1B
100
AcDbEntity
 67
     1
  8
AM_VIEWS
 48
30.0
100
AcDbPolyline
 90
        6
 70
     1
 43
0.0
 10
1226.874623206859
 20
920.2238529865574
 10
160.1619004438477
 20
920.2238529865574
 10
160.1619004438477
 20
126.0170788693151
 10
943.7085293776332
 20
126.0170788693151
 10
943.7085293776332
 20
203.7977013412785
 10
1226.874623206858
 20
203.7977013412785
  0
VIEWPORT
  5
1E473
330
1B
100
AcDbEntity
 67
     1
  8
AM_VIEWS
 48
30.0
100
AcDbViewport
 10
693.5182618253532
 20
523.1204659279362
 30
0.0
 40
1066.712722763011
 41
794.2067741172422
 68
     2
 69
     2
 12
10433.29812148119
 22
1922.421767547443
 13
0.0
 23
0.0
 14
10.0
 24
10.0
 15
10.0
 25
10.0
 16
0.0
 26
0.0
 36
1.0
 17
0.0
 27
0.0
 37
0.0
 42
50.0
 43
0.0
 44
0.0
 45
794.2067677505823
 50
0.0
 51
0.0
 72
 20000
 90
    98304
340
1E471
  1

281
     0
 71
     1
 74
     0
110
0.0
120
0.0
130
0.0
111
1.0
121
0.0
131
0.0
112
0.0
122
1.0
132
0.0
 79
     0
146
0.0
170
     0
1001
GENIUS_GENOBJ-N-SDF_13
1002
{
1000
OWNER
1000
GEN
1002
}
1001
GENIUS_GENODEF_13
1002
{
1000
HIER
1070
     0
1002
}
1002
{
1000
MANEDIT
1070
     0
1002
}
1002
{
1000
NOSEL
1070
     0
1002
}
1002
{
1000
BEHIND
1070
     0
1002
}
1002
{
1000
OTHER
1070
     0
1002
}
1002
{
1000
REACTOR
1002
}
1001
GENIUS_GENSCREG_15
1000
PF
1040
0.0
1000
DF
1040
0.0
1000
MIN
1011
160.1619004438478
1021
126.0170788693151
1031
0.0
1000
MAX
1011
1226.874623206859
1021
920.2238529865574
1031
0.0
1000
FLAGS
1070
     2
  0
VIEWPORT
  5
1E475
330
1B
100
AcDbEntity
 67
     1
  8
AM_VIEWS
 48
30.0
100
AcDbViewport
 10
698.6876480049446
 20
1408.914305298476
 30
0.0
 40
1066.712722763011
 41
794.2067741172422
 68
     3
 69
     3
 12
10438.46750481017
 22
2812.79124186481
 13
0.0
 23
0.0
 14
10.0
 24
10.0
 15
10.0
 25
10.0
 16
0.0
 26
0.0
 36
1.0
 17
0.0
 27
0.0
 37
0.0
 42
50.0
 43
0.0
 44
0.0
 45
794.2067776593907
 50
0.0
 51
0.0
 72
 20000
 90
    98304
340
1E477
  1

281
     0
 71
     1
 74
     0
110
0.0
120
0.0
130
0.0
111
1.0
121
0.0
131
0.0
112
0.0
122
1.0
132
0.0
 79
     0
146
0.0
170
     0
1001
GENIUS_GENOBJ-N-SDF_13
1002
{
1000
OWNER
1000
GEN
1002
}
1001
GENIUS_GENODEF_13
1002
{
1000
HIER
1070
     0
1002
}
1002
{
1000
MANEDIT
1070
     0
1002
}
1002
{
1000
NOSEL
1070
     0
1002
}
1002
{
1000
BEHIND
1070
     0
1002
}
1002
{
1000
OTHER
1070
     0
1002
}
1002
{
1000
REACTOR
1002
}
1001
GENIUS_GENSCREG_15
1000
PF
1040
0.0
1000
DF
1040
0.0
1000
MIN
1011
165.3312866234391
1021
1011.810918239855
1031
0.0
1000
MAX
1011
1232.04400938645
1021
1806.017692357097
1031
0.0
1000
FLAGS
1070
     2
  0
LWPOLYLINE
  5
1E477
102
{ACAD_REACTORS
330
1E475
102
}
330
1B
100
AcDbEntity
 67
     1
  8
AM_VIEWS
 48
30.0
100
AcDbPolyline
 90
        6
 70
     1
 43
0.0
 10
1232.04400938645
 20
1806.017692357097
 10
165.3312866234391
 20
1806.017692357097
 10
165.3312866234391
 20
1011.810918239855
 10
948.8779155572247
 20
1011.810918239855
 10
948.8779155572247
 20
1089.591540711818
 10
1232.04400938645
 20
1089.591540711818
  0
LINE
  5
1EF63
330
1B
100
AcDbEntity
 67
     1
  8
titleblock
  6
ByBlock
100
AcDbLine
 10
1220.852862374572
 20
163.8927338538389
 30
0.0
 11
1220.852862374572
 21
189.8007338538388
 31
0.0
  0
TEXT
  5
1EF64
330
1B
100
AcDbEntity
 67
     1
  8
titleblock
  6
ByBlock
100
AcDbText
 10
1203.787722357092
 20
178.2007982856589
 30
0.0
 40
1.904999999999999
  1
DATE
 41
1.09
 51
0.000019
100
AcDbText
  0
TEXT
  5
1EF65
330
1B
100
AcDbEntity
 67
     1
  8
titleblock
  6
ByBlock
100
AcDbText
 10
1221.819385557092
 20
186.9442910856589
 30
0.0
 40
1.904999999999999
  1
SCALE
 41
1.069994666699999
 51
0.000019
100
AcDbText
  0
TEXT
  5
1EF66
330
1B
100
AcDbEntity
 67
     1
  8
titleblock
  6
ByBlock
100
AcDbText
 10
1203.590415157092
 20
186.8285940856589
 30
0.0
 40
1.904999999999999
  1
PLOT DATE
 41
0.925
 51
0.000019
100
AcDbText
  0
TEXT
  5
1EF67
330
1B
100
AcDbEntity
 67
     1
  8
titleblock
  6
ByBlock
100
AcDbText
 10
1227.311346683891
 20
169.8836973252789
 30
0.0
 40
6.095999999999999
  1
E
 41
1.199999999999999
100
AcDbText
  0
LINE
  5
1EF68
330
1B
100
AcDbEntity
 67
     1
  8
titleblock
  6
ByBlock
100
AcDbLine
 10
1229.407914957092
 20
157.5236742856588
 30
0.0
 11
1220.676664957093
 21
155.936174285659
 31
0.0
  0
LINE
  5
1EF69
330
1B
100
AcDbEntity
 67
     1
  8
titleblock
  6
ByBlock
100
AcDbLine
 10
1203.868976957092
 20
153.951799285659
 30
0.0
 11
1212.192455357092
 21
153.951799285659
 31
0.0
  0
LINE
  5
1EF6A
330
1B
100
AcDbEntity
 67
     1
  8
titleblock
  6
ByBlock
100
AcDbLine
 10
1213.472996357092
 20
153.951799285659
 30
0.0
 11
1214.811754157092
 21
153.951799285659
 31
0.0
  0
LINE
  5
1EF6B
330
1B
100
AcDbEntity
 67
     1
  8
titleblock
  6
ByBlock
100
AcDbLine
 10
1216.150486557092
 20
153.951799285659
 30
0.0
 11
1230.702044957092
 21
153.951799285659
 31
0.0
  0
LINE
  5
1EF6C
330
1B
100
AcDbEntity
 67
     1
  8
titleblock
  6
ByBlock
100
AcDbLine
 10
1220.676664957093
 20
151.967424285659
 30
0.0
 11
1229.407914957092
 21
150.3799242856589
 31
0.0
  0
LINE
  5
1EF6D
330
1B
100
AcDbEntity
 67
     1
  8
titleblock
  6
ByBlock
100
AcDbLine
 10
1207.976664957092
 20
157.9952252856589
 30
0.0
 11
1207.976664957092
 21
149.8463718856589
 31
0.0
  0
LINE
  5
1EF6E
330
1B
100
AcDbEntity
 67
     1
  8
titleblock
  6
ByBlock
100
AcDbLine
 10
1220.676664957093
 20
155.936174285659
 30
0.0
 11
1220.676664957093
 21
151.967424285659
 31
0.0
  0
LINE
  5
1EF6F
330
1B
100
AcDbEntity
 67
     1
  8
titleblock
  6
ByBlock
100
AcDbLine
 10
1229.407914957092
 20
150.3799242856589
 30
0.0
 11
1229.407914957092
 21
157.5236742856588
 31
0.0
  0
CIRCLE
  5
1EF70
330
1B
100
AcDbEntity
 67
     1
  8
titleblock
  6
ByBlock
100
AcDbCircle
 10
1207.976664957092
 20
153.951799285659
 30
0.0
 40
1.984375
  0
CIRCLE
  5
1EF71
330
1B
100
AcDbEntity
 67
     1
  8
titleblock
  6
ByBlock
100
AcDbCircle
 10
1207.976664957092
 20
153.951799285659
 30
0.0
 40
3.571874999999999
  0
SOLID
  5
1EF72
330
1B
100
AcDbEntity
 67
     1
  8
titleblock
  6
ByBlock
100
AcDbTrace
 10
1173.793294157093
 20
156.767490885659
 30
0.0
 11
1171.689488357091
 21
156.3907326856589
 31
0.0
 12
1174.355446957092
 22
157.321566485659
 32
0.0
 13
1174.355446957092
 23
157.321566485659
 33
0.0
  0
SOLID
  5
1EF73
330
1B
100
AcDbEntity
 67
     1
  8
titleblock
  6
ByBlock
100
AcDbTrace
 10
1174.355446957092
 20
157.321566485659
 30
0.0
 11
1171.689488357091
 21
156.3907326856589
 31
0.0
 12
1174.581049757093
 22
157.8147328856589
 32
0.0
 13
1174.581049757093
 23
157.8147328856589
 33
0.0
  0
SOLID
  5
1EF74
330
1B
100
AcDbEntity
 67
     1
  8
titleblock
  6
ByBlock
100
AcDbTrace
 10
1174.581049757093
 20
157.8147328856589
 30
0.0
 11
1171.689488357091
 21
156.3907326856589
 31
0.0
 12
1172.537213357093
 22
157.8147328856589
 32
0.0
 13
1172.537213357093
 23
157.8147328856589
 33
0.0
  0
SOLID
  5
1EF75
330
1B
100
AcDbEntity
 67
     1
  8
titleblock
  6
ByBlock
100
AcDbTrace
 10
1171.689488357091
 20
156.3907326856589
 30
0.0
 11
1169.987688357092
 21
153.6126076856589
 31
0.0
 12
1172.537213357093
 22
157.8147328856589
 32
0.0
 13
1172.537213357093
 23
157.8147328856589
 33
0.0
  0
SOLID
  5
1EF76
330
1B
100
AcDbEntity
 67
     1
  8
titleblock
  6
ByBlock
100
AcDbTrace
 10
1172.537213357093
 20
157.8147328856589
 30
0.0
 11
1169.987688357092
 21
153.6126076856589
 31
0.0
 12
1171.689488357091
 22
157.8147328856589
 32
0.0
 13
1171.689488357091
 23
157.8147328856589
 33
0.0
  0
SOLID
  5
1EF77
330
1B
100
AcDbEntity
 67
     1
  8
titleblock
  6
ByBlock
100
AcDbTrace
 10
1171.689488357091
 20
157.8147328856589
 30
0.0
 11
1169.987688357092
 21
153.6126076856589
 31
0.0
 12
1171.689488357091
 22
159.3720576856589
 32
0.0
 13
1171.689488357091
 23
159.3720576856589
 33
0.0
  0
SOLID
  5
1EF78
330
1B
100
AcDbEntity
 67
     1
  8
titleblock
  6
ByBlock
100
AcDbTrace
 10
1169.987688357092
 20
153.6126076856589
 30
0.0
 11
1169.987688357092
 21
159.3720576856589
 31
0.0
 12
1171.689488357091
 22
159.3720576856589
 32
0.0
 13
1171.689488357091
 23
159.3720576856589
 33
0.0
  0
SOLID
  5
1EF79
330
1B
100
AcDbEntity
 67
     1
  8
titleblock
  6
ByBlock
100
AcDbTrace
 10
1171.689488357091
 20
156.3907326856589
 30
0.0
 11
1171.689488357091
 21
153.6126076856589
 31
0.0
 12
1169.987688357092
 22
153.6126076856589
 32
0.0
 13
1169.987688357092
 23
153.6126076856589
 33
0.0
  0
SOLID
  5
1EF7A
330
1B
100
AcDbEntity
 67
     1
  8
titleblock
  6
ByBlock
100
AcDbTrace
 10
1171.689488357091
 20
156.3907326856589
 30
0.0
 11
1173.793294157093
 21
156.767490885659
 31
0.0
 12
1172.056111957092
 22
156.3907326856589
 32
0.0
 13
1172.056111957092
 23
156.3907326856589
 33
0.0
  0
SOLID
  5
1EF7B
330
1B
100
AcDbEntity
 67
     1
  8
titleblock
  6
ByBlock
100
AcDbTrace
 10
1172.056111957092
 20
156.3907326856589
 30
0.0
 11
1173.793294157093
 21
156.767490885659
 31
0.0
 12
1173.597688757092
 22
153.6126076856589
 32
0.0
 13
1173.597688757092
 23
153.6126076856589
 33
0.0
  0
SOLID
  5
1EF7C
330
1B
100
AcDbEntity
 67
     1
  8
titleblock
  6
ByBlock
100
AcDbTrace
 10
1173.793294157093
 20
156.767490885659
 30
0.0
 11
1175.543938357092
 21
153.6126076856589
 31
0.0
 12
1173.597688757092
 22
153.6126076856589
 32
0.0
 13
1173.597688757092
 23
153.6126076856589
 33
0.0
  0
SOLID
  5
1EF7D
330
1B
100
AcDbEntity
 67
     1
  8
titleblock
  6
ByBlock
100
AcDbTrace
 10
1174.566362138512
 20
159.5814806856589
 30
0.0
 11
1170.050496138512
 21
159.3720576856589
 31
0.0
 12
1174.081298338511
 22
160.204161685659
 32
0.0
 13
1174.081298338511
 23
160.204161685659
 33
0.0
  0
SOLID
  5
1EF7E
330
1B
100
AcDbEntity
 67
     1
  8
titleblock
  6
ByBlock
100
AcDbTrace
 10
1174.081298338511
 20
160.204161685659
 30
0.0
 11
1170.050496138512
 21
159.3720576856589
 31
0.0
 12
1173.406496538511
 22
160.613635085659
 32
0.0
 13
1173.406496538511
 23
160.613635085659
 33
0.0
  0
SOLID
  5
1EF7F
330
1B
100
AcDbEntity
 67
     1
  8
titleblock
  6
ByBlock
100
AcDbTrace
 10
1173.406496538511
 20
160.613635085659
 30
0.0
 11
1170.050496138512
 21
159.3720576856589
 31
0.0
 12
1172.630196338512
 22
160.7563576856589
 32
0.0
 13
1172.630196338512
 23
160.7563576856589
 33
0.0
  0
SOLID
  5
1EF80
330
1B
100
AcDbEntity
 67
     1
  8
titleblock
  6
ByBlock
100
AcDbTrace
 10
1170.050496138512
 20
159.3720576856589
 30
0.0
 11
1170.050496138512
 21
160.7563576856589
 31
0.0
 12
1172.630196338512
 22
160.7563576856589
 32
0.0
 13
1172.630196338512
 23
160.7563576856589
 33
0.0
  0
SOLID
  5
1EF81
330
1B
100
AcDbEntity
 67
     1
  8
titleblock
  6
ByBlock
100
AcDbTrace
 10
1170.050496138512
 20
159.3720576856589
 30
0.0
 11
1174.566362138512
 21
159.5814806856589
 31
0.0
 12
1171.752296138511
 22
159.3720576856589
 32
0.0
 13
1171.752296138511
 23
159.3720576856589
 33
0.0
  0
SOLID
  5
1EF82
330
1B
100
AcDbEntity
 67
     1
  8
titleblock
  6
ByBlock
100
AcDbTrace
 10
1171.752296138511
 20
159.3720576856589
 30
0.0
 11
1174.566362138512
 21
159.5814806856589
 31
0.0
 12
1172.600021138513
 22
159.3720576856589
 32
0.0
 13
1172.600021138513
 23
159.3720576856589
 33
0.0
  0
SOLID
  5
1EF83
330
1B
100
AcDbEntity
 67
     1
  8
titleblock
  6
ByBlock
100
AcDbTrace
 10
1172.600021138513
 20
159.3720576856589
 30
0.0
 11
1174.566362138512
 21
159.5814806856589
 31
0.0
 12
1172.989352338513
 22
159.2677398856589
 32
0.0
 13
1172.989352338513
 23
159.2677398856589
 33
0.0
  0
SOLID
  5
1EF84
330
1B
100
AcDbEntity
 67
     1
  8
titleblock
  6
ByBlock
100
AcDbTrace
 10
1172.989352338513
 20
159.2677398856589
 30
0.0
 11
1174.566362138512
 21
159.5814806856589
 31
0.0
 12
1173.274365738513
 22
158.9827264856589
 32
0.0
 13
1173.274365738513
 23
158.9827264856589
 33
0.0
  0
SOLID
  5
1EF85
330
1B
100
AcDbEntity
 67
     1
  8
titleblock
  6
ByBlock
100
AcDbTrace
 10
1174.566362138512
 20
159.5814806856589
 30
0.0
 11
1174.798238738513
 21
158.8269736856588
 31
0.0
 12
1173.274365738513
 22
158.9827264856589
 32
0.0
 13
1173.274365738513
 23
158.9827264856589
 33
0.0
  0
SOLID
  5
1EF86
330
1B
100
AcDbEntity
 67
     1
  8
titleblock
  6
ByBlock
100
AcDbTrace
 10
1173.378683538513
 20
158.5933952856589
 30
0.0
 11
1173.274365738513
 21
158.9827264856589
 31
0.0
 12
1174.798238738513
 22
158.8269736856588
 32
0.0
 13
1174.798238738513
 23
158.8269736856588
 33
0.0
  0
SOLID
  5
1EF87
330
1B
100
AcDbEntity
 67
     1
  8
titleblock
  6
ByBlock
100
AcDbTrace
 10
1173.378683538513
 20
158.5933952856589
 30
0.0
 11
1174.798238738513
 21
158.8269736856588
 31
0.0
 12
1173.274365738513
 22
158.2040640856589
 32
0.0
 13
1173.274365738513
 23
158.2040640856589
 33
0.0
  0
SOLID
  5
1EF88
330
1B
100
AcDbEntity
 67
     1
  8
titleblock
  6
ByBlock
100
AcDbTrace
 10
1174.798238738513
 20
158.8269736856588
 30
0.0
 11
1174.746625938513
 21
158.039345085659
 31
0.0
 12
1173.274365738513
 22
158.2040640856589
 32
0.0
 13
1173.274365738513
 23
158.2040640856589
 33
0.0
  0
SOLID
  5
1EF89
330
1B
100
AcDbEntity
 67
     1
  8
titleblock
  6
ByBlock
100
AcDbTrace
 10
1172.989352338513
 20
157.9190506856589
 30
0.0
 11
1173.274365738513
 21
158.2040640856589
 31
0.0
 12
1174.746625938513
 22
158.039345085659
 32
0.0
 13
1174.746625938513
 23
158.039345085659
 33
0.0
  0
SOLID
  5
1EF8A
330
1B
100
AcDbEntity
 67
     1
  8
titleblock
  6
ByBlock
100
AcDbTrace
 10
1172.989352338513
 20
157.9190506856589
 30
0.0
 11
1174.746625938513
 21
158.039345085659
 31
0.0
 12
1172.600021138513
 22
157.8147328856589
 32
0.0
 13
1172.600021138513
 23
157.8147328856589
 33
0.0
  0
SOLID
  5
1EF8B
330
1B
100
AcDbEntity
 67
     1
  8
titleblock
  6
ByBlock
100
AcDbTrace
 10
1174.746625938513
 20
158.039345085659
 30
0.0
 11
1174.643857538513
 21
157.8147328856589
 31
0.0
 12
1172.600021138513
 22
157.8147328856589
 32
0.0
 13
1172.600021138513
 23
157.8147328856589
 33
0.0
  0
SOLID
  5
1EF8C
330
1B
100
AcDbEntity
 67
     1
  8
titleblock
  6
ByBlock
100
AcDbTrace
 10
1157.967138357093
 20
158.432257685659
 30
0.0
 11
1157.967138357093
 21
160.7563576856589
 31
0.0
 12
1159.668938357092
 22
160.7563576856589
 32
0.0
 13
1159.668938357092
 23
160.7563576856589
 33
0.0
  0
SOLID
  5
1EF8D
330
1B
100
AcDbEntity
 67
     1
  8
titleblock
  6
ByBlock
100
AcDbTrace
 10
1157.967138357093
 20
158.432257685659
 30
0.0
 11
1159.668938357092
 21
160.7563576856589
 31
0.0
 12
1157.967138357093
 22
156.730457685659
 32
0.0
 13
1157.967138357093
 23
156.730457685659
 33
0.0
  0
SOLID
  5
1EF8E
330
1B
100
AcDbEntity
 67
     1
  8
titleblock
  6
ByBlock
100
AcDbTrace
 10
1157.967138357093
 20
156.730457685659
 30
0.0
 11
1159.668938357092
 21
160.7563576856589
 31
0.0
 12
1157.967138357093
 22
153.6126076856589
 32
0.0
 13
1157.967138357093
 23
153.6126076856589
 33
0.0
  0
SOLID
  5
1EF8F
330
1B
100
AcDbEntity
 67
     1
  8
titleblock
  6
ByBlock
100
AcDbTrace
 10
1159.668938357092
 20
160.7563576856589
 30
0.0
 11
1159.668938357092
 21
153.6126076856589
 31
0.0
 12
1157.967138357093
 22
153.6126076856589
 32
0.0
 13
1157.967138357093
 23
153.6126076856589
 33
0.0
  0
SOLID
  5
1EF90
330
1B
100
AcDbEntity
 67
     1
  8
titleblock
  6
ByBlock
100
AcDbTrace
 10
1164.431438357093
 20
155.314407685659
 30
0.0
 11
1160.462688357093
 21
153.6126076856589
 31
0.0
 12
1162.164488357092
 22
155.314407685659
 32
0.0
 13
1162.164488357092
 23
155.314407685659
 33
0.0
  0
SOLID
  5
1EF91
330
1B
100
AcDbEntity
 67
     1
  8
titleblock
  6
ByBlock
100
AcDbTrace
 10
1162.164488357092
 20
155.314407685659
 30
0.0
 11
1160.462688357093
 21
153.6126076856589
 31
0.0
 12
1162.164488357092
 22
160.7563576856589
 32
0.0
 13
1162.164488357092
 23
160.7563576856589
 33
0.0
  0
SOLID
  5
1EF92
330
1B
100
AcDbEntity
 67
     1
  8
titleblock
  6
ByBlock
100
AcDbTrace
 10
1160.462688357093
 20
153.6126076856589
 30
0.0
 11
1160.462688357093
 21
160.7563576856589
 31
0.0
 12
1162.164488357092
 22
160.7563576856589
 32
0.0
 13
1162.164488357092
 23
160.7563576856589
 33
0.0
  0
SOLID
  5
1EF93
330
1B
100
AcDbEntity
 67
     1
  8
titleblock
  6
ByBlock
100
AcDbTrace
 10
1164.431438357093
 20
155.314407685659
 30
0.0
 11
1164.431438357093
 21
153.6126076856589
 31
0.0
 12
1160.462688357093
 22
153.6126076856589
 32
0.0
 13
1160.462688357093
 23
153.6126076856589
 33
0.0
  0
SOLID
  5
1EF94
330
1B
100
AcDbEntity
 67
     1
  8
titleblock
  6
ByBlock
100
AcDbTrace
 10
1169.193938357092
 20
160.7563576856589
 30
0.0
 11
1169.193938357092
 21
159.054557685659
 31
0.0
 12
1166.926988357092
 22
159.054557685659
 32
0.0
 13
1166.926988357092
 23
159.054557685659
 33
0.0
  0
SOLID
  5
1EF95
330
1B
100
AcDbEntity
 67
     1
  8
titleblock
  6
ByBlock
100
AcDbTrace
 10
1169.193938357092
 20
157.836957885659
 30
0.0
 11
1169.193938357092
 21
156.5320328856589
 31
0.0
 12
1166.926988357092
 22
156.5320328856589
 32
0.0
 13
1166.926988357092
 23
156.5320328856589
 33
0.0
  0
SOLID
  5
1EF96
330
1B
100
AcDbEntity
 67
     1
  8
titleblock
  6
ByBlock
100
AcDbTrace
 10
1169.193938357092
 20
155.314407685659
 30
0.0
 11
1165.225188357092
 21
153.6126076856589
 31
0.0
 12
1166.926988357092
 22
155.314407685659
 32
0.0
 13
1166.926988357092
 23
155.314407685659
 33
0.0
  0
SOLID
  5
1EF97
330
1B
100
AcDbEntity
 67
     1
  8
titleblock
  6
ByBlock
100
AcDbTrace
 10
1166.926988357092
 20
155.314407685659
 30
0.0
 11
1165.225188357092
 21
153.6126076856589
 31
0.0
 12
1166.926988357092
 22
156.5320328856589
 32
0.0
 13
1166.926988357092
 23
156.5320328856589
 33
0.0
  0
SOLID
  5
1EF98
330
1B
100
AcDbEntity
 67
     1
  8
titleblock
  6
ByBlock
100
AcDbTrace
 10
1169.193938357092
 20
157.836957885659
 30
0.0
 11
1166.926988357092
 21
156.5320328856589
 31
0.0
 12
1166.926988357092
 22
157.836957885659
 32
0.0
 13
1166.926988357092
 23
157.836957885659
 33
0.0
  0
SOLID
  5
1EF99
330
1B
100
AcDbEntity
 67
     1
  8
titleblock
  6
ByBlock
100
AcDbTrace
 10
1166.926988357092
 20
156.5320328856589
 30
0.0
 11
1165.225188357092
 21
153.6126076856589
 31
0.0
 12
1166.926988357092
 22
157.836957885659
 32
0.0
 13
1166.926988357092
 23
157.836957885659
 33
0.0
  0
SOLID
  5
1EF9A
330
1B
100
AcDbEntity
 67
     1
  8
titleblock
  6
ByBlock
100
AcDbTrace
 10
1166.926988357092
 20
157.836957885659
 30
0.0
 11
1165.225188357092
 21
153.6126076856589
 31
0.0
 12
1166.926988357092
 22
159.054557685659
 32
0.0
 13
1166.926988357092
 23
159.054557685659
 33
0.0
  0
SOLID
  5
1EF9B
330
1B
100
AcDbEntity
 67
     1
  8
titleblock
  6
ByBlock
100
AcDbTrace
 10
1169.193938357092
 20
160.7563576856589
 30
0.0
 11
1166.926988357092
 21
159.054557685659
 31
0.0
 12
1165.225188357092
 22
160.7563576856589
 32
0.0
 13
1165.225188357092
 23
160.7563576856589
 33
0.0
  0
SOLID
  5
1EF9C
330
1B
100
AcDbEntity
 67
     1
  8
titleblock
  6
ByBlock
100
AcDbTrace
 10
1165.225188357092
 20
153.6126076856589
 30
0.0
 11
1165.225188357092
 21
160.7563576856589
 31
0.0
 12
1166.926988357092
 22
159.054557685659
 32
0.0
 13
1166.926988357092
 23
159.054557685659
 33
0.0
  0
SOLID
  5
1EF9D
330
1B
100
AcDbEntity
 67
     1
  8
titleblock
  6
ByBlock
100
AcDbTrace
 10
1169.193938357092
 20
155.314407685659
 30
0.0
 11
1169.193938357092
 21
153.6126076856589
 31
0.0
 12
1165.225188357092
 22
153.6126076856589
 32
0.0
 13
1165.225188357092
 23
153.6126076856589
 33
0.0
  0
LINE
  5
1EF9E
330
1B
100
AcDbEntity
 67
     1
  8
titleblock
  6
ByBlock
100
AcDbLine
 10
1202.564862374573
 20
169.4807338538389
 30
0.0
 11
1202.564862374573
 21
189.8007338538388
 31
0.0
  0
LINE
  5
1EF9F
330
1B
100
AcDbEntity
 67
     1
  8
titleblock
  6
ByBlock
100
AcDbLine
 10
1177.926862374572
 20
169.4807338538389
 30
0.0
 11
1177.926862374572
 21
189.8007338538388
 31
0.0
  0
TEXT
  5
1EFA0
330
1B
100
AcDbEntity
 67
     1
  8
titleblock
  6
ByBlock
100
AcDbText
 10
1158.284195707905
 20
170.7507338538388
 30
0.0
 40
2.54
  1
02.09.07
 41
0.8
 72
     1
 11
1164.210862374572
 21
170.7507338538388
 31
0.0
100
AcDbText
  0
TEXT
  5
1EFA1
330
1B
100
AcDbEntity
 67
     1
  8
titleblock
  6
ByBlock
100
AcDbText
 10
1184.488529041238
 20
182.688733853839
 30
0.0
 40
2.54
  1
02.12.07
 41
0.8
 72
     1
 11
1190.245862374571
 21
182.688733853839
 31
0.0
100
AcDbText
  0
TEXT
  5
1EFA2
330
1B
100
AcDbEntity
 67
     1
  8
titleblock
  6
ByBlock
100
AcDbText
 10
1178.771084557093
 20
178.374356485659
 30
0.0
 40
1.904999999999999
  1
CHECKED
 41
0.99
 51
0.000019
100
AcDbText
  0
TEXT
  5
1EFA3
330
1B
100
AcDbEntity
 67
     1
  8
titleblock
  6
ByBlock
100
AcDbText
 10
1178.668646357091
 20
186.979038285659
 30
0.0
 40
1.904999999999999
  1
DATE
 41
1.09
 51
0.000019
100
AcDbText
  0
LINE
  5
1EFA4
330
1B
100
AcDbEntity
 67
     1
  8
titleblock
  6
ByBlock
100
AcDbLine
 10
1172.600021138513
 20
157.8147328856589
 30
0.0
 11
1172.989352338513
 21
157.9190506856589
 31
0.0
  0
LINE
  5
1EFA5
330
1B
100
AcDbEntity
 67
     1
  8
titleblock
  6
ByBlock
100
AcDbLine
 10
1172.537213357093
 20
157.8147328856589
 30
0.0
 11
1172.926544557093
 21
157.9190506856589
 31
0.0
  0
LINE
  5
1EFA6
330
1B
100
AcDbEntity
 67
     1
  8
titleblock
  6
ByBlock
100
AcDbLine
 10
1175.543938357092
 20
153.6126076856589
 30
0.0
 11
1173.597688757092
 21
153.6126076856589
 31
0.0
  0
LINE
  5
1EFA7
330
1B
100
AcDbEntity
 67
     1
  8
titleblock
  6
ByBlock
100
AcDbLine
 10
1171.689488357091
 20
153.6126076856589
 30
0.0
 11
1169.987688357092
 21
153.6126076856589
 31
0.0
  0
LINE
  5
1EFA8
330
1B
100
AcDbEntity
 67
     1
  8
titleblock
  6
ByBlock
100
AcDbLine
 10
1169.193938357092
 20
153.6126076856589
 30
0.0
 11
1165.225188357092
 21
153.6126076856589
 31
0.0
  0
LINE
  5
1EFA9
330
1B
100
AcDbEntity
 67
     1
  8
titleblock
  6
ByBlock
100
AcDbLine
 10
1164.431438357093
 20
153.6126076856589
 30
0.0
 11
1160.462688357093
 21
153.6126076856589
 31
0.0
  0
LINE
  5
1EFAA
330
1B
100
AcDbEntity
 67
     1
  8
titleblock
  6
ByBlock
100
AcDbLine
 10
1159.668938357092
 20
153.6126076856589
 30
0.0
 11
1157.967138357093
 21
153.6126076856589
 31
0.0
  0
LINE
  5
1EFAB
330
1B
100
AcDbEntity
 67
     1
  8
titleblock
  6
ByBlock
100
AcDbLine
 10
1162.164488357092
 20
155.314407685659
 30
0.0
 11
1164.431438357093
 21
155.314407685659
 31
0.0
  0
LINE
  5
1EFAC
330
1B
100
AcDbEntity
 67
     1
  8
titleblock
  6
ByBlock
100
AcDbLine
 10
1166.926988357092
 20
155.314407685659
 30
0.0
 11
1169.193938357092
 21
155.314407685659
 31
0.0
  0
LINE
  5
1EFAD
330
1B
100
AcDbEntity
 67
     1
  8
titleblock
  6
ByBlock
100
AcDbLine
 10
1172.056111957092
 20
156.3907326856589
 30
0.0
 11
1171.689488357091
 21
156.3907326856589
 31
0.0
  0
LINE
  5
1EFAE
330
1B
100
AcDbEntity
 67
     1
  8
titleblock
  6
ByBlock
100
AcDbLine
 10
1169.193938357092
 20
156.5320328856589
 30
0.0
 11
1166.926988357092
 21
156.5320328856589
 31
0.0
  0
LINE
  5
1EFAF
330
1B
100
AcDbEntity
 67
     1
  8
titleblock
  6
ByBlock
100
AcDbLine
 10
1174.643857538513
 20
157.8147328856589
 30
0.0
 11
1171.689488357091
 21
157.8147328856589
 31
0.0
  0
LINE
  5
1EFB0
330
1B
100
AcDbEntity
 67
     1
  8
titleblock
  6
ByBlock
100
AcDbLine
 10
1166.926988357092
 20
157.836957885659
 30
0.0
 11
1169.193938357092
 21
157.836957885659
 31
0.0
  0
LINE
  5
1EFB1
330
1B
100
AcDbEntity
 67
     1
  8
titleblock
  6
ByBlock
100
AcDbLine
 10
1169.193938357092
 20
159.054557685659
 30
0.0
 11
1166.926988357092
 21
159.054557685659
 31
0.0
  0
LINE
  5
1EFB2
330
1B
100
AcDbEntity
 67
     1
  8
titleblock
  6
ByBlock
100
AcDbLine
 10
1172.600021138513
 20
159.3720576856589
 30
0.0
 11
1169.987688357092
 21
159.3720576856589
 31
0.0
  0
LINE
  5
1EFB3
330
1B
100
AcDbEntity
 67
     1
  8
titleblock
  6
ByBlock
100
AcDbLine
 10
1157.967138357093
 20
160.7563576856589
 30
0.0
 11
1159.668938357092
 21
160.7563576856589
 31
0.0
  0
LINE
  5
1EFB4
330
1B
100
AcDbEntity
 67
     1
  8
titleblock
  6
ByBlock
100
AcDbLine
 10
1160.462688357093
 20
160.7563576856589
 30
0.0
 11
1162.164488357092
 21
160.7563576856589
 31
0.0
  0
LINE
  5
1EFB5
330
1B
100
AcDbEntity
 67
     1
  8
titleblock
  6
ByBlock
100
AcDbLine
 10
1165.225188357092
 20
160.7563576856589
 30
0.0
 11
1169.193938357092
 21
160.7563576856589
 31
0.0
  0
LINE
  5
1EFB6
330
1B
100
AcDbEntity
 67
     1
  8
titleblock
  6
ByBlock
100
AcDbLine
 10
1169.987688357092
 20
160.7563576856589
 30
0.0
 11
1172.630196338512
 21
160.7563576856589
 31
0.0
  0
LINE
  5
1EFB7
330
1B
100
AcDbEntity
 67
     1
  8
titleblock
  6
ByBlock
100
AcDbLine
 10
1172.567388557092
 20
160.7563576856589
 30
0.0
 11
1173.343688757092
 21
160.613635085659
 31
0.0
  0
LINE
  5
1EFB8
330
1B
100
AcDbEntity
 67
     1
  8
titleblock
  6
ByBlock
100
AcDbLine
 10
1172.630196338512
 20
160.7563576856589
 30
0.0
 11
1173.406496538511
 21
160.613635085659
 31
0.0
  0
LINE
  5
1EFB9
330
1B
100
AcDbEntity
 67
     1
  8
titleblock
  6
ByBlock
100
AcDbLine
 10
1172.926544557093
 20
159.2677398856589
 30
0.0
 11
1172.537213357093
 21
159.3720576856589
 31
0.0
  0
LINE
  5
1EFBA
330
1B
100
AcDbEntity
 67
     1
  8
titleblock
  6
ByBlock
100
AcDbLine
 10
1172.989352338513
 20
159.2677398856589
 30
0.0
 11
1172.600021138513
 21
159.3720576856589
 31
0.0
  0
LINE
  5
1EFBB
330
1B
100
AcDbEntity
 67
     1
  8
titleblock
  6
ByBlock
100
AcDbLine
 10
1173.343688757092
 20
160.613635085659
 30
0.0
 11
1174.018490557091
 21
160.204161685659
 31
0.0
  0
LINE
  5
1EFBC
330
1B
100
AcDbEntity
 67
     1
  8
titleblock
  6
ByBlock
100
AcDbLine
 10
1173.406496538511
 20
160.613635085659
 30
0.0
 11
1174.081298338511
 21
160.204161685659
 31
0.0
  0
LINE
  5
1EFBD
330
1B
100
AcDbEntity
 67
     1
  8
titleblock
  6
ByBlock
100
AcDbLine
 10
1173.211557957093
 20
158.9827264856589
 30
0.0
 11
1172.926544557093
 21
159.2677398856589
 31
0.0
  0
LINE
  5
1EFBE
330
1B
100
AcDbEntity
 67
     1
  8
titleblock
  6
ByBlock
100
AcDbLine
 10
1173.274365738513
 20
158.9827264856589
 30
0.0
 11
1172.989352338513
 21
159.2677398856589
 31
0.0
  0
LINE
  5
1EFBF
330
1B
100
AcDbEntity
 67
     1
  8
titleblock
  6
ByBlock
100
AcDbLine
 10
1174.018490557091
 20
160.204161685659
 30
0.0
 11
1174.503554357092
 21
159.5814806856589
 31
0.0
  0
LINE
  5
1EFC0
330
1B
100
AcDbEntity
 67
     1
  8
titleblock
  6
ByBlock
100
AcDbLine
 10
1174.081298338511
 20
160.204161685659
 30
0.0
 11
1174.566362138512
 21
159.5814806856589
 31
0.0
  0
LINE
  5
1EFC1
330
1B
100
AcDbEntity
 67
     1
  8
titleblock
  6
ByBlock
100
AcDbLine
 10
1173.597688757092
 20
153.6126076856589
 30
0.0
 11
1172.056086557091
 21
156.3907326856589
 31
0.0
  0
LINE
  5
1EFC2
330
1B
100
AcDbEntity
 67
     1
  8
titleblock
  6
ByBlock
100
AcDbLine
 10
1173.597688757092
 20
153.6126076856589
 30
0.0
 11
1172.056111957092
 21
156.3907326856589
 31
0.0
  0
LINE
  5
1EFC3
330
1B
100
AcDbEntity
 67
     1
  8
titleblock
  6
ByBlock
100
AcDbLine
 10
1173.793268757092
 20
156.767490885659
 30
0.0
 11
1175.543938357092
 21
153.6126076856589
 31
0.0
  0
LINE
  5
1EFC4
330
1B
100
AcDbEntity
 67
     1
  8
titleblock
  6
ByBlock
100
AcDbLine
 10
1173.793294157093
 20
156.767490885659
 30
0.0
 11
1175.543938357092
 21
153.6126076856589
 31
0.0
  0
LINE
  5
1EFC5
330
1B
100
AcDbEntity
 67
     1
  8
titleblock
  6
ByBlock
100
AcDbLine
 10
1174.503554357092
 20
159.5814806856589
 30
0.0
 11
1174.735430957093
 21
158.8269736856588
 31
0.0
  0
LINE
  5
1EFC6
330
1B
100
AcDbEntity
 67
     1
  8
titleblock
  6
ByBlock
100
AcDbLine
 10
1174.566362138512
 20
159.5814806856589
 30
0.0
 11
1174.798238738513
 21
158.8269736856588
 31
0.0
  0
LINE
  5
1EFC7
330
1B
100
AcDbEntity
 67
     1
  8
titleblock
  6
ByBlock
100
AcDbLine
 10
1173.315875757093
 20
158.5933952856589
 30
0.0
 11
1173.211557957093
 21
158.9827264856589
 31
0.0
  0
LINE
  5
1EFC8
330
1B
100
AcDbEntity
 67
     1
  8
titleblock
  6
ByBlock
100
AcDbLine
 10
1173.378683538513
 20
158.5933952856589
 30
0.0
 11
1173.274365738513
 21
158.9827264856589
 31
0.0
  0
LINE
  5
1EFC9
330
1B
100
AcDbEntity
 67
     1
  8
titleblock
  6
ByBlock
100
AcDbLine
 10
1157.967138357093
 20
153.6126076856589
 30
0.0
 11
1157.967138357093
 21
156.730457685659
 31
0.0
  0
LINE
  5
1EFCA
330
1B
100
AcDbEntity
 67
     1
  8
titleblock
  6
ByBlock
100
AcDbLine
 10
1157.967138357093
 20
158.432257685659
 30
0.0
 11
1157.967138357093
 21
160.7563576856589
 31
0.0
  0
LINE
  5
1EFCB
330
1B
100
AcDbEntity
 67
     1
  8
titleblock
  6
ByBlock
100
AcDbLine
 10
1159.668938357092
 20
160.7563576856589
 30
0.0
 11
1159.668938357092
 21
153.6126076856589
 31
0.0
  0
LINE
  5
1EFCC
330
1B
100
AcDbEntity
 67
     1
  8
titleblock
  6
ByBlock
100
AcDbLine
 10
1160.462688357093
 20
160.7563576856589
 30
0.0
 11
1160.462688357093
 21
153.6126076856589
 31
0.0
  0
LINE
  5
1EFCD
330
1B
100
AcDbEntity
 67
     1
  8
titleblock
  6
ByBlock
100
AcDbLine
 10
1162.164488357092
 20
160.7563576856589
 30
0.0
 11
1162.164488357092
 21
155.314407685659
 31
0.0
  0
LINE
  5
1EFCE
330
1B
100
AcDbEntity
 67
     1
  8
titleblock
  6
ByBlock
100
AcDbLine
 10
1164.431438357093
 20
155.314407685659
 30
0.0
 11
1164.431438357093
 21
153.6126076856589
 31
0.0
  0
LINE
  5
1EFCF
330
1B
100
AcDbEntity
 67
     1
  8
titleblock
  6
ByBlock
100
AcDbLine
 10
1165.225188357092
 20
160.7563576856589
 30
0.0
 11
1165.225188357092
 21
153.6126076856589
 31
0.0
  0
LINE
  5
1EFD0
330
1B
100
AcDbEntity
 67
     1
  8
titleblock
  6
ByBlock
100
AcDbLine
 10
1166.926988357092
 20
159.054557685659
 30
0.0
 11
1166.926988357092
 21
157.836957885659
 31
0.0
  0
LINE
  5
1EFD1
330
1B
100
AcDbEntity
 67
     1
  8
titleblock
  6
ByBlock
100
AcDbLine
 10
1166.926988357092
 20
156.5320328856589
 30
0.0
 11
1166.926988357092
 21
155.314407685659
 31
0.0
  0
LINE
  5
1EFD2
330
1B
100
AcDbEntity
 67
     1
  8
titleblock
  6
ByBlock
100
AcDbLine
 10
1169.193938357092
 20
160.7563576856589
 30
0.0
 11
1169.193938357092
 21
159.054557685659
 31
0.0
  0
LINE
  5
1EFD3
330
1B
100
AcDbEntity
 67
     1
  8
titleblock
  6
ByBlock
100
AcDbLine
 10
1169.193938357092
 20
157.836957885659
 30
0.0
 11
1169.193938357092
 21
156.5320328856589
 31
0.0
  0
LINE
  5
1EFD4
330
1B
100
AcDbEntity
 67
     1
  8
titleblock
  6
ByBlock
100
AcDbLine
 10
1169.193938357092
 20
155.314407685659
 30
0.0
 11
1169.193938357092
 21
153.6126076856589
 31
0.0
  0
LINE
  5
1EFD5
330
1B
100
AcDbEntity
 67
     1
  8
titleblock
  6
ByBlock
100
AcDbLine
 10
1169.987688357092
 20
153.6126076856589
 30
0.0
 11
1169.987688357092
 21
160.7563576856589
 31
0.0
  0
LINE
  5
1EFD6
330
1B
100
AcDbEntity
 67
     1
  8
titleblock
  6
ByBlock
100
AcDbLine
 10
1170.050496138512
 20
159.3720576856589
 30
0.0
 11
1170.050496138512
 21
160.7563576856589
 31
0.0
  0
LINE
  5
1EFD7
330
1B
100
AcDbEntity
 67
     1
  8
titleblock
  6
ByBlock
100
AcDbLine
 10
1171.689488357091
 20
159.3720576856589
 30
0.0
 11
1171.689488357091
 21
157.8147328856589
 31
0.0
  0
LINE
  5
1EFD8
330
1B
100
AcDbEntity
 67
     1
  8
titleblock
  6
ByBlock
100
AcDbLine
 10
1171.689488357091
 20
156.3907326856589
 30
0.0
 11
1171.689488357091
 21
153.6126076856589
 31
0.0
  0
LINE
  5
1EFD9
330
1B
100
AcDbEntity
 67
     1
  8
titleblock
  6
ByBlock
100
AcDbLine
 10
1174.735430957093
 20
158.8269736856588
 30
0.0
 11
1174.683818157093
 21
158.039345085659
 31
0.0
  0
LINE
  5
1EFDA
330
1B
100
AcDbEntity
 67
     1
  8
titleblock
  6
ByBlock
100
AcDbLine
 10
1174.798238738513
 20
158.8269736856588
 30
0.0
 11
1174.746625938513
 21
158.039345085659
 31
0.0
  0
LINE
  5
1EFDB
330
1B
100
AcDbEntity
 67
     1
  8
titleblock
  6
ByBlock
100
AcDbLine
 10
1173.211557957093
 20
158.2040640856589
 30
0.0
 11
1173.315875757093
 21
158.5933952856589
 31
0.0
  0
LINE
  5
1EFDC
330
1B
100
AcDbEntity
 67
     1
  8
titleblock
  6
ByBlock
100
AcDbLine
 10
1173.274365738513
 20
158.2040640856589
 30
0.0
 11
1173.378683538513
 21
158.5933952856589
 31
0.0
  0
LINE
  5
1EFDD
330
1B
100
AcDbEntity
 67
     1
  8
titleblock
  6
ByBlock
100
AcDbLine
 10
1174.683818157093
 20
158.039345085659
 30
0.0
 11
1174.355446957092
 21
157.321566485659
 31
0.0
  0
LINE
  5
1EFDE
330
1B
100
AcDbEntity
 67
     1
  8
titleblock
  6
ByBlock
100
AcDbLine
 10
1174.746625938513
 20
158.039345085659
 30
0.0
 11
1174.643857538513
 21
157.8147328856589
 31
0.0
  0
LINE
  5
1EFDF
330
1B
100
AcDbEntity
 67
     1
  8
titleblock
  6
ByBlock
100
AcDbLine
 10
1172.926544557093
 20
157.9190506856589
 30
0.0
 11
1173.211557957093
 21
158.2040640856589
 31
0.0
  0
LINE
  5
1EFE0
330
1B
100
AcDbEntity
 67
     1
  8
titleblock
  6
ByBlock
100
AcDbLine
 10
1172.989352338513
 20
157.9190506856589
 30
0.0
 11
1173.274365738513
 21
158.2040640856589
 31
0.0
  0
LINE
  5
1EFE1
330
1B
100
AcDbEntity
 67
     1
  8
titleblock
  6
ByBlock
100
AcDbLine
 10
1174.355446957092
 20
157.321566485659
 30
0.0
 11
1173.793294157093
 21
156.767490885659
 31
0.0
  0
ARC
  5
1EFE2
330
1B
100
AcDbEntity
 67
     1
  8
titleblock
  6
ByBlock
100
AcDbCircle
 10
1172.537213357093
 20
158.5933952856589
 30
0.0
 40
0.7786624
100
AcDbArc
 50
270.0
 51
90.0
  0
ARC
  5
1EFE3
330
1B
100
AcDbEntity
 67
     1
  8
titleblock
  6
ByBlock
100
AcDbCircle
 10
1172.567363157092
 20
158.573557885659
 30
0.0
 40
2.182824443079999
100
AcDbArc
 50
304.1675166805597
 51
90.0
  0
TEXT
  5
1EFE4
330
1B
100
AcDbEntity
 67
     1
  8
titleblock
  6
ByBlock
100
AcDbText
 10
1201.869234957092
 20
165.513371285659
 30
0.0
 40
2.54
  1
ACAD 2004
 41
0.8
 51
0.000019
100
AcDbText
  0
SOLID
  5
1EFE5
330
1B
100
AcDbEntity
 67
     1
  8
titleblock
  6
ByBlock
100
AcDbTrace
 10
1142.489013357092
 20
158.514858485659
 30
0.0
 11
1144.730512557093
 21
160.7563576856589
 31
0.0
 12
1147.137213357091
 22
160.7563576856589
 32
0.0
 13
1147.137213357091
 23
160.7563576856589
 33
0.0
  0
SOLID
  5
1EFE6
330
1B
100
AcDbEntity
 67
     1
  8
titleblock
  6
ByBlock
100
AcDbTrace
 10
1147.137213357091
 20
160.7563576856589
 30
0.0
 11
1143.962213357092
 21
157.5813576856589
 31
0.0
 12
1142.489013357092
 22
158.514858485659
 32
0.0
 13
1142.489013357092
 23
158.514858485659
 33
0.0
  0
SOLID
  5
1EFE7
330
1B
100
AcDbEntity
 67
     1
  8
titleblock
  6
ByBlock
100
AcDbTrace
 10
1143.962213357092
 20
157.5813576856589
 30
0.0
 11
1142.489013357092
 21
156.6986568856588
 31
0.0
 12
1142.489013357092
 22
158.514858485659
 32
0.0
 13
1142.489013357092
 23
158.514858485659
 33
0.0
  0
SOLID
  5
1EFE8
330
1B
100
AcDbEntity
 67
     1
  8
titleblock
  6
ByBlock
100
AcDbTrace
 10
1142.489013357092
 20
156.6986568856588
 30
0.0
 11
1140.787213357093
 21
153.6126076856589
 31
0.0
 12
1142.489013357092
 22
158.514858485659
 32
0.0
 13
1142.489013357092
 23
158.514858485659
 33
0.0
  0
SOLID
  5
1EFE9
330
1B
100
AcDbEntity
 67
     1
  8
titleblock
  6
ByBlock
100
AcDbTrace
 10
1142.489013357092
 20
158.514858485659
 30
0.0
 11
1140.787213357093
 21
153.6126076856589
 31
0.0
 12
1142.489013357092
 22
160.7563576856589
 32
0.0
 13
1142.489013357092
 23
160.7563576856589
 33
0.0
  0
SOLID
  5
1EFEA
330
1B
100
AcDbEntity
 67
     1
  8
titleblock
  6
ByBlock
100
AcDbTrace
 10
1140.787213357093
 20
153.6126076856589
 30
0.0
 11
1140.787213357093
 21
160.7563576856589
 31
0.0
 12
1142.489013357092
 22
160.7563576856589
 32
0.0
 13
1142.489013357092
 23
160.7563576856589
 33
0.0
  0
SOLID
  5
1EFEB
330
1B
100
AcDbEntity
 67
     1
  8
titleblock
  6
ByBlock
100
AcDbTrace
 10
1142.489013357092
 20
156.6986568856588
 30
0.0
 11
1142.489013357092
 21
153.6126076856589
 31
0.0
 12
1140.787213357093
 22
153.6126076856589
 32
0.0
 13
1140.787213357093
 23
153.6126076856589
 33
0.0
  0
SOLID
  5
1EFEC
330
1B
100
AcDbEntity
 67
     1
  8
titleblock
  6
ByBlock
100
AcDbTrace
 10
1142.489013357092
 20
156.6986568856588
 30
0.0
 11
1143.962213357092
 21
157.5813576856589
 31
0.0
 12
1144.957842557093
 22
153.6126076856589
 32
0.0
 13
1144.957842557093
 23
153.6126076856589
 33
0.0
  0
SOLID
  5
1EFED
330
1B
100
AcDbEntity
 67
     1
  8
titleblock
  6
ByBlock
100
AcDbTrace
 10
1143.962213357092
 20
157.5813576856589
 30
0.0
 11
1147.137213357091
 21
153.6126076856589
 31
0.0
 12
1144.957842557093
 22
153.6126076856589
 32
0.0
 13
1144.957842557093
 23
153.6126076856589
 33
0.0
  0
SOLID
  5
1EFEE
330
1B
100
AcDbEntity
 67
     1
  8
titleblock
  6
ByBlock
100
AcDbTrace
 10
1148.788365757093
 20
158.6768342856589
 30
0.0
 11
1146.518291557091
 21
158.288265085659
 31
0.0
 12
1149.403579157091
 22
158.983158285659
 32
0.0
 13
1149.403579157091
 23
158.983158285659
 33
0.0
  0
SOLID
  5
1EFEF
330
1B
100
AcDbEntity
 67
     1
  8
titleblock
  6
ByBlock
100
AcDbTrace
 10
1150.087880557092
 20
159.046582085659
 30
0.0
 11
1149.403579157091
 21
158.983158285659
 31
0.0
 12
1146.904676357091
 22
159.046582085659
 32
0.0
 13
1146.904676357091
 23
159.046582085659
 33
0.0
  0
SOLID
  5
1EFF0
330
1B
100
AcDbEntity
 67
     1
  8
titleblock
  6
ByBlock
100
AcDbTrace
 10
1146.518291557091
 20
158.288265085659
 30
0.0
 11
1146.904676357091
 21
159.046582085659
 31
0.0
 12
1149.403579157091
 22
158.983158285659
 32
0.0
 13
1149.403579157091
 23
158.983158285659
 33
0.0
  0
SOLID
  5
1EFF1
330
1B
100
AcDbEntity
 67
     1
  8
titleblock
  6
ByBlock
100
AcDbTrace
 10
1148.788365757093
 20
158.6768342856589
 30
0.0
 11
1148.325374557093
 21
158.1689612856589
 31
0.0
 12
1146.518291557091
 22
158.288265085659
 32
0.0
 13
1146.518291557091
 23
158.288265085659
 33
0.0
  0
SOLID
  5
1EFF2
330
1B
100
AcDbEntity
 67
     1
  8
titleblock
  6
ByBlock
100
AcDbTrace
 10
1148.077114957092
 20
157.5281192856589
 30
0.0
 11
1146.343463357092
 21
157.184482685659
 31
0.0
 12
1148.325374557093
 22
158.1689612856589
 32
0.0
 13
1148.325374557093
 23
158.1689612856589
 33
0.0
  0
SOLID
  5
1EFF3
330
1B
100
AcDbEntity
 67
     1
  8
titleblock
  6
ByBlock
100
AcDbTrace
 10
1146.343463357092
 20
157.184482685659
 30
0.0
 11
1146.518291557091
 21
158.288265085659
 31
0.0
 12
1148.325374557093
 22
158.1689612856589
 32
0.0
 13
1148.325374557093
 23
158.1689612856589
 33
0.0
  0
SOLID
  5
1EFF4
330
1B
100
AcDbEntity
 67
     1
  8
titleblock
  6
ByBlock
100
AcDbTrace
 10
1148.077114957092
 20
157.5281192856589
 30
0.0
 11
1148.077114957092
 21
156.8408460856589
 31
0.0
 12
1146.343463357092
 22
157.184482685659
 32
0.0
 13
1146.343463357092
 23
157.184482685659
 33
0.0
  0
SOLID
  5
1EFF5
330
1B
100
AcDbEntity
 67
     1
  8
titleblock
  6
ByBlock
100
AcDbTrace
 10
1148.325374557093
 20
156.2000040856589
 30
0.0
 11
1146.518291557091
 21
156.080700285659
 31
0.0
 12
1148.077114957092
 22
156.8408460856589
 32
0.0
 13
1148.077114957092
 23
156.8408460856589
 33
0.0
  0
SOLID
  5
1EFF6
330
1B
100
AcDbEntity
 67
     1
  8
titleblock
  6
ByBlock
100
AcDbTrace
 10
1146.518291557091
 20
156.080700285659
 30
0.0
 11
1146.343463357092
 21
157.184482685659
 31
0.0
 12
1148.077114957092
 22
156.8408460856589
 32
0.0
 13
1148.077114957092
 23
156.8408460856589
 33
0.0
  0
SOLID
  5
1EFF7
330
1B
100
AcDbEntity
 67
     1
  8
titleblock
  6
ByBlock
100
AcDbTrace
 10
1148.325374557093
 20
156.2000040856589
 30
0.0
 11
1148.788365757093
 21
155.6921310856589
 31
0.0
 12
1146.518291557091
 22
156.080700285659
 32
0.0
 13
1146.518291557091
 23
156.080700285659
 33
0.0
  0
SOLID
  5
1EFF8
330
1B
100
AcDbEntity
 67
     1
  8
titleblock
  6
ByBlock
100
AcDbTrace
 10
1152.926000357092
 20
155.322383285659
 30
0.0
 11
1147.025631157092
 21
155.0849948856589
 31
0.0
 12
1150.087880557092
 22
155.322383285659
 32
0.0
 13
1150.087880557092
 23
155.322383285659
 33
0.0
  0
SOLID
  5
1EFF9
330
1B
100
AcDbEntity
 67
     1
  8
titleblock
  6
ByBlock
100
AcDbTrace
 10
1150.087880557092
 20
155.322383285659
 30
0.0
 11
1147.025631157092
 21
155.0849948856589
 31
0.0
 12
1149.403579157091
 22
155.385807085659
 32
0.0
 13
1149.403579157091
 23
155.385807085659
 33
0.0
  0
SOLID
  5
1EFFA
330
1B
100
AcDbEntity
 67
     1
  8
titleblock
  6
ByBlock
100
AcDbTrace
 10
1149.403579157091
 20
155.385807085659
 30
0.0
 11
1147.025631157092
 21
155.0849948856589
 31
0.0
 12
1148.788365757093
 22
155.6921310856589
 32
0.0
 13
1148.788365757093
 23
155.6921310856589
 33
0.0
  0
SOLID
  5
1EFFB
330
1B
100
AcDbEntity
 67
     1
  8
titleblock
  6
ByBlock
100
AcDbTrace
 10
1147.025631157092
 20
155.0849948856589
 30
0.0
 11
1146.518291557091
 21
156.080700285659
 31
0.0
 12
1148.788365757093
 22
155.6921310856589
 32
0.0
 13
1148.788365757093
 23
155.6921310856589
 33
0.0
  0
SOLID
  5
1EFFC
330
1B
100
AcDbEntity
 67
     1
  8
titleblock
  6
ByBlock
100
AcDbTrace
 10
1152.926000357092
 20
155.322383285659
 30
0.0
 11
1152.805045557092
 21
155.0849948856589
 31
0.0
 12
1147.025631157092
 22
155.0849948856589
 32
0.0
 13
1147.025631157092
 23
155.0849948856589
 33
0.0
  0
SOLID
  5
1EFFD
330
1B
100
AcDbEntity
 67
     1
  8
titleblock
  6
ByBlock
100
AcDbTrace
 10
1147.815850557092
 20
154.294775485659
 30
0.0
 11
1147.025631157092
 21
155.0849948856589
 31
0.0
 12
1152.805045557092
 22
155.0849948856589
 32
0.0
 13
1152.805045557092
 23
155.0849948856589
 33
0.0
  0
SOLID
  5
1EFFE
330
1B
100
AcDbEntity
 67
     1
  8
titleblock
  6
ByBlock
100
AcDbTrace
 10
1152.805045557092
 20
155.0849948856589
 30
0.0
 11
1152.014826157092
 21
154.294775485659
 31
0.0
 12
1147.815850557092
 22
154.294775485659
 32
0.0
 13
1147.815850557092
 23
154.294775485659
 33
0.0
  0
SOLID
  5
1EFFF
330
1B
100
AcDbEntity
 67
     1
  8
titleblock
  6
ByBlock
100
AcDbTrace
 10
1148.811555957093
 20
153.787435885659
 30
0.0
 11
1147.815850557092
 21
154.294775485659
 31
0.0
 12
1152.014826157092
 22
154.294775485659
 32
0.0
 13
1152.014826157092
 23
154.294775485659
 33
0.0
  0
SOLID
  5
1F000
330
1B
100
AcDbEntity
 67
     1
  8
titleblock
  6
ByBlock
100
AcDbTrace
 10
1152.014826157092
 20
154.294775485659
 30
0.0
 11
1151.019120757092
 21
153.787435885659
 31
0.0
 12
1148.811555957093
 22
153.787435885659
 32
0.0
 13
1148.811555957093
 23
153.787435885659
 33
0.0
  0
SOLID
  5
1F001
330
1B
100
AcDbEntity
 67
     1
  8
titleblock
  6
ByBlock
100
AcDbTrace
 10
1149.915338357092
 20
153.6126076856589
 30
0.0
 11
1148.811555957093
 21
153.787435885659
 31
0.0
 12
1151.019120757092
 22
153.787435885659
 32
0.0
 13
1151.019120757092
 23
153.787435885659
 33
0.0
  0
SOLID
  5
1F002
330
1B
100
AcDbEntity
 67
     1
  8
titleblock
  6
ByBlock
100
AcDbTrace
 10
1149.915338357092
 20
160.7563576856589
 30
0.0
 11
1151.019120757092
 21
160.581529485659
 31
0.0
 12
1148.811555957093
 22
160.581529485659
 32
0.0
 13
1148.811555957093
 23
160.581529485659
 33
0.0
  0
SOLID
  5
1F003
330
1B
100
AcDbEntity
 67
     1
  8
titleblock
  6
ByBlock
100
AcDbTrace
 10
1147.815850557092
 20
160.074189885659
 30
0.0
 11
1148.811555957093
 21
160.581529485659
 31
0.0
 12
1151.019120757092
 22
160.581529485659
 32
0.0
 13
1151.019120757092
 23
160.581529485659
 33
0.0
  0
SOLID
  5
1F004
330
1B
100
AcDbEntity
 67
     1
  8
titleblock
  6
ByBlock
100
AcDbTrace
 10
1151.019120757092
 20
160.581529485659
 30
0.0
 11
1152.014826157092
 21
160.074189885659
 31
0.0
 12
1147.815850557092
 22
160.074189885659
 32
0.0
 13
1147.815850557092
 23
160.074189885659
 33
0.0
  0
SOLID
  5
1F005
330
1B
100
AcDbEntity
 67
     1
  8
titleblock
  6
ByBlock
100
AcDbTrace
 10
1147.025631157092
 20
159.2839704856589
 30
0.0
 11
1147.815850557092
 21
160.074189885659
 31
0.0
 12
1152.014826157092
 22
160.074189885659
 32
0.0
 13
1152.014826157092
 23
160.074189885659
 33
0.0
  0
SOLID
  5
1F006
330
1B
100
AcDbEntity
 67
     1
  8
titleblock
  6
ByBlock
100
AcDbTrace
 10
1152.014826157092
 20
160.074189885659
 30
0.0
 11
1152.805045557092
 21
159.2839704856589
 31
0.0
 12
1147.025631157092
 22
159.2839704856589
 32
0.0
 13
1147.025631157092
 23
159.2839704856589
 33
0.0
  0
SOLID
  5
1F007
330
1B
100
AcDbEntity
 67
     1
  8
titleblock
  6
ByBlock
100
AcDbTrace
 10
1146.904676357091
 20
159.046582085659
 30
0.0
 11
1147.025631157092
 21
159.2839704856589
 31
0.0
 12
1152.805045557092
 22
159.2839704856589
 32
0.0
 13
1152.805045557092
 23
159.2839704856589
 33
0.0
  0
SOLID
  5
1F008
330
1B
100
AcDbEntity
 67
     1
  8
titleblock
  6
ByBlock
100
AcDbTrace
 10
1146.904676357091
 20
159.046582085659
 30
0.0
 11
1152.805045557092
 21
159.2839704856589
 31
0.0
 12
1150.087880557092
 22
159.046582085659
 32
0.0
 13
1150.087880557092
 23
159.046582085659
 33
0.0
  0
SOLID
  5
1F009
330
1B
100
AcDbEntity
 67
     1
  8
titleblock
  6
ByBlock
100
AcDbTrace
 10
1150.087880557092
 20
159.046582085659
 30
0.0
 11
1152.805045557092
 21
159.2839704856589
 31
0.0
 12
1150.748890157092
 22
158.858495085659
 32
0.0
 13
1150.748890157092
 23
158.858495085659
 33
0.0
  0
SOLID
  5
1F00A
330
1B
100
AcDbEntity
 67
     1
  8
titleblock
  6
ByBlock
100
AcDbTrace
 10
1150.748890157092
 20
158.858495085659
 30
0.0
 11
1152.805045557092
 21
159.2839704856589
 31
0.0
 12
1151.297352357093
 22
158.4443480856589
 32
0.0
 13
1151.297352357093
 23
158.4443480856589
 33
0.0
  0
SOLID
  5
1F00B
330
1B
100
AcDbEntity
 67
     1
  8
titleblock
  6
ByBlock
100
AcDbTrace
 10
1152.805045557092
 20
159.2839704856589
 30
0.0
 11
1153.312385157093
 21
158.288265085659
 31
0.0
 12
1151.297352357093
 22
158.4443480856589
 32
0.0
 13
1151.297352357093
 23
158.4443480856589
 33
0.0
  0
SOLID
  5
1F00C
330
1B
100
AcDbEntity
 67
     1
  8
titleblock
  6
ByBlock
100
AcDbTrace
 10
1151.659124557093
 20
157.860021085659
 30
0.0
 11
1151.297352357093
 21
158.4443480856589
 31
0.0
 12
1153.312385157093
 22
158.288265085659
 32
0.0
 13
1153.312385157093
 23
158.288265085659
 33
0.0
  0
SOLID
  5
1F00D
330
1B
100
AcDbEntity
 67
     1
  8
titleblock
  6
ByBlock
100
AcDbTrace
 10
1151.659124557093
 20
157.860021085659
 30
0.0
 11
1153.312385157093
 21
158.288265085659
 31
0.0
 12
1151.785413357093
 22
157.184482685659
 32
0.0
 13
1151.785413357093
 23
157.184482685659
 33
0.0
  0
SOLID
  5
1F00E
330
1B
100
AcDbEntity
 67
     1
  8
titleblock
  6
ByBlock
100
AcDbTrace
 10
1153.312385157093
 20
158.288265085659
 30
0.0
 11
1153.487213357092
 21
157.184482685659
 31
0.0
 12
1151.785413357093
 22
157.184482685659
 32
0.0
 13
1151.785413357093
 23
157.184482685659
 33
0.0
  0
SOLID
  5
1F00F
330
1B
100
AcDbEntity
 67
     1
  8
titleblock
  6
ByBlock
100
AcDbTrace
 10
1151.659124557093
 20
156.508944285659
 30
0.0
 11
1151.785413357093
 21
157.184482685659
 31
0.0
 12
1153.487213357092
 22
157.184482685659
 32
0.0
 13
1153.487213357092
 23
157.184482685659
 33
0.0
  0
SOLID
  5
1F010
330
1B
100
AcDbEntity
 67
     1
  8
titleblock
  6
ByBlock
100
AcDbTrace
 10
1153.487213357092
 20
157.184482685659
 30
0.0
 11
1153.312385157093
 21
156.080700285659
 31
0.0
 12
1151.659124557093
 22
156.508944285659
 32
0.0
 13
1151.659124557093
 23
156.508944285659
 33
0.0
  0
SOLID
  5
1F011
330
1B
100
AcDbEntity
 67
     1
  8
titleblock
  6
ByBlock
100
AcDbTrace
 10
1151.297352357093
 20
155.9246172856589
 30
0.0
 11
1151.659124557093
 21
156.508944285659
 31
0.0
 12
1153.312385157093
 22
156.080700285659
 32
0.0
 13
1153.312385157093
 23
156.080700285659
 33
0.0
  0
SOLID
  5
1F012
330
1B
100
AcDbEntity
 67
     1
  8
titleblock
  6
ByBlock
100
AcDbTrace
 10
1151.297352357093
 20
155.9246172856589
 30
0.0
 11
1153.312385157093
 21
156.080700285659
 31
0.0
 12
1150.748890157092
 22
155.510470285659
 32
0.0
 13
1150.748890157092
 23
155.510470285659
 33
0.0
  0
SOLID
  5
1F013
330
1B
100
AcDbEntity
 67
     1
  8
titleblock
  6
ByBlock
100
AcDbTrace
 10
1150.748890157092
 20
155.510470285659
 30
0.0
 11
1153.312385157093
 21
156.080700285659
 31
0.0
 12
1150.087880557092
 22
155.322383285659
 32
0.0
 13
1150.087880557092
 23
155.322383285659
 33
0.0
  0
SOLID
  5
1F014
330
1B
100
AcDbEntity
 67
     1
  8
titleblock
  6
ByBlock
100
AcDbTrace
 10
1153.312385157093
 20
156.080700285659
 30
0.0
 11
1152.926000357092
 21
155.322383285659
 31
0.0
 12
1150.087880557092
 22
155.322383285659
 32
0.0
 13
1150.087880557092
 23
155.322383285659
 33
0.0
  0
SOLID
  5
1F015
330
1B
100
AcDbEntity
 67
     1
  8
titleblock
  6
ByBlock
100
AcDbTrace
 10
1155.982763357093
 20
156.730457685659
 30
0.0
 11
1154.280963357092
 21
153.6126076856589
 31
0.0
 12
1155.982763357093
 22
158.432257685659
 32
0.0
 13
1155.982763357093
 23
158.432257685659
 33
0.0
  0
SOLID
  5
1F016
330
1B
100
AcDbEntity
 67
     1
  8
titleblock
  6
ByBlock
100
AcDbTrace
 10
1155.982763357093
 20
158.432257685659
 30
0.0
 11
1154.280963357092
 21
153.6126076856589
 31
0.0
 12
1155.982763357093
 22
160.7563576856589
 32
0.0
 13
1155.982763357093
 23
160.7563576856589
 33
0.0
  0
SOLID
  5
1F017
330
1B
100
AcDbEntity
 67
     1
  8
titleblock
  6
ByBlock
100
AcDbTrace
 10
1154.280963357092
 20
153.6126076856589
 30
0.0
 11
1154.280963357092
 21
160.7563576856589
 31
0.0
 12
1155.982763357093
 22
160.7563576856589
 32
0.0
 13
1155.982763357093
 23
160.7563576856589
 33
0.0
  0
SOLID
  5
1F018
330
1B
100
AcDbEntity
 67
     1
  8
titleblock
  6
ByBlock
100
AcDbTrace
 10
1155.982763357093
 20
156.730457685659
 30
0.0
 11
1155.982763357093
 21
153.6126076856589
 31
0.0
 12
1154.280963357092
 22
153.6126076856589
 32
0.0
 13
1154.280963357092
 23
153.6126076856589
 33
0.0
  0
LINE
  5
1F019
330
1B
100
AcDbEntity
 67
     1
  8
titleblock
  6
ByBlock
100
AcDbLine
 10
1150.494862374571
 20
169.4807338538389
 30
0.0
 11
1150.494862374571
 21
181.418733853839
 31
0.0
  0
TEXT
  5
1F01A
330
1B
100
AcDbEntity
 67
     1
  8
titleblock
  6
ByBlock
100
AcDbText
 10
1129.074195707905
 20
170.7507338538388
 30
0.0
 40
2.54
  1
MING CHEN
 41
0.8
 72
     1
 11
1137.540862374572
 21
170.7507338538388
 31
0.0
100
AcDbText
  0
LINE
  5
1F01B
330
1B
100
AcDbEntity
 67
     1
  8
titleblock
  6
ByBlock
100
AcDbLine
 10
1151.019120757092
 20
153.787435885659
 30
0.0
 11
1149.915338357092
 21
153.6126076856589
 31
0.0
  0
LINE
  5
1F01C
330
1B
100
AcDbEntity
 67
     1
  8
titleblock
  6
ByBlock
100
AcDbLine
 10
1148.811555957093
 20
160.581529485659
 30
0.0
 11
1149.915338357092
 21
160.7563576856589
 31
0.0
  0
LINE
  5
1F01D
330
1B
100
AcDbEntity
 67
     1
  8
titleblock
  6
ByBlock
100
AcDbLine
 10
1150.087880557092
 20
159.046582085659
 30
0.0
 11
1149.403579157091
 21
158.983158285659
 31
0.0
  0
LINE
  5
1F01E
330
1B
100
AcDbEntity
 67
     1
  8
titleblock
  6
ByBlock
100
AcDbLine
 10
1155.982763357093
 20
153.6126076856589
 30
0.0
 11
1154.280963357092
 21
153.6126076856589
 31
0.0
  0
LINE
  5
1F01F
330
1B
100
AcDbEntity
 67
     1
  8
titleblock
  6
ByBlock
100
AcDbLine
 10
1147.137213357091
 20
153.6126076856589
 30
0.0
 11
1144.957842557093
 21
153.6126076856589
 31
0.0
  0
LINE
  5
1F020
330
1B
100
AcDbEntity
 67
     1
  8
titleblock
  6
ByBlock
100
AcDbLine
 10
1142.489013357092
 20
153.6126076856589
 30
0.0
 11
1140.787213357093
 21
153.6126076856589
 31
0.0
  0
LINE
  5
1F021
330
1B
100
AcDbEntity
 67
     1
  8
titleblock
  6
ByBlock
100
AcDbLine
 10
1152.926000357092
 20
155.322383285659
 30
0.0
 11
1150.087880557092
 21
155.322383285659
 31
0.0
  0
LINE
  5
1F022
330
1B
100
AcDbEntity
 67
     1
  8
titleblock
  6
ByBlock
100
AcDbLine
 10
1150.087880557092
 20
159.046582085659
 30
0.0
 11
1146.904676357091
 21
159.046582085659
 31
0.0
  0
LINE
  5
1F023
330
1B
100
AcDbEntity
 67
     1
  8
titleblock
  6
ByBlock
100
AcDbLine
 10
1140.787213357093
 20
160.7563576856589
 30
0.0
 11
1142.489013357092
 21
160.7563576856589
 31
0.0
  0
LINE
  5
1F024
330
1B
100
AcDbEntity
 67
     1
  8
titleblock
  6
ByBlock
100
AcDbLine
 10
1144.730512557093
 20
160.7563576856589
 30
0.0
 11
1147.137213357091
 21
160.7563576856589
 31
0.0
  0
LINE
  5
1F025
330
1B
100
AcDbEntity
 67
     1
  8
titleblock
  6
ByBlock
100
AcDbLine
 10
1154.280963357092
 20
160.7563576856589
 30
0.0
 11
1155.982763357093
 21
160.7563576856589
 31
0.0
  0
LINE
  5
1F026
330
1B
100
AcDbEntity
 67
     1
  8
titleblock
  6
ByBlock
100
AcDbLine
 10
1149.403579157091
 20
155.385807085659
 30
0.0
 11
1150.087880557092
 21
155.322383285659
 31
0.0
  0
LINE
  5
1F027
330
1B
100
AcDbEntity
 67
     1
  8
titleblock
  6
ByBlock
100
AcDbLine
 10
1149.915338357092
 20
153.6126076856589
 30
0.0
 11
1148.811555957093
 21
153.787435885659
 31
0.0
  0
LINE
  5
1F028
330
1B
100
AcDbEntity
 67
     1
  8
titleblock
  6
ByBlock
100
AcDbLine
 10
1149.915338357092
 20
160.7563576856589
 30
0.0
 11
1151.019120757092
 21
160.581529485659
 31
0.0
  0
LINE
  5
1F029
330
1B
100
AcDbEntity
 67
     1
  8
titleblock
  6
ByBlock
100
AcDbLine
 10
1150.748890157092
 20
158.858495085659
 30
0.0
 11
1150.087880557092
 21
159.046582085659
 31
0.0
  0
LINE
  5
1F02A
330
1B
100
AcDbEntity
 67
     1
  8
titleblock
  6
ByBlock
100
AcDbLine
 10
1148.788365757093
 20
155.6921310856589
 30
0.0
 11
1149.403579157091
 21
155.385807085659
 31
0.0
  0
LINE
  5
1F02B
330
1B
100
AcDbEntity
 67
     1
  8
titleblock
  6
ByBlock
100
AcDbLine
 10
1148.811555957093
 20
153.787435885659
 30
0.0
 11
1147.815850557092
 21
154.294775485659
 31
0.0
  0
LINE
  5
1F02C
330
1B
100
AcDbEntity
 67
     1
  8
titleblock
  6
ByBlock
100
AcDbLine
 10
1151.019120757092
 20
160.581529485659
 30
0.0
 11
1152.014826157092
 21
160.074189885659
 31
0.0
  0
LINE
  5
1F02D
330
1B
100
AcDbEntity
 67
     1
  8
titleblock
  6
ByBlock
100
AcDbLine
 10
1151.297352357093
 20
158.4443480856589
 30
0.0
 11
1150.748890157092
 21
158.858495085659
 31
0.0
  0
LINE
  5
1F02E
330
1B
100
AcDbEntity
 67
     1
  8
titleblock
  6
ByBlock
100
AcDbLine
 10
1147.815850557092
 20
154.294775485659
 30
0.0
 11
1147.025631157092
 21
155.0849948856589
 31
0.0
  0
LINE
  5
1F02F
330
1B
100
AcDbEntity
 67
     1
  8
titleblock
  6
ByBlock
100
AcDbLine
 10
1152.014826157092
 20
160.074189885659
 30
0.0
 11
1152.805045557092
 21
159.2839704856589
 31
0.0
  0
LINE
  5
1F030
330
1B
100
AcDbEntity
 67
     1
  8
titleblock
  6
ByBlock
100
AcDbLine
 10
1148.325374557093
 20
156.2000040856589
 30
0.0
 11
1148.788365757093
 21
155.6921310856589
 31
0.0
  0
LINE
  5
1F031
330
1B
100
AcDbEntity
 67
     1
  8
titleblock
  6
ByBlock
100
AcDbLine
 10
1144.957842557093
 20
153.6126076856589
 30
0.0
 11
1142.489013357092
 21
156.6986568856588
 31
0.0
  0
LINE
  5
1F032
330
1B
100
AcDbEntity
 67
     1
  8
titleblock
  6
ByBlock
100
AcDbLine
 10
1143.962213357092
 20
157.5813576856589
 30
0.0
 11
1147.137213357091
 21
153.6126076856589
 31
0.0
  0
LINE
  5
1F033
330
1B
100
AcDbEntity
 67
     1
  8
titleblock
  6
ByBlock
100
AcDbLine
 10
1151.659124557093
 20
157.860021085659
 30
0.0
 11
1151.297352357093
 21
158.4443480856589
 31
0.0
  0
LINE
  5
1F034
330
1B
100
AcDbEntity
 67
     1
  8
titleblock
  6
ByBlock
100
AcDbLine
 10
1147.025631157092
 20
155.0849948856589
 30
0.0
 11
1146.518291557091
 21
156.080700285659
 31
0.0
  0
LINE
  5
1F035
330
1B
100
AcDbEntity
 67
     1
  8
titleblock
  6
ByBlock
100
AcDbLine
 10
1152.805045557092
 20
159.2839704856589
 30
0.0
 11
1153.312385157093
 21
158.288265085659
 31
0.0
  0
LINE
  5
1F036
330
1B
100
AcDbEntity
 67
     1
  8
titleblock
  6
ByBlock
100
AcDbLine
 10
1148.077114957092
 20
156.8408460856589
 30
0.0
 11
1148.325374557093
 21
156.2000040856589
 31
0.0
  0
LINE
  5
1F037
330
1B
100
AcDbEntity
 67
     1
  8
titleblock
  6
ByBlock
100
AcDbLine
 10
1151.785413357093
 20
157.184482685659
 30
0.0
 11
1151.659124557093
 21
157.860021085659
 31
0.0
  0
LINE
  5
1F038
330
1B
100
AcDbEntity
 67
     1
  8
titleblock
  6
ByBlock
100
AcDbLine
 10
1146.518291557091
 20
156.080700285659
 30
0.0
 11
1146.343463357092
 21
157.184482685659
 31
0.0
  0
LINE
  5
1F039
330
1B
100
AcDbEntity
 67
     1
  8
titleblock
  6
ByBlock
100
AcDbLine
 10
1153.312385157093
 20
158.288265085659
 30
0.0
 11
1153.487213357092
 21
157.184482685659
 31
0.0
  0
LINE
  5
1F03A
330
1B
100
AcDbEntity
 67
     1
  8
titleblock
  6
ByBlock
100
AcDbLine
 10
1140.787213357093
 20
153.6126076856589
 30
0.0
 11
1140.787213357093
 21
160.7563576856589
 31
0.0
  0
LINE
  5
1F03B
330
1B
100
AcDbEntity
 67
     1
  8
titleblock
  6
ByBlock
100
AcDbLine
 10
1142.489013357092
 20
160.7563576856589
 30
0.0
 11
1142.489013357092
 21
158.514858485659
 31
0.0
  0
LINE
  5
1F03C
330
1B
100
AcDbEntity
 67
     1
  8
titleblock
  6
ByBlock
100
AcDbLine
 10
1142.489013357092
 20
156.6986568856588
 30
0.0
 11
1142.489013357092
 21
153.6126076856589
 31
0.0
  0
LINE
  5
1F03D
330
1B
100
AcDbEntity
 67
     1
  8
titleblock
  6
ByBlock
100
AcDbLine
 10
1148.077114957092
 20
157.5281192856589
 30
0.0
 11
1148.077114957092
 21
156.8408460856589
 31
0.0
  0
LINE
  5
1F03E
330
1B
100
AcDbEntity
 67
     1
  8
titleblock
  6
ByBlock
100
AcDbLine
 10
1154.280963357092
 20
160.7563576856589
 30
0.0
 11
1154.280963357092
 21
153.6126076856589
 31
0.0
  0
LINE
  5
1F03F
330
1B
100
AcDbEntity
 67
     1
  8
titleblock
  6
ByBlock
100
AcDbLine
 10
1155.982763357093
 20
160.7563576856589
 30
0.0
 11
1155.982763357093
 21
158.432257685659
 31
0.0
  0
LINE
  5
1F040
330
1B
100
AcDbEntity
 67
     1
  8
titleblock
  6
ByBlock
100
AcDbLine
 10
1155.982763357093
 20
156.730457685659
 30
0.0
 11
1155.982763357093
 21
153.6126076856589
 31
0.0
  0
LINE
  5
1F041
330
1B
100
AcDbEntity
 67
     1
  8
titleblock
  6
ByBlock
100
AcDbLine
 10
1146.343463357092
 20
157.184482685659
 30
0.0
 11
1146.518291557091
 21
158.288265085659
 31
0.0
  0
LINE
  5
1F042
330
1B
100
AcDbEntity
 67
     1
  8
titleblock
  6
ByBlock
100
AcDbLine
 10
1153.487213357092
 20
157.184482685659
 30
0.0
 11
1153.312385157093
 21
156.080700285659
 31
0.0
  0
LINE
  5
1F043
330
1B
100
AcDbEntity
 67
     1
  8
titleblock
  6
ByBlock
100
AcDbLine
 10
1150.087880557092
 20
155.322383285659
 30
0.0
 11
1150.748890157092
 21
155.510470285659
 31
0.0
  0
LINE
  5
1F044
330
1B
100
AcDbEntity
 67
     1
  8
titleblock
  6
ByBlock
100
AcDbLine
 10
1151.659124557093
 20
156.508944285659
 30
0.0
 11
1151.785413357093
 21
157.184482685659
 31
0.0
  0
LINE
  5
1F045
330
1B
100
AcDbEntity
 67
     1
  8
titleblock
  6
ByBlock
100
AcDbLine
 10
1148.325374557093
 20
158.1689612856589
 30
0.0
 11
1148.077114957092
 21
157.5281192856589
 31
0.0
  0
LINE
  5
1F046
330
1B
100
AcDbEntity
 67
     1
  8
titleblock
  6
ByBlock
100
AcDbLine
 10
1146.904676357091
 20
159.046582085659
 30
0.0
 11
1147.025631157092
 21
159.2839704856589
 31
0.0
  0
LINE
  5
1F047
330
1B
100
AcDbEntity
 67
     1
  8
titleblock
  6
ByBlock
100
AcDbLine
 10
1146.518291557091
 20
158.288265085659
 30
0.0
 11
1146.904676357091
 21
159.046582085659
 31
0.0
  0
LINE
  5
1F048
330
1B
100
AcDbEntity
 67
     1
  8
titleblock
  6
ByBlock
100
AcDbLine
 10
1152.926000357092
 20
155.322383285659
 30
0.0
 11
1152.805045557092
 21
155.0849948856589
 31
0.0
  0
LINE
  5
1F049
330
1B
100
AcDbEntity
 67
     1
  8
titleblock
  6
ByBlock
100
AcDbLine
 10
1153.312385157093
 20
156.080700285659
 30
0.0
 11
1152.926000357092
 21
155.322383285659
 31
0.0
  0
LINE
  5
1F04A
330
1B
100
AcDbEntity
 67
     1
  8
titleblock
  6
ByBlock
100
AcDbLine
 10
1151.297352357093
 20
155.9246172856589
 30
0.0
 11
1151.659124557093
 21
156.508944285659
 31
0.0
  0
LINE
  5
1F04B
330
1B
100
AcDbEntity
 67
     1
  8
titleblock
  6
ByBlock
100
AcDbLine
 10
1148.788365757093
 20
158.6768342856589
 30
0.0
 11
1148.325374557093
 21
158.1689612856589
 31
0.0
  0
LINE
  5
1F04C
330
1B
100
AcDbEntity
 67
     1
  8
titleblock
  6
ByBlock
100
AcDbLine
 10
1144.730512557093
 20
160.7563576856589
 30
0.0
 11
1142.489013357092
 21
158.514858485659
 31
0.0
  0
LINE
  5
1F04D
330
1B
100
AcDbEntity
 67
     1
  8
titleblock
  6
ByBlock
100
AcDbLine
 10
1147.137213357091
 20
160.7563576856589
 30
0.0
 11
1143.962213357092
 21
157.5813576856589
 31
0.0
  0
LINE
  5
1F04E
330
1B
100
AcDbEntity
 67
     1
  8
titleblock
  6
ByBlock
100
AcDbLine
 10
1147.025631157092
 20
159.2839704856589
 30
0.0
 11
1147.815850557092
 21
160.074189885659
 31
0.0
  0
LINE
  5
1F04F
330
1B
100
AcDbEntity
 67
     1
  8
titleblock
  6
ByBlock
100
AcDbLine
 10
1152.805045557092
 20
155.0849948856589
 30
0.0
 11
1152.014826157092
 21
154.294775485659
 31
0.0
  0
LINE
  5
1F050
330
1B
100
AcDbEntity
 67
     1
  8
titleblock
  6
ByBlock
100
AcDbLine
 10
1150.748890157092
 20
155.510470285659
 30
0.0
 11
1151.297352357093
 21
155.9246172856589
 31
0.0
  0
LINE
  5
1F051
330
1B
100
AcDbEntity
 67
     1
  8
titleblock
  6
ByBlock
100
AcDbLine
 10
1147.815850557092
 20
160.074189885659
 30
0.0
 11
1148.811555957093
 21
160.581529485659
 31
0.0
  0
LINE
  5
1F052
330
1B
100
AcDbEntity
 67
     1
  8
titleblock
  6
ByBlock
100
AcDbLine
 10
1152.014826157092
 20
154.294775485659
 30
0.0
 11
1151.019120757092
 21
153.787435885659
 31
0.0
  0
LINE
  5
1F053
330
1B
100
AcDbEntity
 67
     1
  8
titleblock
  6
ByBlock
100
AcDbLine
 10
1149.403579157091
 20
158.983158285659
 30
0.0
 11
1148.788365757093
 21
158.6768342856589
 31
0.0
  0
CIRCLE
  5
1F054
330
1B
100
AcDbEntity
 67
     1
  8
titleblock
  6
ByBlock
100
AcDbCircle
 10
1149.915338357092
 20
157.184482685659
 30
0.0
 40
1.870074999999999
  0
CIRCLE
  5
1F055
330
1B
100
AcDbEntity
 67
     1
  8
titleblock
  6
ByBlock
100
AcDbCircle
 10
1149.915338357092
 20
157.184482685659
 30
0.0
 40
3.571874999999999
  0
SOLID
  5
1F056
330
1B
100
AcDbEntity
 67
     1
  8
titleblock
  6
ByBlock
100
AcDbTrace
 10
1157.967138357093
 20
158.432257685659
 30
0.0
 11
1155.982763357093
 21
156.730457685659
 31
0.0
 12
1155.982763357093
 22
158.432257685659
 32
0.0
 13
1155.982763357093
 23
158.432257685659
 33
0.0
  0
SOLID
  5
1F057
330
1B
100
AcDbEntity
 67
     1
  8
titleblock
  6
ByBlock
100
AcDbTrace
 10
1155.982763357093
 20
156.730457685659
 30
0.0
 11
1157.967138357093
 21
158.432257685659
 31
0.0
 12
1157.967138357093
 22
156.730457685659
 32
0.0
 13
1157.967138357093
 23
156.730457685659
 33
0.0
  0
TEXT
  5
1F058
330
1B
100
AcDbEntity
 67
     1
  8
titleblock
  6
ByBlock
100
AcDbText
 10
1142.112862374572
 20
182.688733853839
 30
0.0
 40
2.54
  1
DANIEL XIA
 41
0.8
 72
     1
 11
1151.256862374572
 21
182.688733853839
 31
0.0
100
AcDbText
  0
TEXT
  5
1F059
330
1B
100
AcDbEntity
 67
     1
  8
titleblock
  6
ByBlock
100
AcDbText
 10
1130.572120757092
 20
165.517308285659
 30
0.0
 40
2.285999999999999
  1
DO NOT SCALE DRAWING
 41
1.199999999999999
 51
0.000019
100
AcDbText
  0
TEXT
  5
1F05A
330
1B
100
AcDbEntity
 67
     1
  8
titleblock
  6
ByBlock
100
AcDbText
 10
1144.186396121832
 20
148.791230485659
 30
0.0
 40
1.904999999999999
  1
KOHLER CO. CHINA
 41
1.02
 51
0.000019
 72
     1
 11
1158.435796121832
 21
148.791230485659
 31
0.0
100
AcDbText
  0
TEXT
  5
1F05B
330
1B
100
AcDbEntity
 67
     1
  8
titleblock
  6
ByBlock
100
AcDbText
 10
1151.814674157093
 20
178.1928734856589
 30
0.0
 40
1.904999999999999
  1
DATE
 41
1.09
 51
0.000019
100
AcDbText
  0
LINE
  5
1F05C
330
1B
100
AcDbEntity
 67
     1
  8
titleblock
  6
ByBlock
100
AcDbLine
 10
1157.967138357093
 20
156.730457685659
 30
0.0
 11
1155.982763357093
 21
156.730457685659
 31
0.0
  0
LINE
  5
1F05D
330
1B
100
AcDbEntity
 67
     1
  8
titleblock
  6
ByBlock
100
AcDbLine
 10
1155.982763357093
 20
158.432257685659
 30
0.0
 11
1157.967138357093
 21
158.432257685659
 31
0.0
  0
TEXT
  5
1F05E
330
1B
100
AcDbEntity
 67
     1
  8
titleblock
  6
ByBlock
100
AcDbText
 10
1226.271529041238
 20
182.688733853839
 30
0.0
 40
2.54
  1
&scale
 41
0.8
 72
     1
 11
1231.520862374571
 21
182.688733853839
 31
0.0
100
AcDbText
  0
TEXT
  5
1F05F
330
1B
100
AcDbEntity
 67
     1
  8
titleblock
  6
ByBlock
100
AcDbText
 10
1227.909772157093
 20
177.586321485659
 30
0.0
 40
1.904999999999999
  1
DWG
 51
0.000019
100
AcDbText
  0
TEXT
  5
1F060
330
1B
100
AcDbEntity
 67
     1
  8
titleblock
  6
ByBlock
100
AcDbText
 10
1227.146984757092
 20
165.7205336856588
 30
0.0
 40
1.904999999999999
  1
SIZE
 51
0.000019
100
AcDbText
  0
TEXT
  5
1F061
330
1B
100
AcDbEntity
 67
     1
  8
titleblock
  6
ByBlock
100
AcDbText
 10
1196.367290157092
 20
160.0373852856589
 30
0.0
 40
1.904999999999999
  1
THIRD ANGLE PROJECTION
 51
0.000019
100
AcDbText
  0
TEXT
  5
1F062
330
1B
100
AcDbEntity
 67
     1
  8
titleblock
  6
ByBlock
100
AcDbText
 10
1196.929392157092
 20
144.1519966856589
 30
0.0
 40
1.904999999999999
  1
PART NAME
 41
0.8
 51
0.000019
100
AcDbText
  0
LINE
  5
1F063
330
1B
100
AcDbEntity
 67
     1
  8
titleblock
  6
ByBlock
100
AcDbLine
 10
1229.234862374571
 20
114.870733853839
 30
0.0
 11
1229.234862374571
 21
125.792733853839
 31
0.0
  0
TEXT
  5
1F064
330
1B
100
AcDbEntity
 67
     1
  8
titleblock
  6
ByBlock
100
AcDbText
 10
1164.312462374572
 20
117.283733853839
 30
0.0
 40
6.095999999999999
  1
f19950
 41
0.8
 72
     1
 11
1176.910862374572
 21
117.283733853839
 31
0.0
100
AcDbText
  0
TEXT
  5
1F066
330
1B
100
AcDbEntity
 67
     1
  8
titleblock
  6
ByBlock
100
AcDbText
 10
1147.624662374572
 20
131.6347338538389
 30
0.0
 40
6.095999999999999
  1
OVE  VANITY 900
 41
0.8
 72
     1
 11
1183.387862374571
 21
131.6347338538389
 31
0.0
100
AcDbText
  0
TEXT
  5
1F067
330
1B
100
AcDbEntity
 67
     1
  8
titleblock
  6
ByBlock
100
AcDbText
 10
1220.514195707906
 20
144.080733853839
 30
0.0
 40
2.54
  1
&model_name
 41
0.8
 72
     2
 11
1241.172862374573
 21
144.080733853839
 31
0.0
100
AcDbText
  0
LINE
  5
1F068
330
1B
100
AcDbEntity
 67
     1
  8
titleblock
  6
ByBlock
100
AcDbLine
 10
1242.188862374573
 20
143.572733853839
 30
0.0
 11
1195.198862374571
 21
143.572733853839
 31
0.0
  0
TEXT
  5
1F069
330
1B
100
AcDbEntity
 67
     1
  8
titleblock
  6
ByBlock
100
AcDbText
 10
1229.954529041239
 20
116.140733853839
 30
0.0
 40
2.54
  1
2 of 2
 41
0.8
 72
     1
 11
1235.711862374572
 21
116.140733853839
 31
0.0
100
AcDbText
  0
TEXT
  5
1F06A
330
1B
100
AcDbEntity
 67
     1
  8
titleblock
  6
ByBlock
100
AcDbText
 10
1231.458026559172
 20
122.2755668851388
 30
0.0
 40
1.904999999999999
  1
SHEET
 41
0.9399999999999998
 51
0.000019
100
AcDbText
  0
LINE
  5
1F06B
330
1B
100
AcDbEntity
 67
     1
  8
titleblock
  6
ByBlock
100
AcDbLine
 10
1195.198862374571
 20
143.572733853839
 30
0.0
 11
1195.198862374571
 21
169.4807338538389
 31
0.0
  0
LINE
  5
1F06C
330
1B
100
AcDbEntity
 67
     1
  8
titleblock
  6
ByBlock
100
AcDbLine
 10
1242.188862374573
 20
114.870733853839
 30
0.0
 11
1242.188862374573
 21
196.1507338538389
 31
0.0
  0
TEXT
  5
1F06D
330
1B
100
AcDbEntity
 67
     1
  8
titleblock
  6
ByBlock
100
AcDbText
 10
1094.872039757092
 20
185.7414994856589
 30
0.0
 40
1.904999999999999
  1
TOLERANCES
 41
1.229999999999999
 51
0.000019
100
AcDbText
  0
TEXT
  5
1F06E
330
1B
100
AcDbEntity
 67
     1
  8
titleblock
  6
ByBlock
100
AcDbText
 10
1101.211879757091
 20
182.1696244856588
 30
0.0
 40
1.904999999999999
  1
UNLESS
 41
1.01
 51
0.000019
100
AcDbText
  0
TEXT
  5
1F06F
330
1B
100
AcDbEntity
 67
     1
  8
titleblock
  6
ByBlock
100
AcDbText
 10
1097.859079757092
 20
178.597749485659
 30
0.0
 40
1.904999999999999
  1
OTHERWISE
 41
1.04
 51
0.000019
100
AcDbText
  0
TEXT
  5
1F070
330
1B
100
AcDbEntity
 67
     1
  8
titleblock
  6
ByBlock
100
AcDbText
 10
1097.950519757093
 20
175.0258744856589
 30
0.0
 40
1.904999999999999
  1
SPECIFIED
 41
1.03
 51
0.000019
100
AcDbText
  0
TEXT
  5
1F071
330
1B
100
AcDbEntity
 67
     1
  8
Dim
100
AcDbText
 10
1045.872225315574
 20
161.0986183502402
 30
0.0
 40
1.428749999999999
  1
SEE
 41
1.229999999999999
 51
0.000019
 72
     1
 11
1048.215375315574
 21
161.0986183502402
 31
0.0
100
AcDbText
  0
TEXT
  5
1F072
330
1B
100
AcDbEntity
 67
     1
  8
Dim
100
AcDbText
 10
1043.629912303915
 20
155.5413254938423
 30
0.0
 40
1.428749999999999
  1
SHT #1
 41
1.229999999999999
 51
0.000019
 72
     1
 11
1048.316212303915
 21
155.5413254938423
 31
0.0
100
AcDbText
  0
LINE
  5
1F073
330
1B
100
AcDbEntity
 67
     1
  8
Dim
 48
30.0
100
AcDbLine
 10
1089.788862374571
 20
189.8007338538388
 30
0.0
 11
1052.50934866743
 21
162.1820697354384
 31
0.0
  0
LINE
  5
1F074
330
1B
100
AcDbEntity
 67
     1
  8
Dim
 48
30.0
100
AcDbLine
 10
1006.476862374571
 20
189.8007338538388
 30
0.0
 11
1043.756376081714
 21
162.1820697354384
 31
0.0
  0
LINE
  5
1F075
330
1B
100
AcDbEntity
 67
     1
  8
titleblock
  6
ByBlock
100
AcDbLine
 10
1089.788862374571
 20
152.767533853839
 30
0.0
 11
975.4888623745721
 21
152.767533853839
 31
0.0
  0
LINE
  5
1F076
330
1B
100
AcDbEntity
 67
     1
  8
titleblock
  6
ByBlock
100
AcDbLine
 10
1089.788862374571
 20
158.9397338538389
 30
0.0
 11
975.4888623745721
 21
158.9397338538389
 31
0.0
  0
LINE
  5
1F077
330
1B
100
AcDbEntity
 67
     1
  8
titleblock
  6
ByBlock
100
AcDbLine
 10
1089.788862374571
 20
165.1119338538389
 30
0.0
 11
975.4888623745721
 21
165.1119338538389
 31
0.0
  0
LINE
  5
1F078
330
1B
100
AcDbEntity
 67
     1
  8
titleblock
  6
ByBlock
100
AcDbLine
 10
1089.788862374571
 20
171.2841338538389
 30
0.0
 11
975.4888623745721
 21
171.2841338538389
 31
0.0
  0
LINE
  5
1F079
330
1B
100
AcDbEntity
 67
     1
  8
titleblock
  6
ByBlock
100
AcDbLine
 10
1089.788862374571
 20
177.4563338538389
 30
0.0
 11
975.4888623745721
 21
177.4563338538389
 31
0.0
  0
LINE
  5
1F07A
330
1B
100
AcDbEntity
 67
     1
  8
titleblock
  6
ByBlock
100
AcDbLine
 10
1089.788862374571
 20
183.6285338538388
 30
0.0
 11
975.4888623745721
 21
183.6285338538388
 31
0.0
  0
LINE
  5
1F07B
330
1B
100
AcDbEntity
 67
     1
  8
titleblock
  6
ByBlock
100
AcDbLine
 10
1089.788862374571
 20
189.8007338538388
 30
0.0
 11
975.4888623745721
 21
189.8007338538388
 31
0.0
  0
LINE
  5
1F07C
330
1B
100
AcDbEntity
 67
     1
  8
titleblock
  6
ByBlock
100
AcDbLine
 10
1089.788862374571
 20
196.1507338538389
 30
0.0
 11
975.4888623745721
 21
196.1507338538389
 31
0.0
  0
TEXT
  5
1F07D
330
1B
100
AcDbEntity
 67
     1
  8
titleblock
  6
ByBlock
100
AcDbText
 10
1000.063362374572
 20
191.705733853839
 30
0.0
 40
2.54
  1
ALL DIMENSIONS IN: MM [INCHES]
 41
0.95
 72
     1
 11
1032.638862374572
 21
191.705733853839
 31
0.0
100
AcDbText
  0
LINE
  5
1F07E
330
1B
100
AcDbEntity
 67
     1
  8
titleblock
  6
ByBlock
100
AcDbLine
 10
1124.586862374572
 20
143.572733853839
 30
0.0
 11
1089.788862374571
 21
143.572733853839
 31
0.0
  0
TEXT
  5
1F07F
330
1B
100
AcDbEntity
 67
     1
  8
titleblock
  6
ByBlock
100
AcDbText
 10
1091.295414957092
 20
140.061174285659
 30
0.0
 40
1.587499999999999
  1
THIS DRAWING IN DESIGN
 41
0.925
 51
0.000019
100
AcDbText
  0
TEXT
  5
1F080
330
1B
100
AcDbEntity
 67
     1
  8
titleblock
  6
ByBlock
100
AcDbText
 10
1091.295414957092
 20
137.1242992856589
 30
0.0
 40
1.587499999999999
  1
AND DETAILS IS THE PROP-
 41
0.85
 51
0.000019
100
AcDbText
  0
TEXT
  5
1F082
330
1B
100
AcDbEntity
 67
     1
  8
titleblock
  6
ByBlock
100
AcDbText
 10
1091.295414957092
 20
116.677299285659
 30
0.0
 40
1.587499999999999
  1
RESERVED.
 51
0.000019
100
AcDbText
  0
TEXT
  5
1F083
330
1B
100
AcDbEntity
 67
     1
  8
titleblock
  6
ByBlock
100
AcDbText
 10
1076.972931554872
 20
122.720492373239
 30
0.0
 40
2.285999999999999
  1
DATE
 41
1.09
 51
0.000019
100
AcDbText
  0
TEXT
  5
1F084
330
1B
100
AcDbEntity
 67
     1
  8
titleblock
  6
ByBlock
100
AcDbText
 10
1091.295414957092
 20
134.203299285659
 30
0.0
 40
1.587499999999999
  1
ERTY OF KOHLER CO. 
 51
0.000019
100
AcDbText
  0
TEXT
  5
1F085
330
1B
100
AcDbEntity
 67
     1
  8
titleblock
  6
ByBlock
100
AcDbText
 10
1091.295414957092
 20
122.5192992856588
 30
0.0
 40
1.587499999999999
  1
ALL RIGHTS OF DESIGN
 51
0.000019
100
AcDbText
  0
TEXT
  5
1F086
330
1B
100
AcDbEntity
 67
     1
  8
titleblock
  6
ByBlock
100
AcDbText
 10
1091.295414957092
 20
119.598299285659
 30
0.0
 40
1.587499999999999
  1
OR INVENTION ARE
 51
0.000019
100
AcDbText
  0
TEXT
  5
1F087
330
1B
100
AcDbEntity
 67
     1
  8
titleblock
  6
ByBlock
100
AcDbText
 10
1091.295414957092
 20
131.361674285659
 30
0.0
 40
1.587499999999999
  1
AND MAY NOT BE USED
 51
0.000019
100
AcDbText
  0
TEXT
  5
1F088
330
1B
100
AcDbEntity
 67
     1
  8
titleblock
  6
ByBlock
100
AcDbText
 10
1091.295414957092
 20
128.440674285659
 30
0.0
 40
1.587499999999999
  1
EXCEPT IN CONNECTION
 51
0.000019
100
AcDbText
  0
TEXT
  5
1F089
330
1B
100
AcDbEntity
 67
     1
  8
titleblock
  6
ByBlock
100
AcDbText
 10
1091.295414957092
 20
125.4402992856589
 30
0.0
 40
1.587499999999999
  1
WITH KOHLER CO. WORK.
 51
0.000019
100
AcDbText
  0
TEXT
  5
1F08A
330
1B
100
AcDbEntity
 67
     1
  8
titleblock
  6
ByBlock
100
AcDbText
 10
1032.838554687913
 20
122.5439548675389
 30
0.0
 40
2.285999999999999
  1
DESCRIPTION
 41
1.05
 51
0.000019
100
AcDbText
  0
TEXT
  5
1F08C
330
1B
100
AcDbEntity
 67
     1
  8
titleblock
  6
ByBlock
100
AcDbText
 10
978.9297773443925
 20
122.5439548675389
 30
0.0
 40
2.285999999999999
  1
SHT
 41
0.9400037037
 51
0.000019
100
AcDbText
  0
TEXT
  5
1F08D
330
1B
100
AcDbEntity
 67
     1
  8
titleblock
  6
ByBlock
100
AcDbText
 10
994.4650780034718
 20
122.3674173592989
 30
0.0
 40
2.285999999999999
  1
SYM
 51
0.000019
100
AcDbText
  0
TEXT
  5
1F08E
330
1B
100
AcDbEntity
 67
     1
  8
titleblock
  6
ByBlock
100
AcDbText
 10
1011.236141210073
 20
122.5439548675389
 30
0.0
 40
2.285999999999999
  1
BY
 41
0.9700055556
 51
0.000019
100
AcDbText
  0
TEXT
  5
1F090
330
1B
100
AcDbEntity
 67
     1
  8
titleblock
  6
ByBlock
100
AcDbText
 10
994.4650780034718
 20
129.5718323748278
 30
0.0
 40
2.285999999999999
  1
-
 51
0.000019
100
AcDbText
  0
TEXT
  5
1F091
330
1B
100
AcDbEntity
 67
     1
  8
titleblock
  6
ByBlock
100
AcDbText
 10
1001.242889957091
 20
116.8916244856588
 30
0.0
 40
2.285999999999999
  1
DWG REVISION RECORD
 41
1.379999999999999
 51
0.000019
100
AcDbText
  0
LINE
  5
1F092
330
1B
100
AcDbEntity
 67
     1
  8
titleblock
  6
ByBlock
100
AcDbLine
 10
1089.788862374571
 20
114.870733853839
 30
0.0
 11
975.4888623745721
 21
114.870733853839
 31
0.0
  0
LINE
  5
1F093
330
1B
100
AcDbEntity
 67
     1
  8
titleblock
  6
ByBlock
100
AcDbLine
 10
1089.788862374571
 20
121.474733853839
 30
0.0
 11
975.4888623745721
 21
121.474733853839
 31
0.0
  0
LINE
  5
1F094
330
1B
100
AcDbEntity
 67
     1
  8
titleblock
  6
ByBlock
100
AcDbLine
 10
1089.788862374571
 20
128.0787338538388
 30
0.0
 11
975.4888623745721
 21
128.0787338538388
 31
0.0
  0
LINE
  5
1F095
330
1B
100
AcDbEntity
 67
     1
  8
titleblock
  6
ByBlock
100
AcDbLine
 10
1089.788862374571
 20
134.250933853839
 30
0.0
 11
975.4888623745721
 21
134.250933853839
 31
0.0
  0
LINE
  5
1F096
330
1B
100
AcDbEntity
 67
     1
  8
titleblock
  6
ByBlock
100
AcDbLine
 10
1089.788862374571
 20
140.423133853839
 30
0.0
 11
975.4888623745721
 21
140.423133853839
 31
0.0
  0
LINE
  5
1F097
330
1B
100
AcDbEntity
 67
     1
  8
titleblock
  6
ByBlock
100
AcDbLine
 10
1089.788862374571
 20
146.595333853839
 30
0.0
 11
975.4888623745721
 21
146.595333853839
 31
0.0
  0
LINE
  5
1F098
330
1B
100
AcDbEntity
 67
     1
  8
titleblock
  6
ByBlock
100
AcDbLine
 10
1124.586862374572
 20
114.870733853839
 30
0.0
 11
1124.586862374572
 21
189.8007338538388
 31
0.0
  0
LINE
  5
1F099
330
1B
100
AcDbEntity
 67
     1
  8
titleblock
  6
ByBlock
100
AcDbLine
 10
1089.788862374571
 20
114.870733853839
 30
0.0
 11
1089.788862374571
 21
196.1507338538389
 31
0.0
  0
LINE
  5
1F09A
330
1B
100
AcDbEntity
 67
     1
  8
titleblock
  6
ByBlock
100
AcDbLine
 10
1089.788862374571
 20
114.870733853839
 30
0.0
 11
1089.788862374571
 21
196.1507338538389
 31
0.0
  0
LINE
  5
1F09B
330
1B
100
AcDbEntity
 67
     1
  8
titleblock
  6
ByBlock
100
AcDbLine
 10
1073.278862374573
 20
121.474733853839
 30
0.0
 11
1073.278862374573
 21
189.8007338538388
 31
0.0
  0
LINE
  5
1F09C
330
1B
100
AcDbEntity
 67
     1
  8
titleblock
  6
ByBlock
100
AcDbLine
 10
1020.700862374571
 20
121.474733853839
 30
0.0
 11
1020.700862374571
 21
189.8007338538388
 31
0.0
  0
LINE
  5
1F09D
330
1B
100
AcDbEntity
 67
     1
  8
titleblock
  6
ByBlock
100
AcDbLine
 10
1006.476862374571
 20
121.474733853839
 30
0.0
 11
1006.476862374571
 21
189.8007338538388
 31
0.0
  0
LINE
  5
1F09E
330
1B
100
AcDbEntity
 67
     1
  8
titleblock
  6
ByBlock
100
AcDbLine
 10
990.474862374573
 20
121.474733853839
 30
0.0
 11
990.474862374573
 21
189.8007338538388
 31
0.0
  0
LINE
  5
1F09F
330
1B
100
AcDbEntity
 67
     1
  8
titleblock
  6
ByBlock
100
AcDbLine
 10
975.4888623745721
 20
114.870733853839
 30
0.0
 11
975.4888623745721
 21
196.1507338538389
 31
0.0
  0
LINE
  5
1F0A0
330
1B
100
AcDbEntity
 67
     1
  8
Dim
 48
30.0
100
AcDbLine
 10
1043.492754184113
 20
155.5020927249324
 30
0.0
 11
1006.476862374571
 21
128.0787338538388
 31
0.0
  0
LINE
  5
1F0A1
330
1B
100
AcDbEntity
 67
     1
  8
Dim
 48
30.0
100
AcDbLine
 10
1052.50934866743
 20
155.6973979722394
 30
0.0
 11
1089.788862374571
 21
128.0787338538388
 31
0.0
  0
TEXT
  5
1F0A2
330
1B
100
AcDbEntity
 67
     1
  8
titleblock
  6
ByBlock
100
AcDbText
 10
1125.395219757092
 20
178.1408796856589
 30
0.0
 40
1.904999999999999
  1
DRAWN
 41
1.04
 51
0.000019
100
AcDbText
  0
TEXT
  5
1F0A3
330
1B
100
AcDbEntity
 67
     1
  8
titleblock
  6
ByBlock
100
AcDbText
 10
1125.887751157092
 20
143.8233714856589
 30
0.0
 40
1.904999999999999
  1
DESCRIPTION
 41
1.05
 51
0.000019
100
AcDbText
  0
TEXT
  5
1F0A4
330
1B
100
AcDbEntity
 67
     1
  8
titleblock
  6
ByBlock
100
AcDbText
 10
1125.284424957092
 20
186.944672085659
 30
0.0
 40
1.904999999999999
  1
APPROVED
 41
1.07
 51
0.000019
100
AcDbText
  0
TEXT
  5
1F0A5
330
1B
100
AcDbEntity
 67
     1
  8
titleblock
  6
ByBlock
100
AcDbText
 10
1125.660649757092
 20
122.139543885659
 30
0.0
 40
1.904999999999999
  1
DWG. NO.
 41
0.8
 51
0.000019
100
AcDbText
  0
LINE
  5
1F0A6
330
1B
100
AcDbEntity
 67
     1
  8
titleblock
  6
ByBlock
100
AcDbLine
 10
1242.188862374573
 20
114.870733853839
 30
0.0
 11
1089.788862374571
 21
114.870733853839
 31
0.0
  0
LINE
  5
1F0A7
330
1B
100
AcDbEntity
 67
     1
  8
titleblock
  6
ByBlock
100
AcDbLine
 10
1242.188862374573
 20
125.792733853839
 30
0.0
 11
1124.586862374572
 21
125.792733853839
 31
0.0
  0
LINE
  5
1F0A8
330
1B
100
AcDbEntity
 67
     1
  8
titleblock
  6
ByBlock
100
AcDbLine
 10
1242.188862374573
 20
147.128733853839
 30
0.0
 11
1124.586862374572
 21
147.128733853839
 31
0.0
  0
LINE
  5
1F0A9
330
1B
100
AcDbEntity
 67
     1
  8
titleblock
  6
ByBlock
100
AcDbLine
 10
1242.188862374573
 20
163.8927338538389
 30
0.0
 11
1124.586862374572
 21
163.8927338538389
 31
0.0
  0
LINE
  5
1F0AA
330
1B
100
AcDbEntity
 67
     1
  8
titleblock
  6
ByBlock
100
AcDbLine
 10
1220.852862374572
 20
169.4807338538389
 30
0.0
 11
1124.586862374572
 21
169.4807338538389
 31
0.0
  0
LINE
  5
1F0AB
330
1B
100
AcDbEntity
 67
     1
  8
titleblock
  6
ByBlock
100
AcDbLine
 10
1242.188862374573
 20
181.418733853839
 30
0.0
 11
1124.586862374572
 21
181.418733853839
 31
0.0
  0
LINE
  5
1F0AC
330
1B
100
AcDbEntity
 67
     1
  8
titleblock
  6
ByBlock
100
AcDbLine
 10
1242.188862374573
 20
189.8007338538388
 30
0.0
 11
1089.788862374571
 21
189.8007338538388
 31
0.0
  0
LINE
  5
1F0AD
330
1B
100
AcDbEntity
 67
     1
  8
titleblock
  6
ByBlock
100
AcDbLine
 10
1242.188862374573
 20
196.1507338538389
 30
0.0
 11
1089.788862374571
 21
196.1507338538389
 31
0.0
  0
TEXT
  5
1F0AE
330
1B
100
AcDbEntity
 67
     1
  8
titleblock
  6
ByBlock
100
AcDbText
 10
1110.489862374572
 20
191.705733853839
 30
0.0
 40
2.54
  1
DIMENSIONING AND TOLERANCING PER ASME Y14.5M-1994
 41
0.95
 72
     1
 11
1165.988862374572
 21
191.705733853839
 31
0.0
100
AcDbText
  0
LINE
  5
1F0B5
330
1B
100
AcDbEntity
 67
     1
  8
titleblock
  6
ByBlock
100
AcDbLine
 10
1220.852862374572
 20
1027.492733853839
 30
0.0
 11
1220.852862374572
 21
1053.400733853838
 31
0.0
  0
LINE
  5
1F0B6
330
1B
100
AcDbEntity
 67
     1
  8
titleblock
  6
ByBlock
100
AcDbLine
 10
1202.564862374573
 20
1033.080733853839
 30
0.0
 11
1202.564862374573
 21
1053.400733853838
 31
0.0
  0
TEXT
  5
1F0B7
330
1B
100
AcDbEntity
 67
     1
  8
titleblock
  6
ByBlock
100
AcDbText
 10
1201.869234957092
 20
1029.113371285659
 30
0.0
 40
2.54
  1
ACAD 2004
 41
0.8
 51
0.000019
100
AcDbText
  0
TEXT
  5
1F0B8
330
1B
100
AcDbEntity
 67
     1
  8
titleblock
  6
ByBlock
100
AcDbText
 10
1203.787722357092
 20
1041.800798285658
 30
0.0
 40
1.904999999999999
  1
DATE
 41
1.09
 51
0.000019
100
AcDbText
  0
TEXT
  5
1F0B9
330
1B
100
AcDbEntity
 67
     1
  8
titleblock
  6
ByBlock
100
AcDbText
 10
1221.819385557092
 20
1050.544291085659
 30
0.0
 40
1.904999999999999
  1
SCALE
 41
1.069994666699999
 51
0.000019
100
AcDbText
  0
TEXT
  5
1F0BA
330
1B
100
AcDbEntity
 67
     1
  8
titleblock
  6
ByBlock
100
AcDbText
 10
1203.590415157092
 20
1050.428594085659
 30
0.0
 40
1.904999999999999
  1
PLOT DATE
 41
0.925
 51
0.000019
100
AcDbText
  0
TEXT
  5
1F0BB
330
1B
100
AcDbEntity
 67
     1
  8
titleblock
  6
ByBlock
100
AcDbText
 10
1196.929392157092
 20
1007.751996685658
 30
0.0
 40
1.904999999999999
  1
PART NAME
 41
0.8
 51
0.000019
100
AcDbText
  0
TEXT
  5
1F0BC
330
1B
100
AcDbEntity
 67
     1
  8
titleblock
  6
ByBlock
100
AcDbText
 10
1227.311346683891
 20
1033.483697325279
 30
0.0
 40
6.095999999999999
  1
E
 41
1.199999999999999
100
AcDbText
  0
LINE
  5
1F0BD
330
1B
100
AcDbEntity
 67
     1
  8
titleblock
  6
ByBlock
100
AcDbLine
 10
1229.407914957092
 20
1021.123674285659
 30
0.0
 11
1220.676664957093
 21
1019.536174285659
 31
0.0
  0
LINE
  5
1F0BE
330
1B
100
AcDbEntity
 67
     1
  8
titleblock
  6
ByBlock
100
AcDbLine
 10
1203.868976957092
 20
1017.551799285659
 30
0.0
 11
1212.192455357092
 21
1017.551799285659
 31
0.0
  0
LINE
  5
1F0BF
330
1B
100
AcDbEntity
 67
     1
  8
titleblock
  6
ByBlock
100
AcDbLine
 10
1213.472996357092
 20
1017.551799285659
 30
0.0
 11
1214.811754157092
 21
1017.551799285659
 31
0.0
  0
LINE
  5
1F0C0
330
1B
100
AcDbEntity
 67
     1
  8
titleblock
  6
ByBlock
100
AcDbLine
 10
1216.150486557092
 20
1017.551799285659
 30
0.0
 11
1230.702044957092
 21
1017.551799285659
 31
0.0
  0
LINE
  5
1F0C1
330
1B
100
AcDbEntity
 67
     1
  8
titleblock
  6
ByBlock
100
AcDbLine
 10
1220.676664957093
 20
1015.567424285659
 30
0.0
 11
1229.407914957092
 21
1013.979924285658
 31
0.0
  0
LINE
  5
1F0C2
330
1B
100
AcDbEntity
 67
     1
  8
titleblock
  6
ByBlock
100
AcDbLine
 10
1207.976664957092
 20
1021.595225285659
 30
0.0
 11
1207.976664957092
 21
1013.446371885659
 31
0.0
  0
LINE
  5
1F0C3
330
1B
100
AcDbEntity
 67
     1
  8
titleblock
  6
ByBlock
100
AcDbLine
 10
1220.676664957093
 20
1019.536174285659
 30
0.0
 11
1220.676664957093
 21
1015.567424285659
 31
0.0
  0
LINE
  5
1F0C4
330
1B
100
AcDbEntity
 67
     1
  8
titleblock
  6
ByBlock
100
AcDbLine
 10
1229.407914957092
 20
1013.979924285658
 30
0.0
 11
1229.407914957092
 21
1021.123674285659
 31
0.0
  0
CIRCLE
  5
1F0C5
330
1B
100
AcDbEntity
 67
     1
  8
titleblock
  6
ByBlock
100
AcDbCircle
 10
1207.976664957092
 20
1017.551799285659
 30
0.0
 40
1.984375
  0
CIRCLE
  5
1F0C6
330
1B
100
AcDbEntity
 67
     1
  8
titleblock
  6
ByBlock
100
AcDbCircle
 10
1207.976664957092
 20
1017.551799285659
 30
0.0
 40
3.571874999999999
  0
SOLID
  5
1F0C7
330
1B
100
AcDbEntity
 67
     1
  8
titleblock
  6
ByBlock
100
AcDbTrace
 10
1173.793294157093
 20
1020.367490885659
 30
0.0
 11
1171.689488357091
 21
1019.990732685659
 31
0.0
 12
1174.355446957092
 22
1020.921566485659
 32
0.0
 13
1174.355446957092
 23
1020.921566485659
 33
0.0
  0
SOLID
  5
1F0C8
330
1B
100
AcDbEntity
 67
     1
  8
titleblock
  6
ByBlock
100
AcDbTrace
 10
1174.355446957092
 20
1020.921566485659
 30
0.0
 11
1171.689488357091
 21
1019.990732685659
 31
0.0
 12
1174.581049757093
 22
1021.414732885658
 32
0.0
 13
1174.581049757093
 23
1021.414732885658
 33
0.0
  0
SOLID
  5
1F0C9
330
1B
100
AcDbEntity
 67
     1
  8
titleblock
  6
ByBlock
100
AcDbTrace
 10
1174.581049757093
 20
1021.414732885658
 30
0.0
 11
1171.689488357091
 21
1019.990732685659
 31
0.0
 12
1172.537213357093
 22
1021.414732885658
 32
0.0
 13
1172.537213357093
 23
1021.414732885658
 33
0.0
  0
SOLID
  5
1F0CA
330
1B
100
AcDbEntity
 67
     1
  8
titleblock
  6
ByBlock
100
AcDbTrace
 10
1171.689488357091
 20
1019.990732685659
 30
0.0
 11
1169.987688357092
 21
1017.212607685659
 31
0.0
 12
1172.537213357093
 22
1021.414732885658
 32
0.0
 13
1172.537213357093
 23
1021.414732885658
 33
0.0
  0
SOLID
  5
1F0CB
330
1B
100
AcDbEntity
 67
     1
  8
titleblock
  6
ByBlock
100
AcDbTrace
 10
1172.537213357093
 20
1021.414732885658
 30
0.0
 11
1169.987688357092
 21
1017.212607685659
 31
0.0
 12
1171.689488357091
 22
1021.414732885658
 32
0.0
 13
1171.689488357091
 23
1021.414732885658
 33
0.0
  0
SOLID
  5
1F0CC
330
1B
100
AcDbEntity
 67
     1
  8
titleblock
  6
ByBlock
100
AcDbTrace
 10
1171.689488357091
 20
1021.414732885658
 30
0.0
 11
1169.987688357092
 21
1017.212607685659
 31
0.0
 12
1171.689488357091
 22
1022.972057685659
 32
0.0
 13
1171.689488357091
 23
1022.972057685659
 33
0.0
  0
SOLID
  5
1F0CD
330
1B
100
AcDbEntity
 67
     1
  8
titleblock
  6
ByBlock
100
AcDbTrace
 10
1169.987688357092
 20
1017.212607685659
 30
0.0
 11
1169.987688357092
 21
1022.972057685659
 31
0.0
 12
1171.689488357091
 22
1022.972057685659
 32
0.0
 13
1171.689488357091
 23
1022.972057685659
 33
0.0
  0
SOLID
  5
1F0CE
330
1B
100
AcDbEntity
 67
     1
  8
titleblock
  6
ByBlock
100
AcDbTrace
 10
1171.689488357091
 20
1019.990732685659
 30
0.0
 11
1171.689488357091
 21
1017.212607685659
 31
0.0
 12
1169.987688357092
 22
1017.212607685659
 32
0.0
 13
1169.987688357092
 23
1017.212607685659
 33
0.0
  0
SOLID
  5
1F0CF
330
1B
100
AcDbEntity
 67
     1
  8
titleblock
  6
ByBlock
100
AcDbTrace
 10
1171.689488357091
 20
1019.990732685659
 30
0.0
 11
1173.793294157093
 21
1020.367490885659
 31
0.0
 12
1172.056111957092
 22
1019.990732685659
 32
0.0
 13
1172.056111957092
 23
1019.990732685659
 33
0.0
  0
SOLID
  5
1F0D0
330
1B
100
AcDbEntity
 67
     1
  8
titleblock
  6
ByBlock
100
AcDbTrace
 10
1172.056111957092
 20
1019.990732685659
 30
0.0
 11
1173.793294157093
 21
1020.367490885659
 31
0.0
 12
1173.597688757092
 22
1017.212607685659
 32
0.0
 13
1173.597688757092
 23
1017.212607685659
 33
0.0
  0
SOLID
  5
1F0D1
330
1B
100
AcDbEntity
 67
     1
  8
titleblock
  6
ByBlock
100
AcDbTrace
 10
1173.793294157093
 20
1020.367490885659
 30
0.0
 11
1175.543938357092
 21
1017.212607685659
 31
0.0
 12
1173.597688757092
 22
1017.212607685659
 32
0.0
 13
1173.597688757092
 23
1017.212607685659
 33
0.0
  0
SOLID
  5
1F0D2
330
1B
100
AcDbEntity
 67
     1
  8
titleblock
  6
ByBlock
100
AcDbTrace
 10
1174.566362138512
 20
1023.181480685659
 30
0.0
 11
1170.050496138512
 21
1022.972057685659
 31
0.0
 12
1174.081298338511
 22
1023.804161685659
 32
0.0
 13
1174.081298338511
 23
1023.804161685659
 33
0.0
  0
SOLID
  5
1F0D3
330
1B
100
AcDbEntity
 67
     1
  8
titleblock
  6
ByBlock
100
AcDbTrace
 10
1174.081298338511
 20
1023.804161685659
 30
0.0
 11
1170.050496138512
 21
1022.972057685659
 31
0.0
 12
1173.406496538511
 22
1024.213635085659
 32
0.0
 13
1173.406496538511
 23
1024.213635085659
 33
0.0
  0
SOLID
  5
1F0D4
330
1B
100
AcDbEntity
 67
     1
  8
titleblock
  6
ByBlock
100
AcDbTrace
 10
1173.406496538511
 20
1024.213635085659
 30
0.0
 11
1170.050496138512
 21
1022.972057685659
 31
0.0
 12
1172.630196338512
 22
1024.356357685659
 32
0.0
 13
1172.630196338512
 23
1024.356357685659
 33
0.0
  0
SOLID
  5
1F0D5
330
1B
100
AcDbEntity
 67
     1
  8
titleblock
  6
ByBlock
100
AcDbTrace
 10
1170.050496138512
 20
1022.972057685659
 30
0.0
 11
1170.050496138512
 21
1024.356357685659
 31
0.0
 12
1172.630196338512
 22
1024.356357685659
 32
0.0
 13
1172.630196338512
 23
1024.356357685659
 33
0.0
  0
SOLID
  5
1F0D6
330
1B
100
AcDbEntity
 67
     1
  8
titleblock
  6
ByBlock
100
AcDbTrace
 10
1170.050496138512
 20
1022.972057685659
 30
0.0
 11
1174.566362138512
 21
1023.181480685659
 31
0.0
 12
1171.752296138511
 22
1022.972057685659
 32
0.0
 13
1171.752296138511
 23
1022.972057685659
 33
0.0
  0
SOLID
  5
1F0D7
330
1B
100
AcDbEntity
 67
     1
  8
titleblock
  6
ByBlock
100
AcDbTrace
 10
1171.752296138511
 20
1022.972057685659
 30
0.0
 11
1174.566362138512
 21
1023.181480685659
 31
0.0
 12
1172.600021138513
 22
1022.972057685659
 32
0.0
 13
1172.600021138513
 23
1022.972057685659
 33
0.0
  0
SOLID
  5
1F0D8
330
1B
100
AcDbEntity
 67
     1
  8
titleblock
  6
ByBlock
100
AcDbTrace
 10
1172.600021138513
 20
1022.972057685659
 30
0.0
 11
1174.566362138512
 21
1023.181480685659
 31
0.0
 12
1172.989352338513
 22
1022.867739885659
 32
0.0
 13
1172.989352338513
 23
1022.867739885659
 33
0.0
  0
SOLID
  5
1F0D9
330
1B
100
AcDbEntity
 67
     1
  8
titleblock
  6
ByBlock
100
AcDbTrace
 10
1172.989352338513
 20
1022.867739885659
 30
0.0
 11
1174.566362138512
 21
1023.181480685659
 31
0.0
 12
1173.274365738513
 22
1022.582726485659
 32
0.0
 13
1173.274365738513
 23
1022.582726485659
 33
0.0
  0
SOLID
  5
1F0DA
330
1B
100
AcDbEntity
 67
     1
  8
titleblock
  6
ByBlock
100
AcDbTrace
 10
1174.566362138512
 20
1023.181480685659
 30
0.0
 11
1174.798238738513
 21
1022.426973685659
 31
0.0
 12
1173.274365738513
 22
1022.582726485659
 32
0.0
 13
1173.274365738513
 23
1022.582726485659
 33
0.0
  0
SOLID
  5
1F0DB
330
1B
100
AcDbEntity
 67
     1
  8
titleblock
  6
ByBlock
100
AcDbTrace
 10
1173.378683538513
 20
1022.193395285659
 30
0.0
 11
1173.274365738513
 21
1022.582726485659
 31
0.0
 12
1174.798238738513
 22
1022.426973685659
 32
0.0
 13
1174.798238738513
 23
1022.426973685659
 33
0.0
  0
SOLID
  5
1F0DC
330
1B
100
AcDbEntity
 67
     1
  8
titleblock
  6
ByBlock
100
AcDbTrace
 10
1173.378683538513
 20
1022.193395285659
 30
0.0
 11
1174.798238738513
 21
1022.426973685659
 31
0.0
 12
1173.274365738513
 22
1021.804064085658
 32
0.0
 13
1173.274365738513
 23
1021.804064085658
 33
0.0
  0
SOLID
  5
1F0DD
330
1B
100
AcDbEntity
 67
     1
  8
titleblock
  6
ByBlock
100
AcDbTrace
 10
1174.798238738513
 20
1022.426973685659
 30
0.0
 11
1174.746625938513
 21
1021.639345085659
 31
0.0
 12
1173.274365738513
 22
1021.804064085658
 32
0.0
 13
1173.274365738513
 23
1021.804064085658
 33
0.0
  0
SOLID
  5
1F0DE
330
1B
100
AcDbEntity
 67
     1
  8
titleblock
  6
ByBlock
100
AcDbTrace
 10
1172.989352338513
 20
1021.519050685659
 30
0.0
 11
1173.274365738513
 21
1021.804064085658
 31
0.0
 12
1174.746625938513
 22
1021.639345085659
 32
0.0
 13
1174.746625938513
 23
1021.639345085659
 33
0.0
  0
SOLID
  5
1F0DF
330
1B
100
AcDbEntity
 67
     1
  8
titleblock
  6
ByBlock
100
AcDbTrace
 10
1172.989352338513
 20
1021.519050685659
 30
0.0
 11
1174.746625938513
 21
1021.639345085659
 31
0.0
 12
1172.600021138513
 22
1021.414732885658
 32
0.0
 13
1172.600021138513
 23
1021.414732885658
 33
0.0
  0
SOLID
  5
1F0E0
330
1B
100
AcDbEntity
 67
     1
  8
titleblock
  6
ByBlock
100
AcDbTrace
 10
1174.746625938513
 20
1021.639345085659
 30
0.0
 11
1174.643857538513
 21
1021.414732885658
 31
0.0
 12
1172.600021138513
 22
1021.414732885658
 32
0.0
 13
1172.600021138513
 23
1021.414732885658
 33
0.0
  0
SOLID
  5
1F0E1
330
1B
100
AcDbEntity
 67
     1
  8
titleblock
  6
ByBlock
100
AcDbTrace
 10
1142.489013357092
 20
1022.114858485659
 30
0.0
 11
1144.730512557093
 21
1024.356357685659
 31
0.0
 12
1147.137213357091
 22
1024.356357685659
 32
0.0
 13
1147.137213357091
 23
1024.356357685659
 33
0.0
  0
SOLID
  5
1F0E2
330
1B
100
AcDbEntity
 67
     1
  8
titleblock
  6
ByBlock
100
AcDbTrace
 10
1147.137213357091
 20
1024.356357685659
 30
0.0
 11
1143.962213357092
 21
1021.181357685659
 31
0.0
 12
1142.489013357092
 22
1022.114858485659
 32
0.0
 13
1142.489013357092
 23
1022.114858485659
 33
0.0
  0
SOLID
  5
1F0E3
330
1B
100
AcDbEntity
 67
     1
  8
titleblock
  6
ByBlock
100
AcDbTrace
 10
1143.962213357092
 20
1021.181357685659
 30
0.0
 11
1142.489013357092
 21
1020.298656885659
 31
0.0
 12
1142.489013357092
 22
1022.114858485659
 32
0.0
 13
1142.489013357092
 23
1022.114858485659
 33
0.0
  0
SOLID
  5
1F0E4
330
1B
100
AcDbEntity
 67
     1
  8
titleblock
  6
ByBlock
100
AcDbTrace
 10
1142.489013357092
 20
1020.298656885659
 30
0.0
 11
1140.787213357093
 21
1017.212607685659
 31
0.0
 12
1142.489013357092
 22
1022.114858485659
 32
0.0
 13
1142.489013357092
 23
1022.114858485659
 33
0.0
  0
SOLID
  5
1F0E5
330
1B
100
AcDbEntity
 67
     1
  8
titleblock
  6
ByBlock
100
AcDbTrace
 10
1142.489013357092
 20
1022.114858485659
 30
0.0
 11
1140.787213357093
 21
1017.212607685659
 31
0.0
 12
1142.489013357092
 22
1024.356357685659
 32
0.0
 13
1142.489013357092
 23
1024.356357685659
 33
0.0
  0
SOLID
  5
1F0E6
330
1B
100
AcDbEntity
 67
     1
  8
titleblock
  6
ByBlock
100
AcDbTrace
 10
1140.787213357093
 20
1017.212607685659
 30
0.0
 11
1140.787213357093
 21
1024.356357685659
 31
0.0
 12
1142.489013357092
 22
1024.356357685659
 32
0.0
 13
1142.489013357092
 23
1024.356357685659
 33
0.0
  0
SOLID
  5
1F0E7
330
1B
100
AcDbEntity
 67
     1
  8
titleblock
  6
ByBlock
100
AcDbTrace
 10
1142.489013357092
 20
1020.298656885659
 30
0.0
 11
1142.489013357092
 21
1017.212607685659
 31
0.0
 12
1140.787213357093
 22
1017.212607685659
 32
0.0
 13
1140.787213357093
 23
1017.212607685659
 33
0.0
  0
SOLID
  5
1F0E8
330
1B
100
AcDbEntity
 67
     1
  8
titleblock
  6
ByBlock
100
AcDbTrace
 10
1142.489013357092
 20
1020.298656885659
 30
0.0
 11
1143.962213357092
 21
1021.181357685659
 31
0.0
 12
1144.957842557093
 22
1017.212607685659
 32
0.0
 13
1144.957842557093
 23
1017.212607685659
 33
0.0
  0
SOLID
  5
1F0E9
330
1B
100
AcDbEntity
 67
     1
  8
titleblock
  6
ByBlock
100
AcDbTrace
 10
1143.962213357092
 20
1021.181357685659
 30
0.0
 11
1147.137213357091
 21
1017.212607685659
 31
0.0
 12
1144.957842557093
 22
1017.212607685659
 32
0.0
 13
1144.957842557093
 23
1017.212607685659
 33
0.0
  0
SOLID
  5
1F0EA
330
1B
100
AcDbEntity
 67
     1
  8
titleblock
  6
ByBlock
100
AcDbTrace
 10
1148.788365757093
 20
1022.276834285658
 30
0.0
 11
1146.518291557091
 21
1021.888265085658
 31
0.0
 12
1149.403579157091
 22
1022.583158285659
 32
0.0
 13
1149.403579157091
 23
1022.583158285659
 33
0.0
  0
SOLID
  5
1F0EB
330
1B
100
AcDbEntity
 67
     1
  8
titleblock
  6
ByBlock
100
AcDbTrace
 10
1150.087880557092
 20
1022.646582085659
 30
0.0
 11
1149.403579157091
 21
1022.583158285659
 31
0.0
 12
1146.904676357091
 22
1022.646582085659
 32
0.0
 13
1146.904676357091
 23
1022.646582085659
 33
0.0
  0
SOLID
  5
1F0EC
330
1B
100
AcDbEntity
 67
     1
  8
titleblock
  6
ByBlock
100
AcDbTrace
 10
1146.518291557091
 20
1021.888265085658
 30
0.0
 11
1146.904676357091
 21
1022.646582085659
 31
0.0
 12
1149.403579157091
 22
1022.583158285659
 32
0.0
 13
1149.403579157091
 23
1022.583158285659
 33
0.0
  0
SOLID
  5
1F0ED
330
1B
100
AcDbEntity
 67
     1
  8
titleblock
  6
ByBlock
100
AcDbTrace
 10
1148.788365757093
 20
1022.276834285658
 30
0.0
 11
1148.325374557093
 21
1021.768961285659
 31
0.0
 12
1146.518291557091
 22
1021.888265085658
 32
0.0
 13
1146.518291557091
 23
1021.888265085658
 33
0.0
  0
SOLID
  5
1F0EE
330
1B
100
AcDbEntity
 67
     1
  8
titleblock
  6
ByBlock
100
AcDbTrace
 10
1148.077114957092
 20
1021.128119285659
 30
0.0
 11
1146.343463357092
 21
1020.784482685659
 31
0.0
 12
1148.325374557093
 22
1021.768961285659
 32
0.0
 13
1148.325374557093
 23
1021.768961285659
 33
0.0
  0
SOLID
  5
1F0EF
330
1B
100
AcDbEntity
 67
     1
  8
titleblock
  6
ByBlock
100
AcDbTrace
 10
1146.343463357092
 20
1020.784482685659
 30
0.0
 11
1146.518291557091
 21
1021.888265085658
 31
0.0
 12
1148.325374557093
 22
1021.768961285659
 32
0.0
 13
1148.325374557093
 23
1021.768961285659
 33
0.0
  0
SOLID
  5
1F0F0
330
1B
100
AcDbEntity
 67
     1
  8
titleblock
  6
ByBlock
100
AcDbTrace
 10
1148.077114957092
 20
1021.128119285659
 30
0.0
 11
1148.077114957092
 21
1020.440846085659
 31
0.0
 12
1146.343463357092
 22
1020.784482685659
 32
0.0
 13
1146.343463357092
 23
1020.784482685659
 33
0.0
  0
SOLID
  5
1F0F1
330
1B
100
AcDbEntity
 67
     1
  8
titleblock
  6
ByBlock
100
AcDbTrace
 10
1148.325374557093
 20
1019.800004085659
 30
0.0
 11
1146.518291557091
 21
1019.680700285658
 31
0.0
 12
1148.077114957092
 22
1020.440846085659
 32
0.0
 13
1148.077114957092
 23
1020.440846085659
 33
0.0
  0
SOLID
  5
1F0F2
330
1B
100
AcDbEntity
 67
     1
  8
titleblock
  6
ByBlock
100
AcDbTrace
 10
1146.518291557091
 20
1019.680700285658
 30
0.0
 11
1146.343463357092
 21
1020.784482685659
 31
0.0
 12
1148.077114957092
 22
1020.440846085659
 32
0.0
 13
1148.077114957092
 23
1020.440846085659
 33
0.0
  0
SOLID
  5
1F0F3
330
1B
100
AcDbEntity
 67
     1
  8
titleblock
  6
ByBlock
100
AcDbTrace
 10
1148.325374557093
 20
1019.800004085659
 30
0.0
 11
1148.788365757093
 21
1019.292131085659
 31
0.0
 12
1146.518291557091
 22
1019.680700285658
 32
0.0
 13
1146.518291557091
 23
1019.680700285658
 33
0.0
  0
SOLID
  5
1F0F4
330
1B
100
AcDbEntity
 67
     1
  8
titleblock
  6
ByBlock
100
AcDbTrace
 10
1152.926000357092
 20
1018.922383285659
 30
0.0
 11
1147.025631157092
 21
1018.684994885659
 31
0.0
 12
1150.087880557092
 22
1018.922383285659
 32
0.0
 13
1150.087880557092
 23
1018.922383285659
 33
0.0
  0
SOLID
  5
1F0F5
330
1B
100
AcDbEntity
 67
     1
  8
titleblock
  6
ByBlock
100
AcDbTrace
 10
1150.087880557092
 20
1018.922383285659
 30
0.0
 11
1147.025631157092
 21
1018.684994885659
 31
0.0
 12
1149.403579157091
 22
1018.985807085659
 32
0.0
 13
1149.403579157091
 23
1018.985807085659
 33
0.0
  0
SOLID
  5
1F0F6
330
1B
100
AcDbEntity
 67
     1
  8
titleblock
  6
ByBlock
100
AcDbTrace
 10
1149.403579157091
 20
1018.985807085659
 30
0.0
 11
1147.025631157092
 21
1018.684994885659
 31
0.0
 12
1148.788365757093
 22
1019.292131085659
 32
0.0
 13
1148.788365757093
 23
1019.292131085659
 33
0.0
  0
SOLID
  5
1F0F7
330
1B
100
AcDbEntity
 67
     1
  8
titleblock
  6
ByBlock
100
AcDbTrace
 10
1147.025631157092
 20
1018.684994885659
 30
0.0
 11
1146.518291557091
 21
1019.680700285658
 31
0.0
 12
1148.788365757093
 22
1019.292131085659
 32
0.0
 13
1148.788365757093
 23
1019.292131085659
 33
0.0
  0
SOLID
  5
1F0F8
330
1B
100
AcDbEntity
 67
     1
  8
titleblock
  6
ByBlock
100
AcDbTrace
 10
1152.926000357092
 20
1018.922383285659
 30
0.0
 11
1152.805045557092
 21
1018.684994885659
 31
0.0
 12
1147.025631157092
 22
1018.684994885659
 32
0.0
 13
1147.025631157092
 23
1018.684994885659
 33
0.0
  0
SOLID
  5
1F0F9
330
1B
100
AcDbEntity
 67
     1
  8
titleblock
  6
ByBlock
100
AcDbTrace
 10
1147.815850557092
 20
1017.894775485659
 30
0.0
 11
1147.025631157092
 21
1018.684994885659
 31
0.0
 12
1152.805045557092
 22
1018.684994885659
 32
0.0
 13
1152.805045557092
 23
1018.684994885659
 33
0.0
  0
SOLID
  5
1F0FA
330
1B
100
AcDbEntity
 67
     1
  8
titleblock
  6
ByBlock
100
AcDbTrace
 10
1152.805045557092
 20
1018.684994885659
 30
0.0
 11
1152.014826157092
 21
1017.894775485659
 31
0.0
 12
1147.815850557092
 22
1017.894775485659
 32
0.0
 13
1147.815850557092
 23
1017.894775485659
 33
0.0
  0
SOLID
  5
1F0FB
330
1B
100
AcDbEntity
 67
     1
  8
titleblock
  6
ByBlock
100
AcDbTrace
 10
1148.811555957093
 20
1017.387435885659
 30
0.0
 11
1147.815850557092
 21
1017.894775485659
 31
0.0
 12
1152.014826157092
 22
1017.894775485659
 32
0.0
 13
1152.014826157092
 23
1017.894775485659
 33
0.0
  0
SOLID
  5
1F0FC
330
1B
100
AcDbEntity
 67
     1
  8
titleblock
  6
ByBlock
100
AcDbTrace
 10
1152.014826157092
 20
1017.894775485659
 30
0.0
 11
1151.019120757092
 21
1017.387435885659
 31
0.0
 12
1148.811555957093
 22
1017.387435885659
 32
0.0
 13
1148.811555957093
 23
1017.387435885659
 33
0.0
  0
SOLID
  5
1F0FD
330
1B
100
AcDbEntity
 67
     1
  8
titleblock
  6
ByBlock
100
AcDbTrace
 10
1149.915338357092
 20
1017.212607685659
 30
0.0
 11
1148.811555957093
 21
1017.387435885659
 31
0.0
 12
1151.019120757092
 22
1017.387435885659
 32
0.0
 13
1151.019120757092
 23
1017.387435885659
 33
0.0
  0
SOLID
  5
1F0FE
330
1B
100
AcDbEntity
 67
     1
  8
titleblock
  6
ByBlock
100
AcDbTrace
 10
1149.915338357092
 20
1024.356357685659
 30
0.0
 11
1151.019120757092
 21
1024.181529485659
 31
0.0
 12
1148.811555957093
 22
1024.181529485659
 32
0.0
 13
1148.811555957093
 23
1024.181529485659
 33
0.0
  0
SOLID
  5
1F0FF
330
1B
100
AcDbEntity
 67
     1
  8
titleblock
  6
ByBlock
100
AcDbTrace
 10
1147.815850557092
 20
1023.674189885658
 30
0.0
 11
1148.811555957093
 21
1024.181529485659
 31
0.0
 12
1151.019120757092
 22
1024.181529485659
 32
0.0
 13
1151.019120757092
 23
1024.181529485659
 33
0.0
  0
SOLID
  5
1F100
330
1B
100
AcDbEntity
 67
     1
  8
titleblock
  6
ByBlock
100
AcDbTrace
 10
1151.019120757092
 20
1024.181529485659
 30
0.0
 11
1152.014826157092
 21
1023.674189885658
 31
0.0
 12
1147.815850557092
 22
1023.674189885658
 32
0.0
 13
1147.815850557092
 23
1023.674189885658
 33
0.0
  0
SOLID
  5
1F101
330
1B
100
AcDbEntity
 67
     1
  8
titleblock
  6
ByBlock
100
AcDbTrace
 10
1147.025631157092
 20
1022.883970485659
 30
0.0
 11
1147.815850557092
 21
1023.674189885658
 31
0.0
 12
1152.014826157092
 22
1023.674189885658
 32
0.0
 13
1152.014826157092
 23
1023.674189885658
 33
0.0
  0
SOLID
  5
1F102
330
1B
100
AcDbEntity
 67
     1
  8
titleblock
  6
ByBlock
100
AcDbTrace
 10
1152.014826157092
 20
1023.674189885658
 30
0.0
 11
1152.805045557092
 21
1022.883970485659
 31
0.0
 12
1147.025631157092
 22
1022.883970485659
 32
0.0
 13
1147.025631157092
 23
1022.883970485659
 33
0.0
  0
SOLID
  5
1F103
330
1B
100
AcDbEntity
 67
     1
  8
titleblock
  6
ByBlock
100
AcDbTrace
 10
1146.904676357091
 20
1022.646582085659
 30
0.0
 11
1147.025631157092
 21
1022.883970485659
 31
0.0
 12
1152.805045557092
 22
1022.883970485659
 32
0.0
 13
1152.805045557092
 23
1022.883970485659
 33
0.0
  0
SOLID
  5
1F104
330
1B
100
AcDbEntity
 67
     1
  8
titleblock
  6
ByBlock
100
AcDbTrace
 10
1146.904676357091
 20
1022.646582085659
 30
0.0
 11
1152.805045557092
 21
1022.883970485659
 31
0.0
 12
1150.087880557092
 22
1022.646582085659
 32
0.0
 13
1150.087880557092
 23
1022.646582085659
 33
0.0
  0
SOLID
  5
1F105
330
1B
100
AcDbEntity
 67
     1
  8
titleblock
  6
ByBlock
100
AcDbTrace
 10
1150.087880557092
 20
1022.646582085659
 30
0.0
 11
1152.805045557092
 21
1022.883970485659
 31
0.0
 12
1150.748890157092
 22
1022.458495085659
 32
0.0
 13
1150.748890157092
 23
1022.458495085659
 33
0.0
  0
SOLID
  5
1F106
330
1B
100
AcDbEntity
 67
     1
  8
titleblock
  6
ByBlock
100
AcDbTrace
 10
1150.748890157092
 20
1022.458495085659
 30
0.0
 11
1152.805045557092
 21
1022.883970485659
 31
0.0
 12
1151.297352357093
 22
1022.044348085659
 32
0.0
 13
1151.297352357093
 23
1022.044348085659
 33
0.0
  0
SOLID
  5
1F107
330
1B
100
AcDbEntity
 67
     1
  8
titleblock
  6
ByBlock
100
AcDbTrace
 10
1152.805045557092
 20
1022.883970485659
 30
0.0
 11
1153.312385157093
 21
1021.888265085658
 31
0.0
 12
1151.297352357093
 22
1022.044348085659
 32
0.0
 13
1151.297352357093
 23
1022.044348085659
 33
0.0
  0
SOLID
  5
1F108
330
1B
100
AcDbEntity
 67
     1
  8
titleblock
  6
ByBlock
100
AcDbTrace
 10
1151.659124557093
 20
1021.460021085659
 30
0.0
 11
1151.297352357093
 21
1022.044348085659
 31
0.0
 12
1153.312385157093
 22
1021.888265085658
 32
0.0
 13
1153.312385157093
 23
1021.888265085658
 33
0.0
  0
SOLID
  5
1F109
330
1B
100
AcDbEntity
 67
     1
  8
titleblock
  6
ByBlock
100
AcDbTrace
 10
1151.659124557093
 20
1021.460021085659
 30
0.0
 11
1153.312385157093
 21
1021.888265085658
 31
0.0
 12
1151.785413357093
 22
1020.784482685659
 32
0.0
 13
1151.785413357093
 23
1020.784482685659
 33
0.0
  0
SOLID
  5
1F10A
330
1B
100
AcDbEntity
 67
     1
  8
titleblock
  6
ByBlock
100
AcDbTrace
 10
1153.312385157093
 20
1021.888265085658
 30
0.0
 11
1153.487213357092
 21
1020.784482685659
 31
0.0
 12
1151.785413357093
 22
1020.784482685659
 32
0.0
 13
1151.785413357093
 23
1020.784482685659
 33
0.0
  0
SOLID
  5
1F10B
330
1B
100
AcDbEntity
 67
     1
  8
titleblock
  6
ByBlock
100
AcDbTrace
 10
1151.659124557093
 20
1020.108944285659
 30
0.0
 11
1151.785413357093
 21
1020.784482685659
 31
0.0
 12
1153.487213357092
 22
1020.784482685659
 32
0.0
 13
1153.487213357092
 23
1020.784482685659
 33
0.0
  0
SOLID
  5
1F10C
330
1B
100
AcDbEntity
 67
     1
  8
titleblock
  6
ByBlock
100
AcDbTrace
 10
1153.487213357092
 20
1020.784482685659
 30
0.0
 11
1153.312385157093
 21
1019.680700285658
 31
0.0
 12
1151.659124557093
 22
1020.108944285659
 32
0.0
 13
1151.659124557093
 23
1020.108944285659
 33
0.0
  0
SOLID
  5
1F10D
330
1B
100
AcDbEntity
 67
     1
  8
titleblock
  6
ByBlock
100
AcDbTrace
 10
1151.297352357093
 20
1019.524617285659
 30
0.0
 11
1151.659124557093
 21
1020.108944285659
 31
0.0
 12
1153.312385157093
 22
1019.680700285658
 32
0.0
 13
1153.312385157093
 23
1019.680700285658
 33
0.0
  0
SOLID
  5
1F10E
330
1B
100
AcDbEntity
 67
     1
  8
titleblock
  6
ByBlock
100
AcDbTrace
 10
1151.297352357093
 20
1019.524617285659
 30
0.0
 11
1153.312385157093
 21
1019.680700285658
 31
0.0
 12
1150.748890157092
 22
1019.110470285659
 32
0.0
 13
1150.748890157092
 23
1019.110470285659
 33
0.0
  0
SOLID
  5
1F10F
330
1B
100
AcDbEntity
 67
     1
  8
titleblock
  6
ByBlock
100
AcDbTrace
 10
1150.748890157092
 20
1019.110470285659
 30
0.0
 11
1153.312385157093
 21
1019.680700285658
 31
0.0
 12
1150.087880557092
 22
1018.922383285659
 32
0.0
 13
1150.087880557092
 23
1018.922383285659
 33
0.0
  0
SOLID
  5
1F110
330
1B
100
AcDbEntity
 67
     1
  8
titleblock
  6
ByBlock
100
AcDbTrace
 10
1153.312385157093
 20
1019.680700285658
 30
0.0
 11
1152.926000357092
 21
1018.922383285659
 31
0.0
 12
1150.087880557092
 22
1018.922383285659
 32
0.0
 13
1150.087880557092
 23
1018.922383285659
 33
0.0
  0
SOLID
  5
1F111
330
1B
100
AcDbEntity
 67
     1
  8
titleblock
  6
ByBlock
100
AcDbTrace
 10
1157.967138357093
 20
1022.032257685659
 30
0.0
 11
1157.967138357093
 21
1024.356357685659
 31
0.0
 12
1159.668938357092
 22
1024.356357685659
 32
0.0
 13
1159.668938357092
 23
1024.356357685659
 33
0.0
  0
SOLID
  5
1F112
330
1B
100
AcDbEntity
 67
     1
  8
titleblock
  6
ByBlock
100
AcDbTrace
 10
1157.967138357093
 20
1022.032257685659
 30
0.0
 11
1155.982763357093
 21
1020.330457685659
 31
0.0
 12
1155.982763357093
 22
1022.032257685659
 32
0.0
 13
1155.982763357093
 23
1022.032257685659
 33
0.0
  0
SOLID
  5
1F113
330
1B
100
AcDbEntity
 67
     1
  8
titleblock
  6
ByBlock
100
AcDbTrace
 10
1155.982763357093
 20
1020.330457685659
 30
0.0
 11
1154.280963357092
 21
1017.212607685659
 31
0.0
 12
1155.982763357093
 22
1022.032257685659
 32
0.0
 13
1155.982763357093
 23
1022.032257685659
 33
0.0
  0
SOLID
  5
1F114
330
1B
100
AcDbEntity
 67
     1
  8
titleblock
  6
ByBlock
100
AcDbTrace
 10
1155.982763357093
 20
1022.032257685659
 30
0.0
 11
1154.280963357092
 21
1017.212607685659
 31
0.0
 12
1155.982763357093
 22
1024.356357685659
 32
0.0
 13
1155.982763357093
 23
1024.356357685659
 33
0.0
  0
SOLID
  5
1F115
330
1B
100
AcDbEntity
 67
     1
  8
titleblock
  6
ByBlock
100
AcDbTrace
 10
1154.280963357092
 20
1017.212607685659
 30
0.0
 11
1154.280963357092
 21
1024.356357685659
 31
0.0
 12
1155.982763357093
 22
1024.356357685659
 32
0.0
 13
1155.982763357093
 23
1024.356357685659
 33
0.0
  0
SOLID
  5
1F116
330
1B
100
AcDbEntity
 67
     1
  8
titleblock
  6
ByBlock
100
AcDbTrace
 10
1155.982763357093
 20
1020.330457685659
 30
0.0
 11
1155.982763357093
 21
1017.212607685659
 31
0.0
 12
1154.280963357092
 22
1017.212607685659
 32
0.0
 13
1154.280963357092
 23
1017.212607685659
 33
0.0
  0
SOLID
  5
1F117
330
1B
100
AcDbEntity
 67
     1
  8
titleblock
  6
ByBlock
100
AcDbTrace
 10
1155.982763357093
 20
1020.330457685659
 30
0.0
 11
1157.967138357093
 21
1022.032257685659
 31
0.0
 12
1157.967138357093
 22
1020.330457685659
 32
0.0
 13
1157.967138357093
 23
1020.330457685659
 33
0.0
  0
SOLID
  5
1F118
330
1B
100
AcDbEntity
 67
     1
  8
titleblock
  6
ByBlock
100
AcDbTrace
 10
1157.967138357093
 20
1022.032257685659
 30
0.0
 11
1159.668938357092
 21
1024.356357685659
 31
0.0
 12
1157.967138357093
 22
1020.330457685659
 32
0.0
 13
1157.967138357093
 23
1020.330457685659
 33
0.0
  0
SOLID
  5
1F119
330
1B
100
AcDbEntity
 67
     1
  8
titleblock
  6
ByBlock
100
AcDbTrace
 10
1157.967138357093
 20
1020.330457685659
 30
0.0
 11
1159.668938357092
 21
1024.356357685659
 31
0.0
 12
1157.967138357093
 22
1017.212607685659
 32
0.0
 13
1157.967138357093
 23
1017.212607685659
 33
0.0
  0
SOLID
  5
1F11A
330
1B
100
AcDbEntity
 67
     1
  8
titleblock
  6
ByBlock
100
AcDbTrace
 10
1159.668938357092
 20
1024.356357685659
 30
0.0
 11
1159.668938357092
 21
1017.212607685659
 31
0.0
 12
1157.967138357093
 22
1017.212607685659
 32
0.0
 13
1157.967138357093
 23
1017.212607685659
 33
0.0
  0
SOLID
  5
1F11B
330
1B
100
AcDbEntity
 67
     1
  8
titleblock
  6
ByBlock
100
AcDbTrace
 10
1164.431438357093
 20
1018.914407685659
 30
0.0
 11
1160.462688357093
 21
1017.212607685659
 31
0.0
 12
1162.164488357092
 22
1018.914407685659
 32
0.0
 13
1162.164488357092
 23
1018.914407685659
 33
0.0
  0
SOLID
  5
1F11C
330
1B
100
AcDbEntity
 67
     1
  8
titleblock
  6
ByBlock
100
AcDbTrace
 10
1162.164488357092
 20
1018.914407685659
 30
0.0
 11
1160.462688357093
 21
1017.212607685659
 31
0.0
 12
1162.164488357092
 22
1024.356357685659
 32
0.0
 13
1162.164488357092
 23
1024.356357685659
 33
0.0
  0
SOLID
  5
1F11D
330
1B
100
AcDbEntity
 67
     1
  8
titleblock
  6
ByBlock
100
AcDbTrace
 10
1160.462688357093
 20
1017.212607685659
 30
0.0
 11
1160.462688357093
 21
1024.356357685659
 31
0.0
 12
1162.164488357092
 22
1024.356357685659
 32
0.0
 13
1162.164488357092
 23
1024.356357685659
 33
0.0
  0
SOLID
  5
1F11E
330
1B
100
AcDbEntity
 67
     1
  8
titleblock
  6
ByBlock
100
AcDbTrace
 10
1164.431438357093
 20
1018.914407685659
 30
0.0
 11
1164.431438357093
 21
1017.212607685659
 31
0.0
 12
1160.462688357093
 22
1017.212607685659
 32
0.0
 13
1160.462688357093
 23
1017.212607685659
 33
0.0
  0
SOLID
  5
1F11F
330
1B
100
AcDbEntity
 67
     1
  8
titleblock
  6
ByBlock
100
AcDbTrace
 10
1169.193938357092
 20
1024.356357685659
 30
0.0
 11
1169.193938357092
 21
1022.654557685659
 31
0.0
 12
1166.926988357092
 22
1022.654557685659
 32
0.0
 13
1166.926988357092
 23
1022.654557685659
 33
0.0
  0
SOLID
  5
1F120
330
1B
100
AcDbEntity
 67
     1
  8
titleblock
  6
ByBlock
100
AcDbTrace
 10
1169.193938357092
 20
1021.436957885659
 30
0.0
 11
1169.193938357092
 21
1020.132032885659
 31
0.0
 12
1166.926988357092
 22
1020.132032885659
 32
0.0
 13
1166.926988357092
 23
1020.132032885659
 33
0.0
  0
SOLID
  5
1F121
330
1B
100
AcDbEntity
 67
     1
  8
titleblock
  6
ByBlock
100
AcDbTrace
 10
1169.193938357092
 20
1018.914407685659
 30
0.0
 11
1165.225188357092
 21
1017.212607685659
 31
0.0
 12
1166.926988357092
 22
1018.914407685659
 32
0.0
 13
1166.926988357092
 23
1018.914407685659
 33
0.0
  0
SOLID
  5
1F122
330
1B
100
AcDbEntity
 67
     1
  8
titleblock
  6
ByBlock
100
AcDbTrace
 10
1166.926988357092
 20
1018.914407685659
 30
0.0
 11
1165.225188357092
 21
1017.212607685659
 31
0.0
 12
1166.926988357092
 22
1020.132032885659
 32
0.0
 13
1166.926988357092
 23
1020.132032885659
 33
0.0
  0
SOLID
  5
1F123
330
1B
100
AcDbEntity
 67
     1
  8
titleblock
  6
ByBlock
100
AcDbTrace
 10
1169.193938357092
 20
1021.436957885659
 30
0.0
 11
1166.926988357092
 21
1020.132032885659
 31
0.0
 12
1166.926988357092
 22
1021.436957885659
 32
0.0
 13
1166.926988357092
 23
1021.436957885659
 33
0.0
  0
SOLID
  5
1F124
330
1B
100
AcDbEntity
 67
     1
  8
titleblock
  6
ByBlock
100
AcDbTrace
 10
1166.926988357092
 20
1020.132032885659
 30
0.0
 11
1165.225188357092
 21
1017.212607685659
 31
0.0
 12
1166.926988357092
 22
1021.436957885659
 32
0.0
 13
1166.926988357092
 23
1021.436957885659
 33
0.0
  0
SOLID
  5
1F125
330
1B
100
AcDbEntity
 67
     1
  8
titleblock
  6
ByBlock
100
AcDbTrace
 10
1166.926988357092
 20
1021.436957885659
 30
0.0
 11
1165.225188357092
 21
1017.212607685659
 31
0.0
 12
1166.926988357092
 22
1022.654557685659
 32
0.0
 13
1166.926988357092
 23
1022.654557685659
 33
0.0
  0
SOLID
  5
1F126
330
1B
100
AcDbEntity
 67
     1
  8
titleblock
  6
ByBlock
100
AcDbTrace
 10
1169.193938357092
 20
1024.356357685659
 30
0.0
 11
1166.926988357092
 21
1022.654557685659
 31
0.0
 12
1165.225188357092
 22
1024.356357685659
 32
0.0
 13
1165.225188357092
 23
1024.356357685659
 33
0.0
  0
SOLID
  5
1F127
330
1B
100
AcDbEntity
 67
     1
  8
titleblock
  6
ByBlock
100
AcDbTrace
 10
1165.225188357092
 20
1017.212607685659
 30
0.0
 11
1165.225188357092
 21
1024.356357685659
 31
0.0
 12
1166.926988357092
 22
1022.654557685659
 32
0.0
 13
1166.926988357092
 23
1022.654557685659
 33
0.0
  0
SOLID
  5
1F128
330
1B
100
AcDbEntity
 67
     1
  8
titleblock
  6
ByBlock
100
AcDbTrace
 10
1169.193938357092
 20
1018.914407685659
 30
0.0
 11
1169.193938357092
 21
1017.212607685659
 31
0.0
 12
1165.225188357092
 22
1017.212607685659
 32
0.0
 13
1165.225188357092
 23
1017.212607685659
 33
0.0
  0
LINE
  5
1F129
330
1B
100
AcDbEntity
 67
     1
  8
titleblock
  6
ByBlock
100
AcDbLine
 10
1177.926862374572
 20
1033.080733853839
 30
0.0
 11
1177.926862374572
 21
1053.400733853838
 31
0.0
  0
LINE
  5
1F12A
330
1B
100
AcDbEntity
 67
     1
  8
titleblock
  6
ByBlock
100
AcDbLine
 10
1150.494862374571
 20
1033.080733853839
 30
0.0
 11
1150.494862374571
 21
1045.018733853839
 31
0.0
  0
TEXT
  5
1F12B
330
1B
100
AcDbEntity
 67
     1
  8
titleblock
  6
ByBlock
100
AcDbText
 10
1158.284195707905
 20
1034.350733853839
 30
0.0
 40
2.54
  1
02.09.07
 41
0.8
 72
     1
 11
1164.210862374572
 21
1034.350733853839
 31
0.0
100
AcDbText
  0
TEXT
  5
1F12C
330
1B
100
AcDbEntity
 67
     1
  8
titleblock
  6
ByBlock
100
AcDbText
 10
1142.112862374572
 20
1046.288733853839
 30
0.0
 40
2.54
  1
DANIEL XIA
 41
0.8
 72
     1
 11
1151.256862374572
 21
1046.288733853839
 31
0.0
100
AcDbText
  0
TEXT
  5
1F12D
330
1B
100
AcDbEntity
 67
     1
  8
titleblock
  6
ByBlock
100
AcDbText
 10
1144.186396121832
 20
1012.391230485659
 30
0.0
 40
1.904999999999999
  1
KOHLER CO. CHINA
 41
1.02
 51
0.000019
 72
     1
 11
1158.435796121832
 21
1012.391230485659
 31
0.0
100
AcDbText
  0
TEXT
  5
1F12E
330
1B
100
AcDbEntity
 67
     1
  8
titleblock
  6
ByBlock
100
AcDbText
 10
1151.814674157093
 20
1041.792873485659
 30
0.0
 40
1.904999999999999
  1
DATE
 41
1.09
 51
0.000019
100
AcDbText
  0
TEXT
  5
1F12F
330
1B
100
AcDbEntity
 67
     1
  8
titleblock
  6
ByBlock
100
AcDbText
 10
1178.771084557093
 20
1041.974356485658
 30
0.0
 40
1.904999999999999
  1
CHECKED
 41
0.99
 51
0.000019
100
AcDbText
  0
TEXT
  5
1F130
330
1B
100
AcDbEntity
 67
     1
  8
titleblock
  6
ByBlock
100
AcDbText
 10
1178.668646357091
 20
1050.579038285659
 30
0.0
 40
1.904999999999999
  1
DATE
 41
1.09
 51
0.000019
100
AcDbText
  0
LINE
  5
1F131
330
1B
100
AcDbEntity
 67
     1
  8
titleblock
  6
ByBlock
100
AcDbLine
 10
1172.600021138513
 20
1021.414732885658
 30
0.0
 11
1172.989352338513
 21
1021.519050685659
 31
0.0
  0
LINE
  5
1F132
330
1B
100
AcDbEntity
 67
     1
  8
titleblock
  6
ByBlock
100
AcDbLine
 10
1172.537213357093
 20
1021.414732885658
 30
0.0
 11
1172.926544557093
 21
1021.519050685659
 31
0.0
  0
LINE
  5
1F133
330
1B
100
AcDbEntity
 67
     1
  8
titleblock
  6
ByBlock
100
AcDbLine
 10
1151.019120757092
 20
1017.387435885659
 30
0.0
 11
1149.915338357092
 21
1017.212607685659
 31
0.0
  0
LINE
  5
1F134
330
1B
100
AcDbEntity
 67
     1
  8
titleblock
  6
ByBlock
100
AcDbLine
 10
1148.811555957093
 20
1024.181529485659
 30
0.0
 11
1149.915338357092
 21
1024.356357685659
 31
0.0
  0
LINE
  5
1F135
330
1B
100
AcDbEntity
 67
     1
  8
titleblock
  6
ByBlock
100
AcDbLine
 10
1150.087880557092
 20
1022.646582085659
 30
0.0
 11
1149.403579157091
 21
1022.583158285659
 31
0.0
  0
LINE
  5
1F136
330
1B
100
AcDbEntity
 67
     1
  8
titleblock
  6
ByBlock
100
AcDbLine
 10
1175.543938357092
 20
1017.212607685659
 30
0.0
 11
1173.597688757092
 21
1017.212607685659
 31
0.0
  0
LINE
  5
1F137
330
1B
100
AcDbEntity
 67
     1
  8
titleblock
  6
ByBlock
100
AcDbLine
 10
1171.689488357091
 20
1017.212607685659
 30
0.0
 11
1169.987688357092
 21
1017.212607685659
 31
0.0
  0
LINE
  5
1F138
330
1B
100
AcDbEntity
 67
     1
  8
titleblock
  6
ByBlock
100
AcDbLine
 10
1169.193938357092
 20
1017.212607685659
 30
0.0
 11
1165.225188357092
 21
1017.212607685659
 31
0.0
  0
LINE
  5
1F139
330
1B
100
AcDbEntity
 67
     1
  8
titleblock
  6
ByBlock
100
AcDbLine
 10
1164.431438357093
 20
1017.212607685659
 30
0.0
 11
1160.462688357093
 21
1017.212607685659
 31
0.0
  0
LINE
  5
1F13A
330
1B
100
AcDbEntity
 67
     1
  8
titleblock
  6
ByBlock
100
AcDbLine
 10
1159.668938357092
 20
1017.212607685659
 30
0.0
 11
1157.967138357093
 21
1017.212607685659
 31
0.0
  0
LINE
  5
1F13B
330
1B
100
AcDbEntity
 67
     1
  8
titleblock
  6
ByBlock
100
AcDbLine
 10
1155.982763357093
 20
1017.212607685659
 30
0.0
 11
1154.280963357092
 21
1017.212607685659
 31
0.0
  0
LINE
  5
1F13C
330
1B
100
AcDbEntity
 67
     1
  8
titleblock
  6
ByBlock
100
AcDbLine
 10
1147.137213357091
 20
1017.212607685659
 30
0.0
 11
1144.957842557093
 21
1017.212607685659
 31
0.0
  0
LINE
  5
1F13D
330
1B
100
AcDbEntity
 67
     1
  8
titleblock
  6
ByBlock
100
AcDbLine
 10
1142.489013357092
 20
1017.212607685659
 30
0.0
 11
1140.787213357093
 21
1017.212607685659
 31
0.0
  0
LINE
  5
1F13E
330
1B
100
AcDbEntity
 67
     1
  8
titleblock
  6
ByBlock
100
AcDbLine
 10
1162.164488357092
 20
1018.914407685659
 30
0.0
 11
1164.431438357093
 21
1018.914407685659
 31
0.0
  0
LINE
  5
1F13F
330
1B
100
AcDbEntity
 67
     1
  8
titleblock
  6
ByBlock
100
AcDbLine
 10
1166.926988357092
 20
1018.914407685659
 30
0.0
 11
1169.193938357092
 21
1018.914407685659
 31
0.0
  0
LINE
  5
1F140
330
1B
100
AcDbEntity
 67
     1
  8
titleblock
  6
ByBlock
100
AcDbLine
 10
1152.926000357092
 20
1018.922383285659
 30
0.0
 11
1150.087880557092
 21
1018.922383285659
 31
0.0
  0
LINE
  5
1F141
330
1B
100
AcDbEntity
 67
     1
  8
titleblock
  6
ByBlock
100
AcDbLine
 10
1172.056111957092
 20
1019.990732685659
 30
0.0
 11
1171.689488357091
 21
1019.990732685659
 31
0.0
  0
LINE
  5
1F142
330
1B
100
AcDbEntity
 67
     1
  8
titleblock
  6
ByBlock
100
AcDbLine
 10
1169.193938357092
 20
1020.132032885659
 30
0.0
 11
1166.926988357092
 21
1020.132032885659
 31
0.0
  0
LINE
  5
1F143
330
1B
100
AcDbEntity
 67
     1
  8
titleblock
  6
ByBlock
100
AcDbLine
 10
1157.967138357093
 20
1020.330457685659
 30
0.0
 11
1155.982763357093
 21
1020.330457685659
 31
0.0
  0
LINE
  5
1F144
330
1B
100
AcDbEntity
 67
     1
  8
titleblock
  6
ByBlock
100
AcDbLine
 10
1174.643857538513
 20
1021.414732885658
 30
0.0
 11
1171.689488357091
 21
1021.414732885658
 31
0.0
  0
LINE
  5
1F145
330
1B
100
AcDbEntity
 67
     1
  8
titleblock
  6
ByBlock
100
AcDbLine
 10
1166.926988357092
 20
1021.436957885659
 30
0.0
 11
1169.193938357092
 21
1021.436957885659
 31
0.0
  0
LINE
  5
1F146
330
1B
100
AcDbEntity
 67
     1
  8
titleblock
  6
ByBlock
100
AcDbLine
 10
1155.982763357093
 20
1022.032257685659
 30
0.0
 11
1157.967138357093
 21
1022.032257685659
 31
0.0
  0
LINE
  5
1F147
330
1B
100
AcDbEntity
 67
     1
  8
titleblock
  6
ByBlock
100
AcDbLine
 10
1150.087880557092
 20
1022.646582085659
 30
0.0
 11
1146.904676357091
 21
1022.646582085659
 31
0.0
  0
LINE
  5
1F148
330
1B
100
AcDbEntity
 67
     1
  8
titleblock
  6
ByBlock
100
AcDbLine
 10
1169.193938357092
 20
1022.654557685659
 30
0.0
 11
1166.926988357092
 21
1022.654557685659
 31
0.0
  0
LINE
  5
1F149
330
1B
100
AcDbEntity
 67
     1
  8
titleblock
  6
ByBlock
100
AcDbLine
 10
1172.600021138513
 20
1022.972057685659
 30
0.0
 11
1169.987688357092
 21
1022.972057685659
 31
0.0
  0
LINE
  5
1F14A
330
1B
100
AcDbEntity
 67
     1
  8
titleblock
  6
ByBlock
100
AcDbLine
 10
1140.787213357093
 20
1024.356357685659
 30
0.0
 11
1142.489013357092
 21
1024.356357685659
 31
0.0
  0
LINE
  5
1F14B
330
1B
100
AcDbEntity
 67
     1
  8
titleblock
  6
ByBlock
100
AcDbLine
 10
1144.730512557093
 20
1024.356357685659
 30
0.0
 11
1147.137213357091
 21
1024.356357685659
 31
0.0
  0
LINE
  5
1F14C
330
1B
100
AcDbEntity
 67
     1
  8
titleblock
  6
ByBlock
100
AcDbLine
 10
1154.280963357092
 20
1024.356357685659
 30
0.0
 11
1155.982763357093
 21
1024.356357685659
 31
0.0
  0
LINE
  5
1F14D
330
1B
100
AcDbEntity
 67
     1
  8
titleblock
  6
ByBlock
100
AcDbLine
 10
1157.967138357093
 20
1024.356357685659
 30
0.0
 11
1159.668938357092
 21
1024.356357685659
 31
0.0
  0
LINE
  5
1F14E
330
1B
100
AcDbEntity
 67
     1
  8
titleblock
  6
ByBlock
100
AcDbLine
 10
1160.462688357093
 20
1024.356357685659
 30
0.0
 11
1162.164488357092
 21
1024.356357685659
 31
0.0
  0
LINE
  5
1F14F
330
1B
100
AcDbEntity
 67
     1
  8
titleblock
  6
ByBlock
100
AcDbLine
 10
1165.225188357092
 20
1024.356357685659
 30
0.0
 11
1169.193938357092
 21
1024.356357685659
 31
0.0
  0
LINE
  5
1F150
330
1B
100
AcDbEntity
 67
     1
  8
titleblock
  6
ByBlock
100
AcDbLine
 10
1169.987688357092
 20
1024.356357685659
 30
0.0
 11
1172.630196338512
 21
1024.356357685659
 31
0.0
  0
LINE
  5
1F151
330
1B
100
AcDbEntity
 67
     1
  8
titleblock
  6
ByBlock
100
AcDbLine
 10
1149.403579157091
 20
1018.985807085659
 30
0.0
 11
1150.087880557092
 21
1018.922383285659
 31
0.0
  0
LINE
  5
1F152
330
1B
100
AcDbEntity
 67
     1
  8
titleblock
  6
ByBlock
100
AcDbLine
 10
1149.915338357092
 20
1017.212607685659
 30
0.0
 11
1148.811555957093
 21
1017.387435885659
 31
0.0
  0
LINE
  5
1F153
330
1B
100
AcDbEntity
 67
     1
  8
titleblock
  6
ByBlock
100
AcDbLine
 10
1149.915338357092
 20
1024.356357685659
 30
0.0
 11
1151.019120757092
 21
1024.181529485659
 31
0.0
  0
LINE
  5
1F154
330
1B
100
AcDbEntity
 67
     1
  8
titleblock
  6
ByBlock
100
AcDbLine
 10
1172.567388557092
 20
1024.356357685659
 30
0.0
 11
1173.343688757092
 21
1024.213635085659
 31
0.0
  0
LINE
  5
1F155
330
1B
100
AcDbEntity
 67
     1
  8
titleblock
  6
ByBlock
100
AcDbLine
 10
1172.630196338512
 20
1024.356357685659
 30
0.0
 11
1173.406496538511
 21
1024.213635085659
 31
0.0
  0
LINE
  5
1F156
330
1B
100
AcDbEntity
 67
     1
  8
titleblock
  6
ByBlock
100
AcDbLine
 10
1172.926544557093
 20
1022.867739885659
 30
0.0
 11
1172.537213357093
 21
1022.972057685659
 31
0.0
  0
LINE
  5
1F157
330
1B
100
AcDbEntity
 67
     1
  8
titleblock
  6
ByBlock
100
AcDbLine
 10
1172.989352338513
 20
1022.867739885659
 30
0.0
 11
1172.600021138513
 21
1022.972057685659
 31
0.0
  0
LINE
  5
1F158
330
1B
100
AcDbEntity
 67
     1
  8
titleblock
  6
ByBlock
100
AcDbLine
 10
1150.748890157092
 20
1022.458495085659
 30
0.0
 11
1150.087880557092
 21
1022.646582085659
 31
0.0
  0
LINE
  5
1F159
330
1B
100
AcDbEntity
 67
     1
  8
titleblock
  6
ByBlock
100
AcDbLine
 10
1148.788365757093
 20
1019.292131085659
 30
0.0
 11
1149.403579157091
 21
1018.985807085659
 31
0.0
  0
LINE
  5
1F15A
330
1B
100
AcDbEntity
 67
     1
  8
titleblock
  6
ByBlock
100
AcDbLine
 10
1148.811555957093
 20
1017.387435885659
 30
0.0
 11
1147.815850557092
 21
1017.894775485659
 31
0.0
  0
LINE
  5
1F15B
330
1B
100
AcDbEntity
 67
     1
  8
titleblock
  6
ByBlock
100
AcDbLine
 10
1151.019120757092
 20
1024.181529485659
 30
0.0
 11
1152.014826157092
 21
1023.674189885658
 31
0.0
  0
LINE
  5
1F15C
330
1B
100
AcDbEntity
 67
     1
  8
titleblock
  6
ByBlock
100
AcDbLine
 10
1173.343688757092
 20
1024.213635085659
 30
0.0
 11
1174.018490557091
 21
1023.804161685659
 31
0.0
  0
LINE
  5
1F15D
330
1B
100
AcDbEntity
 67
     1
  8
titleblock
  6
ByBlock
100
AcDbLine
 10
1173.406496538511
 20
1024.213635085659
 30
0.0
 11
1174.081298338511
 21
1023.804161685659
 31
0.0
  0
LINE
  5
1F15E
330
1B
100
AcDbEntity
 67
     1
  8
titleblock
  6
ByBlock
100
AcDbLine
 10
1151.297352357093
 20
1022.044348085659
 30
0.0
 11
1150.748890157092
 21
1022.458495085659
 31
0.0
  0
LINE
  5
1F15F
330
1B
100
AcDbEntity
 67
     1
  8
titleblock
  6
ByBlock
100
AcDbLine
 10
1147.815850557092
 20
1017.894775485659
 30
0.0
 11
1147.025631157092
 21
1018.684994885659
 31
0.0
  0
LINE
  5
1F160
330
1B
100
AcDbEntity
 67
     1
  8
titleblock
  6
ByBlock
100
AcDbLine
 10
1152.014826157092
 20
1023.674189885658
 30
0.0
 11
1152.805045557092
 21
1022.883970485659
 31
0.0
  0
LINE
  5
1F161
330
1B
100
AcDbEntity
 67
     1
  8
titleblock
  6
ByBlock
100
AcDbLine
 10
1173.211557957093
 20
1022.582726485659
 30
0.0
 11
1172.926544557093
 21
1022.867739885659
 31
0.0
  0
LINE
  5
1F162
330
1B
100
AcDbEntity
 67
     1
  8
titleblock
  6
ByBlock
100
AcDbLine
 10
1173.274365738513
 20
1022.582726485659
 30
0.0
 11
1172.989352338513
 21
1022.867739885659
 31
0.0
  0
LINE
  5
1F163
330
1B
100
AcDbEntity
 67
     1
  8
titleblock
  6
ByBlock
100
AcDbLine
 10
1148.325374557093
 20
1019.800004085659
 30
0.0
 11
1148.788365757093
 21
1019.292131085659
 31
0.0
  0
LINE
  5
1F164
330
1B
100
AcDbEntity
 67
     1
  8
titleblock
  6
ByBlock
100
AcDbLine
 10
1144.957842557093
 20
1017.212607685659
 30
0.0
 11
1142.489013357092
 21
1020.298656885659
 31
0.0
  0
LINE
  5
1F165
330
1B
100
AcDbEntity
 67
     1
  8
titleblock
  6
ByBlock
100
AcDbLine
 10
1143.962213357092
 20
1021.181357685659
 30
0.0
 11
1147.137213357091
 21
1017.212607685659
 31
0.0
  0
LINE
  5
1F166
330
1B
100
AcDbEntity
 67
     1
  8
titleblock
  6
ByBlock
100
AcDbLine
 10
1174.018490557091
 20
1023.804161685659
 30
0.0
 11
1174.503554357092
 21
1023.181480685659
 31
0.0
  0
LINE
  5
1F167
330
1B
100
AcDbEntity
 67
     1
  8
titleblock
  6
ByBlock
100
AcDbLine
 10
1174.081298338511
 20
1023.804161685659
 30
0.0
 11
1174.566362138512
 21
1023.181480685659
 31
0.0
  0
LINE
  5
1F168
330
1B
100
AcDbEntity
 67
     1
  8
titleblock
  6
ByBlock
100
AcDbLine
 10
1151.659124557093
 20
1021.460021085659
 30
0.0
 11
1151.297352357093
 21
1022.044348085659
 31
0.0
  0
LINE
  5
1F169
330
1B
100
AcDbEntity
 67
     1
  8
titleblock
  6
ByBlock
100
AcDbLine
 10
1173.597688757092
 20
1017.212607685659
 30
0.0
 11
1172.056086557091
 21
1019.990732685659
 31
0.0
  0
LINE
  5
1F16A
330
1B
100
AcDbEntity
 67
     1
  8
titleblock
  6
ByBlock
100
AcDbLine
 10
1173.597688757092
 20
1017.212607685659
 30
0.0
 11
1172.056111957092
 21
1019.990732685659
 31
0.0
  0
LINE
  5
1F16B
330
1B
100
AcDbEntity
 67
     1
  8
titleblock
  6
ByBlock
100
AcDbLine
 10
1173.793268757092
 20
1020.367490885659
 30
0.0
 11
1175.543938357092
 21
1017.212607685659
 31
0.0
  0
LINE
  5
1F16C
330
1B
100
AcDbEntity
 67
     1
  8
titleblock
  6
ByBlock
100
AcDbLine
 10
1173.793294157093
 20
1020.367490885659
 30
0.0
 11
1175.543938357092
 21
1017.212607685659
 31
0.0
  0
LINE
  5
1F16D
330
1B
100
AcDbEntity
 67
     1
  8
titleblock
  6
ByBlock
100
AcDbLine
 10
1147.025631157092
 20
1018.684994885659
 30
0.0
 11
1146.518291557091
 21
1019.680700285658
 31
0.0
  0
LINE
  5
1F16E
330
1B
100
AcDbEntity
 67
     1
  8
titleblock
  6
ByBlock
100
AcDbLine
 10
1152.805045557092
 20
1022.883970485659
 30
0.0
 11
1153.312385157093
 21
1021.888265085658
 31
0.0
  0
LINE
  5
1F16F
330
1B
100
AcDbEntity
 67
     1
  8
titleblock
  6
ByBlock
100
AcDbLine
 10
1148.077114957092
 20
1020.440846085659
 30
0.0
 11
1148.325374557093
 21
1019.800004085659
 31
0.0
  0
LINE
  5
1F170
330
1B
100
AcDbEntity
 67
     1
  8
titleblock
  6
ByBlock
100
AcDbLine
 10
1174.503554357092
 20
1023.181480685659
 30
0.0
 11
1174.735430957093
 21
1022.426973685659
 31
0.0
  0
LINE
  5
1F171
330
1B
100
AcDbEntity
 67
     1
  8
titleblock
  6
ByBlock
100
AcDbLine
 10
1174.566362138512
 20
1023.181480685659
 30
0.0
 11
1174.798238738513
 21
1022.426973685659
 31
0.0
  0
LINE
  5
1F172
330
1B
100
AcDbEntity
 67
     1
  8
titleblock
  6
ByBlock
100
AcDbLine
 10
1173.315875757093
 20
1022.193395285659
 30
0.0
 11
1173.211557957093
 21
1022.582726485659
 31
0.0
  0
LINE
  5
1F173
330
1B
100
AcDbEntity
 67
     1
  8
titleblock
  6
ByBlock
100
AcDbLine
 10
1173.378683538513
 20
1022.193395285659
 30
0.0
 11
1173.274365738513
 21
1022.582726485659
 31
0.0
  0
LINE
  5
1F174
330
1B
100
AcDbEntity
 67
     1
  8
titleblock
  6
ByBlock
100
AcDbLine
 10
1151.785413357093
 20
1020.784482685659
 30
0.0
 11
1151.659124557093
 21
1021.460021085659
 31
0.0
  0
LINE
  5
1F175
330
1B
100
AcDbEntity
 67
     1
  8
titleblock
  6
ByBlock
100
AcDbLine
 10
1146.518291557091
 20
1019.680700285658
 30
0.0
 11
1146.343463357092
 21
1020.784482685659
 31
0.0
  0
LINE
  5
1F176
330
1B
100
AcDbEntity
 67
     1
  8
titleblock
  6
ByBlock
100
AcDbLine
 10
1153.312385157093
 20
1021.888265085658
 30
0.0
 11
1153.487213357092
 21
1020.784482685659
 31
0.0
  0
LINE
  5
1F177
330
1B
100
AcDbEntity
 67
     1
  8
titleblock
  6
ByBlock
100
AcDbLine
 10
1140.787213357093
 20
1017.212607685659
 30
0.0
 11
1140.787213357093
 21
1024.356357685659
 31
0.0
  0
LINE
  5
1F178
330
1B
100
AcDbEntity
 67
     1
  8
titleblock
  6
ByBlock
100
AcDbLine
 10
1142.489013357092
 20
1024.356357685659
 30
0.0
 11
1142.489013357092
 21
1022.114858485659
 31
0.0
  0
LINE
  5
1F179
330
1B
100
AcDbEntity
 67
     1
  8
titleblock
  6
ByBlock
100
AcDbLine
 10
1142.489013357092
 20
1020.298656885659
 30
0.0
 11
1142.489013357092
 21
1017.212607685659
 31
0.0
  0
LINE
  5
1F17A
330
1B
100
AcDbEntity
 67
     1
  8
titleblock
  6
ByBlock
100
AcDbLine
 10
1148.077114957092
 20
1021.128119285659
 30
0.0
 11
1148.077114957092
 21
1020.440846085659
 31
0.0
  0
LINE
  5
1F17B
330
1B
100
AcDbEntity
 67
     1
  8
titleblock
  6
ByBlock
100
AcDbLine
 10
1154.280963357092
 20
1024.356357685659
 30
0.0
 11
1154.280963357092
 21
1017.212607685659
 31
0.0
  0
LINE
  5
1F17C
330
1B
100
AcDbEntity
 67
     1
  8
titleblock
  6
ByBlock
100
AcDbLine
 10
1155.982763357093
 20
1024.356357685659
 30
0.0
 11
1155.982763357093
 21
1022.032257685659
 31
0.0
  0
LINE
  5
1F17D
330
1B
100
AcDbEntity
 67
     1
  8
titleblock
  6
ByBlock
100
AcDbLine
 10
1155.982763357093
 20
1020.330457685659
 30
0.0
 11
1155.982763357093
 21
1017.212607685659
 31
0.0
  0
LINE
  5
1F17E
330
1B
100
AcDbEntity
 67
     1
  8
titleblock
  6
ByBlock
100
AcDbLine
 10
1157.967138357093
 20
1017.212607685659
 30
0.0
 11
1157.967138357093
 21
1020.330457685659
 31
0.0
  0
LINE
  5
1F17F
330
1B
100
AcDbEntity
 67
     1
  8
titleblock
  6
ByBlock
100
AcDbLine
 10
1157.967138357093
 20
1022.032257685659
 30
0.0
 11
1157.967138357093
 21
1024.356357685659
 31
0.0
  0
LINE
  5
1F180
330
1B
100
AcDbEntity
 67
     1
  8
titleblock
  6
ByBlock
100
AcDbLine
 10
1159.668938357092
 20
1024.356357685659
 30
0.0
 11
1159.668938357092
 21
1017.212607685659
 31
0.0
  0
LINE
  5
1F181
330
1B
100
AcDbEntity
 67
     1
  8
titleblock
  6
ByBlock
100
AcDbLine
 10
1160.462688357093
 20
1024.356357685659
 30
0.0
 11
1160.462688357093
 21
1017.212607685659
 31
0.0
  0
LINE
  5
1F182
330
1B
100
AcDbEntity
 67
     1
  8
titleblock
  6
ByBlock
100
AcDbLine
 10
1162.164488357092
 20
1024.356357685659
 30
0.0
 11
1162.164488357092
 21
1018.914407685659
 31
0.0
  0
LINE
  5
1F183
330
1B
100
AcDbEntity
 67
     1
  8
titleblock
  6
ByBlock
100
AcDbLine
 10
1164.431438357093
 20
1018.914407685659
 30
0.0
 11
1164.431438357093
 21
1017.212607685659
 31
0.0
  0
LINE
  5
1F184
330
1B
100
AcDbEntity
 67
     1
  8
titleblock
  6
ByBlock
100
AcDbLine
 10
1165.225188357092
 20
1024.356357685659
 30
0.0
 11
1165.225188357092
 21
1017.212607685659
 31
0.0
  0
LINE
  5
1F185
330
1B
100
AcDbEntity
 67
     1
  8
titleblock
  6
ByBlock
100
AcDbLine
 10
1166.926988357092
 20
1022.654557685659
 30
0.0
 11
1166.926988357092
 21
1021.436957885659
 31
0.0
  0
LINE
  5
1F186
330
1B
100
AcDbEntity
 67
     1
  8
titleblock
  6
ByBlock
100
AcDbLine
 10
1166.926988357092
 20
1020.132032885659
 30
0.0
 11
1166.926988357092
 21
1018.914407685659
 31
0.0
  0
LINE
  5
1F187
330
1B
100
AcDbEntity
 67
     1
  8
titleblock
  6
ByBlock
100
AcDbLine
 10
1169.193938357092
 20
1024.356357685659
 30
0.0
 11
1169.193938357092
 21
1022.654557685659
 31
0.0
  0
LINE
  5
1F188
330
1B
100
AcDbEntity
 67
     1
  8
titleblock
  6
ByBlock
100
AcDbLine
 10
1169.193938357092
 20
1021.436957885659
 30
0.0
 11
1169.193938357092
 21
1020.132032885659
 31
0.0
  0
LINE
  5
1F189
330
1B
100
AcDbEntity
 67
     1
  8
titleblock
  6
ByBlock
100
AcDbLine
 10
1169.193938357092
 20
1018.914407685659
 30
0.0
 11
1169.193938357092
 21
1017.212607685659
 31
0.0
  0
LINE
  5
1F18A
330
1B
100
AcDbEntity
 67
     1
  8
titleblock
  6
ByBlock
100
AcDbLine
 10
1169.987688357092
 20
1017.212607685659
 30
0.0
 11
1169.987688357092
 21
1024.356357685659
 31
0.0
  0
LINE
  5
1F18B
330
1B
100
AcDbEntity
 67
     1
  8
titleblock
  6
ByBlock
100
AcDbLine
 10
1170.050496138512
 20
1022.972057685659
 30
0.0
 11
1170.050496138512
 21
1024.356357685659
 31
0.0
  0
LINE
  5
1F18C
330
1B
100
AcDbEntity
 67
     1
  8
titleblock
  6
ByBlock
100
AcDbLine
 10
1171.689488357091
 20
1022.972057685659
 30
0.0
 11
1171.689488357091
 21
1021.414732885658
 31
0.0
  0
LINE
  5
1F18D
330
1B
100
AcDbEntity
 67
     1
  8
titleblock
  6
ByBlock
100
AcDbLine
 10
1171.689488357091
 20
1019.990732685659
 30
0.0
 11
1171.689488357091
 21
1017.212607685659
 31
0.0
  0
LINE
  5
1F18E
330
1B
100
AcDbEntity
 67
     1
  8
titleblock
  6
ByBlock
100
AcDbLine
 10
1174.735430957093
 20
1022.426973685659
 30
0.0
 11
1174.683818157093
 21
1021.639345085659
 31
0.0
  0
LINE
  5
1F18F
330
1B
100
AcDbEntity
 67
     1
  8
titleblock
  6
ByBlock
100
AcDbLine
 10
1174.798238738513
 20
1022.426973685659
 30
0.0
 11
1174.746625938513
 21
1021.639345085659
 31
0.0
  0
LINE
  5
1F190
330
1B
100
AcDbEntity
 67
     1
  8
titleblock
  6
ByBlock
100
AcDbLine
 10
1146.343463357092
 20
1020.784482685659
 30
0.0
 11
1146.518291557091
 21
1021.888265085658
 31
0.0
  0
LINE
  5
1F191
330
1B
100
AcDbEntity
 67
     1
  8
titleblock
  6
ByBlock
100
AcDbLine
 10
1153.487213357092
 20
1020.784482685659
 30
0.0
 11
1153.312385157093
 21
1019.680700285658
 31
0.0
  0
LINE
  5
1F192
330
1B
100
AcDbEntity
 67
     1
  8
titleblock
  6
ByBlock
100
AcDbLine
 10
1150.087880557092
 20
1018.922383285659
 30
0.0
 11
1150.748890157092
 21
1019.110470285659
 31
0.0
  0
LINE
  5
1F193
330
1B
100
AcDbEntity
 67
     1
  8
titleblock
  6
ByBlock
100
AcDbLine
 10
1151.659124557093
 20
1020.108944285659
 30
0.0
 11
1151.785413357093
 21
1020.784482685659
 31
0.0
  0
LINE
  5
1F194
330
1B
100
AcDbEntity
 67
     1
  8
titleblock
  6
ByBlock
100
AcDbLine
 10
1173.211557957093
 20
1021.804064085658
 30
0.0
 11
1173.315875757093
 21
1022.193395285659
 31
0.0
  0
LINE
  5
1F195
330
1B
100
AcDbEntity
 67
     1
  8
titleblock
  6
ByBlock
100
AcDbLine
 10
1173.274365738513
 20
1021.804064085658
 30
0.0
 11
1173.378683538513
 21
1022.193395285659
 31
0.0
  0
LINE
  5
1F196
330
1B
100
AcDbEntity
 67
     1
  8
titleblock
  6
ByBlock
100
AcDbLine
 10
1148.325374557093
 20
1021.768961285659
 30
0.0
 11
1148.077114957092
 21
1021.128119285659
 31
0.0
  0
LINE
  5
1F197
330
1B
100
AcDbEntity
 67
     1
  8
titleblock
  6
ByBlock
100
AcDbLine
 10
1174.683818157093
 20
1021.639345085659
 30
0.0
 11
1174.355446957092
 21
1020.921566485659
 31
0.0
  0
LINE
  5
1F198
330
1B
100
AcDbEntity
 67
     1
  8
titleblock
  6
ByBlock
100
AcDbLine
 10
1174.746625938513
 20
1021.639345085659
 30
0.0
 11
1174.643857538513
 21
1021.414732885658
 31
0.0
  0
LINE
  5
1F199
330
1B
100
AcDbEntity
 67
     1
  8
titleblock
  6
ByBlock
100
AcDbLine
 10
1146.904676357091
 20
1022.646582085659
 30
0.0
 11
1147.025631157092
 21
1022.883970485659
 31
0.0
  0
LINE
  5
1F19A
330
1B
100
AcDbEntity
 67
     1
  8
titleblock
  6
ByBlock
100
AcDbLine
 10
1146.518291557091
 20
1021.888265085658
 30
0.0
 11
1146.904676357091
 21
1022.646582085659
 31
0.0
  0
LINE
  5
1F19B
330
1B
100
AcDbEntity
 67
     1
  8
titleblock
  6
ByBlock
100
AcDbLine
 10
1152.926000357092
 20
1018.922383285659
 30
0.0
 11
1152.805045557092
 21
1018.684994885659
 31
0.0
  0
LINE
  5
1F19C
330
1B
100
AcDbEntity
 67
     1
  8
titleblock
  6
ByBlock
100
AcDbLine
 10
1153.312385157093
 20
1019.680700285658
 30
0.0
 11
1152.926000357092
 21
1018.922383285659
 31
0.0
  0
LINE
  5
1F19D
330
1B
100
AcDbEntity
 67
     1
  8
titleblock
  6
ByBlock
100
AcDbLine
 10
1151.297352357093
 20
1019.524617285659
 30
0.0
 11
1151.659124557093
 21
1020.108944285659
 31
0.0
  0
LINE
  5
1F19E
330
1B
100
AcDbEntity
 67
     1
  8
titleblock
  6
ByBlock
100
AcDbLine
 10
1148.788365757093
 20
1022.276834285658
 30
0.0
 11
1148.325374557093
 21
1021.768961285659
 31
0.0
  0
LINE
  5
1F19F
330
1B
100
AcDbEntity
 67
     1
  8
titleblock
  6
ByBlock
100
AcDbLine
 10
1144.730512557093
 20
1024.356357685659
 30
0.0
 11
1142.489013357092
 21
1022.114858485659
 31
0.0
  0
LINE
  5
1F1A0
330
1B
100
AcDbEntity
 67
     1
  8
titleblock
  6
ByBlock
100
AcDbLine
 10
1147.137213357091
 20
1024.356357685659
 30
0.0
 11
1143.962213357092
 21
1021.181357685659
 31
0.0
  0
LINE
  5
1F1A1
330
1B
100
AcDbEntity
 67
     1
  8
titleblock
  6
ByBlock
100
AcDbLine
 10
1147.025631157092
 20
1022.883970485659
 30
0.0
 11
1147.815850557092
 21
1023.674189885658
 31
0.0
  0
LINE
  5
1F1A2
330
1B
100
AcDbEntity
 67
     1
  8
titleblock
  6
ByBlock
100
AcDbLine
 10
1152.805045557092
 20
1018.684994885659
 30
0.0
 11
1152.014826157092
 21
1017.894775485659
 31
0.0
  0
LINE
  5
1F1A3
330
1B
100
AcDbEntity
 67
     1
  8
titleblock
  6
ByBlock
100
AcDbLine
 10
1172.926544557093
 20
1021.519050685659
 30
0.0
 11
1173.211557957093
 21
1021.804064085658
 31
0.0
  0
LINE
  5
1F1A4
330
1B
100
AcDbEntity
 67
     1
  8
titleblock
  6
ByBlock
100
AcDbLine
 10
1172.989352338513
 20
1021.519050685659
 30
0.0
 11
1173.274365738513
 21
1021.804064085658
 31
0.0
  0
LINE
  5
1F1A5
330
1B
100
AcDbEntity
 67
     1
  8
titleblock
  6
ByBlock
100
AcDbLine
 10
1174.355446957092
 20
1020.921566485659
 30
0.0
 11
1173.793294157093
 21
1020.367490885659
 31
0.0
  0
LINE
  5
1F1A6
330
1B
100
AcDbEntity
 67
     1
  8
titleblock
  6
ByBlock
100
AcDbLine
 10
1150.748890157092
 20
1019.110470285659
 30
0.0
 11
1151.297352357093
 21
1019.524617285659
 31
0.0
  0
LINE
  5
1F1A7
330
1B
100
AcDbEntity
 67
     1
  8
titleblock
  6
ByBlock
100
AcDbLine
 10
1147.815850557092
 20
1023.674189885658
 30
0.0
 11
1148.811555957093
 21
1024.181529485659
 31
0.0
  0
LINE
  5
1F1A8
330
1B
100
AcDbEntity
 67
     1
  8
titleblock
  6
ByBlock
100
AcDbLine
 10
1152.014826157092
 20
1017.894775485659
 30
0.0
 11
1151.019120757092
 21
1017.387435885659
 31
0.0
  0
LINE
  5
1F1A9
330
1B
100
AcDbEntity
 67
     1
  8
titleblock
  6
ByBlock
100
AcDbLine
 10
1149.403579157091
 20
1022.583158285659
 30
0.0
 11
1148.788365757093
 21
1022.276834285658
 31
0.0
  0
CIRCLE
  5
1F1AA
330
1B
100
AcDbEntity
 67
     1
  8
titleblock
  6
ByBlock
100
AcDbCircle
 10
1149.915338357092
 20
1020.784482685659
 30
0.0
 40
1.870074999999999
  0
CIRCLE
  5
1F1AB
330
1B
100
AcDbEntity
 67
     1
  8
titleblock
  6
ByBlock
100
AcDbCircle
 10
1149.915338357092
 20
1020.784482685659
 30
0.0
 40
3.571874999999999
  0
ARC
  5
1F1AC
330
1B
100
AcDbEntity
 67
     1
  8
titleblock
  6
ByBlock
100
AcDbCircle
 10
1172.537213357093
 20
1022.193395285659
 30
0.0
 40
0.7786624
100
AcDbArc
 50
270.0
 51
90.0
  0
ARC
  5
1F1AD
330
1B
100
AcDbEntity
 67
     1
  8
titleblock
  6
ByBlock
100
AcDbCircle
 10
1172.567363157092
 20
1022.173557885659
 30
0.0
 40
2.182824443079999
100
AcDbArc
 50
304.1675166805597
 51
90.0
  0
TEXT
  5
1F1AE
330
1B
100
AcDbEntity
 67
     1
  8
titleblock
  6
ByBlock
100
AcDbText
 10
1129.074195707905
 20
1034.350733853839
 30
0.0
 40
2.54
  1
MING CHEN
 41
0.8
 72
     1
 11
1137.540862374572
 21
1034.350733853839
 31
0.0
100
AcDbText
  0
TEXT
  5
1F1AF
330
1B
100
AcDbEntity
 67
     1
  8
titleblock
  6
ByBlock
100
AcDbText
 10
1130.572120757092
 20
1029.117308285659
 30
0.0
 40
2.285999999999999
  1
DO NOT SCALE DRAWING
 41
1.199999999999999
 51
0.000019
100
AcDbText
  0
TEXT
  5
1F1B0
330
1B
100
AcDbEntity
 67
     1
  8
titleblock
  6
ByBlock
100
AcDbText
 10
1184.488529041238
 20
1046.288733853839
 30
0.0
 40
2.54
  1
02.12.07
 41
0.8
 72
     1
 11
1190.245862374571
 21
1046.288733853839
 31
0.0
100
AcDbText
  0
LINE
  5
1F1B1
330
1B
100
AcDbEntity
 67
     1
  8
titleblock
  6
ByBlock
100
AcDbLine
 10
1195.198862374571
 20
1007.172733853839
 30
0.0
 11
1195.198862374571
 21
1033.080733853839
 31
0.0
  0
TEXT
  5
1F1B2
330
1B
100
AcDbEntity
 67
     1
  8
titleblock
  6
ByBlock
100
AcDbText
 10
1226.271529041238
 20
1046.288733853839
 30
0.0
 40
2.54
  1
&scale
 41
0.8
 72
     1
 11
1231.520862374571
 21
1046.288733853839
 31
0.0
100
AcDbText
  0
TEXT
  5
1F1B3
330
1B
100
AcDbEntity
 67
     1
  8
titleblock
  6
ByBlock
100
AcDbText
 10
1227.909772157093
 20
1041.186321485659
 30
0.0
 40
1.904999999999999
  1
DWG
 51
0.000019
100
AcDbText
  0
TEXT
  5
1F1B4
330
1B
100
AcDbEntity
 67
     1
  8
titleblock
  6
ByBlock
100
AcDbText
 10
1196.367290157092
 20
1023.637385285659
 30
0.0
 40
1.904999999999999
  1
THIRD ANGLE PROJECTION
 51
0.000019
100
AcDbText
  0
TEXT
  5
1F1B5
330
1B
100
AcDbEntity
 67
     1
  8
titleblock
  6
ByBlock
100
AcDbText
 10
1227.146984757092
 20
1029.320533685659
 30
0.0
 40
1.904999999999999
  1
SIZE
 51
0.000019
100
AcDbText
  0
LINE
  5
1F1B6
330
1B
100
AcDbEntity
 67
     1
  8
titleblock
  6
ByBlock
100
AcDbLine
 10
1242.188862374573
 20
1007.172733853839
 30
0.0
 11
1195.198862374571
 21
1007.172733853839
 31
0.0
  0
TEXT
  5
1F1B7
330
1B
100
AcDbEntity
 67
     1
  8
titleblock
  6
ByBlock
100
AcDbText
 10
1220.514195707906
 20
1007.680733853839
 30
0.0
 40
2.54
  1
&model_name
 41
0.8
 72
     2
 11
1241.172862374573
 21
1007.680733853839
 31
0.0
100
AcDbText
  0
LINE
  5
1F1B8
330
1B
100
AcDbEntity
 67
     1
  8
titleblock
  6
ByBlock
100
AcDbLine
 10
1229.234862374571
 20
978.4707338538389
 30
0.0
 11
1229.234862374571
 21
989.3927338538389
 31
0.0
  0
TEXT
  5
1F1B9
330
1B
100
AcDbEntity
 67
     1
  8
titleblock
  6
ByBlock
100
AcDbText
 10
1164.312462374572
 20
980.883733853839
 30
0.0
 40
6.095999999999999
  1
f19950
 41
0.8
 72
     1
 11
1176.910862374572
 21
980.883733853839
 31
0.0
100
AcDbText
  0
TEXT
  5
1F1BB
330
1B
100
AcDbEntity
 67
     1
  8
titleblock
  6
ByBlock
100
AcDbText
 10
1230.293195707905
 20
979.7407338538389
 30
0.0
 40
2.54
  1
1 of 2
 41
0.8
 72
     1
 11
1235.711862374572
 21
979.7407338538389
 31
0.0
100
AcDbText
  0
TEXT
  5
1F1BC
330
1B
100
AcDbEntity
 67
     1
  8
titleblock
  6
ByBlock
100
AcDbText
 10
1231.458026559172
 20
985.8755668851388
 30
0.0
 40
1.904999999999999
  1
SHEET
 41
0.9399999999999998
 51
0.000019
100
AcDbText
  0
TEXT
  5
1F1BD
330
1B
100
AcDbEntity
 67
     1
  8
titleblock
  6
ByBlock
100
AcDbText
 10
1147.624662374572
 20
995.2347338538391
 30
0.0
 40
6.095999999999999
  1
OVE  VANITY 900
 41
0.8
 72
     1
 11
1183.387862374571
 21
995.2347338538391
 31
0.0
100
AcDbText
  0
LINE
  5
1F1BE
330
1B
100
AcDbEntity
 67
     1
  8
titleblock
  6
ByBlock
100
AcDbLine
 10
1242.188862374573
 20
978.4707338538389
 30
0.0
 11
1242.188862374573
 21
1059.750733853838
 31
0.0
  0
TEXT
  5
1F1BF
330
1B
100
AcDbEntity
 67
     1
  8
titleblock
  6
ByBlock
100
AcDbText
 10
1094.872039757092
 20
1049.341499485659
 30
0.0
 40
1.904999999999999
  1
TOLERANCES
 41
1.229999999999999
 51
0.000019
100
AcDbText
  0
TEXT
  5
1F1C0
330
1B
100
AcDbEntity
 67
     1
  8
titleblock
  6
ByBlock
100
AcDbText
 10
1101.211879757091
 20
1045.769624485658
 30
0.0
 40
1.904999999999999
  1
UNLESS
 41
1.01
 51
0.000019
100
AcDbText
  0
TEXT
  5
1F1C1
330
1B
100
AcDbEntity
 67
     1
  8
titleblock
  6
ByBlock
100
AcDbText
 10
1097.859079757092
 20
1042.197749485659
 30
0.0
 40
1.904999999999999
  1
OTHERWISE
 41
1.04
 51
0.000019
100
AcDbText
  0
TEXT
  5
1F1C2
330
1B
100
AcDbEntity
 67
     1
  8
titleblock
  6
ByBlock
100
AcDbText
 10
1097.950519757093
 20
1038.625874485659
 30
0.0
 40
1.904999999999999
  1
SPECIFIED
 41
1.03
 51
0.000019
100
AcDbText
  0
LINE
  5
1F1C3
330
1B
100
AcDbEntity
 67
     1
  8
3467
  6
Continuous
 62
     7
100
AcDbLine
 10
1115.123452813776
 20
1020.256505437302
 30
0.0
 11
1103.435334213176
 21
1020.256505437302
 31
0.0
  0
LINE
  5
1F1C4
330
1B
100
AcDbEntity
 67
     1
  8
3467
  6
Continuous
 62
     7
100
AcDbLine
 10
1109.031062382377
 20
1029.395091085702
 30
0.0
 11
1115.123452813776
 21
1020.256505437302
 31
0.0
  0
TEXT
  5
1F1C5
330
1B
100
AcDbEntity
 67
     1
  8
3467
  6
Continuous
 62
     2
100
AcDbText
 10
1107.499740956977
 20
1021.364459593702
 30
0.0
 40
4.0625
  1
B
 41
0.8
100
AcDbText
  0
LINE
  5
1F1C6
330
1B
100
AcDbEntity
 67
     1
  8
3467
  6
Continuous
 62
     7
100
AcDbLine
 10
1103.435334213176
 20
1020.256505437302
 30
0.0
 11
1109.031062382377
 21
1029.395091085702
 31
0.0
  0
LINE
  5
1F1C7
330
1B
100
AcDbEntity
 67
     1
  8
titleblock
  6
ByBlock
100
AcDbLine
 10
1124.586862374572
 20
1007.172733853839
 30
0.0
 11
1089.788862374571
 21
1007.172733853839
 31
0.0
  0
TEXT
  5
1F1C8
330
1B
100
AcDbEntity
 67
     1
  8
titleblock
  6
ByBlock
100
AcDbText
 10
1091.295414957092
 20
1003.661174285659
 30
0.0
 40
1.587499999999999
  1
THIS DRAWING IN DESIGN
 41
0.925
 51
0.000019
100
AcDbText
  0
TEXT
  5
1F1C9
330
1B
100
AcDbEntity
 67
     1
  8
titleblock
  6
ByBlock
100
AcDbText
 10
1091.295414957092
 20
1000.724299285659
 30
0.0
 40
1.587499999999999
  1
AND DETAILS IS THE PROP-
 41
0.85
 51
0.000019
100
AcDbText
  0
TEXT
  5
1F1CA
330
1B
100
AcDbEntity
 67
     1
  8
titleblock
  6
ByBlock
100
AcDbText
 10
1091.295414957092
 20
997.803299285659
 30
0.0
 40
1.587499999999999
  1
ERTY OF KOHLER CO. 
 51
0.000019
100
AcDbText
  0
TEXT
  5
1F1CB
330
1B
100
AcDbEntity
 67
     1
  8
titleblock
  6
ByBlock
100
AcDbText
 10
1000.063362374572
 20
1055.305733853839
 30
0.0
 40
2.54
  1
ALL DIMENSIONS IN: MM [INCHES]
 41
0.95
 72
     1
 11
1032.638862374572
 21
1055.305733853839
 31
0.0
100
AcDbText
  0
LINE
  5
1F1CC
330
1B
100
AcDbEntity
 67
     1
  8
titleblock
  6
ByBlock
100
AcDbLine
 10
1089.788862374571
 20
1010.195333853839
 30
0.0
 11
975.4888623745721
 21
1010.195333853839
 31
0.0
  0
LINE
  5
1F1CD
330
1B
100
AcDbEntity
 67
     1
  8
titleblock
  6
ByBlock
100
AcDbLine
 10
1089.788862374571
 20
1016.367533853839
 30
0.0
 11
975.4888623745721
 21
1016.367533853839
 31
0.0
  0
LINE
  5
1F1CE
330
1B
100
AcDbEntity
 67
     1
  8
titleblock
  6
ByBlock
100
AcDbLine
 10
1089.788862374571
 20
1022.539733853839
 30
0.0
 11
975.4888623745721
 21
1022.539733853839
 31
0.0
  0
LINE
  5
1F1CF
330
1B
100
AcDbEntity
 67
     1
  8
titleblock
  6
ByBlock
100
AcDbLine
 10
1089.788862374571
 20
1028.711933853839
 30
0.0
 11
975.4888623745721
 21
1028.711933853839
 31
0.0
  0
LINE
  5
1F1D0
330
1B
100
AcDbEntity
 67
     1
  8
titleblock
  6
ByBlock
100
AcDbLine
 10
1089.788862374571
 20
1034.884133853839
 30
0.0
 11
975.4888623745721
 21
1034.884133853839
 31
0.0
  0
LINE
  5
1F1D1
330
1B
100
AcDbEntity
 67
     1
  8
titleblock
  6
ByBlock
100
AcDbLine
 10
1089.788862374571
 20
1041.056333853838
 30
0.0
 11
975.4888623745721
 21
1041.056333853838
 31
0.0
  0
LINE
  5
1F1D2
330
1B
100
AcDbEntity
 67
     1
  8
titleblock
  6
ByBlock
100
AcDbLine
 10
1089.788862374571
 20
1047.228533853838
 30
0.0
 11
975.4888623745721
 21
1047.228533853838
 31
0.0
  0
LINE
  5
1F1D3
330
1B
100
AcDbEntity
 67
     1
  8
titleblock
  6
ByBlock
100
AcDbLine
 10
1089.788862374571
 20
1053.400733853838
 30
0.0
 11
975.4888623745721
 21
1053.400733853838
 31
0.0
  0
LINE
  5
1F1D4
330
1B
100
AcDbEntity
 67
     1
  8
titleblock
  6
ByBlock
100
AcDbLine
 10
1089.788862374571
 20
1059.750733853838
 30
0.0
 11
975.4888623745721
 21
1059.750733853838
 31
0.0
  0
LINE
  5
1F1D5
330
1B
100
AcDbEntity
 67
     1
  8
titleblock
  6
ByBlock
100
AcDbLine
 10
1089.788862374571
 20
997.850933853839
 30
0.0
 11
975.4888623745721
 21
997.850933853839
 31
0.0
  0
LINE
  5
1F1D6
330
1B
100
AcDbEntity
 67
     1
  8
titleblock
  6
ByBlock
100
AcDbLine
 10
1089.788862374571
 20
1004.023133853839
 30
0.0
 11
975.4888623745721
 21
1004.023133853839
 31
0.0
  0
TEXT
  5
1F1D7
330
1B
100
AcDbEntity
 67
     1
  8
titleblock
  6
ByBlock
100
AcDbText
 10
1091.295414957092
 20
986.1192992856588
 30
0.0
 40
1.587499999999999
  1
ALL RIGHTS OF DESIGN
 51
0.000019
100
AcDbText
  0
TEXT
  5
1F1D8
330
1B
100
AcDbEntity
 67
     1
  8
titleblock
  6
ByBlock
100
AcDbText
 10
1091.295414957092
 20
983.1982992856589
 30
0.0
 40
1.587499999999999
  1
OR INVENTION ARE
 51
0.000019
100
AcDbText
  0
TEXT
  5
1F1D9
330
1B
100
AcDbEntity
 67
     1
  8
titleblock
  6
ByBlock
100
AcDbText
 10
1091.295414957092
 20
980.2772992856587
 30
0.0
 40
1.587499999999999
  1
RESERVED.
 51
0.000019
100
AcDbText
  0
TEXT
  5
1F1DA
330
1B
100
AcDbEntity
 67
     1
  8
titleblock
  6
ByBlock
100
AcDbText
 10
1091.295414957092
 20
994.9616742856589
 30
0.0
 40
1.587499999999999
  1
AND MAY NOT BE USED
 51
0.000019
100
AcDbText
  0
TEXT
  5
1F1DB
330
1B
100
AcDbEntity
 67
     1
  8
titleblock
  6
ByBlock
100
AcDbText
 10
1091.295414957092
 20
992.0406742856592
 30
0.0
 40
1.587499999999999
  1
EXCEPT IN CONNECTION
 51
0.000019
100
AcDbText
  0
TEXT
  5
1F1DC
330
1B
100
AcDbEntity
 67
     1
  8
titleblock
  6
ByBlock
100
AcDbText
 10
1091.295414957092
 20
989.0402992856586
 30
0.0
 40
1.587499999999999
  1
WITH KOHLER CO. WORK.
 51
0.000019
100
AcDbText
  0
TEXT
  5
1F1DD
330
1B
100
AcDbEntity
 67
     1
  8
titleblock
  6
ByBlock
100
AcDbText
 10
1076.972931554872
 20
987.0326111695133
 30
0.0
 40
2.285999999999999
  1
DATE
 41
1.09
 51
0.000019
100
AcDbText
  0
TEXT
  5
1F1DF
330
1B
100
AcDbEntity
 67
     1
  8
titleblock
  6
ByBlock
100
AcDbText
 10
1032.838554687913
 20
986.8560736638135
 30
0.0
 40
2.285999999999999
  1
DESCRIPTION
 41
1.05
 51
0.000019
100
AcDbText
  0
TEXT
  5
1F1E1
330
1B
100
AcDbEntity
 67
     1
  8
titleblock
  6
ByBlock
100
AcDbText
 10
1027.862272089578
 20
993.4600736638133
 30
0.0
 40
2.285999999999999
  1
SEE PCI # P0700767
 41
1.05
 51
0.000019
100
AcDbText
  0
TEXT
  5
1F1E2
330
1B
100
AcDbEntity
 67
     1
  8
titleblock
  6
ByBlock
100
AcDbText
 10
1074.873155218844
 20
993.636611169513
 30
0.0
 40
2.285999999999999
  1
02.09.07
 41
0.8
 51
0.000019
100
AcDbText
  0
TEXT
  5
1F1E3
330
1B
100
AcDbEntity
 67
     1
  8
titleblock
  6
ByBlock
100
AcDbText
 10
978.9297773443925
 20
986.8560736638135
 30
0.0
 40
2.285999999999999
  1
SHT
 41
0.9400037037
 51
0.000019
100
AcDbText
  0
TEXT
  5
1F1E4
330
1B
100
AcDbEntity
 67
     1
  8
titleblock
  6
ByBlock
100
AcDbText
 10
994.4650780034718
 20
986.679536155573
 30
0.0
 40
2.285999999999999
  1
SYM
 51
0.000019
100
AcDbText
  0
TEXT
  5
1F1E5
330
1B
100
AcDbEntity
 67
     1
  8
titleblock
  6
ByBlock
100
AcDbText
 10
1011.236141210073
 20
986.8560736638135
 30
0.0
 40
2.285999999999999
  1
BY
 41
0.9700055556
 51
0.000019
100
AcDbText
  0
TEXT
  5
1F1E7
330
1B
100
AcDbEntity
 67
     1
  8
titleblock
  6
ByBlock
100
AcDbText
 10
994.4650780034718
 20
993.2835361555733
 30
0.0
 40
2.285999999999999
  1
-
 51
0.000019
100
AcDbText
  0
TEXT
  5
1F1E8
330
1B
100
AcDbEntity
 67
     1
  8
titleblock
  6
ByBlock
100
AcDbText
 10
1011.236141210073
 20
993.4600736638133
 30
0.0
 40
2.285999999999999
  1
MING
 41
0.9700055556
 51
0.000019
100
AcDbText
  0
TEXT
  5
1F1E9
330
1B
100
AcDbEntity
 67
     1
  8
titleblock
  6
ByBlock
100
AcDbText
 10
1001.242889957091
 20
980.4916244856588
 30
0.0
 40
2.285999999999999
  1
DWG REVISION RECORD
 41
1.379999999999999
 51
0.000019
100
AcDbText
  0
LINE
  5
1F1EA
330
1B
100
AcDbEntity
 67
     1
  8
titleblock
  6
ByBlock
100
AcDbLine
 10
1089.788862374571
 20
978.4707338538389
 30
0.0
 11
975.4888623745721
 21
978.4707338538389
 31
0.0
  0
LINE
  5
1F1EB
330
1B
100
AcDbEntity
 67
     1
  8
titleblock
  6
ByBlock
100
AcDbLine
 10
1089.788862374571
 20
985.0747338538388
 30
0.0
 11
975.4888623745721
 21
985.0747338538388
 31
0.0
  0
LINE
  5
1F1EC
330
1B
100
AcDbEntity
 67
     1
  8
titleblock
  6
ByBlock
100
AcDbLine
 10
1089.788862374571
 20
991.6787338538391
 30
0.0
 11
975.4888623745721
 21
991.6787338538391
 31
0.0
  0
LINE
  5
1F1ED
330
1B
100
AcDbEntity
 67
     1
  8
titleblock
  6
ByBlock
100
AcDbLine
 10
1124.586862374572
 20
978.4707338538389
 30
0.0
 11
1124.586862374572
 21
1053.400733853838
 31
0.0
  0
LINE
  5
1F1EE
330
1B
100
AcDbEntity
 67
     1
  8
titleblock
  6
ByBlock
100
AcDbLine
 10
1089.788862374571
 20
978.4707338538389
 30
0.0
 11
1089.788862374571
 21
1059.750733853838
 31
0.0
  0
LINE
  5
1F1EF
330
1B
100
AcDbEntity
 67
     1
  8
titleblock
  6
ByBlock
100
AcDbLine
 10
1089.788862374571
 20
978.4707338538389
 30
0.0
 11
1089.788862374571
 21
1059.750733853838
 31
0.0
  0
LINE
  5
1F1F0
330
1B
100
AcDbEntity
 67
     1
  8
titleblock
  6
ByBlock
100
AcDbLine
 10
1073.278862374573
 20
985.0747338538388
 30
0.0
 11
1073.278862374573
 21
1053.400733853838
 31
0.0
  0
LINE
  5
1F1F1
330
1B
100
AcDbEntity
 67
     1
  8
titleblock
  6
ByBlock
100
AcDbLine
 10
1020.700862374571
 20
985.0747338538388
 30
0.0
 11
1020.700862374571
 21
1053.400733853838
 31
0.0
  0
LINE
  5
1F1F2
330
1B
100
AcDbEntity
 67
     1
  8
titleblock
  6
ByBlock
100
AcDbLine
 10
1006.476862374571
 20
985.0747338538388
 30
0.0
 11
1006.476862374571
 21
1053.400733853838
 31
0.0
  0
LINE
  5
1F1F3
330
1B
100
AcDbEntity
 67
     1
  8
titleblock
  6
ByBlock
100
AcDbLine
 10
990.474862374573
 20
985.0747338538388
 30
0.0
 11
990.474862374573
 21
1053.400733853838
 31
0.0
  0
LINE
  5
1F1F4
330
1B
100
AcDbEntity
 67
     1
  8
titleblock
  6
ByBlock
100
AcDbLine
 10
975.4888623745721
 20
978.4707338538389
 30
0.0
 11
975.4888623745721
 21
1059.750733853838
 31
0.0
  0
TEXT
  5
1F1F5
330
1B
100
AcDbEntity
 67
     1
  8
titleblock
  6
ByBlock
100
AcDbText
 10
1125.395219757092
 20
1041.740879685659
 30
0.0
 40
1.904999999999999
  1
DRAWN
 41
1.04
 51
0.000019
100
AcDbText
  0
TEXT
  5
1F1F6
330
1B
100
AcDbEntity
 67
     1
  8
titleblock
  6
ByBlock
100
AcDbText
 10
1125.284424957092
 20
1050.544672085659
 30
0.0
 40
1.904999999999999
  1
APPROVED
 41
1.07
 51
0.000019
100
AcDbText
  0
LINE
  5
1F1F7
330
1B
100
AcDbEntity
 67
     1
  8
titleblock
  6
ByBlock
100
AcDbLine
 10
1242.188862374573
 20
1010.728733853839
 30
0.0
 11
1124.586862374572
 21
1010.728733853839
 31
0.0
  0
LINE
  5
1F1F8
330
1B
100
AcDbEntity
 67
     1
  8
titleblock
  6
ByBlock
100
AcDbLine
 10
1242.188862374573
 20
1027.492733853839
 30
0.0
 11
1124.586862374572
 21
1027.492733853839
 31
0.0
  0
LINE
  5
1F1F9
330
1B
100
AcDbEntity
 67
     1
  8
titleblock
  6
ByBlock
100
AcDbLine
 10
1220.852862374572
 20
1033.080733853839
 30
0.0
 11
1124.586862374572
 21
1033.080733853839
 31
0.0
  0
LINE
  5
1F1FA
330
1B
100
AcDbEntity
 67
     1
  8
titleblock
  6
ByBlock
100
AcDbLine
 10
1242.188862374573
 20
1045.018733853839
 30
0.0
 11
1124.586862374572
 21
1045.018733853839
 31
0.0
  0
LINE
  5
1F1FB
330
1B
100
AcDbEntity
 67
     1
  8
titleblock
  6
ByBlock
100
AcDbLine
 10
1242.188862374573
 20
1053.400733853838
 30
0.0
 11
1089.788862374571
 21
1053.400733853838
 31
0.0
  0
LINE
  5
1F1FC
330
1B
100
AcDbEntity
 67
     1
  8
titleblock
  6
ByBlock
100
AcDbLine
 10
1242.188862374573
 20
1059.750733853838
 30
0.0
 11
1089.788862374571
 21
1059.750733853838
 31
0.0
  0
TEXT
  5
1F1FD
330
1B
100
AcDbEntity
 67
     1
  8
titleblock
  6
ByBlock
100
AcDbText
 10
1110.489862374572
 20
1055.305733853839
 30
0.0
 40
2.54
  1
DIMENSIONING AND TOLERANCING PER ASME Y14.5M-1994
 41
0.95
 72
     1
 11
1165.988862374572
 21
1055.305733853839
 31
0.0
100
AcDbText
  0
TEXT
  5
1F1FE
330
1B
100
AcDbEntity
 67
     1
  8
titleblock
  6
ByBlock
100
AcDbText
 10
1125.660649757092
 20
985.739543885659
 30
0.0
 40
1.904999999999999
  1
DWG. NO.
 41
0.8
 51
0.000019
100
AcDbText
  0
LINE
  5
1F1FF
330
1B
100
AcDbEntity
 67
     1
  8
titleblock
  6
ByBlock
100
AcDbLine
 10
1242.188862374573
 20
978.4707338538389
 30
0.0
 11
1089.788862374571
 21
978.4707338538389
 31
0.0
  0
LINE
  5
1F200
330
1B
100
AcDbEntity
 67
     1
  8
titleblock
  6
ByBlock
100
AcDbLine
 10
1242.188862374573
 20
989.3927338538389
 30
0.0
 11
1124.586862374572
 21
989.3927338538389
 31
0.0
  0
TEXT
  5
1F201
330
1B
100
AcDbEntity
 67
     1
  8
titleblock
  6
ByBlock
100
AcDbText
 10
1125.887751157092
 20
1007.423371485659
 30
0.0
 40
1.904999999999999
  1
DESCRIPTION
 41
1.05
 51
0.000019
100
AcDbText
  0
LINE
  5
202E6
330
1B
100
AcDbEntity
 67
     1
  8
3467
  6
Continuous
 62
     7
100
AcDbLine
 10
808.4012933801458
 20
1106.171869850578
 30
0.0
 11
814.4936838115464
 21
1097.033284202179
 31
0.0
  0
LINE
  5
202E7
330
1B
100
AcDbEntity
 67
     1
  8
3467
  6
Continuous
 62
     7
100
AcDbLine
 10
802.8055652109451
 20
1097.033284202179
 30
0.0
 11
808.4012933801458
 21
1106.171869850578
 31
0.0
  0
LINE
  5
202E8
330
1B
100
AcDbEntity
 67
     1
  8
3467
  6
Continuous
 62
     7
100
AcDbLine
 10
814.4936838115464
 20
1097.033284202179
 30
0.0
 11
802.8055652109451
 21
1097.033284202179
 31
0.0
  0
TEXT
  5
202E9
330
1B
100
AcDbEntity
 67
     1
  8
3467
  6
Continuous
 62
     2
100
AcDbText
 10
806.8699719547458
 20
1098.141238358578
 30
0.0
 40
4.0625
  1
B
 41
0.8
100
AcDbText
  0
TEXT
  5
202EA
330
1B
100
AcDbEntity
 67
     1
  8
3467
  6
Continuous
 62
     2
100
AcDbText
 10
799.0999357606779
 20
1081.539288461465
 30
0.0
 40
3.97
  1
NOTES:
 41
0.8
100
AcDbText
  0
TEXT
  5
202EB
330
1B
100
AcDbEntity
 67
     1
  8
3467
  6
Continuous
 62
     2
100
AcDbText
 10
799.0481211145889
 20
1120.791117309459
 30
0.0
 40
3.97
  1
APPLICABLE STANDARDS:
 41
0.8
100
AcDbText
  0
TEXT
  5
202EC
330
1B
100
AcDbEntity
 67
     1
  8
3467
  6
Continuous
 62
     2
100
AcDbText
 10
800.7526005518666
 20
1110.075905637915
 30
0.0
 40
3.97
  1
  A. F040.001
 41
0.8
100
AcDbText
  0
TEXT
  5
202ED
330
1B
100
AcDbEntity
 67
     1
  8
3467
  6
Continuous
 62
     2
100
AcDbText
 10
799.0999357606779
 20
1064.45824056025
 30
0.0
 40
3.97
  1
        ON THIS DRAWING.
 41
0.8
100
AcDbText
  0
LINE
  5
202EE
330
1B
100
AcDbEntity
 67
     1
  8
3467
  6
Continuous
 62
     7
100
AcDbLine
 10
812.9719835605465
 20
1076.154853086227
 30
0.0
 11
819.9919880143461
 21
1076.154853086227
 31
0.0
  0
LINE
  5
202EF
330
1B
100
AcDbEntity
 67
     1
  8
3467
  6
Continuous
 62
     7
100
AcDbLine
 10
812.9719835605465
 20
1069.134848635027
 30
0.0
 11
819.9919880143461
 21
1069.134848635027
 31
0.0
  0
TEXT
  5
202F0
330
1B
100
AcDbEntity
 67
     1
  8
3467
  6
Continuous
 62
     2
100
AcDbText
 10
813.4926191020312
 20
1070.868231510118
 30
0.0
 40
4.0625
  1
15
 41
0.8
100
AcDbText
  0
LINE
  5
202F1
330
1B
100
AcDbEntity
 67
     1
  8
3467
  6
Continuous
 62
     7
100
AcDbLine
 10
812.9719835605465
 20
1062.114844181227
 30
0.0
 11
819.9919880143461
 21
1062.114844181227
 31
0.0
  0
LINE
  5
202F2
330
1B
100
AcDbEntity
 67
     1
  8
3467
  6
Continuous
 62
     7
100
AcDbLine
 10
819.9919880143461
 20
1062.114844181227
 30
0.0
 11
819.9919880143461
 21
1076.154853086227
 31
0.0
  0
LINE
  5
202F3
330
1B
100
AcDbEntity
 67
     1
  8
3467
  6
Continuous
 62
     7
100
AcDbLine
 10
812.9719835605465
 20
1076.154853086227
 30
0.0
 11
812.9719835605465
 21
1062.114844181227
 31
0.0
  0
TEXT
  5
202F4
330
1B
100
AcDbEntity
 67
     1
  8
3467
  6
Continuous
 62
     2
100
AcDbText
 10
799.4479714994341
 20
1052.376567169225
 30
0.0
 40
3.97
  1
MATERIAL:
 41
0.8
100
AcDbText
  0
TEXT
  5
202F5
330
1B
100
AcDbEntity
 67
     1
  8
3467
  6
Continuous
 62
     2
100
AcDbText
 10
799.4479714994341
 20
1044.08989124252
 30
0.0
 40
3.97
  1
FIRE CLAY
 41
0.8
100
AcDbText
  0
TEXT
  5
202F6
330
1B
100
AcDbEntity
 67
     1
  8
3467
  6
Continuous
 62
     2
100
AcDbText
 10
799.782034927146
 20
1098.19548202858
 30
0.0
 40
3.97
  1
     H020.001.1.1 - UNSPECIFIED TOLERANCES ON DIMENSIONS
 41
0.8
100
AcDbText
  0
TEXT
  5
202F7
330
1B
100
AcDbEntity
 67
     1
  8
3467
  6
Continuous
 62
     2
100
AcDbText
 10
799.0999357606779
 20
1070.55199056025
 30
0.0
 40
3.97
  1
  1.    THERE ARE 15 CUSTOMER CHARACTERISTICS
 41
0.8
100
AcDbText
  0
TEXT
  5
2038B
330
1B
100
AcDbEntity
 67
     1
  8
0
  6
Continuous
 62
     2
100
AcDbText
 10
175.585529041273
 20
967.8207338538388
 30
0.0
 40
0.1
  1
 
 41
0.8
100
AcDbText
  0
TEXT
  5
203D3
330
1B
100
AcDbEntity
 67
     1
  8
0
  6
Continuous
 62
     2
100
AcDbText
 10
178.382487468373
 20
966.9224834771389
 30
0.0
 40
0.24
  1
 
 41
0.8
 51
0.000018724
100
AcDbText
  0
TEXT
  5
203D5
330
1B
100
AcDbEntity
 67
     1
  8
0
  6
Continuous
100
AcDbText
 10
1246.845529041239
 20
1016.570733853839
 30
0.0
 40
6.349999999999999
  1
A
 41
0.8
 72
     1
 11
1248.538862374573
 21
1016.570733853839
 31
0.0
100
AcDbText
  0
TEXT
  5
203D6
330
1B
100
AcDbEntity
 67
     1
  8
0
  6
Continuous
100
AcDbText
 10
1246.845529041239
 20
1124.520733853839
 30
0.0
 40
6.349999999999999
  1
B
 41
0.8
 72
     1
 11
1248.538862374573
 21
1124.520733853839
 31
0.0
100
AcDbText
  0
TEXT
  5
203D7
330
1B
100
AcDbEntity
 67
     1
  8
0
  6
Continuous
100
AcDbText
 10
1246.845529041239
 20
1232.470733853839
 30
0.0
 40
6.349999999999999
  1
C
 41
0.8
 72
     1
 11
1248.538862374573
 21
1232.470733853839
 31
0.0
100
AcDbText
  0
TEXT
  5
203D8
330
1B
100
AcDbEntity
 67
     1
  8
0
  6
Continuous
100
AcDbText
 10
1246.845529041239
 20
1340.420733853839
 30
0.0
 40
6.349999999999999
  1
D
 41
0.8
 72
     1
 11
1248.538862374573
 21
1340.420733853839
 31
0.0
100
AcDbText
  0
TEXT
  5
203D9
330
1B
100
AcDbEntity
 67
     1
  8
0
  6
Continuous
100
AcDbText
 10
1246.845529041239
 20
1448.370733853839
 30
0.0
 40
6.349999999999999
  1
E
 41
0.8
 72
     1
 11
1248.538862374573
 21
1448.370733853839
 31
0.0
100
AcDbText
  0
TEXT
  5
203DA
330
1B
100
AcDbEntity
 67
     1
  8
0
  6
Continuous
100
AcDbText
 10
1246.845529041239
 20
1556.320733853839
 30
0.0
 40
6.349999999999999
  1
F
 41
0.8
 72
     1
 11
1248.538862374573
 21
1556.320733853839
 31
0.0
100
AcDbText
  0
TEXT
  5
203DB
330
1B
100
AcDbEntity
 67
     1
  8
0
  6
Continuous
100
AcDbText
 10
1246.845529041239
 20
1664.270733853839
 30
0.0
 40
6.349999999999999
  1
G
 41
0.8
 72
     1
 11
1248.538862374573
 21
1664.270733853839
 31
0.0
100
AcDbText
  0
TEXT
  5
203DC
330
1B
100
AcDbEntity
 67
     1
  8
0
  6
Continuous
100
AcDbText
 10
1246.845529041239
 20
1772.220733853839
 30
0.0
 40
6.349999999999999
  1
H
 41
0.8
 72
     1
 11
1248.538862374573
 21
1772.220733853839
 31
0.0
100
AcDbText
  0
TEXT
  5
203DD
330
1B
100
AcDbEntity
 67
     1
  8
0
  6
Continuous
100
AcDbText
 10
205.4455290412397
 20
968.9457338538389
 30
0.0
 40
6.349999999999999
  1
8
 41
0.8
 72
     1
 11
207.138862374573
 21
968.9457338538389
 31
0.0
100
AcDbText
  0
TEXT
  5
203DE
330
1B
100
AcDbEntity
 67
     1
  8
0
  6
Continuous
100
AcDbText
 10
345.1455290412396
 20
968.9457338538389
 30
0.0
 40
6.349999999999999
  1
7
 41
0.8
 72
     1
 11
346.838862374573
 21
968.9457338538389
 31
0.0
100
AcDbText
  0
TEXT
  5
203DF
330
1B
100
AcDbEntity
 67
     1
  8
0
  6
Continuous
100
AcDbText
 10
484.8455290412396
 20
968.9457338538389
 30
0.0
 40
6.349999999999999
  1
6
 41
0.8
 72
     1
 11
486.538862374573
 21
968.9457338538389
 31
0.0
100
AcDbText
  0
TEXT
  5
203E0
330
1B
100
AcDbEntity
 67
     1
  8
0
  6
Continuous
100
AcDbText
 10
624.5455290412396
 20
968.9457338538389
 30
0.0
 40
6.349999999999999
  1
5
 41
0.8
 72
     1
 11
626.238862374573
 21
968.9457338538389
 31
0.0
100
AcDbText
  0
TEXT
  5
203E1
330
1B
100
AcDbEntity
 67
     1
  8
0
  6
Continuous
100
AcDbText
 10
764.2455290412396
 20
968.9457338538389
 30
0.0
 40
6.349999999999999
  1
4
 41
0.8
 72
     1
 11
765.9388623745729
 21
968.9457338538389
 31
0.0
100
AcDbText
  0
TEXT
  5
203E2
330
1B
100
AcDbEntity
 67
     1
  8
0
  6
Continuous
100
AcDbText
 10
903.9455290412394
 20
968.9457338538389
 30
0.0
 40
6.349999999999999
  1
3
 41
0.8
 72
     1
 11
905.6388623745728
 21
968.9457338538389
 31
0.0
100
AcDbText
  0
TEXT
  5
203E3
330
1B
100
AcDbEntity
 67
     1
  8
0
  6
Continuous
100
AcDbText
 10
1043.645529041239
 20
968.9457338538389
 30
0.0
 40
6.349999999999999
  1
2
 41
0.8
 72
     1
 11
1045.338862374573
 21
968.9457338538389
 31
0.0
100
AcDbText
  0
TEXT
  5
203E4
330
1B
100
AcDbEntity
 67
     1
  8
0
  6
Continuous
100
AcDbText
 10
1184.192195707906
 20
968.9457338538389
 30
0.0
 40
6.349999999999999
  1
1
 41
0.8
 72
     1
 11
1185.038862374573
 21
968.9457338538389
 31
0.0
100
AcDbText
  0
INSERT
  5
203E5
330
1B
100
AcDbEntity
 67
     1
  8
titleblock
  6
HIDDEN
 62
     8
100
AcDbBlockReference
  2
C_ARROW_BL0
 10
696.0888623745729
 20
1821.433233853839
 30
0.0
 41
25.40000000000001
 42
25.39999999999998
 43
25.4
  0
INSERT
  5
203E6
330
1B
100
AcDbEntity
 67
     1
  8
titleblock
  6
HIDDEN
 62
     8
100
AcDbBlockReference
  2
C_ARROW_BL1
 10
145.214093785953
 20
1397.570733853839
 30
0.0
 41
25.40000000000001
 42
25.39999999999998
 43
25.4
  0
INSERT
  5
203E7
330
1B
100
AcDbEntity
 67
     1
  8
titleblock
  6
HIDDEN
 62
     8
100
AcDbBlockReference
  2
C_ARROW_BL2
 10
696.0888623745729
 20
973.7082338538389
 30
0.0
 41
25.40000000000001
 42
25.39999999999998
 43
25.4
  0
INSERT
  5
203E8
330
1B
100
AcDbEntity
 67
     1
  8
titleblock
  6
HIDDEN
 62
     8
100
AcDbBlockReference
  2
C_ARROW_BL3
 10
1246.960724522473
 20
1397.570733853839
 30
0.0
 41
25.40000000000001
 42
25.39999999999998
 43
25.4
  0
LINE
  5
203E9
330
1B
100
AcDbEntity
 67
     1
  8
0
  6
Continuous
 62
     7
100
AcDbLine
 10
137.288862374573
 20
965.7707338538388
 30
0.0
 11
137.288862374573
 21
1829.370733853839
 31
0.0
  0
LINE
  5
203EA
330
1B
100
AcDbEntity
 67
     1
  8
0
  6
Continuous
100
AcDbLine
 10
149.988862374573
 20
978.4707338538389
 30
0.0
 11
149.988862374573
 21
1816.670733853839
 31
0.0
  0
LINE
  5
203F0
330
1B
100
AcDbEntity
 67
     1
  8
0
  6
Continuous
 62
     7
100
AcDbLine
 10
137.288862374573
 20
965.7707338538388
 30
0.0
 11
1254.888862374573
 21
965.7707338538388
 31
0.0
  0
LINE
  5
203F1
330
1B
100
AcDbEntity
 67
     1
  8
0
  6
Continuous
100
AcDbLine
 10
276.988862374573
 20
965.7707338538388
 30
0.0
 11
276.988862374573
 21
978.4707338538389
 31
0.0
  0
LINE
  5
203F3
330
1B
100
AcDbEntity
 67
     1
  8
0
  6
Continuous
100
AcDbLine
 10
149.988862374573
 20
978.4707338538389
 30
0.0
 11
1242.188862374573
 21
978.4707338538389
 31
0.0
  0
LINE
  5
20412
330
1B
100
AcDbEntity
 67
     1
  8
0
  6
Continuous
100
AcDbLine
 10
1242.188862374573
 20
1073.720733853839
 30
0.0
 11
1254.888862374573
 21
1073.720733853839
 31
0.0
  0
LINE
  5
20414
330
1B
100
AcDbEntity
 67
     1
  8
0
  6
Continuous
100
AcDbLine
 10
416.6888623745729
 20
965.7707338538388
 30
0.0
 11
416.6888623745729
 21
978.4707338538389
 31
0.0
  0
LINE
  5
2041D
330
1B
100
AcDbEntity
 67
     1
  8
0
  6
Continuous
100
AcDbLine
 10
1242.188862374573
 20
1181.670733853839
 30
0.0
 11
1254.888862374573
 21
1181.670733853839
 31
0.0
  0
LINE
  5
2041E
330
1B
100
AcDbEntity
 67
     1
  8
0
  6
Continuous
100
AcDbLine
 10
556.3888623745729
 20
965.7707338538388
 30
0.0
 11
556.3888623745729
 21
978.4707338538389
 31
0.0
  0
LINE
  5
20422
330
1B
100
AcDbEntity
 67
     1
  8
0
  6
Continuous
100
AcDbLine
 10
1242.188862374573
 20
1289.620733853839
 30
0.0
 11
1254.888862374573
 21
1289.620733853839
 31
0.0
  0
LINE
  5
2042B
330
1B
100
AcDbEntity
 67
     1
  8
0
  6
Continuous
100
AcDbLine
 10
1242.188862374573
 20
1505.520733853839
 30
0.0
 11
1254.888862374573
 21
1505.520733853839
 31
0.0
  0
LINE
  5
2042E
330
1B
100
AcDbEntity
 67
     1
  8
0
  6
Continuous
100
AcDbLine
 10
835.7888623745729
 20
965.7707338538388
 30
0.0
 11
835.7888623745729
 21
978.4707338538389
 31
0.0
  0
LINE
  5
20432
330
1B
100
AcDbEntity
 67
     1
  8
0
  6
Continuous
100
AcDbLine
 10
1242.188862374573
 20
1613.470733853838
 30
0.0
 11
1254.888862374573
 21
1613.470733853838
 31
0.0
  0
LINE
  5
20439
330
1B
100
AcDbEntity
 67
     1
  8
0
  6
Continuous
100
AcDbLine
 10
975.4888623745729
 20
965.7707338538388
 30
0.0
 11
975.4888623745729
 21
978.4707338538389
 31
0.0
  0
LINE
  5
2043B
330
1B
100
AcDbEntity
 67
     1
  8
0
  6
Continuous
100
AcDbLine
 10
1242.188862374573
 20
1721.420733853839
 30
0.0
 11
1254.888862374573
 21
1721.420733853839
 31
0.0
  0
LINE
  5
20443
330
1B
100
AcDbEntity
 67
     1
  8
0
  6
Continuous
100
AcDbLine
 10
1115.188862374573
 20
965.7707338538388
 30
0.0
 11
1115.188862374573
 21
978.4707338538389
 31
0.0
  0
LINE
  5
20444
330
1B
100
AcDbEntity
 67
     1
  8
0
  6
Continuous
100
AcDbLine
 10
149.988862374573
 20
1816.670733853839
 30
0.0
 11
1242.188862374573
 21
1816.670733853839
 31
0.0
  0
LINE
  5
20445
330
1B
100
AcDbEntity
 67
     1
  8
0
  6
Continuous
 62
     7
100
AcDbLine
 10
137.288862374573
 20
1829.370733853839
 30
0.0
 11
1254.888862374573
 21
1829.370733853839
 31
0.0
  0
LINE
  5
20465
330
1B
100
AcDbEntity
 67
     1
  8
0
  6
Continuous
100
AcDbLine
 10
1242.188862374573
 20
978.4707338538389
 30
0.0
 11
1242.188862374573
 21
1816.670733853839
 31
0.0
  0
LINE
  5
20466
330
1B
100
AcDbEntity
 67
     1
  8
0
  6
Continuous
 62
     7
100
AcDbLine
 10
1254.888862374573
 20
965.7707338538388
 30
0.0
 11
1254.888862374573
 21
1829.370733853839
 31
0.0
  0
TEXT
  5
20500
330
1B
100
AcDbEntity
 67
     1
  8
0
  6
Continuous
 62
     2
100
AcDbText
 10
175.585529041273
 20
104.220733853839
 30
0.0
 40
0.1
  1
 
 41
0.8
100
AcDbText
  0
TEXT
  5
20548
330
1B
100
AcDbEntity
 67
     1
  8
0
  6
Continuous
 62
     2
100
AcDbText
 10
178.382487468373
 20
103.322483477139
 30
0.0
 40
0.24
  1
 
 41
0.8
 51
0.000018724
100
AcDbText
  0
TEXT
  5
2054A
330
1B
100
AcDbEntity
 67
     1
  8
0
  6
Continuous
100
AcDbText
 10
1246.845529041239
 20
152.970733853839
 30
0.0
 40
6.349999999999999
  1
A
 41
0.8
 72
     1
 11
1248.538862374573
 21
152.970733853839
 31
0.0
100
AcDbText
  0
TEXT
  5
2054B
330
1B
100
AcDbEntity
 67
     1
  8
0
  6
Continuous
100
AcDbText
 10
1246.845529041239
 20
260.920733853839
 30
0.0
 40
6.349999999999999
  1
B
 41
0.8
 72
     1
 11
1248.538862374573
 21
260.920733853839
 31
0.0
100
AcDbText
  0
TEXT
  5
2054C
330
1B
100
AcDbEntity
 67
     1
  8
0
  6
Continuous
100
AcDbText
 10
1246.845529041239
 20
368.870733853839
 30
0.0
 40
6.349999999999999
  1
C
 41
0.8
 72
     1
 11
1248.538862374573
 21
368.870733853839
 31
0.0
100
AcDbText
  0
TEXT
  5
2054D
330
1B
100
AcDbEntity
 67
     1
  8
0
  6
Continuous
100
AcDbText
 10
1246.845529041239
 20
476.8207338538389
 30
0.0
 40
6.349999999999999
  1
D
 41
0.8
 72
     1
 11
1248.538862374573
 21
476.8207338538389
 31
0.0
100
AcDbText
  0
TEXT
  5
2054E
330
1B
100
AcDbEntity
 67
     1
  8
0
  6
Continuous
100
AcDbText
 10
1246.845529041239
 20
584.7707338538389
 30
0.0
 40
6.349999999999999
  1
E
 41
0.8
 72
     1
 11
1248.538862374573
 21
584.7707338538389
 31
0.0
100
AcDbText
  0
TEXT
  5
2054F
330
1B
100
AcDbEntity
 67
     1
  8
0
  6
Continuous
100
AcDbText
 10
1246.845529041239
 20
692.7207338538389
 30
0.0
 40
6.349999999999999
  1
F
 41
0.8
 72
     1
 11
1248.538862374573
 21
692.7207338538389
 31
0.0
100
AcDbText
  0
TEXT
  5
20550
330
1B
100
AcDbEntity
 67
     1
  8
0
  6
Continuous
100
AcDbText
 10
1246.845529041239
 20
800.670733853839
 30
0.0
 40
6.349999999999999
  1
G
 41
0.8
 72
     1
 11
1248.538862374573
 21
800.670733853839
 31
0.0
100
AcDbText
  0
TEXT
  5
20551
330
1B
100
AcDbEntity
 67
     1
  8
0
  6
Continuous
100
AcDbText
 10
1246.845529041239
 20
908.620733853839
 30
0.0
 40
6.349999999999999
  1
H
 41
0.8
 72
     1
 11
1248.538862374573
 21
908.620733853839
 31
0.0
100
AcDbText
  0
TEXT
  5
20552
330
1B
100
AcDbEntity
 67
     1
  8
0
  6
Continuous
100
AcDbText
 10
205.4455290412397
 20
105.345733853839
 30
0.0
 40
6.349999999999999
  1
8
 41
0.8
 72
     1
 11
207.138862374573
 21
105.345733853839
 31
0.0
100
AcDbText
  0
TEXT
  5
20553
330
1B
100
AcDbEntity
 67
     1
  8
0
  6
Continuous
100
AcDbText
 10
345.1455290412396
 20
105.345733853839
 30
0.0
 40
6.349999999999999
  1
7
 41
0.8
 72
     1
 11
346.838862374573
 21
105.345733853839
 31
0.0
100
AcDbText
  0
TEXT
  5
20554
330
1B
100
AcDbEntity
 67
     1
  8
0
  6
Continuous
100
AcDbText
 10
484.8455290412396
 20
105.345733853839
 30
0.0
 40
6.349999999999999
  1
6
 41
0.8
 72
     1
 11
486.538862374573
 21
105.345733853839
 31
0.0
100
AcDbText
  0
TEXT
  5
20555
330
1B
100
AcDbEntity
 67
     1
  8
0
  6
Continuous
100
AcDbText
 10
624.5455290412396
 20
105.345733853839
 30
0.0
 40
6.349999999999999
  1
5
 41
0.8
 72
     1
 11
626.238862374573
 21
105.345733853839
 31
0.0
100
AcDbText
  0
TEXT
  5
20556
330
1B
100
AcDbEntity
 67
     1
  8
0
  6
Continuous
100
AcDbText
 10
764.2455290412396
 20
105.345733853839
 30
0.0
 40
6.349999999999999
  1
4
 41
0.8
 72
     1
 11
765.9388623745729
 21
105.345733853839
 31
0.0
100
AcDbText
  0
TEXT
  5
20557
330
1B
100
AcDbEntity
 67
     1
  8
0
  6
Continuous
100
AcDbText
 10
903.9455290412394
 20
105.345733853839
 30
0.0
 40
6.349999999999999
  1
3
 41
0.8
 72
     1
 11
905.6388623745728
 21
105.345733853839
 31
0.0
100
AcDbText
  0
TEXT
  5
20558
330
1B
100
AcDbEntity
 67
     1
  8
0
  6
Continuous
100
AcDbText
 10
1043.645529041239
 20
105.345733853839
 30
0.0
 40
6.349999999999999
  1
2
 41
0.8
 72
     1
 11
1045.338862374573
 21
105.345733853839
 31
0.0
100
AcDbText
  0
TEXT
  5
20559
330
1B
100
AcDbEntity
 67
     1
  8
0
  6
Continuous
100
AcDbText
 10
1184.192195707906
 20
105.345733853839
 30
0.0
 40
6.349999999999999
  1
1
 41
0.8
 72
     1
 11
1185.038862374573
 21
105.345733853839
 31
0.0
100
AcDbText
  0
INSERT
  5
2055A
330
1B
100
AcDbEntity
 67
     1
  8
titleblock
  6
HIDDEN
 62
     8
100
AcDbBlockReference
  2
C_ARROW_BL0
 10
696.0888623745729
 20
957.8332338538389
 30
0.0
 41
25.40000000000001
 42
25.40000000000001
 43
25.4
  0
INSERT
  5
2055B
330
1B
100
AcDbEntity
 67
     1
  8
titleblock
  6
HIDDEN
 62
     8
100
AcDbBlockReference
  2
C_ARROW_BL1
 10
145.214093785953
 20
533.9707338538389
 30
0.0
 41
25.40000000000001
 42
25.40000000000001
 43
25.4
  0
INSERT
  5
2055C
330
1B
100
AcDbEntity
 67
     1
  8
titleblock
  6
HIDDEN
 62
     8
100
AcDbBlockReference
  2
C_ARROW_BL2
 10
696.0888623745729
 20
110.108233853839
 30
0.0
 41
25.40000000000001
 42
25.40000000000001
 43
25.4
  0
INSERT
  5
2055D
330
1B
100
AcDbEntity
 67
     1
  8
titleblock
  6
HIDDEN
 62
     8
100
AcDbBlockReference
  2
C_ARROW_BL3
 10
1246.960724522473
 20
533.9707338538389
 30
0.0
 41
25.40000000000001
 42
25.40000000000001
 43
25.4
  0
LINE
  5
2055E
330
1B
100
AcDbEntity
 67
     1
  8
0
  6
Continuous
 62
     7
100
AcDbLine
 10
137.288862374573
 20
102.170733853839
 30
0.0
 11
137.288862374573
 21
965.7707338538388
 31
0.0
  0
LINE
  5
2055F
330
1B
100
AcDbEntity
 67
     1
  8
0
  6
Continuous
100
AcDbLine
 10
149.988862374573
 20
114.870733853839
 30
0.0
 11
149.988862374573
 21
953.0707338538389
 31
0.0
  0
LINE
  5
20565
330
1B
100
AcDbEntity
 67
     1
  8
0
  6
Continuous
 62
     7
100
AcDbLine
 10
137.288862374573
 20
102.170733853839
 30
0.0
 11
1254.888862374573
 21
102.170733853839
 31
0.0
  0
LINE
  5
20566
330
1B
100
AcDbEntity
 67
     1
  8
0
  6
Continuous
100
AcDbLine
 10
276.988862374573
 20
102.170733853839
 30
0.0
 11
276.988862374573
 21
114.870733853839
 31
0.0
  0
LINE
  5
20568
330
1B
100
AcDbEntity
 67
     1
  8
0
  6
Continuous
100
AcDbLine
 10
149.988862374573
 20
114.870733853839
 30
0.0
 11
1242.188862374573
 21
114.870733853839
 31
0.0
  0
LINE
  5
20587
330
1B
100
AcDbEntity
 67
     1
  8
0
  6
Continuous
100
AcDbLine
 10
1242.188862374573
 20
210.120733853839
 30
0.0
 11
1254.888862374573
 21
210.120733853839
 31
0.0
  0
LINE
  5
20589
330
1B
100
AcDbEntity
 67
     1
  8
0
  6
Continuous
100
AcDbLine
 10
416.6888623745729
 20
102.170733853839
 30
0.0
 11
416.6888623745729
 21
114.870733853839
 31
0.0
  0
LINE
  5
20592
330
1B
100
AcDbEntity
 67
     1
  8
0
  6
Continuous
100
AcDbLine
 10
1242.188862374573
 20
318.070733853839
 30
0.0
 11
1254.888862374573
 21
318.070733853839
 31
0.0
  0
LINE
  5
20593
330
1B
100
AcDbEntity
 67
     1
  8
0
  6
Continuous
100
AcDbLine
 10
556.3888623745729
 20
102.170733853839
 30
0.0
 11
556.3888623745729
 21
114.870733853839
 31
0.0
  0
LINE
  5
20597
330
1B
100
AcDbEntity
 67
     1
  8
0
  6
Continuous
100
AcDbLine
 10
1242.188862374573
 20
426.0207338538389
 30
0.0
 11
1254.888862374573
 21
426.0207338538389
 31
0.0
  0
LINE
  5
205A0
330
1B
100
AcDbEntity
 67
     1
  8
0
  6
Continuous
100
AcDbLine
 10
1242.188862374573
 20
641.920733853839
 30
0.0
 11
1254.888862374573
 21
641.920733853839
 31
0.0
  0
LINE
  5
205A3
330
1B
100
AcDbEntity
 67
     1
  8
0
  6
Continuous
100
AcDbLine
 10
835.7888623745729
 20
102.170733853839
 30
0.0
 11
835.7888623745729
 21
114.870733853839
 31
0.0
  0
LINE
  5
205A7
330
1B
100
AcDbEntity
 67
     1
  8
0
  6
Continuous
100
AcDbLine
 10
1242.188862374573
 20
749.8707338538389
 30
0.0
 11
1254.888862374573
 21
749.8707338538389
 31
0.0
  0
LINE
  5
205AE
330
1B
100
AcDbEntity
 67
     1
  8
0
  6
Continuous
100
AcDbLine
 10
975.4888623745729
 20
102.170733853839
 30
0.0
 11
975.4888623745729
 21
114.870733853839
 31
0.0
  0
LINE
  5
205B0
330
1B
100
AcDbEntity
 67
     1
  8
0
  6
Continuous
100
AcDbLine
 10
1242.188862374573
 20
857.8207338538389
 30
0.0
 11
1254.888862374573
 21
857.8207338538389
 31
0.0
  0
LINE
  5
205B8
330
1B
100
AcDbEntity
 67
     1
  8
0
  6
Continuous
100
AcDbLine
 10
1115.188862374573
 20
102.170733853839
 30
0.0
 11
1115.188862374573
 21
114.870733853839
 31
0.0
  0
LINE
  5
205B9
330
1B
100
AcDbEntity
 67
     1
  8
0
  6
Continuous
100
AcDbLine
 10
149.988862374573
 20
953.0707338538389
 30
0.0
 11
1242.188862374573
 21
953.0707338538389
 31
0.0
  0
LINE
  5
205BA
330
1B
100
AcDbEntity
 67
     1
  8
0
  6
Continuous
 62
     7
100
AcDbLine
 10
137.288862374573
 20
965.7707338538388
 30
0.0
 11
1254.888862374573
 21
965.7707338538388
 31
0.0
  0
LINE
  5
205DA
330
1B
100
AcDbEntity
 67
     1
  8
0
  6
Continuous
100
AcDbLine
 10
1242.188862374573
 20
114.870733853839
 30
0.0
 11
1242.188862374573
 21
953.0707338538389
 31
0.0
  0
LINE
  5
205DB
330
1B
100
AcDbEntity
 67
     1
  8
0
  6
Continuous
 62
     7
100
AcDbLine
 10
1254.888862374573
 20
102.170733853839
 30
0.0
 11
1254.888862374573
 21
965.7707338538388
 31
0.0
  0
ENDSEC
  0
SECTION
  2
OBJECTS
  0
DICTIONARY
  5
C
330
0
100
AcDbDictionary
281
     1
  3
ACAD_COLOR
350
1658B
  3
ACAD_GROUP
350
D
  3
ACAD_LAYOUT
350
1A
  3
ACAD_MATERIAL
350
1658A
  3
ACAD_MLINESTYLE
350
17
  3
ACAD_PLOTSETTINGS
350
19
  3
ACAD_PLOTSTYLENAME
350
E
  3
ACAD_TABLESTYLE
350
20608
  3
AcDbVariableDictionary
350
393
  3
AcmDictionary
350
1A270
  3
AMG
350
1A216
  3
AMGSNAPSETTINGS
350
1A2B0
  3
ASE_INDEX_DICTIONARY
350
20D7C
  0
DICTIONARY
  5
1E8B9
330
2
100
AcDbDictionary
280
     1
281
     1
  3
ACAD_LAYERSTATES
360
1E8BA
  0
DICTIONARY
  5
165F6
330
1F
100
AcDbDictionary
280
     1
281
     1
  3
ACAD_SORTENTS
360
20D08
  0
DICTIONARY
  5
1658B
102
{ACAD_REACTORS
330
C
102
}
330
C
100
AcDbDictionary
281
     1
  0
DICTIONARY
  5
D
102
{ACAD_REACTORS
330
C
102
}
330
C
100
AcDbDictionary
281
     1
  3
*A1
350
1709E
  3
*A2
350
1709F
  0
DICTIONARY
  5
1A
102
{ACAD_REACTORS
330
C
102
}
330
C
100
AcDbDictionary
281
     1
  3
Layout1
350
1E
  3
Model
350
22
  0
DICTIONARY
  5
1658A
102
{ACAD_REACTORS
330
C
102
}
330
C
100
AcDbDictionary
281
     1
  0
DICTIONARY
  5
17
102
{ACAD_REACTORS
330
C
102
}
330
C
100
AcDbDictionary
281
     1
  3
Standard
350
18
  0
DICTIONARY
  5
19
102
{ACAD_REACTORS
330
C
102
}
330
C
100
AcDbDictionary
281
     1
  0
ACDBDICTIONARYWDFLT
  5
E
102
{ACAD_REACTORS
330
C
102
}
330
C
100
AcDbDictionary
281
     1
  3
Normal
350
F
100
AcDbDictionaryWithDefault
340
F
  0
DICTIONARY
  5
20608
102
{ACAD_REACTORS
330
C
102
}
330
C
100
AcDbDictionary
281
     1
  3
Standard
350
20609
  0
DICTIONARY
  5
393
102
{ACAD_REACTORS
330
C
102
}
330
C
100
AcDbDictionary
281
     1
  3
CTABLESTYLE
350
20D00
  3
INDEXCTL
350
AF72
  3
SORTENTS
350
394
  0
DICTIONARY
  5
1A270
102
{ACAD_REACTORS
330
C
102
}
330
C
100
AcDbDictionary
281
     1
  3
AcmStdDictionary
350
1A27D
  3
AMDTSECTSYM_ARROWCOLOR
350
20624
  0
DICTIONARY
  5
1A216
102
{ACAD_REACTORS
330
C
102
}
330
C
100
AcDbDictionary
281
     1
  0
DICTIONARY
  5
1A2B0
102
{ACAD_REACTORS
330
C
102
}
330
C
100
AcDbDictionary
281
     1
  0
DICTIONARY
  5
20D7C
102
{ACAD_REACTORS
330
C
102
}
330
C
100
AcDbDictionary
281
     1
  3
ASEBlockHierarchyIndexRecord
350
20D7D
1001
DCO15
1040
1629018549.516
  0
DICTIONARY
  5
1E8BA
102
{ACAD_REACTORS
330
1E8B9
102
}
330
1E8B9
100
AcDbDictionary
281
     1
  0
SORTENTSTABLE
  5
20D08
102
{ACAD_REACTORS
330
165F6
102
}
330
165F6
100
AcDbSortentsTable
330
1F
331
1638D
  5
1638D
331
14D62
  5
14D62
331
16395
  5
16395
331
14E22
  5
14E22
331
1547F
  5
1547F
331
16366
  5
16366
331
1636E
  5
1636E
331
14E7A
  5
14E7A
331
16376
  5
16376
331
1637E
  5
1637E
331
5652
  5
5652
331
15242
  5
15242
331
16386
  5
16386
331
20D34
  5
20D3A
331
20D3C
  5
20D52
331
14D63
  5
14D63
331
1638E
  5
1638E
331
16396
  5
16396
331
16367
  5
16367
331
16586
  5
16586
331
1636F
  5
1636F
331
5633
  5
5633
331
16377
  5
16377
331
5653
  5
5653
331
15243
  5
15243
331
1637F
  5
1637F
331
16387
  5
16387
331
20D35
  5
20D3C
331
20D4B
  5
20D53
331
204
  5
204
331
1638F
  5
1638F
331
14D64
  5
14D64
331
16397
  5
16397
331
55EC
  5
55EC
331
14E6C
  5
14E6C
331
16368
  5
16368
331
16587
  5
16587
331
14E7C
  5
14E7C
331
16370
  5
16370
331
16378
  5
16378
331
564C
  5
564C
331
17D06
  5
17D06
331
16380
  5
16380
331
5654
  5
5654
331
15244
  5
15244
331
20D36
  5
20D3D
331
15252
  5
15252
331
583E
  5
583E
331
16388
  5
16388
331
14D65
  5
14D65
331
16390
  5
16390
331
16369
  5
16369
331
1A2E3
  5
1A2E3
331
16371
  5
16371
331
564D
  5
564D
331
14E85
  5
14E85
331
16379
  5
16379
331
5655
  5
5655
331
15245
  5
15245
331
16381
  5
16381
331
20D37
  5
20D4B
331
16389
  5
16389
331
15253
  5
15253
331
16391
  5
16391
331
1A373
  5
1A37B
331
17CF8
  5
17CF8
331
1636A
  5
1636A
331
1A37B
  5
1A386
331
16372
  5
16372
331
1637A
  5
1637A
331
564E
  5
564E
331
16382
  5
16382
331
5656
  5
5656
331
15246
  5
15246
331
15C7B
  5
15C7B
331
1A5B2
  5
2075C
331
20D38
  5
20D4E
331
15254
  5
15254
331
1638A
  5
1638A
331
1636B
  5
1636B
331
14E6F
  5
14E6F
331
16373
  5
16373
331
DDD8
  5
DDD8
331
564F
  5
564F
331
1637B
  5
1637B
331
E718
  5
E718
331
1A463
  5
20739
331
5657
  5
5657
331
15247
  5
15247
331
15C7C
  5
15C7C
331
16383
  5
16383
331
15CA4
  5
15CA4
331
20D39
  5
20D4F
331
1D364
  5
2077C
331
1638B
  5
1638B
331
15255
  5
15255
331
15CB4
  5
15CB4
331
15CBC
  5
15CBC
331
17CEA
  5
17CEA
331
1A2E6
  5
1A2E6
331
1636C
  5
1636C
331
15495
  5
15495
331
16374
  5
16374
331
1637C
  5
1637C
331
5650
  5
5650
331
15C7D
  5
15C7D
331
16384
  5
16384
331
20D3A
  5
20D51
331
15256
  5
15256
331
15CB5
  5
15CB5
331
58EA
  5
58EA
331
1638C
  5
1638C
331
1A2D7
  5
1A2D7
331
55E9
  5
55E9
331
16365
  5
16365
331
1636D
  5
1636D
331
1A386
  5
1A3B3
331
1D1CE
  5
20765
331
16375
  5
16375
331
5649
  5
5649
331
5651
  5
5651
331
15241
  5
15241
331
1637D
  5
1637D
331
15C7E
  5
15C7E
331
16385
  5
16385
331
20D33
  5
20D39
  0
GROUP
  5
1709E
102
{ACAD_REACTORS
330
D
102
}
330
D
100
AcDbGroup
300

 70
     1
 71
     1
  0
GROUP
  5
1709F
102
{ACAD_REACTORS
330
D
102
}
330
D
100
AcDbGroup
300

 70
     1
 71
     1
  0
LAYOUT
  5
1E
102
{ACAD_XDICTIONARY
360
2063B
102
}
102
{ACAD_REACTORS
330
1A
102
}
330
1A
100
AcDbPlotSettings
  1

  2
hp deskjet 1180c printer
  4
A4
  6

 40
4.180416584014892
 41
13.4937515258789
 42
4.180404663085937
 43
3.67242431640625
 44
209.9733276367187
 45
297.0106506347656
 46
0.0
 47
0.0
 48
0.0
 49
0.0
140
0.0
141
0.0
142
1.0
143
10.0
 70
   688
 72
     1
 73
     1
 74
     5
  7
acad.ctb
 75
    20
147
0.1
 76
     1
 77
     2
 78
   150
148
0.0
149
0.0
100
AcDbLayout
  1
Layout1
 70
     1
 71
     1
 10
-36.7242431640625
 20
-41.80416584014892
 11
2933.382263183594
 21
2057.929110527039
 12
0.0
 22
0.0
 32
0.0
 14
137.288862374573
 24
102.170733853839
 34
0.0
 15
1254.888862374573
 25
1829.370733853839
 35
0.0
146
0.0
 13
0.0
 23
0.0
 33
0.0
 16
1.0
 26
0.0
 36
0.0
 17
0.0
 27
1.0
 37
0.0
 76
     0
330
1B
331
1B09F
  0
LAYOUT
  5
22
102
{ACAD_REACTORS
330
1A
102
}
330
1A
100
AcDbPlotSettings
  1

  2
\\KEDOD0229\HP LaserJet 4V
  4
A3
  6

 40
7.143749713897705
 41
5.916075706481933
 42
7.18609619140625
 43
5.873748779296875
 44
296.9683227539062
 45
419.9889831542968
 46
0.0
 47
0.0
 48
286.5778900564983
 49
1382.524468383741
140
1436.577893018475
141
2207.524468383741
142
1.0
143
2.918923174221315
 70
 11952
 72
     1
 73
     1
 74
     4
  7
aclt.ctb
 75
     0
147
0.342592093149821
 76
     0
 77
     2
 78
   300
148
-286.5778900564983
149
-1382.524468383741
100
AcDbLayout
  1
Model
 70
     1
 71
     0
 10
0.0
 20
0.0
 11
12.0
 21
9.0
 12
0.0
 22
0.0
 32
0.0
 14
0.0
 24
0.0
 34
0.0
 15
0.0
 25
0.0
 35
0.0
146
0.0
 13
0.0
 23
0.0
 33
0.0
 16
1.0
 26
0.0
 36
0.0
 17
0.0
 27
1.0
 37
0.0
 76
     0
330
1F
  0
MLINESTYLE
  5
18
102
{ACAD_REACTORS
330
17
102
}
330
17
100
AcDbMlineStyle
  2
STANDARD
 70
     0
  3

 62
   256
 51
90.0
 52
90.0
 71
     2
 49
0.5
 62
   256
  6
BYLAYER
 49
-0.5
 62
   256
  6
BYLAYER
  0
ACDBPLACEHOLDER
  5
F
102
{ACAD_REACTORS
330
E
102
}
330
E
  0
TABLESTYLE
  5
20609
102
{ACAD_REACTORS
330
20608
102
}
330
20608
100
AcDbTableStyle
  3
Standard
 70
     0
 71
     0
 40
0.06
 41
0.06
280
     0
281
     0
  7
Standard
140
0.18
170
     2
 62
     0
 63
     7
283
     0
274
    -2
284
     1
 64
     0
275
    -2
285
     1
 65
     0
276
    -2
286
     1
 66
     0
277
    -2
287
     1
 67
     0
278
    -2
288
     1
 68
     0
279
    -2
289
     1
 69
     0
  7
Standard
140
0.25
170
     5
 62
     0
 63
     7
283
     0
274
    -2
284
     1
 64
     0
275
    -2
285
     1
 65
     0
276
    -2
286
     1
 66
     0
277
    -2
287
     1
 67
     0
278
    -2
288
     1
 68
     0
279
    -2
289
     1
 69
     0
  7
Standard
140
0.18
170
     5
 62
     0
 63
     7
283
     0
274
    -2
284
     1
 64
     0
275
    -2
285
     1
 65
     0
276
    -2
286
     1
 66
     0
277
    -2
287
     1
 67
     0
278
    -2
288
     1
 68
     0
279
    -2
289
     1
 69
     0
  0
DICTIONARYVAR
  5
20D00
102
{ACAD_REACTORS
330
393
102
}
330
393
100
DictionaryVariables
280
     0
  1
STANDARD
  0
DICTIONARYVAR
  5
AF72
102
{ACAD_REACTORS
330
393
102
}
330
393
100
DictionaryVariables
280
     0
  1
-1
  0
DICTIONARYVAR
  5
394
102
{ACAD_REACTORS
330
393
102
}
330
393
100
DictionaryVariables
280
     0
  1
96
  0
DICTIONARY
  5
1A27D
102
{ACAD_REACTORS
330
1A270
102
}
330
1A270
100
AcDbDictionary
281
     1
  0
XRECORD
  5
20624
102
{ACAD_REACTORS
330
1A270
102
}
330
1A270
100
AcDbXrecord
280
     1
 90
-1023410169
  0
XRECORD
  5
20D7D
102
{ACAD_REACTORS
330
20D7C
102
}
330
20D7C
100
AcDbXrecord
280
     1
330
204
330
55E9
330
5633
330
203E5
330
203E6
330
203E7
330
203E8
330
2055A
330
2055B
330
2055C
330
2055D
  0
DICTIONARY
  5
2063B
330
1E
100
AcDbDictionary
280
     1
281
     1
  3
ADSK_XREC_LAYOUTTHUMBNAIL
360
2063C
  0
XRECORD
  5
2063C
102
{ACAD_REACTORS
330
2063B
102
}
330
2063B
100
AcDbXrecord
280
     1
310
28000000B40000007F00000001000800000000004C59000000000000000000000001000000000000FFFFFF0000000000FFFFFF000000000000000000000000000000000000000000000000000000000000000000330000006600000099000000CC000000FF00000000330000333300006633000099330000CC330000FF3300
310
0000660000336600006666000099660000CC660000FF66000000990000339900006699000099990000CC990000FF99000000CC000033CC000066CC000099CC0000CCCC0000FFCC000000FF000033FF000066FF000099FF0000CCFF0000FFFF000000003300330033006600330099003300CC003300FF003300003333003333
310
33006633330099333300CC333300FF33330000663300336633006666330099663300CC663300FF66330000993300339933006699330099993300CC993300FF99330000CC330033CC330066CC330099CC3300CCCC3300FFCC330000FF330033FF330066FF330099FF3300CCFF3300FFFF330000006600330066006600660099
310
006600CC006600FF00660000336600333366006633660099336600CC336600FF33660000666600336666006666660099666600CC666600FF66660000996600339966006699660099996600CC996600FF99660000CC660033CC660066CC660099CC6600CCCC6600FFCC660000FF660033FF660066FF660099FF6600CCFF6600
310
FFFF660000009900330099006600990099009900CC009900FF00990000339900333399006633990099339900CC339900FF33990000669900336699006666990099669900CC669900FF66990000999900339999006699990099999900CC999900FF99990000CC990033CC990066CC990099CC9900CCCC9900FFCC990000FF99
310
0033FF990066FF990099FF9900CCFF9900FFFF99000000CC003300CC006600CC009900CC00CC00CC00FF00CC000033CC003333CC006633CC009933CC00CC33CC00FF33CC000066CC003366CC006666CC009966CC00CC66CC00FF66CC000099CC003399CC006699CC009999CC00CC99CC00FF99CC0000CCCC0033CCCC0066CC
310
CC0099CCCC00CCCCCC00FFCCCC0000FFCC0033FFCC0066FFCC0099FFCC00CCFFCC00FFFFCC000000FF003300FF006600FF009900FF00CC00FF00FF00FF000033FF003333FF006633FF009933FF00CC33FF00FF33FF000066FF003366FF006666FF009966FF00CC66FF00FF66FF000099FF003399FF006699FF009999FF00CC
310
99FF00FF99FF0000CCFF0033CCFF0066CCFF0099CCFF00CCCCFF00FFCCFF0000FFFF0033FFFF0066FFFF0099FFFF00CCFFFF00FFFFFF00000000000D0D0D001A1A1A00282828003535350043434300505050005D5D5D006B6B6B00787878008686860093939300A1A1A100AEAEAE00BBBBBB00C9C9C900D6D6D600E4E4E400
310
F1F1F100FFFFFF0000000000000000000000000000000000000000000000000000000000000000000000000000000000E2E2E2E2E2E2E2E2E2E2E2E2E2E2E2E2E2E2E2E2E2E2E2E2E2E2E2E2E2E2E2E2E2E2E2E2E2E2E2E2E2E2E2E2E2E2E2E2E2E2E2E2E2E2E2E2E2E2E2E2E2E2E2E2E2E2E2E2E2E2E2E2E2E2E2E2E2E2E2
310
E2E2E2E2E2E2E2E2E2E2E2E2E2E2E2E2E2E2E2E2E2E2E2E2E2E2E2E2E2E2E2E2E2E2E2E2E2E2E2E2E2E2E2E2E2E2E2E2E2E2E2E2E2E2E2E2E2E2E2E2E2E2E2E2E2E2E2E2E2E2E2E2E2E2E2E2E2E2E2E2E2E2E2E2E2E2E2E2E2E2E2E2E2E2E2E2E2E2E2E2E2E2F5F5F5F5F5F5F5F5F5F5F5F5F5F5F5F5F5F5F5F5F5F5F5F5F5
310
F5F5F5F5F5F5F5F5F5F5F5F5F5F5F5F5F5F5F5F5F5F5F5F5F5F5F5F5F5F5F5F5F5F5F5F5F5F5F5F5F5F5F5F5F5F5F5F5F5F5F5F5F5F5F5F5F5F5F5F5F5F5F5F5F5F5F5F5F5F5F5F5F5F5F5F5F5F5F5F5F5F5F5F5F5F5F5F5F5F5F5F5F5F5F5F5F5F5F5F5F5F5F5F5F5F5F5F5F5F5F5F5F5F5F5F5F5F5F5F5F5F5F5F5F5F5F5
310
F5F5F5F5F5F5F5F5F5F5F5F5F5F5F5F5F5F5F5F5F5F5F5F5F5F5E2E2F5F5F5F5F5F5F5F5F5F5F5F5F5F5F5F5F5F5F5F5F5F5F5F5F5F5F5F5F5F5F5F5F5F5F5F5F5F5F5F5F5F5F5F5F5F5F5F5F5F5F5F5F5F5F5F5F5F5F5F5F5F5F5F5F5F5F5F5F5F5F5F5F5F5F5F5F5F5F5F5F5F5F5F5F5F5F5F5F5F5F5F5F5F5F5F5F5F5F5
310
F5F5F5F5F5F5F5F5F5F5F5F5F5F5F5F5F5F5F5F5F5F5F5F5F5F5F5F5F5F5F5F5F5F5F5F5F5F5F5F5F5F5F5F5F5F5F5F5F5F5F5F5F5F5F5F5F5F5F5F5F5F5F5F5F5F5F5F5F5F5F5F5F5F5F5F5F5F5F5E2E2F5F5E2E2E2E2E2E2E2E2F5F5F5F5F5F5F5F5F5E2E2E2E2E2E2E2E2E2E2E2E2E2E2E2F5F5F5F5F5F5F5F5F5E2E2E2
310
E2E2E2E2E2E2E2E2E2E2E2E2F5F5F5F5F5F5F5F5E2E2E2E2E2E2E2E2E2E2E2E2E2E2E2E2F5F5F5F5F5F5F5F5E2E2E2E2E2E2E2E2E2E2E2E2E2E2E2E2F5F5F5F5F5F5F5F5E2E2E2E2E2E2E2E2E2E2E2E2E2E2E2F5F5F5F5F5F5F5F5F5E2E2E2E2E2E2E2E2E2E2E2E2E2E2E2F5F5F5F5F5F5F5F5F5E2E2E2E2E2E2E2E2F5F5F5
310
F5F5F5F5F5E2E2F5F5E2F5F5F5F5F5F5F5F5F5F5F5F5F5F5F5F5F5F5F5F5F5F5F5F5F5F5F5F5F5F5F5F5F5F5F5F5F5F5F5F5F5F5F5F5F5F5F5F5F5F5F5F5F5F5F5F5F5F5F5F5F5F5F5F5F5F5F5F5F5F5F5F5F5F5F5F5F5F5F5F5F5F5F5F5F5F5F5F5F5F5F5F5F5F5F5F5F5F5F5F5F5F5F5F5F5F5F5F5F5F5F5F5F5F5F5F5F5
310
F5F5F5F5F5F5F5F5F5F5F5F5F5F5F5F5F5F5F5F5F5F5F5F5F5F5F5F5F5F5F5F5F5F5F5F5F5F5F5F5F5F5F5F5F5F5F5F5F5E2F5F5F5F5F5F5F5F5E2E2F5F5E2F5F5F5F5F5F5F5F5F5F5F5F5F5F5F5F5F5F5F5F5F5F5F5F5F5F5F5F5F5F5F5F5F5F5F5F5F5F5F5F5F5F5F5F5F5F5F5F5F5F5F5F5F5F5F5F5F5F5F5F5F5F5F5F5
310
F5F5F5F5F5F5F5F5F5F5F5F5F5F5F5F5F5F5F5F5F5F5F5F5F5F5F5F5F5F5F5F5F5F5F5F5F5F5F5F5F5F5F5F5F5F5F5F5F5F5F5F5F5F5F5F5F5F5F5F5F5F5F5F5F5F5F5F5F5F5F5F5F5F5F5F5F5F5F5F5F5F5F5F5F5F5F5F5F5F5F5F5F5F5F5F5F5F5F5F5F5F5E2F5F5F5F5F5F5F5F5E2E2F5F5E2F5F5F5F5F5F5F5F5F5F5F5
310
F5F5F5F5F5F5F5F5F5F5F5F5F5F5F5F5F5F5F5F5F5F5F5F5F5F5F5F5F5F5F5F5F5F5F5F5F5F5F5F5F5F5F5F5F5F5F5F5F5F5F5F5F5F5F5F5F5F5F5F5F5F5F5F5F5F5F5F5F5F5F5F5F5F5F5F5F5F5F5F5F5F5F5F5F5F5F5F5F5F5F5F5F5F5F5F5F5F5F5F5F5F5F5F5F5F5F5F5F5F5F5F5F5F5F5F5F5F5F5F5F5F5F5F5F5F5F5
310
F5F5F5F5F5F5F5F5F5F5F5F5F5F5F5F5F5F5F5F5F5F5F5F5F5F5F5F5E2F5F5F5F5F5F5F5F5E2E2F5F5E2F5F5F5F5F5F5F5F5F5F5F5F5F5F5F5F5F5F5F5F5F5F5F5F5F5F5F5F5F5F5F5F5F5F5F5F5F5F5F5F5F5F5F5F5F5F5F5F5F5F5F5F5F5F5F5F5F5F5F5F5F5F5F5F5F5F5F5F5F5F5F5F5F5F5F5F5F5F5F5F5F5F5F5F5F5
310
F5F5F5F5F5F5F5F5F5F5F5F5F5F5F5F5F5F5F5F5F5F5F5F5F5F5F5F5F5F5F5F5F5F5F5F5F5F5F5F5F5F5F5F5F5F5F5F5F5F5F5F5F5F5F5F5F5F5F5F5F5F5F5F5F5F5F5F5F5F5F5F5F5F5F5F5F5F5F5F5F5E2F5F5F5F5F5F5F5F5E2E2F5F5E2F5F5F5F5F5F5F5F5F5F5F5F5F5F5F5F5F5F5F5F5F5F5F5F5F5F5F5F5F5F5F5F5
310
F5F5F5F5F5F5F5F5F5F5F5F5F5F5F5F5F5F5F5F5F5F5F5F5F5F5F5F5F5F5F5F5F5F5F5F5F5F5F5F5F5F5F5F5F5F5F5F5F5F5F5F5F5F5F5F5F5F5F5F5F5F5F5F5F5F5F5F5F5F5F5F5F5F5F5F5F5F5F5F5F5F5F5F5F5F5F5F5F5F5F5F5F5F5F5F5F5F5F5F5F5F5F5F5F5F5F5F5F5F5F5F5F5F5F5F5F5F5F5F5F5F5F5F5F5F5F5
310
F5F5F5F5F5F5F5E2F5F5F5F5F5F5F5F5E2E2F5F5E2F5F5F5F5F5F5F5E2E2E2E2E2E2E2E2E2E2E2E2E2E2E2E2E2E2E2E2E2E2E2E2E2E2E2E2E2E2E2E2E2E2E2E2E2E2E2E2E2E2E2E2E2E2E2E2E2E2E2E2E2E2E2E2E2E2E2E2E2E2E2E2E2E2E2E2F5F5F5F5F5F5F5F5F5F5F5F5F5F5F5F5F5F5F5F5F5F5F5F5F5F5F5F5F5F5F5
310
F5F5F5F5F5F5F5F5F5F5F5F5F5F5F5F5F5F5F5F5F5F5F5F5F5F5F5F5F5F5F5F5F5F5F5F5F5F5F5F5F5F5F5F5F5F5F5F5F5F5F5F5F5F5F5F5F5F5F5F5E2F5F5F5F5F5F5F5F5E2E2F5F5E2F5F5F5F5F5F5F5E2E2F5F5F5F5F5F5F5F5F5F5F5F5F5F5F5F5F5F5F5F5F5F5F5F5F5F5F5F5F5F5F5F5F5F5F5F5F5F5F5F5F5F5F5F5
310
F5F5F5F5DCDCDCDCDCDCDCDCDCDCDCDCDCDCDCDCE2E2F5F5F5F5F5F5F5F5F5F5F5F5F5F5F5F5F5F5F5F5F5F5F5F5F5F5F5F5F5F5F5F5F5F5F5F5F5F5F5F5F5F5F5F5F5F5F5F5F5F5F5F5F5F5F5F5F5F5F5F5F5F5F5F5F5F5F5F5F5F5F5F5F5F5F5F5F5F5F5F5F5F5F5F5F5F5F5F5F5F5F5E2F5F5F5F5F5F5F5F5E2E2F5F5F5
310
F5F5F5F5F5F5F5E2E2F5F5F5F5F5F5F5F5F5F5F5F5F5F5F5F5F5F5F5F5F5F5F5F5F5F5F5F5F5F5F5F5F5F5F5F5F5F5F5F5F5F5F5F5F5F5F5F5DCDCDCDCDCDCDCDCDCDCDCDCDCDCDCDCE2E2F5F5F5F5F5F5F5F5F5F5F5F5F5F5F5F5F5F5F5F5F5F5F5F5F5F5F5F5F5F5F5F5F5F5F5F5F5F5F5F5F5F5F5F5F5F5F5F5F5F5F5F5
310
F5F5F5F5F5F5F5F5F5F5F5F5F5F5F5F5F5F5F5F5F5F5F5F5F5F5F5F5F5F5F5F5F5F5F5F5F5F5F5F5F5F5F5F5F5F5F5F5E2E2F5F5F5F5F5F5F5F5F5F5E2E2F5F5F5F5F5F5F5F5F5F5F5F5F5F5F5F5F5F5F5F5F5F5F5F5F5F5F5F5F5F5F5F5F5F5F5F5F5F5F5F5F5F5F5F5F5F5F5F5DCDCDCDCDCDCDCDCF5DCDCDCDCDCDCDCE2
310
E2F5F5F5F5F5F5F5F5F5F5F5F5F5F5F5F5F5F5F5F5F5F5F5F5F5F5F5F5F5F5F5F5F5F5F5F5F5F5F5F5F5F5F5F5F5F5F5F5F5F5F5F5F5F5F5F5F5F5F5F5F5F5F5F5F5F5F5F5F5F5F5F5F5F5F5F5F5F5F5F5F5F5F5F5F5F5F5F5F5F5F5F5F5F5F5F5F5F5F5F5E2E2F5F5F5F5F5F5F5F5F5F5E2E2F5F5F5F5F5F5F5F5F5F5F5F5
310
F5F5F5F5F5F5F5F5F5F5F5F5F5F5F5F5F5F5F5F5F5F5F5F5F5F5F5F5F5F5F5F5F5F5F5F5DCDCDCDCDCDCDCDCDCDCDCDCDCDCDCDCE2E2F5F5F5F5F5F5F5F5F5F5F5F5F5F5F5F5F5F5F5F5F5F5F5F5F5F5F5F5F5F5F5F5F5F5F5F5F5F5F5F5F5F5F5F5F5F5F5F5F5F5F5F5F5F5F5F5F5F5F5F5F5F5F5F5F5F5F5F5F5F5F5F5F5
310
F5F5F5F5F5F5F5F5F5F5F5F5F5F5F5F5F5F5F5F5F5F5F5F5F5F5F5E2E2F5F5F5F5F5F5F5F5F5F5E2E2F5F5F5F5F5F5F5F5F5F5F5F5F5F5F5F5F5F5F5F5F5DCDCDCF5F5F5F5F5F5F5F5F5F5F5F5F5F5F5F5F5F5F5F5F5F5F5F5DCDCDCDCDCDCDCDCDCDCDCDCDCDCDCDCE2E2F5F5F5F5F5F5F5F5F5F5F5F5F5F5F5F5F5F5F5F5
310
F5F5F5F5F5F5F5F5F5F5F5F5F5F5F5F5F5F5F5F5F5F5F5F5F5F5F5F5F5F5F5F5F5F5F5F5F5F5F5F5F5F5F5F5F5F5F5F5F5F5F5F5F5F5F5F5F5F5F5F5F5F5F5F5F5F5F5F5F5F5F5F5F5F5F5F5F5F5F5F5E2E2F5F5F5F5F5F5F5F5F5F5E2E2F5F5F5F5F5F5F5F5F5F5F5F5F5F5F5F5DCF5F5F5F5DCDC28DCF5F5F5F5F5F5F5F5
310
F5F5F5F5F5F5F5F5F5F5F5F5F5F5F5F5F5F5F5F5F5F5F5F5F5F5F5F5F5F5F5E2E2F5F5F5F5F5F5F5F5F5F5F5F5F5F5F5F5F5F5F5F5F5F5F5F5F5F5F5F5F5F5F5F5F5F5F5F5F5F5F5F5F5F5F5F5F5F5F5F5F5F5F5F5F5F5F5F5F5F5F5F5F5F5F5F5F5F5F5F5F5F5F5F5F5F5F5F5F5F5F5F5F5F5F5F5F5F5F5F5F5F5F5F5F5F5
310
F5F5F5F5F5F5E2E2F5F5F5F5F5F5F5F5F5F5E2E2F5F5F5F5F5F5F5F5F5DCDCDCDCDCDCDCDCDCDCDCDCDC2828DCF5F5F5F5F5F5F5F5F5F5F5F5F5F5F5F5F5F5F5F5F5F5F5F5F5F5F5F5F5F5F5F5F5F5F5F5F5F5F5E2E2F5F5F5F5F5F5F5F5F5F5F5F5F5F5F5F5F5F5F5F5F5F5F5F5F5F5F5F5F5F5F5F5F5F5F5F5F5F5F5F5F5
310
F5F5F5F5F5F5F5F5F5F5F5F5F5F5F5F5F5F5F5F5F5F5F5F5F5F5F5F5F5F5F5F5F5F5F5F5F5F5F5F5F5F5F5F5F5F5F5F5F5F5F5F5F5F5F5F5F5F5F5E2E2F5F5F5F5F5F5F5F5F5F5E2E2F5F5F5F5F5F5DCDCDCDCDCDCDCDCDCDCDCDCDCDCDCDC2DE2DCDCDCDCDCF5F5F5F5F5F5F5F5F5F5F5F5F5F5F5F5F5F5F5F5F5F5F5F5F5
310
F5F5F5F5F5F5F5F5F5F5E2E2F5F5F5F5F5F5F5F5F5F5F5F5F5F5F5F5F5F5F5F5F5F5F5F5F5F5F5F5F5F5F5F5F5F5F5F5F5F5F5F5F5F5F5F5F5F5F5F5F5F5F5F5F5F5F5F5F5F5F5F5F5F5F5F5F5F5F5F5F5F5F5F5F5F5F5F5F5F5F5F5F5F5F5F5F5F5F5F5F5F5F5F5F5F5F5F5F5F5F5F5E2E2F5F5F5F5F5F5F5F5F5F5E2E2F5
310
F5F5F5F5F5DCDCDCE2BEE2E2E2E2DCDCDCDCDCDCE22DF5E2DCDCDCDCDCF5F5F5F5F5F5DCDCDCDCDCF5F5F5F5F5F5F5F5F5F5F5F5F5F5F5F5F5F5F5F5F5F5F5E2E2F5F5F5F5F5F5F5F5F5F5F5F5F5F5F5F5F5F5F5F5F5F5F5F5F5F5F5F5F5F5F5F5F5F5F5F5F5F5F5F5F5F5F5F5F5F5F5F5F5F5F5F5F5F5F5F5F5F5F5F5F5F5
310
F5F5F5F5F5F5F5F5F5F5F5F5F5F5F5F5F5F5F5F5F5F5F5F5F5F5F5F5F5F5F5F5F5F5F5F5F5F5E2E2F5F5F5F5F5F5F5F5F5F5E2E2F5F5F5F5F5F5DCDCF5E2BEDCDCDCDCDCE2DCDCDCDCE22DE2E2DC28BEDCDCE2BEE2E2ECECE2ECDCDCDCDCDCF5F5F5F5F5F5F5F5F5F5F5F5F5F5F5F5F5F5F5F5F5E2E2F5F5F5F5F5F5F5F5F5
310
F5F5F5F5F5F5F5F5F5F5F5F5F5F5F5F5F5F5F5F5F5F5F5F5F5F5F5F5F5F5F5F5F5F5F5F5F5F5F5F5F5F5F5F5F5F5F5F5F5F5F5F5F5F5F5F5F5F5F5F5F5F5F5F5F5F5F5F5F5F5F5F5F5F5F5F5F5F5F5F5F5F5F5F5F5F5F5F5F5F5F5E2E2F5F5E2F5F5F5F5F5F5F5E2E2F5F5F5F5F5F5DCDCF5E2E2DCF5F5F5DCDCDCDCDCDCDC
310
DCDCDCDCDCE2BEBEE2BEBEBEECBEDCDCDCDCDCDCDCF5F5F5F5F5F5F5F5F5F5F5F5F5F5F5F5F5F5F5F5F5E2E2F5F5F5F5F5F5F5F5F5F5F5F5F5F5F5F5F5F5F5F5F5F5F5F5F5F5F5F5F5F5F5F5F5F5F5F5F5F5F5F5F5F5F5F5F5F5F5F5F5F5F5F5F5F5F5F5F5F5F5F5F5F5F5F5F5F5F5F5F5F5F5F5F5F5F5F5F5F5F5F5F5F5F5
310
F5F5F5F5F5F5F5F5E2F5F5F5F5F5F5F5F5E2E2F5F5E2F5F5F5F5F5F5F5E2E2F5F5F5F5F5DCDCDCF5E2E2DCF5F5F5DCDCDCDCDCDCDCDCDCDCF5F5F5F5E2E2BEBEE2E2BEBEE2E2DCDCDCDCF5F5F5F5F5F5F5F5F5F5F5F5F5F5F5F5F5F5F5F5F5E2E2F5F5F5F5F5F5F5F5F5F5F5F5F5F5F5F5F5F5F5F5F5F5F5F5F5F5F5F5F5F5
310
F5F5F5F5F5F5F5F5F5F5F5F5F5F5F5F5F5F5F5F5F5F5F5F5F5F5F5F5F5F5F5F5F5F5F5F5F5F5F5F5F5F5F5F5F5F5F5F5F5F5F5F5F5F5F5F5F5F5F5F5F5E2F5F5F5F5F5F5F5F5E2E2F5F5E2F5F5F5F5F5F5F5E2E2F5F5F5F5F5DCDCDCDCDCDCDCDCDCF5DCDCDCDCF5DCDCDCDCDCF5F5F5F5F5F5BEBEDCDCDCBEF5E2E2DCDCDC
310
F5F5F5F5F5F5F5F5F5F5F5F5F5F5F5F5F5F5F5F5F5E2E2F5F5F5F5F5F5F5F5F5F5F5F5F5F5F5F5F5F5F5F5F5F5F5F5F5F5F5F5F5F5F5F5F5F5F5F5F5F5F5F5F5F5F5F5F5F5F5F5F5F5F5F5F5F5F5F5F5F5F5F5F5F5F5F5F5F5F5F5F5F5F5F5F5F5F5F5F5F5F5F5F5F5F5F5F5F5F5F5F5F5F5E2F5F5F5F5F5F5F5F5E2E2F5F5
310
E2F5F5F5F5F5F5F5E2E2F5F5F5F5F5DCDCDCDCDCDCDCDCDCF5DCDCDCDCF5DCF5DCDCDCDCDCDCDCDCDCBEBEDCDCF5BEF5E2E2DCDCDCF5F5F5F5F5F5F5F5F5F5F5F5F5F5F5F5F5F5F5F5F5E2E2F5F5F5F5F5F5F5F5F5F5F5F5F5F5F5F5F5F5F5F5F5F5F5F5F5F5F5F5F5F5F5F5F5F5F5F5F5F5F5F5F5F5F5F5F5F5F5F5F5F5F5
310
F5F5F5F5F5F5F5F5F5F5F5F5F5F5F5F5F5F5F5F5F5F5F5F5F5F5F5F5F5F5F5F5F5F5F5F5F5F5F5F5E2F5F5F5F5F5F5F5F5E2E2F5F5E2F5F5F5F5F5F5F5E2E2F5F5F5F5F5F5DCDCDCDCDCDCDCF5F5DCDCDCDCF5DCF5DCDCDCF5F5F5F5F5F5BEF5F5DCF5BEDCDCE2DCDCDCDCF5F5F5F5F5F5F5F5F5F5F5F5F5F5F5F5F5F5F5F5
310
E2E2F5F5F5F5F5F5F5F5F5F5F5F5F5F5F5F5F5F5F5F5F5F5F5F5F5F5F5F5F5F5F5F5F5F5F5F5F5F5F5F5F5F5F5F5F5F5F5F5F5F5F5F5F5F5F5F5F5F5F5F5F5F5F5F5F5F5F5F5F5F5F5F5F5F5F5F5F5F5F5F5F5F5F5F5F5F5F5F5F5F5F5E2F5F5F5F5F5F5F5F5E2E2F5F5E2F5F5F5F5F5F5F5E2E2F5F5F5F5F5F5DCDCDCDCDC
310
DCDCDCF5DCDCDCDCF5DCDCDCDCDCDCDCDCDCDCDCBEDCDCDCF5BEBEDCE2DCDCDCDCF5F5F5F5F5F5F5F5F5F5F5F5F5F5F5F5F5F5F5F5E2E2F5F5F5F5F5F5F5F5F5F5F5F5F5F5F5F5F5F5F5F5F5F5F5F5F5F5F5F5F5F5F5F5F5F5F5F5F5F5F5F5F5F5F5F5F5F5F5F5F5F5F5F5F5F5F5F5F5F5F5F5F5F5F5F5F5F5F5F5F5F5F5F5
310
F5F5F5F5F5F5F5F5F5F5F5F5F5F5F5F5F5F5F5E2F5F5F5F5F5F5F5F5E2E2F5F5E2F5F5F5F5F5F5F5E2E2F5F5F5F5F5F5DCDCDCDCDCE2DCDCDCDCDCDC2DDCDCF5F5DCF5F5F5F5F5F5F5BEF5F5F5F5BEBEE2E2DCDCDCF5F5F5F5F5F5F5F5F5F5F5F5F5F5F5F5F5F5F5F5F5E2E2F5F5F5F5F5F5F5F5F5F5F5F5F5F5F5F5F5F5F5
310
F5F5F5F5F5F5F5F5F5F5F5F5F5F5F5F5F5F5F5F5F5F5F5F5F5F5F5F5F5F5F5F5F5F5F5F5F5F5F5F5F5F5F5F5F5F5F5F5F5F5F5F5F5F5F5F5F5F5F5F5F5F5F5F5F5F5F5F5F5F5F5F5E2F5F5F5F5F5F5F5F5E2E2F5F5E2F5F5F5F5F5F5F5E2E2F5F5F5F5F5F5DCDCDCDCDCDCDCDCDCDCDCDCBEBEDCDCBEDCBEBEBEBEBEBEBEBE
310
F5F5F5F5F5BEE2E2DCDCDCF5F5F5F5F5F5F5F5F5F5F5F5F5F5F5F5F5F5F5F5F5E2E2F5F5F5F5F5F5F5F5F5F5F5F5F5F5F5F5F5F5F5F5F5F5F5F5F5F5F5F5F5F5F5F5F5F5F5F5F5F5F5F5F5F5F5F5F5F5F5F5F5F5F5F5F5F5F5F5F5F5F5F5F5F5F5F5F5F5F5F5F5F5F5F5F5F5F5F5F5F5F5F5F5F5F5F5F5F5F5F5F5F5F5E2F5
310
F5F5F5F5F5F5F5E2E2F5F5E2F5F5F5F5F5F5F5E2E2F5F5F5F5F5F5DCDCDCDCDCDCDCE2DCDCDCDCDCDCDCE2E2DCDCE2E2E2E2E2E2BEBEBEBEBEBEBED6E2ECDCDCF5F5F5F5F5F5F5F5F5F5F5F5F5F5F5F5F5F5F5F5F5E2E2F5F5F5F5F5F5F5F5F5F5F5F5F5F5F5F5F5F5F5F5F5F5F5F5F5F5F5F5F5F5F5F5F5F5F5F5F5F5F5F5
310
F5F5F5F5F5F5F5F5F5F5F5F5F5F5F5F5F5F5F5F5F5F5F5F5F5F5F5F5F5F5F5F5F5F5F5F5F5F5F5F5F5F5F5F5F5F5F5F5F5F5F5E2F5F5F5F5F5F5F5F5E2E2F5F5E2F5F5F5F5F5F5F5E2E2F5F5F5F5F5F5F5F5F5DCF5F5F52DF5F5F5DCDCDCDCF5DCF5F5F5F5F5F5F5F5F5F5F5F5F5DCDCDCF5F5F5F5F5F5F5F5F5F5F5F5F5F5
310
F5F5F5F5F5F5F5F5F5F5F5E2E2F5F5F5F5F5F5F5F5F5F5F5F5F5F5F5F5F5F5F5F5F5F5F5F5F5F5F5F5F5F5F5F5F5F5F5F5F5F5F5F5F5F5F5F5F5F5F5F5F5F5F5F5F5F5F5F5F5F5F5F5F5F5F5F5F5F5F5F5F5F5F5F5F5F5F5F5F5F5F5F5F5F5F5F5F5F5F5F5F5F5F5E2F5F5F5F5F5F5F5F5E2E2F5F5E2F5F5F5F5F5F5F5E2E2
310
F5F5F5F5F5F5F5F5F5DCDCDCDCDCDCDCDCDCDCDCDCDCDCDCDCDCDCDCDCDCDCDCDCDCDCDCDCDCDCF5F5F5F5F5F5F5F5F5F5F5F5F5F5F5F5F5F5F5F5F5F5F5F5F5E2E2F5F5F5F5F5F5F5F5F5F5F5F5F5F5F5F5F5F5F5F5F5F5F5F5F5F5F5F5F5F5F5F5F5F5F5F5F5F5F5F5F5F5F5F5F5F5F5F5F5F5F5F5F5F5F5F5F5F5F5F5F5
310
F5F5F5F5F5F5F5F5F5F5F5F5F5F5F5F5F5F5F5F5F5F5F5F5F5F5F5F5F5F5E2F5F5F5F5F5F5F5F5E2E2F5F5E2F5F5F5F5F5F5F5E2E2F5F5F5F5F5F5F5F5F5F5F5F5F5F5F5F5F5F5F5F5F5F5F5F5F5F5F5F5F5F5F5F5F5F5F5F5F5F5F5F5F5F5F5F5F5F5F5F5F5F5F5F5F5F5F5F5F5F5F5F5F5F5F5F5E2E2F5F5F5F5F5F5F5F5
310
F5F5F5F5F5F5F5F5F5F5F5F5F5F5F5F5F5F5F5F5F5F5F5F5F5F5F5F5F5F5F5F5F5F5F5F5F5F5F5F5F5F5F5F5F5F5F5F5F5F5F5F5F5F5F5F5F5F5F5F5F5F5F5F5F5F5F5F5F5F5F5F5F5F5F5F5F5F5F5F5F5F5F5E2F5F5F5F5F5F5F5F5E2E2F5F5E2F5F5F5F5F5F5F5E2E2F5F5F5F5F5F5F5F5F5F5F5F5F5F5F5F5F5F5F5F5F5
310
F5F5F5F5F5F5F5F5F5F5F5F5F5F5F5F5F5F5F5F5F5F5F5F5F5F5F5F5F5F5F5F5F5F5F5F5F5F5F5F5F5F5F5E2E2F5F5F5F5F5F5F5F5F5F5F5F5F5F5F5F5F5F5F5F5F5F5F5F5F5F5F5F5F5F5F5F5F5F5F5F5F5F5F5F5F5F5F5F5F5F5F5F5F5F5F5F5F5F5F5F5F5F5F5F5F5F5F5F5F5F5F5F5F5F5F5F5F5F5F5F5F5F5F5F5F5F5
310
F5F5F5F5F5F5F5F5F5E2F5F5F5F5F5F5F5F5E2E2F5F5E2F5F5F5F5F5F5F5E2E2F5F5F5F5F5F5F5F5F5F5F5F5F5F5F5F5F5F5F5F5F5F5F5F5F5F5F5F5F5F5F5F5F5F5F5F5F5F5F5F5F5F5F5F5F5F5F5F5F5F5F5F5F5F5F5F5F5F5F5F5F5F5F5F5E2E2F5F5F5F5F5F5F5F5F5F5F5F5F5F5F5F5F5F5F5F5F5F5F5F5F5F5F5F5F5
310
F5F5F5F5F5F5F5F5F5F5F5F5F5F5F5F5F5F5F5F5F5F5F5F5F5F5F5F5F5F5F5F5F5F5F5F5F5F5F5F5F5F5F5F5F5F5F5F5F5F5F5F5F5F5F5F5F5F5F5F5F5F5E2F5F5F5F5F5F5F5F5E2E2F5F5E2F5F5F5F5F5F5F5E2E2F5F5F5F5F5F5F5F5F5F5F5F5F5F5F5F5F5F5F5F5F5F5F5F5F5F5F5F5F5F5F5F5F5F5F5F5F5F5F5F5F5F5
310
F5F5F5F5F5F5F5F5F5F5F5F5F5F5F5F5F5F5F5F5F5F5E2E2F5F5F5F5F5F5F5F5F5F5F5F5F5F5F5F5F5F5F5F5F5F5F5F5F5F5F5F5F5F5F5F5F5F5F5F5F5F5F5F5F5F5F5F5F5F5F5F5F5F5F5F5F5F5F5F5F5F5F5F5F5F5F5F5F5F5F5F5F5F5F5F5F5F5F5F5F5F5F5F5F5F5F5F5F5F5F5F5F5F5F5E2F5F5F5F5F5F5F5F5E2E2F5
310
F5F5F5F5F5F5F5F5F5E2E2F5F5F5F5F5F5F5F5F5F5F5F5F5F5F5F5F5F5F5F5F5F5F5F5F5F5F5F5F5F5F5F5F5F5F5F5F5F5F5F5F5F5F5F5F5F5F5F5F5F5F5F5F5F5F5F5F5F5F5F5F5F5F5F5E2E2F5F5F5F5F5F5F5F5F5F5F5F5F5F5F5F5F5F5F5F5F5F5F5F5F5F5F5F5F5F5F5F5F5F5F5F5F5F5F5F5F5F5F5F5F5F5F5F5F5F5
310
F5F5F5F5F5F5F5F5F5F5F5F5F5F5F5F5F5F5F5F5F5F5F5F5F5F5F5F5F5F5F5F5F5F5F5F5F5F5F5F5F5F5F5F5F5F5F5F5F5F5E2E2F5F5F5F5F5F5F5F5F5F5E2E2F5F5F5F5F5F5F5F5F5F5F5F5F5F5F5F5F5F5F5F5F5F5F5F5F5F5F5F5F5F5F5F5F5F5F5F5F5F5F5F5F5F5F5F5F5F5F5F5F5F5F5F5F5F5F5F5F5F5F5F5F5F5F5
310
F5E2E2F5F5F5F5F5F5F5F5F5F5F5F5F5F5F5F5F5F5F5F5F5F5F5F5F5F5F5F5F5F5F5F5F5F5F5F5F5F5F5F5F5F5F5F5F5F5F5F5F5F5F5F5F5F5F5F5F5F5F5F5F5F5F5F5F5F5F5F5F5F5F5F5F5F5F5F5F5F5F5F5F5F5F5F5F5F5F5F5F5F5F5F5F5F5F5F5F5F5F5F5E2E2F5F5F5F5F5F5F5F5F5F5E2E2F5F5F5F5F5F5F5F5F5F5
310
F5F5F5F5F5F5F5F5F5F5F5F5F5F5F5F5F5F5F5F5F5F5F5F5F5F5F5F5F5F5F5F5F5F5F5F5F5F5F5F5F5F5F5F5F5F5F5F5F5F5F5F5F5F5E2E2F5F5F5F5F5F5F5F5F5F5F5F5F5F5F5F5F5F5F5F5F5F5F5F5F5F5F5F5F5F5F5F5F5F5F5F5F5F5F5F5F5F5F5F5F5F5F5F5F5F5F5F5F5F5F5F5F5F5F5F5F5F5F5F5F5F5F5F5F5F5F5
310
F5F5F5F5F5F5F5F5F5F5F5F5F5F5F5F5F5F5F5F5F5F5F5F5F5F5F5F5F5E2E2F5F5F5F5F5F5F5F5F5F5E2E2F5F5F5F5F5F5F5F5F5F5F5F5F5F5F5F5F5F5F5F5F5F5F5F5F5F5F5F5F5F5F5F5F5F5F5F5F5F5F5F5F5F5F5F5F5F5F5F5F5F5F5F5F5F5F5F5F5F5F5F5F5F5F5F5E2E2F5F5F5F5F5F5F5F5F5F5F5F5F5F5F5F5F5F5
310
F5F5F5F5F5F5F5F5F5F5F5F5F5F5F5F5F5F5F5F5F5F5F5F5F5F5F5F5F5F5F5F5F5F5F5F5F5F5F5F5F5F5F5F5F5F5F5F5F5F5F5F5F5F5F5F5F5F5F5F5F5F5F5F5F5F5F5F5F5F5F5F5F5F5F5F5F5F5F5F5F5F5E2E2F5F5F5F5F5F5F5F5F5F5E2E2F5F5F5F5F5F5F5F5F5F5F5F5F5F5F5F5F5F5F5F5F5F5F5F5F5F5F5DCDCDCDC
310
2DDCDCDCDCDCDCDCDCDCDCDCF5F5F5F5F5F5F5F5F5F5F5F5F5F5F5F5F5F5F5F5F5E2E2F5F5F5F5F5F5F5F5F5F5F5F5F5F5F5F5F5F5F5F5F5F5F5F5F5F5F5F5F5F5F5F5F5F5F5F5F5F5F5F5F5F5F5F5F5F5F5F5F5F5F5F5F5F5F5F5F5F5F5F5F5F5F5F5F5F5F5F5F5F5F5F5F5F5F5F5F5F5F5F5F5F5F5F5F5F5F5F5F5F5F5F5
310
F5F5F5F5F5F5F5F5E2E2F5F5F5F5F5F5F5F5F5F5E2E2F5F5F5F5F5F5F5F5F5F5F5F5F5F5F5F5F5F5F5F5F5F5F5F5F5F5F5F5F5F5F52DF5F5F5F5DCDCF5F5F5F5DCF5F5F5F5F5F5F5F5F5F5F5F5F5F5F5F5F5F5F5F5F5E2E2F5F5F5F5F5F5F5F5F5F5F5F5F5F5F5F5F5F5F5F5F5F5F5F5F5F5F5F5F5F5F5F5F5F5F5F5F5F5F5
310
F5F5F5F5F5F5F5F5F5F5F5F5F5F5F5F5F5F5F5F5F5F5F5F5F5F5F5F5F5F5F5F5F5F5F5F5F5F5F5F5F5F5F5F5F5F5F5F5F5F5F5F5F5F5F5F5F5F5F5F5F5E2E2F5F5F5F5F5F5F5F5F5F5E2E2F5F5F5F5DCDCDCF5F5F5F5F5F5F5F5F5F5F5F5F5F5F5F5F5F5F52DF5DCDCE2E2ECE2DCDCDCF5F5F5F5F5DCF5F5F5F5F5F5F5F5F5
310
F5F5F5F5F5F5F5F5F5F5F5F5E2E2F5F5F5F5F5F5F5F5F5F5F5F5F5F5F5F5F5F5F5F5F5F5F5F5F5F5F5F5F5F5F5F5F5F5F5F5F5F5F5F5F5F5F5F5F5F5F5F5F5F5F5F5F5F5F5F5F5F5F5F5F5F5F5F5F5F5F5F5F5F5F5F5F5F5F5F5F5F5F5F5F5F5F5F5F5F5F5F5F5F5F5F5F5F5F5F5F5F5F5F5E2E2F5F5F5F5F5F5F5F5F5F5E2
310
E2F5F5DCF5DCDCDCF5F5F5F5E2E2ECECE2DCDCE2E2E2E2E2F5F5F52DF5DCDCE2E2E2E2F5F5DCDCF5E2E2E2E2E2DCE2E2DCDCDCE2F5F5F5F5F5DCDCDCDCF5F5F5F5E2E2F5F5F5F5F5F5F5F5F5F5F5F5F5F5F5F5F5F5F5F5F5F5F5F5F5F5F5F5F5F5F5F5F5F5F5F5F5F5F5F5F5F5F5F5F5F5F5F5F5F5F5F5F5F5F5F5F5F5F5F5
310
F5F5F5F5F5F5F5F5F5F5F5F5F5F5F5F5F5F5F5F5F5F5F5F5F5F5F5F5F5F5F5F5F5F5F5F5F5F5F5F5E2E2F5F5E2F5F5F5F5F5F5F5E2E2F5F5F5DCDCE2ECE2DCE2E2F5F5DCDCDCE2DCE2F5F5DCDCDCDCDCDCDCDCDCE2E2ECECE2E2E2E2E2E2F5DCE2DCDCBEBEDCDCDCF5E2E2E2E2E2E2ECDCDCF5F5F5F5E2E2F5F5F5F5F5F5F5
310
F5F5F5F5F5F5F5F5F5F5F5F5F5F5F5F5F5F5F5F5F5F5F5F5F5F5F5F5F5F5F5F5F5F5F5F5F5F5F5F5F5F5F5F5F5F5F5F5F5F5F5F5F5F5F5F5F5F5F5F5F5F5F5F5F5F5F5F5F5F5F5F5F5F5F5F5F5F5F5F5F5F5F5F5E2F5F5F5F5F5F5F5F5E2E2F5F5E2F5F5F5F5F5F5F5E2E2F5F5F5DCDCDCDCDCDCDCF5F5F5DCDCDCDCF5ECDC
310
DCDCDCDCDCDCDCDCDCF5F52DE2ECF5F5F5F5DCDCDCF5E2BEBEBEBEBEECF5F5F5F5F5F5ECDCE2DCF5F5F5F5F5E2E2F5F5F5F5F5F5F5F5F5F5F5F5F5F5F5F5F5F5F5F5F5F5F5F5F5F5F5F5F5F5F5F5F5F5F5F5F5F5F5F5F5F5F5F5F5F5F5F5F5F5F5F5F5F5F5F5F5F5F5F5F5F5F5F5F5F5F5F5F5F5F5F5F5F5F5F5F5F5F5F5F5
310
F5F5F5F5F5F5F5F5F5F5E2F5F5F5F5F5F5F5F5E2E2F5F5E2F5F5F5F5F5F5F5E2E2F5F5F5DCDCF5DCF5DCDCF5F5F5DCDCDCF5BEECDCDCDCDCDCF5F52DF5DCF5F52DE2ECF5F5F5F5ECF5DCDCE2ECF5F5F5ECECF5F5F5F5F5F5ECDCE2F5F5F5F5F5F5E2E2F5F5F5F5F5F5F5F5F5F5F5F5F5F5F5F5F5F5F5F5F5F5F5F5F5F5F5F5
310
F5F5F5F5F5F5F5F5F5F5F5F5F5F5F5F5F5F5F5F5F5F5F5F5F5F5F5F5F5F5F5F5F5F5F5F5F5F5F5F5F5F5F5F5F5F5F5F5F5F5F5F5F5F5F5F5F5F5F5F5F5F5F5E2F5F5F5F5F5F5F5F5E2E2F5F5E2F5F5F5F5F5F5F5E2E2F5F5F5DCDCF5DCDCF5F5F5F5F5DCDCDCF5ECF5DCDCF5DCDCDCDCDCDCDCF5F5E2DCDCE2E2E2DCECECDC
310
DCBEECF5F5F5ECECF5F5F5F5F5F5ECF5E2F5F5F5F5F5F5E2E2F5F5F5F5F5F5F5F5F5F5F5F5F5F5F5F5F5F5F5F5F5F5F5F5F5F5F5F5F5F5F5F5F5F5F5F5F5F5F5F5F5F5F5F5F5F5F5F5F5F5F5F5F5F5F5F5F5F5F5F5F5F5F5F5F5F5F5F5F5F5F5F5F5F5F5F5F5F5F5F5F5F5F5F5F5F5F5F5F5F5F5E2F5F5F5F5F5F5F5F5E2E2
310
F5F5E2F5F5F5F5F5F5F5E2E2F5F5F5DCDCF5DCDCF5F5F5F5F5DCDCDCF5ECF5DCDCDCDCDCDCDCDCDCDCDCDCDCF5DCF5F5F5DCECF5DCDCBEF5ECF5ECF5BEECF5F5F5F5BEECF5BEE2F5F5F5F5F5E2E2F5F5F5F5F5F5F5F5F5F5F5F5F5F5F5F5F5F5F5F5F5F5F5F5F5F5F5F5F5F5F5F5F5F5F5F5F5F5F5F5F5F5F5F5F5F5F5F5F5
310
F5F5F5F5F5F5F5F5F5F5F5F5F5F5F5F5F5F5F5F5F5F5F5F5F5F5F5F5F5F5F5F5F5F5F5F5F5F5F5F5F5F5E2F5F5F5F5F5F5F5F5E2E2F5F5E2F5F5F5F5F5F5F5E2E2F5F5F5DCDCF5DCDCF5F5F5F5F5DCF5DCF5ECDCDCF5DC2DF5F5F5F5F5DCDCF52DF5DCF5DCDCF5ECDCDCDCBEF5ECF5ECF5BEECF5F5F5F5ECBEF5BEE2F5F5F5
310
F5F5E2E2F5F5F5F5F5F5F5F5F5F5F5F5F5F5F5F5F5F5F5F5F5F5F5F5F5F5F5F5F5F5F5F5F5F5F5F5F5F5F5F5F5F5F5F5F5F5F5F5F5F5F5F5F5F5F5F5F5F5F5F5F5F5F5F5F5F5F5F5F5F5F5F5F5F5F5F5F5F5F5F5F5F5F5F5F5F5F5F5F5F5F5E2F5F5F5F5F5F5F5F5E2E2F5F5E2F5F5F5F5F5F5F5E2E2F5F5F5DCDCF5DCDCF5
310
F5F5F5F5DCF5DCF5ECDCDCF5BEBEBEF5F5F5F5F5F5E2E2DCDCF5DCDCDCECE2DCDCBEF5ECF5ECF5BEECF5F5F5F5ECBEF5BEE2F5F5F5F5F5E2E2F5F5F5F5F5F5F5F5F5F5F5F5F5F5F5F5F5F5F5F5F5F5F5F5F5F5F5F5F5F5F5F5F5F5F5F5F5F5F5F5F5F5F5F5F5F5F5F5F5F5F5F5F5F5F5F5F5F5F5F5F5F5F5F5F5F5F5F5F5F5
310
F5F5F5F5F5F5F5F5F5F5F5F5F5F5F5F5F5F5F5F5F5E2F5F5F5F5F5F5F5F5E2E2F5F5E2F5F5F5F5F5F5F5E2E2F5F5F5DCDCF5DCDCF5F5F5F5F5DCF5DCDCDCDCF52DBEBEBE2DF5F5F5F52D2D2DF5DCDCF5DCDCECE2E2DCDCDCECF5ECF5BEECF5F5DCF5ECBEF5BEE2F5F5F5F5F5E2E2F5F5F5F5F5F5F5F5F5F5F5F5F5F5F5F5F5
310
F5F5F5F5F5F5F5F5F5F5F5F5F5F5F5F5F5F5F5F5F5F5F5F5F5F5F5F5F5F5F5F5F5F5F5F5F5F5F5F5F5F5F5F5F5F5F5F5F5F5F5F5F5F5F5F5F5F5F5F5F5F5F5F5F5F5F5F5F5F5F5F5F5F5E2F5F5F5F5F5F5F5F5E2E2F5F5E2F5F5F5F5F5F5F5E2E2F5F5F5DCDCDCDCDCDCDCDCDCDCDCDCDCDCDCDCDCF5DC2DF5F5F5F5F5F5F5
310
F5DCDCDCDCECDCECEC2DBEDCDCDCECECECBEBEECBEBEBEBEBEBEBEBEE2F5F5F5F5F5E2E2F5F5F5F5F5F5F5F5F5F5F5F5F5F5F5F5F5F5F5F5F5F5F5F5F5F5F5F5F5F5F5F5F5F5F5F5F5F5F5F5F5F5F5F5F5F5F5F5F5F5F5F5F5F5F5F5F5F5F5F5F5F5F5F5F5F5F5F5F5F5F5F5F5F5F5F5F5F5F5F5F5F5F5F5F5F5F5F5F5F5F5
310
E2F5F5F5F5F5F5F5F5E2E2F5F5E2F5F5F5F5F5F5F5E2E2F5F5F5DCDCDCDCDCDCDCDCDCDCDCDCDCDCD6ECECECECDCECECECECECECECECDCDCDCDCE2E2E2DCDCDCDCDCE2DCE2DCE2E2DCE2E2E2E2DCE2E2E2E2F5F5F5F5F5E2E2F5F5F5F5F5F5F5F5F5F5F5F5F5F5F5F5F5F5F5F5F5F5F5F5F5F5F5F5F5F5F5F5F5F5F5F5F5F5
310
F5F5F5F5F5F5F5F5F5F5F5F5F5F5F5F5F5F5F5F5F5F5F5F5F5F5F5F5F5F5F5F5F5F5F5F5F5F5F5F5F5F5F5F5F5F5F5F5F5F5F5F5F5E2F5F5F5F5F5F5F5F5E2E2F5F5E2F5F5F5F5F5F5F5E2E2F5F5DCDCF5F5F5F5F5F5F5F5F5F5F5F5F5DCDCDCDCDCDCDCDCDCDCDCDCDCDCDCDCDCDCDCDCDCDCDCDCDCDCDCDCDCDCDCDCDCDC
310
DCDCDCDCF5F5F5F5F5F5F5F5F5E2E2F5F5F5F5F5F5F5F5F5F5F5F5F5F5F5F5F5F5F5F5F5F5F5F5F5F5F5F5F5F5F5F5F5F5F5F5F5F5F5F5F5F5F5F5F5F5F5F5F5F5F5F5F5F5F5F5F5F5F5F5F5F5F5F5F5F5F5F5F5F5F5F5F5F5F5F5F5F5F5F5F5F5F5F5F5F5F5F5F5F5F5E2F5F5F5F5F5F5F5F5E2E2F5F5E2F5F5F5F5F5F5F5
310
E2E2F5F5F5F5F5F5F5F5F5F5F5F5F5F5F5F5F5F5F5F5F5F5DCDCDCDCDCDCDCDCDCDCDCDCDCDCDCDCDCDCF5DCF5F5F5DCF5DCDCF5F5DCDCF5F5F5F5F5F5F5F5F5F5F5E2E2F5F5F5F5F5F5F5F5F5F5F5F5F5F5F5F5F5F5F5F5F5F5F5F5F5F5F5F5F5F5F5F5F5F5F5F5F5F5F5F5F5F5F5F5F5F5F5F5F5F5F5F5F5F5F5F5F5F5F5
310
F5F5F5F5F5F5F5F5F5F5F5F5F5F5F5F5F5F5F5F5F5F5F5F5F5F5F5F5F5F5F5F5E2F5F5F5F5F5F5F5F5E2E2F5F5E2F5F5F5F5F5F5F5E2E2F5F5F5F5F5F5F5F5F5F5F5F5F5F5F5F5F5F5F5F5F5F5F5F5F5F5F5F5F5F5F5F5DCF5F5F5F5F5F5F5F5F5F5F5F5F5F5F5F5F5F5F5F5F5F5F5F5F5F5F5F5F5F5F5E2E2F5F5F5F5F5F5
310
F5F5F5F5F5F5F5F5F5F5F5F5F5F5F5F5F5F5F5F5F5F5F5F5F5F5F5F5F5F5F5F5F5F5F5F5F5F5F5F5F5F5F5F5F5F5F5F5F5F5F5F5F5F5F5F5F5F5F5F5F5F5F5F5F5F5F5F5F5F5F5F5F5F5F5F5F5F5F5F5F5F5F5F5F5E2F5F5F5F5F5F5F5F5E2E2F5F5E2F5F5F5F5F5F5F5E2E2F5F5F5F5F5F5F5F5F5F5F5F5F5F5F5F5F5F5F5
310
F5F5F5F5F5F5F5F5F5F5F5F5F5F5F5F5F5F5F5F5F5F5F5F5F5F5F5F5F5F5F5F5F5F5F5F5F5F5F5F5F5F5F5F5F5E2E2F5F5F5F5F5F5F5F5F5F5F5F5F5F5F5F5F5F5F5F5F5F5F5F5F5F5F5F5F5F5F5F5F5F5F5F5F5F5F5F5F5F5F5F5F5F5F5F5F5F5F5F5F5F5F5F5F5F5F5F5F5F5F5F5F5F5F5F5F5F5F5F5F5F5F5F5F5F5F5F5
310
F5F5F5F5F5F5F5F5F5F5F5E2F5F5F5F5F5F5F5F5E2E2F5F5E2F5F5F5F5F5F5F5E2E2F5F5F5F5F5F5F5F5F5F5F5F5F5F5F5F5F5F5F5F5F5F5F5F5F5F5F5F5F5F5F5F5F5F5F5F5F5F5F5F5F5F5F5F5F5F5F5F5F5F5F5F5F5F5F5F5F5F5F5F5F5F5F5F5E2E2F5F5F5F5F5F5F5F5F5F5F5F5F5F5F5F5F5F5F5F5F5F5F5F5F5F5F5
310
F5F5F5F5F5F5F5F5F5F5F5F5F5F5F5F5F5F5F5F5F5F5F5F5F5F5F5F5F5F5F5F5F5F5F5F5F5F5F5F5F5F5F5F5F5F5F5F5F5F5F5F5F5F5F5F5F5F5F5F5F5F5F5F5E2F5F5F5F5F5F5F5F5E2E2F5F5E2F5F5F5F5F5F5F5E2E2F5F5F5F5F5F5F5F5F5F5F5F5F5F5F5F5F5F5F5F5F5F5F5F5F5F5F5F5F5F5F5F5F5F5F5F5F5F5F5F5
310
F5F5F5F5F5F5F5F5F5F5F5F5F5F5F5F5F5F5F5F5F5F5F5F5E2E2F5F5F5F5F5F5F5F5F5F5F5F5F5F5F5F5F5F5F5F5F5F5F5F5F5F5F5F5F5F5F5F5F5F5F5F5F5F5F5F5F5F5F5F5F5F5F5F5F5F5F5F5F5F5F5F5F5F5F5F5F5F5F5F5F5F5F5F5F5F5F5F5F5F5F5F5F5F5F5F5F5F5F5F5F5F5F5F5F5F5F5E2F5F5F5F5F5F5F5F5E2
310
E2F5F5F5F5F5F5F5F5F5F5E2E2E2E2E2E2E2E2E2E2E2E2E2E2E2E2E2E2E2E2E2E2E2E2E2E2E2E2E2E2E2E2E2E2E2E2E2E2E2E2E2E2E2E2E2E2E2E2E2E2E2E2E2E2E2E2E2E2E2E2E2E2E2E2E2E2E2E2F5F5F5F5F5F5F5F5F5F5F5F5F5F5F5F5F5F5F5F5F5F5F5F5F5F5F5F5F5F5F5F5F5F5F5F5F5F5F5F5F5F5F5F5F5F5F5F5
310
F5F5F5F5F5F5F5F5F5F5F5F5F5F5F5F5F5F5F5F5F5F5F5F5F5F5F5F5F5F5F5F5F5F5F5F5F5F5F5F5F5F5F5F5F5F5F5F5F5F5F5F5E2E2F5F5F5F5F5F5F5F5F5F5E2E2E2E2E2E2E2E2E2E2E2E2E2E2E2E2E2E2E2E2E2E2E2E2E2E2E2E2E2E2E2E2E2E2E2E2E2E2E2E2E2E2E2E2E2E2E2E2E2E2E2E2E2E2E2E2E2E2E2E2E2E2E2
310
E2E2E2E2E2F5F5F5F5F5F5F5F5F5F5F5F5F5F5F5F5F5F5F5F5F5F5F5F5F5F5F5F5F5F5F5F5F5F5F5F5F5F5F5F5F5F5F5F5F5F5F5F5F5F5F5F5F5F5F5F5F5F5F5F5F5F5F5F5F5F5F5F5F5F5F5F5F5F5F5F5F5F5F5F5F5F5F5F5F5F5F5F5F5F5F5F5F5F5F5F5F5F5F5F5E2E2F5F5F5F5F5F5F5F5F5F5E2E2E2E2E2E2E2E2E2E2
310
E2E2E2E2E2E2E2E2E2E2E2E2E2E2E2E2E2E2E2E2E2E2E2E2E2E2E2E2E2E2E2E2E2E2E2E2E2E2E2E2E2E2E2E2E2E2E2E2E2E2E2E2E2E2E2E2E2E2F5F5F5F5F5F5F5F5F5F5F5F5F5F5F5F5F5F5F5F5F5F5F5F5F5F5F5F5F5F5F5F5F5F5F5F5F5F5F5F5F5F5F5F5F5F5F5F5F5F5F5F5F5F5F5F5F5F5F5F5F5F5F5F5F5F5F5F5F5
310
F5F5F5F5F5F5F5F5F5F5F5F5F5F5F5F5F5F5F5F5F5F5F5F5F5F5F5F5F5F5F5E2E2F5F5F5F5F5F5F5F5F5F5E2E2F5F5F5F5F5F5F5F5F5F5F5F5F5F5F5F5F5F5F5F5F5F5F5F5F5F5F5F5F5F5F5F5F5F5F5F5F5F5F5F5F5F5F5F5F5F5F5F5DCDCDCDCDCDCDCDCDCDCDCDCDCDCDCDCE2E2F5F5F5F5F5F5F5F5F5F5F5F5F5F5F5F5
310
F5F5F5F5F5F5F5F5F5F5F5F5F5F5F5F5F5F5F5F5F5F5F5F5F5F5F5F5F5F5F5F5F5F5F5F5F5F5F5F5F5F5F5F5F5F5F5F5F5F5F5F5F5F5F5F5F5F5F5F5F5F5F5F5F5F5F5F5F5F5F5F5F5F5F5F5F5F5F5F5F5F5F5F5E2E2F5F5F5F5F5F5F5F5F5F5E2E2F5F5F5F5F5F5F5F5F5F5F5F5F5F5F5F5F5F5F5F5F5F5F5F5F5F5F5F5F5
310
F5F5F5F5F5F5F5F5F5F5F5F5F5F5F5F5F5F5F5DCDCDCDCDCDCDCDCE2DCDCDCDCDCDCDCE2E2F5F5F5F5F5F5F5F5F5F5F5F5F5F5F5F5F5F5F5F5F5F5F5F5F5F5F5F5F5F5F5F5F5F5F5F5F5F5F5F5F5F5F5F5F5F5F5F5F5F5F5F5F5F5F5F5F5F5F5F5F5F5F5F5F5F5F5F5F5F5F5F5F5F5F5F5F5F5F5F5F5F5F5F5F5F5F5F5F5F5
310
F5F5F5F5F5F5F5F5F5F5E2E2F5F5F5F5F5F5F5F5F5F5E2E2F5F5F5F5F5F5F5F5F5F5F5F5F5F5F5F5F5F5F5F5F5F5F5F5F5F5F5F5F5F5F5F5F5F5F5F5F5F5F5F5F5F5F5F5F5F5F5F5DCDCDCDCDCDCDCDCE2DCDCDCDCDCDCDCE2E2F5F5F5F5F5F5F5F5F5F5F5F5F5F5F5F5F5F5F5F5F5F5F5F5F5F5F5F5F5F5F5F5F5F5F5F5F5
310
F5F5F5F5F5F5F5F5F5F5F5F5F5F5F5F5F5F5F5F5F5F5F5F5F5F5F5F5F5F5F5F5F5F5F5F5F5F5F5F5F5F5F5F5F5F5F5F5F5F5F5F5F5F5F5F5F5F5F5F5F5F5F5E2E2F5F5F5F5F5F5F5F5F5F5E2E2F5F5F5F5F5F5F5F5F5F5F5F5F5F5F5F5F5F5F5F5F5F5F5F5F5F5F5F5F5F5F5F5F5F5F5F5F5F5DCDCF5F5F5F5F5F5F5F5DCDC
310
DCDCDCDCDCDCDCDCDCDCDCDCDCDCE2E2F5F5F5F5F5F5F5F5F5F5F5F5F5F5F5F5F5F5F5F5F5F5F5F5F5F5F5F5F5F5F5F5F5F5F5F5F5F5F5F5F5F5F5F5F5F5F5F5F5F5F5F5F5F5F5F5F5F5F5F5F5F5F5F5F5F5F5F5F5F5F5F5F5F5F5F5F5F5F5F5F5F5F5F5F5F5F5F5F5F5F5F5F5F5F5F5F5F5F5F5E2E2F5F5F5F5F5F5F5F5F5
310
F5E2E2F5F5F5F5F5F5F5F5F5F5F5F5F5F5F5F5F5F5F5F5F5F5F5F5F5F5F5F5F5F5F5F5F5F5F5F5F5F5DCDCDCDCDCDCDCDCDCF5DCDCDCDCDCDCDCDCDCDCDCDCDCDCDCDCE2E2F5F5F5F5F5F5F5F5F5F5F5F5F5F5F5F5F5F5F5F5F5F5F5F5F5F5F5F5F5F5F5F5F5F5F5F5F5F5F5F5F5F5F5F5F5F5F5F5F5F5F5F5F5F5F5F5F5F5
310
F5F5F5F5F5F5F5F5F5F5F5F5F5F5F5F5F5F5F5F5F5F5F5F5F5F5F5F5F5F5F5F5F5F5F5F5F5F5F5F5F5F5E2E2F5F5E2F5F5F5F5F5F5F5E2E2F5F5F5F5F5F5F5F5F5F5F5F5F5F5F5F5F5F5F5F5F5F5F5F5F5F5F5F5F5F5F5F5F5F5F5F5F5F5E2E2F5F5F5F5F5F5F5F5F5F5F5F5F5F5F5F5F5F5F5F5F5F5F5F5E2E2F5F5F5F5F5
310
F5F5F5F5F5F5F5F5F5F5F5F5F5F5F5F5F5F5F5F5F5F5F5F5F5F5F5F5F5F5F5F5F5F5F5F5F5F5F5F5F5F5F5F5F5F5F5F5F5F5F5F5F5F5F5F5F5F5F5F5F5F5F5F5F5F5F5F5F5F5F5F5F5F5F5F5F5F5F5F5F5F5F5F5F5F5E2F5F5F5F5F5F5F5F5E2E2F5F5E2F5F5F5F5F5F5F5E2E2F5F5F5F5F5F5F5F5F5F5F5F5F5F5F5F5F5F5
310
F5F5F5F5F5F5F5F5F5F5F5F5F5F5F5F5F5F5F5F5DCDCDCDCDCDCDCDCDCDCF5F5F5F5F5F5F5F5F5F5F5F5F5F5F5F5E2E2F5F5F5F5F5F5F5F5F5F5F5F5F5F5F5F5F5F5F5F5F5F5F5F5F5F5F5F5F5F5F5F5F5F5F5F5F5F5F5F5F5F5F5F5F5F5F5F5F5F5F5F5F5F5F5F5F5F5F5F5F5F5F5F5F5F5F5F5F5F5F5F5F5F5F5F5F5F5F5
310
F5F5F5F5F5F5F5F5F5F5F5F5E2F5F5F5F5F5F5F5F5E2E2F5F5E2F5F5F5F5F5F5F5E2E2F5F5F5F5F5F5F5F5F5F5F5F5F5F5F5F5F5F5F5F5F5F5F5F5F5F5F5F5F5F5F5F5F5F5F5F5F5F5DCDCDCDCF5F5F5F5F5F5F5F5F5F5F5F5F5F5F5F5F5F5F5F5F5F5E2E2F5F5F5F5F5F5F5F5F5F5F5F5F5F5F5F5F5F5F5F5F5F5F5F5F5F5
310
F5F5F5F5F5F5F5F5F5F5F5F5F5F5F5F5F5F5F5F5F5F5F5F5F5F5F5F5F5F5F5F5F5F5F5F5F5F5F5F5F5F5F5F5F5F5F5F5F5F5F5F5F5F5F5F5F5F5F5F5F5F5F5F5F5E2F5F5F5F5F5F5F5F5E2E2F5F5E2F5F5F5F5F5F5F5E2E2F5F5F5F5F5F5F5F5F5F5F5F5F5F5F5F5F5F5F5DCF5F5F5F5F5F5F5F5F5E2E2E2F5F5F5F5F5F5F5
310
F5F5F5F5F5F5F5F5F5F5F5F5F5F5F5F5F5F5F5F5F5F5F5F5F5E2E2F5F5F5F5F5F5F5F5F5F5F5F5F5F5F5F5F5F5F5F5F5F5F5F5F5F5F5F5F5F5F5F5F5F5F5F5F5F5F5F5F5F5F5F5F5F5F5F5F5F5F5F5F5F5F5F5F5F5F5F5F5F5F5F5F5F5F5F5F5F5F5F5F5F5F5F5F5F5F5F5F5F5F5F5F5F5F5F5F5F5F5E2F5F5F5F5F5F5F5F5
310
E2E2F5F5E2F5F5F5F5F5F5F5E2E2F5F5F5F5F5F5F5F5F5F5F5F5F5F5F5F5F5F5F5F5F5F5F5F5F5F5F5F5F5F5F5E2F5F5F5F5F5F5F5F5F5F5F5F5F5F5F5F5F5F5F5F5F5F5F5F5F5F5F5F5F5F5F5F5E2E2F5F5F5F5F5F5F5F5F5F5F5F5F5F5F5F5F5F5F5F5F5F5F5F5F5F5F5F5F5F5F5F5F5F5F5F5F5F5F5F5F5F5F5F5F5F5F5
310
F5F5F5F5F5F5F5F5F5F5F5F5F5F5F5F5F5F5F5F5F5F5F5F5F5F5F5F5F5F5F5F5F5F5F5F5F5F5F5F5F5F5F5F5E2F5F5F5F5F5F5F5F5E2E2F5F5E2F5F5F5F5F5F5F5E2E2F5F5F5F5F5F5F5DCF5F5F5F5F5F5F5F5F5F5F5F5F5F5F5F5F5F5F5F5F5F5F5DCDCDCDCDCDCDCDCDCDCDCDCDCDCDCDCDCDCDCDCDCDCDCDCDCF5F5F5F5
310
F5F5F5F5E2E2F5F5F5F5F5F5F5F5F5F5F5F5F5F5F5F5F5F5F5F5F5F5F5F5F5F5F5F5F5F5F5F5F5F5F5F5F5F5F5F5F5F5F5F5F5F5F5F5F5F5F5F5F5F5F5F5F5F5F5F5F5F5F5F5F5F5F5F5F5F5F5F5F5F5F5F5F5F5F5F5F5F5F5F5F5F5F5F5F5F5F5E2F5F5F5F5F5F5F5F5E2E2F5F5E2F5F5F5F5F5F5F5E2E2F5F5F5F5F5F5F5
310
F5F5F5F5F5F5F5F5F5F5F5F5F5F5F5F5F5F5F5F5F5F5F5F52DF5F5F5F5F5F5F5F5F5F5F5F5F5F5F5F5F5F5F5F5F5F5F5DCF5F5F5F5F5F5F5F5E2E2F5F5F5F5F5F5F5F5F5F5F5F5F5F5F5F5F5F5F5F5F5F5F5F5F5F5F5F5F5F5F5F5F5F5F5F5F5F5F5F5F5F5F5F5F5F5F5F5F5F5F5F5F5F5F5F5F5F5F5F5F5F5F5F5F5F5F5F5
310
F5F5F5F5F5F5F5F5F5F5F5F5F5F5F5F5F5F5F5F5F5F5F5E2F5F5F5F5F5F5F5F5E2E2F5F5E2F5F5F5F5F5F5F5E2E2F5F5DCDCDCDCDCDCDCDCDCDCDCDCDCDCDCDCDCDCDCDCDCDCDCDCDCDCDCDCDCDCE2E2E2E2E2E2F5F5F5F5F5F5F5F5F5F5F5F5F5F5F5F5F5DCF5F5F5F5F5F5F5F5E2E2F5F5F5F5F5F5F5F5F5F5F5F5F5F5F5
310
F5F5F5F5F5F5F5F5F5F5F5F5F5F5F5F5F5F5F5F5F5F5F5F5F5F5F5F5F5F5F5F5F5F5F5F5F5F5F5F5F5F5F5F5F5F5F5F5F5F5F5F5F5F5F5F5F5F5F5F5F5F5F5F5F5F5F5F5F5F5F5F5F5F5F5F5E2F5F5F5F5F5F5F5F5E2E2F5F5E2F5F5F5F5F5F5F5E2E2F5F5DCF5F5F5F5F5F5F5F5F5F5F5F5F5F5F5F5DCDCF5E2E2E2E2DCDC
310
DCE2E22DF5F5F5F5F5E2E2E2F5F5F5F5F5F5F5F5F5F5F5F5F5DCDCDCDCDCDCF5F5F5F5F5E2E2F5F5F5F5F5F5F5F5F5F5F5F5F5F5F5F5F5F5F5F5F5F5F5F5F5F5F5F5F5F5F5F5F5F5F5F5F5F5F5F5F5F5F5F5F5F5F5F5F5F5F5F5F5F5F5F5F5F5F5F5F5F5F5F5F5F5F5F5F5F5F5F5F5F5F5F5F5F5F5F5F5F5F5F5F5F5F5F5F5
310
F5F5E2F5F5F5F5F5F5F5F5E2E2F5F5E2F5F5F5F5F5F5F5E2E2F5F5DCDCDCDCE2E2E2E2E2E2E2E2E2E2E2E2E2E2E2E2E2F5E2E2E2E2F5F5F5E2E2E2E2E2E2F5F5F5E2E2E2E2E2E2E2E2E2E2E2E2E2E2E2E2E2E2DCDCF5F5F5F5E2E2F5F5F5F5F5F5F5F5F5F5F5F5F5F5F5F5F5F5F5F5F5F5F5F5F5F5F5F5F5F5F5F5F5F5F5F5
310
F5F5F5F5F5F5F5F5F5F5F5F5F5F5F5F5F5F5F5F5F5F5F5F5F5F5F5F5F5F5F5F5F5F5F5F5F5F5F5F5F5F5F5F5F5F5F5F5F5F5F5F5F5F5F5E2F5F5F5F5F5F5F5F5E2E2F5F5E2F5F5F5F5F5F5F5E2E2F5F5DCDCE2F5F5F5F5F5F5F5F5F5F5F5F5F5F5F5F5F5F5E2E2F5F5F5F5F5F52DECECE2E2E2E2E2E2F5F5F5F5F5F5F5F5F5
310
F5F5F5F5DCF5DCF5E2DCDCF5F5F5F5E2E2F5F5F5F5F5F5F5F5F5F5F5F5F5F5F5F5F5F5F5F5F5F5F5F5F5F5F5F5F5F5F5F5F5F5F5F5F5F5F5F5F5F5F5F5F5F5F5F5F5F5F5F5F5F5F5F5F5F5F5F5F5F5F5F5F5F5F5F5F5F5F5F5F5F5F5F5F5F5F5F5F5F5F5F5F5F5F5F5F5F5F5E2F5F5F5F5F5F5F5F5E2E2F5F5E2F5F5F5F5F5
310
F5F5E2E2F5F5DCDCE2F5F5F5F5F5F5F5F5F5F5F5F5F5F5F5F5E2E2F5F5F5F5F5F5F5F5E2E2E2E2E2E2E2E2E2E2E2E2E2E2E2E2E2E2E2E2E2E2DCDCDCDCE2DCDCDCF5F5F5E2E2F5F5F5F5F5F5F5F5F5F5F5F5F5F5F5F5F5F5F5F5F5F5F5F5F5F5F5F5F5F5F5F5F5F5F5F5F5F5F5F5F5F5F5F5F5F5F5F5F5F5F5F5F5F5F5F5F5
310
F5F5F5F5F5F5F5F5F5F5F5F5F5F5F5F5F5F5F5F5F5F5F5F5F5F5F5F5F5F5F5F5F5F5E2F5F5F5F5F5F5F5F5E2E2F5F5E2F5F5F5F5F5F5F5E2E2F5F5DCDCE2F5F5DCF5F5F5F5F5F5F5F5F5F5F5F5E2E2F5F5F5F5D6D6D6D6D6D6E2E2E2E2E2E2E2E2E2E2E2E2E2E2E2E2E2E2DCDCECDCE2DCDCE2DCF5DCF5F5F5E2E2F5F5F5F5
310
F5F5F5F5F5F5F5F5F5F5F5F5F5F5F5F5F5F5F5F5F5F5F5F5F5F5F5F5F5F5F5F5F5F5F5F5F5F5F5F5F5F5F5F5F5F5F5F5F5F5F5F5F5F5F5F5F5F5F5F5F5F5F5F5F5F5F5F5F5F5F5F5F5F5F5F5F5F5F5F5F5F5F5F5F5F5F5E2F5F5F5F5F5F5F5F5E2E2F5F5E2F5F5F5F5F5F5F5E2E2F5F5DCDCE2F5F5F5F5F5F5F5F5F5F5F5F5
310
F5F5E2E2F5F5F5D6D6D6F5F5F5F5ECECECECF5F5F5F5F5F5F5F5F5F5F5F5DCF5F5DCDCF5DCE2E2E2E2DCF5DCF5F5F5E2E2F5F5F5F5F5F5F5F5F5F5F5F5F5F5F5F5F5F5F5F5F5F5F5F5F5F5F5F5F5F5F5F5F5F5F5F5F5F5F5F5F5F5F5F5F5F5F5F5F5F5F5F5F5F5F5F5F5F5F5F5F5F5F5F5F5F5F5F5F5F5F5F5F5F5F5F5F5F5
310
F5F5F5F5F5F5F5F5F5F5F5F5F5E2F5F5F5F5F5F5F5F5E2E2F5F5E2F5F5F5F5F5F5F5E2E2F5F5DCDCE2F5F5F5F5F5F5F5F5F5F5F5F5F5F5E2F5F5F5D6D6F5F5F5DCDCDCE2ECECECECECECF5F5F5F5F5F5F5F5F5DCECE2E2E2BEE2E2BEE2E2DCDCDCF5F5F5E2E2F5F5F5F5F5F5F5F5F5F5F5F5F5F5F5F5F5F5F5F5F5F5F5F5F5
310
F5F5F5F5F5F5F5F5F5F5F5F5F5F5F5F5F5F5F5F5F5F5F5F5F5F5F5F5F5F5F5F5F5F5F5F5F5F5F5F5F5F5F5F5F5F5F5F5F5F5F5F5F5F5F5F5F5F5F5F5F5F5F5F5F5F5E2F5F5F5F5F5F5F5F5E2E2F5F5E2F5F5F5F5F5F5F5E2E2F5F5DCDCE2F5F5F5F5F5F5F5F5F5F5F5F5F5E2E2F5F5D6D6F5F5F5F5DCF5F5E2ECECDCECECEC
310
E2E2E2E2ECE2F5F5F5F5ECECECECE2E2E2DCE2E2DCDCDCF5F5F5E2E2F5F5F5F5F5F5F5F5F5F5F5F5F5F5F5F5F5F5F5F5F5F5F5F5F5F5F5F5F5F5F5F5F5F5F5F5F5F5F5F5F5F5F5F5F5F5F5F5F5F5F5F5F5F5F5F5F5F5F5F5F5F5F5F5F5F5F5F5F5F5F5F5F5F5F5F5F5F5F5F5F5F5F5F5F5F5F5F5F5F5F5E2F5F5F5F5F5F5F5
310
F5E2E2F5F5F5F5F5F5F5F5F5F5E2E2F5F5DCDCE2F5F5F5F5F5F5F5F5F5F5F5F5F5E2F5F5D6D6F5F5F5F5F5DCF5F5ECF5ECDCECECECF5F5F5ECECECE2E2E2F5ECF5F5F5ECECE2E2E2E2DCDCDCF5F5F5E2E2F5F5F5F5F5F5F5F5F5F5F5F5F5F5F5F5F5F5F5F5F5F5F5F5F5F5F5F5F5F5F5F5F5F5F5F5F5F5F5F5F5F5F5F5F5F5
310
F5F5F5F5F5F5F5F5F5F5F5F5F5F5F5F5F5F5F5F5F5F5F5F5F5F5F5F5F5F5F5F5F5F5F5F5F5F5F5F5F5F5F5F5F5F5F5F5F5F5F5F5F5F5E2E2F5F5F5F5F5F5F5F5F5F5E2E2F5F5DCDCE2F5F5F5F5F5F5F5F5F5F5F5F5F5E2F5F5D6F5F5F5F5F5F5DCF5F5ECDCDCF5ECECECECF5F5F5ECF5ECECE2F5E2F5F5F5DCECECBEECE2DC
310
DCDCF5F5F5E2E2F5F5F5F5F5F5F5F5F5F5F5F5F5F5F5F5F5F5F5F5F5F5F5F5F5F5F5F5F5F5F5F5F5F5F5F5F5F5F5F5F5F5F5F5F5F5F5F5F5F5F5F5F5F5F5F5F5F5F5F5F5F5F5F5F5F5F5F5F5F5F5F5F5F5F5F5F5F5F5F5F5F5F5F5F5F5F5F5F5F5F5F5F5F5F5F5F5F5F5F5E2E2F5F5F5F5F5F5F5F5F5F5E2E2F5F5DCDCE2F5
310
F5F5F5F5F5F5F5F5F5F5F5F5E2F5D6D6F5F5F5F5F5F5DCF5F5ECF5F5F5F5ECECECF5F5F5ECF5F5ECE2F5E2F5F5F5DCDCECE2ECE2F5DCDCF5F5F5E2E2F5F5F5F5F5F5F5F5F5F5F5F5F5F5F5F5F5F5F5F5F5F5F5F5F5F5F5F5F5F5F5F5F5F5F5F5F5F5F5F5F5F5F5F5F5F5F5F5F5F5F5F5F5F5F5F5F5F5F5F5F5F5F5F5F5F5F5
310
F5F5F5F5F5F5F5F5F5F5F5F5F5F5F5F5F5F5F5F5F5F5F5F5F5F5F5F5F5F5F5F5F5E2E2F5F5F5F5F5F5F5F5F5F5E2E2F5F5DCDCE22D2D2D2D2D2DDC2D2D2D2D2DDCE22DD62D2D2D2D2DE2F5DCF5F5E2F5F5DCDCDCECE2ECF5F5ECF5ECECE2F5E2F5F5F5F5F5ECE2ECE2F5DCDCF5F5F5E2E2F5F5F5F5F5F5F5F5F5F5F5F5F5F5
310
F5F5F5F5F5F5F5F5F5F5F5F5F5F5F5F5F5F5F5F5F5F5F5F5F5F5F5F5F5F5F5F5F5F5F5F5F5F5F5F5F5F5F5F5F5F5F5F5F5F5F5F5F5F5F5F5F5F5F5F5F5F5F5F5F5F5F5F5F5F5F5F5F5F5F5F5F5F5F5F5F5F5F5F5F5F5E2E2F5F5F5F5F5F5F5F5F5F5E2E2F5DCDCDCE2F5F5F5F5F5F5DCF5F5F5F5F5F5E2F5D6F5F5F5F5F52D
310
F5DCF5F5E2F5F5F5F5F5ECE2ECF5F5ECF5ECECE2F5E2F5F5F5F5F5ECE2ECE2F5DCDCF5F5F5E2E2F5F5F5F5F5F5F5F5F5F5F5F5F5F5F5F5F5F5F5F5F5F5F5F5F5F5F5F5F5F5F5F5F5F5F5F5F5F5F5F5F5F5F5F5F5F5F5F5F5F5F5F5F5F5F5F5F5F5F5F5F5F5F5F5F5F5F5F5F5F5F5F5F5F5F5F5F5F5F5F5F5F5F5F5F5F5F5F5
310
F5F5F5F5F5F5F5F5F5F5F5F5E2E2F5F5F5F5F5F5F5F5F5F5E2E2F5DCDCDCE2F5F5F5F5F5DCDCF5F5F5F5F5F5E2F5D6D6F5F5F5F52DF5DCF5F5ECECF5F5F5F5ECE2ECF5F5ECF5ECECE2F5E2F5F5F5F5F5ECE2ECE2F5DCDCF5F5F5E2E2F5F5F5F5F5F5F5F5F5F5F5F5F5F5F5F5F5F5F5F5F5F5F5F5F5F5F5F5F5F5F5F5F5F5F5
310
F5F5F5F5F5F5F5F5F5F5F5F5F5F5F5F5F5F5F5F5F5F5F5F5F5F5F5F5F5F5F5F5F5F5F5F5F5F5F5F5F5F5F5F5F5F5F5F5F5F5F5F5F5F5F5F5F5F5F5F5F5F5F5F5F5E2E2F5F5F5F5F5F5F5F5F5F5E2E2F5DCDCDCE2F5F5F5F5F5F5DCF5F5F5F5F5F5E2E2F5D6F5F5F5F52DF5DCECE2E2ECECDCF5F5F5DCDCDCDCECF5ECECE2F5
310
E2F5F5F5F5F5ECE2ECE2F5DCDCE2F5F5E2E2F5F5F5F5F5F5F5F5F5F5F5F5F5F5F5F5F5F5F5F5F5F5F5F5F5F5F5F5F5F5F5F5F5F5F5F5F5F5F5F5F5F5F5F5F5F5F5F5F5F5F5F5F5F5F5F5F5F5F5F5F5F5F5F5F5F5F5F5F5F5F5F5F5F5F5F5F5F5F5F5F5F5F5F5F5F5F5F5F5F5F5F5F5F5F5F5F5F5F5F5E2E2F5F5F5F5F5F5F5
310
F5F5F5E2E2F5F5DCDCDCF5F5F5F5F5F5DCF5F5F5F5F5F5F5E2F5D6F5F5F5F5E2F5DCE2E22DE2ECECE2E2E2E2DCECECECECDCECE2F5E2F5F5F5F5F5ECE2ECE2F5DCDCE2F5F5E2E2F5F5F5F5F5F5F5F5F5F5F5F5F5F5F5F5F5F5F5F5F5F5F5F5F5F5F5F5F5F5F5F5F5F5F5F5F5F5F5F5F5F5F5F5F5F5F5F5F5F5F5F5F5F5F5F5
310
F5F5F5F5F5F5F5F5F5F5F5F5F5F5F5F5F5F5F5F5F5F5F5F5F5F5F5F5F5F5F5F5F5F5F5F5F5F5F5F5F5F5F5F5E2E2F5F5E2F5F5F5F5F5F5F5E2E2F5F5DCDCDCF5F5F5F5F5F5DCDCDCDCDCDCDCDCE2E2DCD6DCDCDCE2E2DCE2E2DCE2ECE2E2E2E2E2DCEC2DDCDCDCECE22DE22D2D2D2D2DECE2ECE22DDC2DE2E2F5E2E2F5F5F5
310
F5F5F5F5F5F5F5F5F5F5F5F5F5F5F5F5F5F5F5F5F5F5F5F5F5F5F5F5F5F5F5F5F5F5F5F5F5F5F5F5F5F5F5F5F5F5F5F5F5F5F5F5F5F5F5F5F5F5F5F5F5F5F5F5F5F5F5F5F5F5F5F5F5F5F5F5F5F5F5F5F5F5F5F5F5F5F5F5E2F5F5F5F5F5F5F5F5E2E2F5F5E2F5F5F5F5F5F5F5E2E2F5F5DCDCE2F5F5F5F5F5F5DCF5F5F5F5
310
F5F5F5F5E2E2D6D6F5F5F5F5F5ECE2E2E2ECDCF5F5F5F5E2ECECDCDCDCECE2F5E2F5F5F5F5F5ECE2ECE2DCDCDCDCF5F5E2E2F5F5F5F5F5F5F5F5F5F5F5F5F5F5F5F5F5F5F5F5F5F5F5F5F5F5F5F5F5F5F5F5F5F5F5F5F5F5F5F5F5F5F5F5F5F5F5F5F5F5F5F5F5F5F5F5F5F5F5F5F5F5F5F5F5F5F5F5F5F5F5F5F5F5F5F5F5
310
F5F5F5F5F5F5F5F5F5F5F5F5F5F5E2F5F5F5F5F5F5F5F5E2E2F5F5E2F5F5F5F5F5F5F5E2E2F5F5DCDCE2F5F5F5F5F5F5DCF5F5F5F5F5F5F5F5F5E2E2D6D6D6F5F5F5F5ECECECECF5F5F5F5ECE2E2ECDCDCDCECF5E2E2F5F5F5F5F5ECE2DCE2DCDCDCF5F5F5E2E2F5F5F5F5F5F5F5F5F5F5F5F5F5F5F5F5F5F5F5F5F5F5F5F5
310
F5F5F5F5F5F5F5F5F5F5F5F5F5F5F5F5F5F5F5F5F5F5F5F5F5F5F5F5F5F5F5F5F5F5F5F5F5F5F5F5F5F5F5F5F5F5F5F5F5F5F5F5F5F5F5F5F5F5F5F5F5F5F5F5F5F5F5E2F5F5F5F5F5F5F5F5E2E2F5F5E2F5F5F5F5F5F5F5E2E2F5F5DCDCE2F5F5F5F5F5F5DCF5F5F5F5F5F5F5F5F5F5E2E2E2D6D6D6F5F5F52DECECF5F5EC
310
ECECE2E2E2ECF5F5ECF5E2E2F5F5F5F5F5ECE2ECE2F5DCDCF5F5F5E2E2F5F5F5F5F5F5F5F5F5F5F5F5F5F5F5F5F5F5F5F5F5F5F5F5F5F5F5F5F5F5F5F5F5F5F5F5F5F5F5F5F5F5F5F5F5F5F5F5F5F5F5F5F5F5F5F5F5F5F5F5F5F5F5F5F5F5F5F5F5F5F5F5F5F5F5F5F5F5F5F5F5F5F5F5F5F5F5F5F5F5F5E2F5F5F5F5F5F5
310
F5F5E2E2F5F5E2F5F5F5F5F5F5F5E2E2F5F5DCDCE2F5F5F5F5F5F5DCF5F5F5F5F5F5F5F5F5F5F5F5E2E2E2E2D6D6D6DCECECECECECECECECE2E2ECECF5ECF5E2E2F5F5F5F5F5ECE2ECE2F5DCDCF5F5F5E2E2F5F5F5F5F5F5F5F5F5F5F5F5F5F5F5F5F5F5F5F5F5F5F5F5F5F5F5F5F5F5F5F5F5F5F5F5F5F5F5F5F5F5F5F5F5
310
F5F5F5F5F5F5F5F5F5F5F5F5F5F5F5F5F5F5F5F5F5F5F5F5F5F5F5F5F5F5F5F5F5F5F5F5F5F5F5F5F5F5F5F5F5F5E2F5F5F5F5F5F5F5F5E2E2F5F5E2F5F5F5F5F5F5F5E2E2F5F5DCDCDCF5F5F5F5F5F5DCF5F5F5F5F5F5F5F5F5F5F5F5F5F5F5E2E2E2E2ECECECECECECECF5ECECE2E2ECF5ECF5E2E2F5F5F5F5F5ECE2ECE2
310
F5DCDCF5F5F5E2E2F5F5F5F5F5F5F5F5F5F5F5F5F5F5F5F5F5F5F5F5F5F5F5F5F5F5F5F5F5F5F5F5F5F5F5F5F5F5F5F5F5F5F5F5F5F5F5F5F5F5F5F5F5F5F5F5F5F5F5F5F5F5F5F5F5F5F5F5F5F5F5F5F5F5F5F5F5F5F5F5F5F5F5F5F5F5F5F5F5F5F5E2F5F5F5F5F5F5F5F5E2E2F5F5E2F5F5F5F5F5F5F5E2E2F5F5DCDCDC
310
F5F5F5F5F5DCDCF5F5F5F5F5F5F5F5F5F5F5F5F5F5F5F5DCF5F52DF5ECF5F5F5F5F5F5ECDCE2ECECECECE2E2F5F5F5F5F5ECE2ECDCF5DCDCF5F5F5E2E2F5F5F5F5F5F5F5F5F5F5F5F5F5F5F5F5F5F5F5F5F5F5F5F5F5F5F5F5F5F5F5F5F5F5F5F5F5F5F5F5F5F5F5F5F5F5F5F5F5F5F5F5F5F5F5F5F5F5F5F5F5F5F5F5F5F5
310
F5F5F5F5F5F5F5F5F5F5F5F5F5F5F5F5F5F5F5F5F5F5F5F5F5E2F5F5F5F5F5F5F5F5E2E2F5F5E2F5F5F5F5F5F5F5E2E2F5F5DCDCDCF5F5F5F5F5F5DCF5F5F5F5F5F5F5F5F5F5F5F5F5F5F5DCDCD6D6ECECECF5F5F5F5F5DCDCECE2ECECECECE2E2F5F5F5F5F5ECE2ECDCF5DCDCF5F5F5E2E2F5F5F5F5F5F5F5F5F5F5F5F5F5
310
F5F5F5F5F5F5F5F5F5F5F5F5F5F5F5F5F5F5F5F5F5F5F5F5F5F5F5F5F5F5F5F5F5F5F5F5F5F5F5F5F5F5F5F5F5F5F5F5F5F5F5F5F5F5F5F5F5F5F5F5F5F5F5F5F5F5F5F5F5F5F5F5F5F5F5F5F5F5E2F5F5F5F5F5F5F5F5E2E2F5F5E2F5F5F5F5F5F5F5E2E2F5F5DCDCDCF5F5DCDCF5F5DCF5F5F5F5F5F5F5F5F5F5F5F5F5F5
310
F5DCDCD6E2E2E2D6F5F5F5F5F5F5F5ECE2ECF5F5ECE2E2F5F5F5F5F5ECE2ECDCF5DCDCF5F5F5E2E2F5F5F5F5F5F5F5F5F5F5F5F5F5F5F5F5F5F5F5F5F5F5F5F5F5F5F5F5F5F5F5F5F5F5F5F5F5F5F5F5F5F5F5F5F5F5F5F5F5F5F5F5F5F5F5F5F5F5F5F5F5F5F5F5F5F5F5F5F5F5F5F5F5F5F5F5F5F5F5F5F5F5F5F5F5F5F5
310
F5F5F5F5E2F5F5F5F5F5F5F5F5E2E2F5F5E2F5F5F5F5F5F5F5E2E2F5F5DCDCDC0F0F0FDCF5F5DCF5F5F5F5F5F5F5F5F5F5F5F5F5F5DCDCDCD6E2E2E2D62DF5F5F5F5F5F5ECE2ECF5F5ECE2E2F5F5F5F5F5ECECECDCDCDCDCF5F5F5E2E2F5F5F5F5F5F5F5F5F5F5F5F5F5F5F5F5F5F5F5F5F5F5F5F5F5F5F5F5F5F5F5F5F5F5
310
F5F5F5F5F5F5F5F5F5F5F5F5F5F5F5F5F5F5F5F5F5F5F5F5F5F5F5F5F5F5F5F5F5F5F5F5F5F5F5F5F5F5F5F5F5F5F5F5F5F5F5F5F5F5F5F5F5E2F5F5F5F5F5F5F5F5E2E2F5F5E2F5F5F5F5F5F5F5E2E2F5F5DCDCDCF5DCDCDCDCF5DCF5F5F5F5F5F5F5F5F5F5F5F5F5F5DCF5F5D6E2E2D6F5F5F5F5F5F52DF5ECECECF5F5EC
310
E2ECECF5F5F5F5ECE2ECDCDCDCDCF5F5F5E2E2F5F5F5F5F5F5F5F5F5F5F5F5F5F5F5F5F5F5F5F5F5F5F5F5F5F5F5F5F5F5F5F5F5F5F5F5F5F5F5F5F5F5F5F5F5F5F5F5F5F5F5F5F5F5F5F5F5F5F5F5F5F5F5F5F5F5F5F5F5F5F5F5F5F5F5F5F5F5F5F5F5F5F5F5F5F5F5F5F5F5F5E2F5F5F5F5F5F5F5F5E2E2F5F5E2F5F5F5
310
F5F5F5F5E2E2F5F5DCDCDCF5F5F5DCDCDCDCDCDCF5F5F5F5F5F5F5F5F5F5F5F5DCDCDCDCDCE2ECECECECECECEC2DECECE2ECECECECECE2ECECECECECECECDCDCDCDCDCF5F5F5E2E2F5F5F5F5F5F5F5F5F5F5F5F5F5F5F5F5F5F5F5F5F5F5F5F5F5F5F5F5F5F5F5F5F5F5F5F5F5F5F5F5F5F5F5F5F5F5F5F5F5F5F5F5F5F5F5
310
F5F5F5F5F5F5F5F5F5F5F5F5F5F5F5F5F5F5F5F5F5F5F5F5F5F5F5F5F5F5F5F5F5F5F5F5E2F5F5F5F5F5F5F5F5E2E2F5F5E2F5F5F5F5F5F5F5E2E2F5F5DCDCDCF5F5F5DCF5F5DCF5DCF5F5F5F5F5F5F5F5F5F5F5F5DCDCDCDCDCDCECECECECECECBEECBEECE2E2ECE2ECDCECDCECECECECECE2DCDCDCDCDCF5F5F5E2E2F5F5
310
F5F5F5F5F5F5F5F5F5F5F5F5F5F5F5F5F5F5F5F5F5F5F5F5F5F5F5F5F5F5F5F5F5F5F5F5F5F5F5F5F5F5F5F5F5F5F5F5F5F5F5F5F5F5F5F5F5F5F5F5F5F5F5F5F5F5F5F5F5F5F5F5F5F5F5F5F5F5F5F5F5F5F5F5F5F5F5F5F5E2F5F5F5F5F5F5F5F5E2E2F5F5E2F5F5F5F5F5F5F5E2E2F5F5DCDCDCDCDCDCDCDCE2E2DCDCE2
310
E2E2E2E2E2E2E2E2E2E2E2DCDCE2E2E22DDCECECECECECBEECBEE2E2ECECECECECDCDCE2E2E2E2ECE2E2DCDCDCDCF5F5F5E2E2F5F5F5F5F5F5F5F5F5F5F5F5F5F5F5F5F5F5F5F5F5F5F5F5F5F5F5F5F5F5F5F5F5F5F5F5F5F5F5F5F5F5F5F5F5F5F5F5F5F5F5F5F5F5F5F5F5F5F5F5F5F5F5F5F5F5F5F5F5F5F5F5F5F5F5F5
310
F5F5F5F5F5F5F5F5F5F5F5F5F5F5F5E2F5F5F5F5F5F5F5F5E2E2F5F5E2F5F5F5F5F5F5F5E2E2F5F5F5F5DCDCDCDCDCF5F5F5F5DCDCDCF5F5F5F5F5F5F5F5F5F5F5F5F5E2F5DCDCF5F5F5F5F5F52DF5DCDCDCDCDCDCDCDCDCDCDCDCDCDCDCDCDCDCDCF5F5F5F5E2E2F5F5F5F5F5F5F5F5F5F5F5F5F5F5F5F5F5F5F5F5F5F5F5
310
F5F5F5F5F5F5F5F5F5F5F5F5F5F5F5F5F5F5F5F5F5F5F5F5F5F5F5F5F5F5F5F5F5F5F5F5F5F5F5F5F5F5F5F5F5F5F5F5F5F5F5F5F5F5F5F5F5F5F5F5F5F5F5F5F5F5F5F5E2F5F5F5F5F5F5F5F5E2E2F5F5F5F5F5F5F5F5F5F5E2E2F5F5F5F5DCDCDCDCDCF5F5F5F5F5DCDCF5F5F5F5F5F5F5F5F5F5F5F5F5E2E2E2F5F5F5F5
310
F5F5F5F5F5F5F5DCF5DCF5DCF5F5F5DCDCF5F5F5DCDCDCF5F5F5F5F5E2E2F5F5F5F5F5F5F5F5F5F5F5F5F5F5F5F5F5F5F5F5F5F5F5F5F5F5F5F5F5F5F5F5F5F5F5F5F5F5F5F5F5F5F5F5F5F5F5F5F5F5F5F5F5F5F5F5F5F5F5F5F5F5F5F5F5F5F5F5F5F5F5F5F5F5F5F5F5F5F5F5F5F5F5F5F5F5F5F5F5F5F5F5F5F5F5F5F5
310
F5F5F5E2E2F5F5F5F5F5F5F5F5F5F5E2E2F5F5F5F5DCDCDCDCDCDCDCDCDCDCDCDCDCDCDCDCDCDCDCDCDCDCDCDCDCDCDCDCDCDCDCDCDCDCDCDCDCDCDCDCDCDCDCDCDCDCDCDCDCDCDCDCDCDCF5F5F5F5F5F5E2E2F5F5F5F5F5F5F5F5F5F5F5F5F5F5F5F5F5F5F5F5F5F5F5F5F5F5F5F5F5F5F5F5F5F5F5F5F5F5F5F5F5F5F5F5
310
F5F5F5F5F5F5F5F5F5F5F5F5F5F5F5F5F5F5F5F5F5F5F5F5F5F5F5F5F5F5F5F5F5F5F5F5F5F5F5F5F5F5F5F5F5F5F5F5F5F5F5F5F5F5F5F5E2E2F5F5F5F5F5F5F5F5F5F5E2E2F5F5F5F5F5F5F5F5F5F5F5F5F5F5F5F5F5F5F5F5F5F5F5F5F5F5F5F5F5F5F5F5DCF5F5F5F5F5F5F5F5F5F5F5F5F5F5F5F5F5F5F5F5F5F5F5F5
310
F5F5F5F5F5F5F5E2E2F5F5F5F5F5F5F5F5F5F5F5F5F5F5F5F5F5F5F5F5F5F5F5F5F5F5F5F5F5F5F5F5F5F5F5F5F5F5F5F5F5F5F5F5F5F5F5F5F5F5F5F5F5F5F5F5F5F5F5F5F5F5F5F5F5F5F5F5F5F5F5F5F5F5F5F5F5F5F5F5F5F5F5F5F5F5F5F5F5F5F5F5F5F5F5F5F5F5F5F5E2E2F5F5F5F5F5F5F5F5F5F5E2E2F5F5F5F5
310
F5F5F5F5F5F5F5F5F5F5F5F5F5F5F5F5F5F5F5F5F5F5F5F5F5F5F5F5F5F5F5F5F5F5F5F5F5F5F5F5F5F5F5F5F5F5F5F5F5F5F5F5F5F5F5F5F5F5F5F5E2E2F5F5F5F5F5F5F5F5F5F5F5F5F5F5F5F5F5F5F5F5F5F5F5F5F5F5F5F5F5F5F5F5F5F5F5F5F5F5F5F5F5F5F5F5F5F5F5F5F5F5F5F5F5F5F5F5F5F5F5F5F5F5F5F5F5
310
F5F5F5F5F5F5F5F5F5F5F5F5F5F5F5F5F5F5F5F5F5F5F5F5F5F5F5F5F5F5F5F5F5F5F5E2E2F5F5F5F5F5F5F5F5F5F5E2E2F5F5F5F5F5F5F5F5F5F5F5F5F5F5F5F5F5F5F5F5F5F5F5F5F5F5F5F5F5F5F5F5F5F5F5F5F5F5F5F5F5F5F5F5F5F5F5F5F5F5F5F5F5F5F5F5F5F5F5F5F5F5F5F5E2E2F5F5F5F5F5F5F5F5F5F5F5F5
310
F5F5F5F5F5F5F5F5F5F5F5F5F5F5F5F5F5F5F5F5F5F5F5F5F5F5F5F5F5F5F5F5F5F5F5F5F5F5F5F5F5F5F5F5F5F5F5F5F5F5F5F5F5F5F5F5F5F5F5F5F5F5F5F5F5F5F5F5F5F5F5F5F5F5F5F5F5F5F5F5F5F5F5F5F5F5F5F5E2E2F5F5F5F5F5F5F5F5F5F5E2E2E2E2E2E2E2E2E2E2E2E2E2E2E2E2E2E2E2E2E2E2E2E2E2E2E2
310
E2E2E2E2E2E2E2E2E2E2E2E2E2E2E2E2E2E2E2E2E2E2E2E2E2E2E2E2E2E2E2E2E2E2E2E2E2E2E2E2E2F5F5F5F5F5F5F5F5F5F5F5F5F5F5F5F5F5F5F5F5F5F5F5F5F5F5F5F5F5F5F5F5F5F5F5F5F5F5F5F5F5F5F5F5F5F5F5F5F5F5F5F5F5F5F5F5F5F5F5F5F5F5F5F5F5F5F5F5F5F5F5F5F5F5F5F5F5F5F5F5F5F5F5F5F5F5
310
F5F5F5F5F5F5F5F5F5F5F5F5F5F5E2E2F5F5F5F5F5F5F5F5F5F5F5F5F5F5F5F5F5F5F5F5F5F5F5F5F5F5F5F5F5F5F5F5F5F5F5F5F5F5F5F5F5F5F5F5F5F5F5F5F5F5F5F5F5F5F5F5F5F5F5F5F5F5F5F5F5F5F5F5F5F5F5F5F5F5F5F5F5F5F5F5F5F5F5F5F5F5F5F5F5F5F5F5F5F5F5F5F5F5F5F5F5F5F5F5F5F5F5F5F5F5F5
310
F5F5F5F5F5F5F5F5F5F5F5F5F5F5F5F5F5F5F5F5F5F5F5F5F5F5F5F5F5F5F5F5F5F5F5F5F5F5F5F5F5F5F5F5F5F5F5F5F5F5F5F5F5F5F5F5F5F5F5F5F5F5F5F5F5F5F5E2E2F5F5F5F5F5F5F5F5F5F5F5F5F5F5F5F5F5F5F5F5F5F5F5F5F5F5F5F5F5F5F5F5F5F5F5F5F5F5F5F5F5F5F5F5F5F5F5F5F5F5F5F5F5F5F5F5F5F5
310
F5F5F5F5F5F5F5F5F5F5F5F5F5F5F5F5F5F5F5F5F5F5F5F5F5F5F5F5F5F5F5F5F5F5F5F5F5F5F5F5F5F5F5F5F5F5F5F5F5F5F5F5F5F5F5F5F5F5F5F5F5F5F5F5F5F5F5F5F5F5F5F5F5F5F5F5F5F5F5F5F5F5F5F5F5F5F5F5F5F5F5F5F5F5F5F5F5F5F5F5F5F5F5F5F5F5F5F5F5F5F5F5F5F5F5F5F5F5F5F5E2E2F5F5F5F5F5
310
F5F5F5F5F5F5F5F5F5F5F5F5F5F5F5F5F5F5F5F5F5F5F5F5F5F5F5F5F5F5F5F5F5F5F5F5F5F5F5F5F5F5F5F5F5F5F5F5F5F5F5F5F5F5F5F5F5F5F5F5F5F5F5F5F5F5F5F5F5F5F5F5F5F5F5F5F5F5F5F5F5F5F5F5F5F5F5F5F5F5F5F5F5F5F5F5F5F5F5F5F5F5F5F5F5F5F5F5F5F5F5F5F5F5F5F5F5F5F5F5F5F5F5F5F5F5F5
310
F5F5F5F5F5F5F5F5F5F5F5F5F5F5F5F5F5F5F5F5F5F5F5F5F5F5F5F5F5F5F5F5F5F5F5F5F5F5F5F5F5F5F5F5F5F5E2E2F5F5E2F5F5F5F5F5F5F5F5F5F5F5F5F5F5F5F5F5F5F5F5F5F5F5F5F5F5F5F5F5F5F5F5F5F5F5F5F5F5F5F5F5F5F5F5F5F5F5F5F5F5F5F5F5F5F5F5F5F5F5F5F5F5F5F5F5F5F5F5F5F5F5F5F5F5F5F5
310
F5F5F5F5F5F5F5F5F5F5F5F5F5F5F5F5F5F5F5F5F5F5F5F5F5F5F5F5F5F5F5F5F5F5F5F5F5F5F5F5F5F5F5F5F5F5F5F5F5F5F5F5F5F5F5F5F5F5F5F5F5F5F5F5F5F5F5F5F5F5F5F5F5F5F5F5F5F5F5F5F5F5F5F5F5F5F5F5F5F5E2F5F5F5F5F5F5F5F5E2E2F5F5E2F5F5F5F5F5F5F5F5F5F5F5F5F5F5F5F5F5F5F5F5F5F5F5
310
F5F5F5F5F5F5F5F5F5F5F5F5F5F5F5F5F5F5F5F5F5F5F5F5F5F5F5F5F5F5F5F5F5F5F5F5F5F5F5F5F5F5F5F5F5F5F5F5F5F5F5F5F5F5F5F5F5F5F5F5F5F5F5F5F5F5F5F5F5F5F5F5F5F5F5F5F5F5F5F5F5F5F5F5F5F5F5F5F5F5F5F5F5F5F5F5F5F5F5F5F5F5F5F5F5F5F5F5F5F5F5F5F5F5F5F5F5F5F5F5F5F5F5F5F5F5F5
310
F5F5F5F5F5F5F5F5F5F5F5F5F5F5F5F5E2F5F5F5F5F5F5F5F5E2E2F5F5E2F5F5F5F5F5F5F5F5F5F5F5F5F5F5F5F5F5F5F5F5F5F5F5F5F5F5F5F5F5F5F5F5F5F5F5F5F5F5F5F5F5F5F5F5F5F5F5F5F5F5F5F5F5F5F5F5F5F5F5F5F5F5F5F5F5F5F5F5F5F5F5F5F5F5F5F5F5F5F5F5F5F5F5F5F5F5F5F5F5F5F5F5F5F5F5F5F5
310
F5F5F5F5F5F5F5F5F5F5F5F5F5F5F5F5F5F5F5F5F5F5F5F5F5F5F5F5F5F5F5F5F5F5F5F5F5F5F5F5F5F5F5F5F5F5F5F5F5F5F5F5F5F5F5F5F5F5F5F5F5F5F5F5F5F5F5F5F5E2F5F5F5F5F5F5F5F5E2E2F5F5E2F5F5F5F5F5F5F5F5F5F5F5F5F5F5F5F5F5F5F5F5F5F5F5F5F5F5F5F5F5F5F5F5F5F5F5F5F5F5F5F5F5F5F5F5
310
F5F5F5F5F5F5F5F5F5F5F5F5F5F5F5F5F5F5F5F5F5F5F5F5F5F5F5F5F5F5F5F5F5F5F5F5F5F5F5F5F5F5F5F5F5F5F5F5F5F5F5F5F5F5F5F5F5F5F5F5F5F5F5F5F5F5F5F5F5F5F5F5F5F5F5F5F5F5F5F5F5F5F5F5F5F5F5F5F5F5F5F5F5F5F5F5F5F5F5F5F5F5F5F5F5F5F5F5F5F5F5F5F5F5F5F5F5F5F5F5F5F5E2F5F5F5F5
310
F5F5F5F5E2E2F5F5E2F5F5F5F5F5F5F5F5F5F5F5F5F5F5F5F5F5F5F5F5F5F5F5F5F5F5F5F5F5F5F5F5F5F5F5F5F5F5F5F5F5F5F5F5F5F5F5F5F5F5F5F5F5F5F5F5F5F5F5F5F5F5F5F5F5F5F5F5F5F5F5F5F5F5F5F5F5F5F5F5F5F5F5F5F5F5F5F5F5F5F5F5F5F5F5F5F5F5F5F5F5F5F5F5F5F5F5F5F5F5F5F5F5F5F5F5F5F5
310
F5F5F5F5F5F5F5F5F5F5F5F5F5F5F5F5F5F5F5F5F5F5F5F5F5F5F5F5F5F5F5F5F5F5F5F5F5F5F5F5F5F5F5F5F5F5F5F5E2F5F5F5F5F5F5F5F5E2E2F5F5E2F5F5F5F5F5F5F5F5F5F5F5F5F5F5F5F5F5F5F5F5F5F5F5F5F5F5F5F5F5F5F5F5F5F5F5F5F5F5F5F5F5F5F5F5F5F5F5F5F5F5F5F5F5F5F5F5F5F5F5F5F5F5F5F5F5
310
F5F5F5F5F5F5F5F5F5F5F5F5F5F5F5F5F5F5F5F5F5F5F5F5F5F5F5F5F5F5F5F5F5F5F5F5F5F5F5F5F5F5F5F5F5F5F5F5F5F5F5F5F5F5F5F5F5F5F5F5F5F5F5F5F5F5F5F5F5F5F5F5F5F5F5F5F5F5F5F5F5F5F5F5F5F5F5F5F5F5F5F5F5F5F5F5F5F5F5F5F5E2F5F5F5F5F5F5F5F5E2E2F5F5E2F5F5F5F5F5F5F5F5F5F5F5F5
310
F5F5F5F5F5F5F5F5F5F5F5F5F5F5F5F5F5F5F5F5F5F5F5F5F5F5F5F5F5F5F5F5F5F5F5F5F5F5F5F5F5F5F5F5F5F5F5F5F5F5F5F5F5F5F5F5F5F5F5F5F5F5F5F5F5F5F5F5F5F5F5F5F5F5F5F5F5F5F5F5F5F5F5F5F5F5F5F5F5F5F5F5F5F5F5F5F5F5F5F5F5F5F5F5F5F5F5F5F5F5F5F5F5F5F5F5F5F5F5F5F5F5F5F5F5F5F5
310
F5F5F5F5F5F5F5F5F5F5F5F5F5F5F5F5F5F5F5F5F5F5F5F5F5F5F5E2F5F5F5F5F5F5F5F5E2E2F5F5E2E2E2E2E2E2E2E2F5F5F5F5F5F5F5F5F5E2E2E2E2E2E2E2E2E2E2E2E2E2E2E2F5F5F5F5F5F5F5F5F5E2E2E2E2E2E2E2E2E2E2E2E2E2E2E2F5F5F5F5F5F5F5F5E2E2E2E2E2E2E2E2E2E2E2E2E2E2E2E2F5F5F5F5F5F5F5
310
F5E2E2E2E2E2E2E2E2E2E2E2E2E2E2E2E2F5F5F5F5F5F5F5F5E2E2E2E2E2E2E2E2E2E2E2E2E2E2E2F5F5F5F5F5F5F5F5F5E2E2E2E2E2E2E2E2E2E2E2E2E2E2E2F5F5F5F5F5F5F5F5F5E2E2E2E2E2E2E2E2F5F5F5F5F5F5F5F5E2E2F5F5F5F5F5F5F5F5F5F5F5F5F5F5F5F5F5F5F5F5F5F5F5F5F5F5F5F5F5F5F5F5F5F5F5F5
310
F5F5F5F5F5F5F5F5F5F5F5F5F5F5F5F5F5F5F5F5F5F5F5F5F5F5F5F5F5F5F5F5F5F5F5F5F5F5F5F5F5F5F5F5F5F5F5F5F5F5F5F5F5F5F5F5F5F5F5F5F5F5F5F5F5F5F5F5F5F5F5F5F5F5F5F5F5F5F5F5F5F5F5F5F5F5F5F5F5F5F5F5F5F5F5F5F5F5F5F5F5F5F5F5F5F5F5F5F5F5F5F5F5F5F5F5F5F5F5F5F5F5F5F5F5F5F5
310
F5F5F5F5F5F5F5F5F5F5F5F5F5F5F5E2E2F5F5F5F5F5F5F5F5F5F5F5F5F5F5F5F5F5F5F5F5F5F5F5F5F5F5F5F5F5F5F5F5F5F5F5F5F5F5F5F5F5F5F5F5F5F5F5F5F5F5F5F5F5F5F5F5F5F5F5F5F5F5F5F5F5F5F5F5F5F5F5F5F5F5F5F5F5F5F5F5F5F5F5F5F5F5F5F5F5F5F5F5F5F5F5F5F5F5F5F5F5F5F5F5F5F5F5F5F5F5
310
F5F5F5F5F5F5F5F5F5F5F5F5F5F5F5F5F5F5F5F5F5F5F5F5F5F5F5F5F5F5F5F5F5F5F5F5F5F5F5F5F5F5F5F5F5F5F5F5F5F5F5F5F5F5F5F5F5F5F5F5F5F5F5F5F5F5F5F5E2E2E2E2E2E2E2E2E2E2E2E2E2E2E2E2E2E2E2E2E2E2E2E2E2E2E2E2E2E2E2E2E2E2E2E2E2E2E2E2E2E2E2E2E2E2E2E2E2E2E2E2E2E2E2E2E2E2E2
310
E2E2E2E2E2E2E2E2E2E2E2E2E2E2E2E2E2E2E2E2E2E2E2E2E2E2E2E2E2E2E2E2E2E2E2E2E2E2E2E2E2E2E2E2E2E2E2E2E2E2E2E2E2E2E2E2E2E2E2E2E2E2E2E2E2E2E2E2E2E2E2E2E2E2E2E2E2E2E2E2E2E2E2E2E2E2E2E2E2E2E2E2E2E2E2E2E2E2E2E2E2E2E2E2E2E2E2E2E2E2E2E2E2E2E2E2E2E2E2E2E2E2EFEFEFEFEF
310
EFEFEFEFEFEFEFEFEFEFEFEFEFEFEFEFEFEFEFEFEFEFEFEFEFEFEFEFEFEFEFEFEFEFEFEFEFEFEFEFEFEFEFEFEFEFEFEFEFEFEFEFEFEFEFEFEFEFEFEFEFEFEFEFEFEFEFEFEFEFEFEFEFEFEFEFEFEFEFEFEFEFEFEFEFEFEFEFEFEFEFEFEFEFEFEFEFEFEFEFEFEFEFEFEFEFEFEFEFEFEFEFEFEFEFEFEFEFEFEFEFEFEFEFEFEFEF
310
EFEFEFEFEFEFEFEFEFEFEFEFEFEFEFEFEFEFEFEFEFEFEFEFEFEFEFEFEFEFEFEFEFEFEFEFEFEFEFEFEFEFEFEFEFEFEFEF
  0
ENDSEC
  0
EOF
