999
DXF file: 1047579-7.dxf
999
Pro/ENGINEER 2004030 by Parametric Technology Corporation
0
SECTION
2
HEADER
9
$EXTMAX
10
44.0000000000
20
34.0000000000
30
0.0000000000
9
$EXTMIN
10
0.0000000000
20
0.0000000000
30
0.0000000000
9
$LIMMIN
10
0.0000000000
20
0.0000000000
9
$LIMMAX
10
44.0000000000
20
34.0000000000
9
$VIEWCTR
10
22.0000000000
20
17.0000000000
9
$VIEWSIZE
40
34.0000000000
9
$CLAYER
8
0
9
$LTSCALE
40
2.4200000000
9
$CELTYPE
6
BYLAYER
9
$DIMSCALE
40
1
9
$DIMASZ
40
0.1875000000
9
$DIMEXO
40
0.2750000000
9
$DIMDLI
40
1.6720000000
9
$DIMEXE
40
0.7920000000
9
$DIMCEN
40
0.3960000000
9
$DIMLFAC
40
1.0000000000
9
$DIMBLK
1
_FILLED
9
$DIMTXT
40
0.1562500000
9
$PDMODE
70
3
9
$PDSIZE
40
0.3125000000
0
ENDSEC
0
SECTION
2
TABLES
0
TABLE
2
LTYPE
70
6
0
LTYPE
2
BYBLOCK
70
0
3

72
65
73
0
40
0.0
0
LTYPE
2
BYLAYER
70
0
3

72
65
73
0
40
0.0
0
LTYPE
2
CONTINUOUS
70
64
3
Solid line
72
65
73
0
40
0
0
LTYPE
2
CENTER
70
64
3
____ _ ____ _ ____ _ ____ _ ____ _ ____ _ ____
72
65
73
4
40
0.6
49
0.375
49
-0.075
49
0.075
49
-0.075
0
LTYPE
2
HIDDEN
70
64
3
- - - - - - - - - - - - - - - - - - - -
72
65
73
2
40
0.2
49
0.1
49
-0.1
0
LTYPE
2
PHANTOM
70
64
3
_____ _ _ _____ _ _ _____ _ _ _____
72
65
73
6
40
0.8
49
0.45
49
-0.05
49
0.1
49
-0.05
49
0.1
49
-0.05
0
LTYPE
2
DOT
70
64
3
. . . . . . . . . . . . . . . . . . . .
72
65
73
2
40
0.2
49
0.1
49
-0.1
0
LTYPE
2
DASHED
70
64
3
- - - - - - - - - - - - - - - - - - - -
72
65
73
2
40
0.2
49
0.1
49
-0.1
0
ENDTAB
0
TABLE
2
LAYER
70
36
0
LAYER
2
0
70
0
62
7
6
CONTINUOUS
0
LAYER
2
DEFAULT_1
70
0
62
7
6
CENTER
0
LAYER
2
DEFAULT_2
70
0
62
8
6
HIDDEN
0
LAYER
2
DEFAULT_3
70
0
62
7
6
PHANTOM
0
LAYER
2
DATUMS
70
0
62
7
6
CONTINUOUS
0
LAYER
2
DATUM_AXIS
70
0
62
7
6
CONTINUOUS
0
LAYER
2
DATUM_CSYS
70
0
62
7
6
CONTINUOUS
0
LAYER
2
DATUM_PLANE
70
0
62
7
6
CONTINUOUS
0
LAYER
2
DATUM_POINT
70
0
62
7
6
CONTINUOUS
0
LAYER
2
_CURVE
70
0
62
7
6
CONTINUOUS
0
LAYER
2
_SURFACE
70
0
62
7
6
CONTINUOUS
0
LAYER
2
__REF_CURVE
70
0
62
7
6
CONTINUOUS
0
LAYER
2
__REF_SURFACE
70
0
62
7
6
CONTINUOUS
0
LAYER
2
___NOTE
70
0
62
7
6
CONTINUOUS
0
LAYER
2
___SYMBOL
70
0
62
7
6
CONTINUOUS
0
LAYER
2
___SYMBOL_BORDER
70
0
62
7
6
CONTINUOUS
0
ENDTAB
0
ENDSEC
0
SECTION
2
BLOCKS
0
BLOCK
8
0
62
2
6
CONTINUOUS
2
*D0
70
65
10
0.0000000000
20
0.0000000000
0
TEXT
8
0
62
2
6
CONTINUOUS
10
13.0181155783
20
16.8127282611
40
0.1562500000
1
"
72
5
11
13.1431155783
21
16.8127282611
0
TEXT
8
0
62
2
6
CONTINUOUS
10
12.2681155783
20
16.5783532611
40
0.1562500000
1
[45,4 cm]
72
5
11
13.3931155783
21
16.5783532611
0
TEXT
8
0
62
2
6
CONTINUOUS
10
12.2681155783
20
16.8127282611
40
0.1562500000
1
17-7/8
72
5
11
13.0181155783
21
16.8127282611
0
LINE
8
0
62
2
6
CONTINUOUS
10
12.1550000000
20
9.2184336723
11
12.8306155783
21
9.2184336723
0
LINE
8
0
62
2
6
CONTINUOUS
10
9.1342593987
20
27.0984336723
11
12.8306155783
21
27.0984336723
0
LINE
8
0
62
2
6
CONTINUOUS
10
12.7056155783
20
9.2184336723
11
12.7056155783
21
16.5002282611
0
LINE
8
0
62
2
6
CONTINUOUS
10
12.7056155783
20
27.0984336723
11
12.7056155783
21
17.0471032611
0
INSERT
8
0
62
2
6
CONTINUOUS
2
_FILLED
10
12.7056155783
20
9.2184336723
41
  0.187500
42
  0.187500
43
  0.187500
50
270.000000
0
INSERT
8
0
62
2
6
CONTINUOUS
2
_FILLED
10
12.7056155783
20
27.0984336723
41
  0.187500
42
  0.187500
43
  0.187500
50
 90.000000
0
ENDBLK
8
0
6
BYBLOCK
62
0
0
BLOCK
8
0
62
2
6
CONTINUOUS
2
*D1
70
65
10
0.0000000000
20
0.0000000000
0
TEXT
8
0
62
2
6
CONTINUOUS
10
13.9583895509
20
19.5371118227
40
0.1562500000
1
"
72
5
11
14.0833895509
21
19.5371118227
0
TEXT
8
0
62
2
6
CONTINUOUS
10
13.2083895509
20
19.3027368227
40
0.1562500000
1
[49,2 cm]
72
5
11
14.3333895509
21
19.3027368227
0
TEXT
8
0
62
2
6
CONTINUOUS
10
13.2083895509
20
19.5371118227
40
0.1562500000
1
19-3/8
72
5
11
13.9583895509
21
19.5371118227
0
LINE
8
0
62
2
6
CONTINUOUS
10
12.9385616438
20
8.4684336723
11
13.7708895509
21
8.4684336723
0
LINE
8
0
62
2
6
CONTINUOUS
10
9.1342593987
20
27.8484336723
11
13.7708895509
21
27.8484336723
0
LINE
8
0
62
2
6
CONTINUOUS
10
13.6458895509
20
8.4684336723
11
13.6458895509
21
19.2246118227
0
LINE
8
0
62
2
6
CONTINUOUS
10
13.6458895509
20
27.8484336723
11
13.6458895509
21
19.7714868227
0
INSERT
8
0
62
2
6
CONTINUOUS
2
_FILLED
10
13.6458895509
20
8.4684336723
41
  0.187500
42
  0.187500
43
  0.187500
50
270.000000
0
INSERT
8
0
62
2
6
CONTINUOUS
2
_FILLED
10
13.6458895509
20
27.8484336723
41
  0.187500
42
  0.187500
43
  0.187500
50
 90.000000
0
ENDBLK
8
0
6
BYBLOCK
62
0
0
BLOCK
8
0
62
2
6
CONTINUOUS
2
*D2
70
65
10
0.0000000000
20
0.0000000000
0
TEXT
8
0
62
2
6
CONTINUOUS
10
22.9074991399
20
17.0462186845
40
0.1562500000
1
"
72
5
11
23.0324991399
21
17.0462186845
0
TEXT
8
0
62
2
6
CONTINUOUS
10
21.9074991399
20
16.8118436845
40
0.1562500000
1
[39,1 cm]
72
5
11
23.0324991399
21
16.8118436845
0
TEXT
8
0
62
2
6
CONTINUOUS
10
21.9074991399
20
17.0462186845
40
0.1562500000
1
15-11/16
72
5
11
22.9074991399
21
17.0462186845
0
LINE
8
0
62
2
6
CONTINUOUS
10
21.7069324190
20
24.9130506635
11
22.5949991399
21
24.9130506635
0
LINE
8
0
62
2
6
CONTINUOUS
10
21.7988356164
20
9.2184336723
11
22.5949991399
21
9.2184336723
0
LINE
8
0
62
2
6
CONTINUOUS
10
22.4699991399
20
24.9130506635
11
22.4699991399
21
17.2805936845
0
LINE
8
0
62
2
6
CONTINUOUS
10
22.4699991399
20
9.2184336723
11
22.4699991399
21
16.7337186845
0
INSERT
8
0
62
2
6
CONTINUOUS
2
_FILLED
10
22.4699991399
20
24.9130506635
41
  0.187500
42
  0.187500
43
  0.187500
50
 90.000000
0
INSERT
8
0
62
2
6
CONTINUOUS
2
_FILLED
10
22.4699991399
20
9.2184336723
41
  0.187500
42
  0.187500
43
  0.187500
50
270.000000
0
ENDBLK
8
0
6
BYBLOCK
62
0
0
BLOCK
8
0
62
2
6
CONTINUOUS
2
*D3
70
65
10
0.0000000000
20
0.0000000000
0
TEXT
8
0
62
2
6
CONTINUOUS
10
21.8422251673
20
19.4192423022
40
0.1562500000
1
"
72
5
11
21.9672251673
21
19.4192423022
0
TEXT
8
0
62
2
6
CONTINUOUS
10
21.0922251673
20
19.1848673022
40
0.1562500000
1
[42,9 cm]
72
5
11
22.2172251673
21
19.1848673022
0
TEXT
8
0
62
2
6
CONTINUOUS
10
21.0922251673
20
19.4192423022
40
0.1562500000
1
16-7/8
72
5
11
21.8422251673
21
19.4192423022
0
LINE
8
0
62
2
6
CONTINUOUS
10
21.2883301918
20
25.3484336723
11
21.6547251673
21
25.3484336723
0
LINE
8
0
62
2
6
CONTINUOUS
10
22.0993459392
20
8.4684336723
11
21.4047251673
21
8.4684336723
0
LINE
8
0
62
2
6
CONTINUOUS
10
21.5297251673
20
25.3484336723
11
21.5297251673
21
19.6536173022
0
LINE
8
0
62
2
6
CONTINUOUS
10
21.5297251673
20
8.4684336723
11
21.5297251673
21
19.1067423022
0
INSERT
8
0
62
2
6
CONTINUOUS
2
_FILLED
10
21.5297251673
20
25.3484336723
41
  0.187500
42
  0.187500
43
  0.187500
50
 90.000000
0
INSERT
8
0
62
2
6
CONTINUOUS
2
_FILLED
10
21.5297251673
20
8.4684336723
41
  0.187500
42
  0.187500
43
  0.187500
50
270.000000
0
ENDBLK
8
0
6
BYBLOCK
62
0
0
BLOCK
8
0
62
2
6
CONTINUOUS
2
*D4
70
65
10
0.0000000000
20
0.0000000000
0
TEXT
8
0
62
2
6
CONTINUOUS
10
31.3710753425
20
16.8652928082
40
0.1562500000
1
"
72
5
11
31.4960753425
21
16.8652928082
0
TEXT
8
0
62
2
6
CONTINUOUS
10
30.6210753425
20
16.6309178082
40
0.1562500000
1
[45,4 cm]
72
5
11
31.7460753425
21
16.6309178082
0
TEXT
8
0
62
2
6
CONTINUOUS
10
30.6210753425
20
16.8652928082
40
0.1562500000
1
17-7/8
72
5
11
31.3710753425
21
16.8652928082
0
LINE
8
0
62
2
6
CONTINUOUS
10
31.9550000000
20
9.2184336723
11
30.9335753425
21
9.2184336723
0
LINE
8
0
62
2
6
CONTINUOUS
10
34.6392593987
20
27.0984336723
11
30.9335753425
21
27.0984336723
0
LINE
8
0
62
2
6
CONTINUOUS
10
31.0585753425
20
9.2184336723
11
31.0585753425
21
16.5527928082
0
LINE
8
0
62
2
6
CONTINUOUS
10
31.0585753425
20
27.0984336723
11
31.0585753425
21
17.0996678082
0
INSERT
8
0
62
2
6
CONTINUOUS
2
_FILLED
10
31.0585753425
20
9.2184336723
41
  0.187500
42
  0.187500
43
  0.187500
50
270.000000
0
INSERT
8
0
62
2
6
CONTINUOUS
2
_FILLED
10
31.0585753425
20
27.0984336723
41
  0.187500
42
  0.187500
43
  0.187500
50
 90.000000
0
ENDBLK
8
0
6
BYBLOCK
62
0
0
BLOCK
8
0
62
2
6
CONTINUOUS
2
*D5
70
65
10
0.0000000000
20
0.0000000000
0
TEXT
8
0
62
2
6
CONTINUOUS
10
30.3478922906
20
19.5776215753
40
0.1562500000
1
"
72
5
11
30.4728922906
21
19.5776215753
0
TEXT
8
0
62
2
6
CONTINUOUS
10
29.5978922906
20
19.3432465753
40
0.1562500000
1
[49,2 cm]
72
5
11
30.7228922906
21
19.3432465753
0
TEXT
8
0
62
2
6
CONTINUOUS
10
29.5978922906
20
19.5776215753
40
0.1562500000
1
19-3/8
72
5
11
30.3478922906
21
19.5776215753
0
LINE
8
0
62
2
6
CONTINUOUS
10
30.9303424658
20
8.4684336723
11
29.9103922906
21
8.4684336723
0
LINE
8
0
62
2
6
CONTINUOUS
10
34.6392593987
20
27.8484336723
11
29.9103922906
21
27.8484336723
0
LINE
8
0
62
2
6
CONTINUOUS
10
30.0353922906
20
8.4684336723
11
30.0353922906
21
19.2651215753
0
LINE
8
0
62
2
6
CONTINUOUS
10
30.0353922906
20
27.8484336723
11
30.0353922906
21
19.8119965753
0
INSERT
8
0
62
2
6
CONTINUOUS
2
_FILLED
10
30.0353922906
20
8.4684336723
41
  0.187500
42
  0.187500
43
  0.187500
50
270.000000
0
INSERT
8
0
62
2
6
CONTINUOUS
2
_FILLED
10
30.0353922906
20
27.8484336723
41
  0.187500
42
  0.187500
43
  0.187500
50
 90.000000
0
ENDBLK
8
0
6
BYBLOCK
62
0
0
BLOCK
8
0
62
2
6
CONTINUOUS
2
*D6
70
65
10
0.0000000000
20
0.0000000000
0
TEXT
8
0
62
2
6
CONTINUOUS
10
26.8276472767
20
17.5995333981
40
0.1562500000
1
"
72
5
11
26.9526472767
21
17.5995333981
0
TEXT
8
0
62
2
6
CONTINUOUS
10
26.0776472767
20
17.3651583981
40
0.1562500000
1
[100 cm]
72
5
11
27.0776472767
21
17.3651583981
0
TEXT
8
0
62
2
6
CONTINUOUS
10
26.0776472767
20
17.5995333981
40
0.1562500000
1
39-3/8
72
5
11
26.8276472767
21
17.5995333981
0
LINE
8
0
62
2
6
CONTINUOUS
10
41.5767593987
20
18.0959336723
11
41.5767593987
21
17.5526583981
0
LINE
8
0
62
2
6
CONTINUOUS
10
2.1967593987
20
18.0959336723
11
2.1967593987
21
17.5526583981
0
LINE
8
0
62
2
6
CONTINUOUS
10
41.5767593987
20
17.6776583981
11
27.1557722767
21
17.6776583981
0
LINE
8
0
62
2
6
CONTINUOUS
10
2.1967593987
20
17.6776583981
11
25.9995222767
21
17.6776583981
0
INSERT
8
0
62
2
6
CONTINUOUS
2
_FILLED
10
41.5767593987
20
17.6776583981
41
  0.187500
42
  0.187500
43
  0.187500
0
INSERT
8
0
62
2
6
CONTINUOUS
2
_FILLED
10
2.1967593987
20
17.6776583981
41
  0.187500
42
  0.187500
43
  0.187500
50
180.000000
0
ENDBLK
8
0
6
BYBLOCK
62
0
0
BLOCK
8
0
62
2
6
CONTINUOUS
2
*D7
70
65
10
0.0000000000
20
0.0000000000
0
TEXT
8
0
62
2
6
CONTINUOUS
10
17.7865513863
20
18.6119477816
40
0.1562500000
1
"
72
5
11
17.9115513863
21
18.6119477816
0
TEXT
8
0
62
2
6
CONTINUOUS
10
17.0365513863
20
18.3775727816
40
0.1562500000
1
[103,8 cm]
72
5
11
18.2865513863
21
18.3775727816
0
TEXT
8
0
62
2
6
CONTINUOUS
10
17.0365513863
20
18.6119477816
40
0.1562500000
1
40-7/8
72
5
11
17.7865513863
21
18.6119477816
0
LINE
8
0
62
2
6
CONTINUOUS
10
1.4467593987
20
18.2209336723
11
1.4467593987
21
18.8150727816
0
LINE
8
0
62
2
6
CONTINUOUS
10
42.3267593987
20
18.2209336723
11
42.3267593987
21
18.8150727816
0
LINE
8
0
62
2
6
CONTINUOUS
10
1.4467593987
20
18.6900727816
11
16.9584263863
21
18.6900727816
0
LINE
8
0
62
2
6
CONTINUOUS
10
42.3267593987
20
18.6900727816
11
18.3646763863
21
18.6900727816
0
INSERT
8
0
62
2
6
CONTINUOUS
2
_FILLED
10
1.4467593987
20
18.6900727816
41
  0.187500
42
  0.187500
43
  0.187500
50
180.000000
0
INSERT
8
0
62
2
6
CONTINUOUS
2
_FILLED
10
42.3267593987
20
18.6900727816
41
  0.187500
42
  0.187500
43
  0.187500
0
ENDBLK
8
0
6
BYBLOCK
62
0
0
BLOCK
8
___SYMBOL
62
2
6
CONTINUOUS
2
REVEAL-NOREVEAL_BL0
70
64
10
33.8015394423
20
21.9815902073
0
LINE
8
___SYMBOL
62
7
6
CONTINUOUS
10
34.4295425888
20
21.9850802073
11
33.1167725888
21
22.0825002073
0
LINE
8
___SYMBOL
62
7
6
CONTINUOUS
10
33.1167725888
20
22.0825002073
11
33.0454925888
21
22.1811002073
0
LINE
8
___SYMBOL
62
7
6
CONTINUOUS
10
33.0454925888
20
22.1811002073
11
33.0846925888
21
22.2001102073
0
LINE
8
___SYMBOL
62
7
6
CONTINUOUS
10
33.0846925888
20
22.2001102073
11
33.1429125888
21
22.1145702073
0
LINE
8
___SYMBOL
62
7
6
CONTINUOUS
10
33.1429125888
20
22.1145702073
11
34.4129125888
21
22.0266602073
0
LINE
8
___SYMBOL
62
7
6
CONTINUOUS
10
33.9436425888
20
22.2001102073
11
33.9436425888
21
22.4602902073
0
LINE
8
___SYMBOL
62
7
6
CONTINUOUS
10
33.9436425888
20
22.4602902073
11
33.7440525888
21
22.4602902073
0
LINE
8
___SYMBOL
62
7
6
CONTINUOUS
10
33.8010825888
20
22.0690113690
11
33.8010825888
21
22.4225102073
0
LINE
8
___SYMBOL
62
7
6
CONTINUOUS
10
33.8010825888
20
22.4225102073
11
33.8445625888
21
22.4602902073
0
LINE
8
___SYMBOL
62
7
6
CONTINUOUS
10
33.8445625888
20
22.4602902073
11
33.8916025888
21
22.4225102073
0
LINE
8
___SYMBOL
62
7
6
CONTINUOUS
10
33.8916025888
20
22.0627455318
11
33.8916025888
21
22.4225102073
0
LINE
8
___SYMBOL
62
7
6
CONTINUOUS
10
33.8916025888
20
22.4225102073
11
33.8010825888
21
22.4225102073
0
LINE
8
___SYMBOL
62
7
6
CONTINUOUS
10
33.8010825888
20
22.3241402073
11
33.8916025888
21
22.3241402073
0
LINE
8
___SYMBOL
62
7
6
CONTINUOUS
10
33.8916125888
20
22.3241402073
11
33.8445625888
21
22.3619202073
0
LINE
8
___SYMBOL
62
7
6
CONTINUOUS
10
33.8445625888
20
22.3619202073
11
33.8010825888
21
22.3241402073
0
LINE
8
___SYMBOL
62
2
6
CONTINUOUS
10
34.5816125888
20
22.3298502073
11
34.4370558028
21
22.2001102073
0
LINE
8
___SYMBOL
62
7
6
CONTINUOUS
10
33.8916025888
20
22.0250004636
11
33.8916025888
21
21.9482502073
0
LINE
8
___SYMBOL
62
7
6
CONTINUOUS
10
33.8916025888
20
21.9482502073
11
33.9365125888
21
21.8888502073
0
LINE
8
___SYMBOL
62
7
6
CONTINUOUS
10
33.9365125888
20
21.8888502073
11
33.7547425888
21
21.8888502073
0
LINE
8
___SYMBOL
62
7
6
CONTINUOUS
10
33.7547425888
20
21.8888502073
11
33.8010825888
21
21.9482502073
0
LINE
8
___SYMBOL
62
7
6
CONTINUOUS
10
33.8010825888
20
21.9482502073
11
33.8010825888
21
22.0317179071
0
POLYLINE
8
___SYMBOL
62
7
6
CONTINUOUS
66
1
70
0
0
VERTEX
8
___SYMBOL
62
7
6
CONTINUOUS
10
34.5816125888
20
22.6070102073
0
VERTEX
8
___SYMBOL
62
7
6
CONTINUOUS
10
34.5816814260
20
22.6087798661
0
VERTEX
8
___SYMBOL
62
7
6
CONTINUOUS
10
34.5816826142
20
22.6105503732
0
VERTEX
8
___SYMBOL
62
7
6
CONTINUOUS
10
34.5816165941
20
22.6123200802
0
VERTEX
8
___SYMBOL
62
7
6
CONTINUOUS
10
34.5814838065
20
22.6140873385
0
VERTEX
8
___SYMBOL
62
7
6
CONTINUOUS
10
34.5812846920
20
22.6158504996
0
VERTEX
8
___SYMBOL
62
7
6
CONTINUOUS
10
34.5810196916
20
22.6176079149
0
VERTEX
8
___SYMBOL
62
7
6
CONTINUOUS
10
34.5806892458
20
22.6193579360
0
VERTEX
8
___SYMBOL
62
7
6
CONTINUOUS
10
34.5802937954
20
22.6210989143
0
VERTEX
8
___SYMBOL
62
7
6
CONTINUOUS
10
34.5798337812
20
22.6228292012
0
VERTEX
8
___SYMBOL
62
7
6
CONTINUOUS
10
34.5793096439
20
22.6245471483
0
VERTEX
8
___SYMBOL
62
7
6
CONTINUOUS
10
34.5787218242
20
22.6262511070
0
VERTEX
8
___SYMBOL
62
7
6
CONTINUOUS
10
34.5780707628
20
22.6279394287
0
VERTEX
8
___SYMBOL
62
7
6
CONTINUOUS
10
34.5773569006
20
22.6296104650
0
VERTEX
8
___SYMBOL
62
7
6
CONTINUOUS
10
34.5765806782
20
22.6312625673
0
VERTEX
8
___SYMBOL
62
7
6
CONTINUOUS
10
34.5757425364
20
22.6328940871
0
VERTEX
8
___SYMBOL
62
7
6
CONTINUOUS
10
34.5748429159
20
22.6345033757
0
VERTEX
8
___SYMBOL
62
7
6
CONTINUOUS
10
34.5738822575
20
22.6360887848
0
VERTEX
8
___SYMBOL
62
7
6
CONTINUOUS
10
34.5728611618
20
22.6376487305
0
VERTEX
8
___SYMBOL
62
7
6
CONTINUOUS
10
34.5717808689
20
22.6391818876
0
VERTEX
8
___SYMBOL
62
7
6
CONTINUOUS
10
34.5706427789
20
22.6406869956
0
VERTEX
8
___SYMBOL
62
7
6
CONTINUOUS
10
34.5694482918
20
22.6421627942
0
VERTEX
8
___SYMBOL
62
7
6
CONTINUOUS
10
34.5681988077
20
22.6436080229
0
VERTEX
8
___SYMBOL
62
7
6
CONTINUOUS
10
34.5668957267
20
22.6450214212
0
VERTEX
8
___SYMBOL
62
7
6
CONTINUOUS
10
34.5655404487
20
22.6464017287
0
VERTEX
8
___SYMBOL
62
7
6
CONTINUOUS
10
34.5641343739
20
22.6477476849
0
VERTEX
8
___SYMBOL
62
7
6
CONTINUOUS
10
34.5626789023
20
22.6490580294
0
VERTEX
8
___SYMBOL
62
7
6
CONTINUOUS
10
34.5611754339
20
22.6503315018
0
VERTEX
8
___SYMBOL
62
7
6
CONTINUOUS
10
34.5596253688
20
22.6515668415
0
VERTEX
8
___SYMBOL
62
7
6
CONTINUOUS
10
34.5580301070
20
22.6527627882
0
VERTEX
8
___SYMBOL
62
7
6
CONTINUOUS
10
34.5563910487
20
22.6539180814
0
VERTEX
8
___SYMBOL
62
7
6
CONTINUOUS
10
34.5547095937
20
22.6550314607
0
VERTEX
8
___SYMBOL
62
7
6
CONTINUOUS
10
34.5529871422
20
22.6561016655
0
VERTEX
8
___SYMBOL
62
7
6
CONTINUOUS
10
34.5512250943
20
22.6571274355
0
VERTEX
8
___SYMBOL
62
7
6
CONTINUOUS
10
34.5494248500
20
22.6581075102
0
VERTEX
8
___SYMBOL
62
7
6
CONTINUOUS
10
34.5474689806
20
22.6590989437
0
VERTEX
8
___SYMBOL
62
7
6
CONTINUOUS
10
34.5454738130
20
22.6600365895
0
VERTEX
8
___SYMBOL
62
7
6
CONTINUOUS
10
34.5434417122
20
22.6609198265
0
VERTEX
8
___SYMBOL
62
7
6
CONTINUOUS
10
34.5413750435
20
22.6617480333
0
VERTEX
8
___SYMBOL
62
7
6
CONTINUOUS
10
34.5392761719
20
22.6625205890
0
VERTEX
8
___SYMBOL
62
7
6
CONTINUOUS
10
34.5371474627
20
22.6632368722
0
VERTEX
8
___SYMBOL
62
7
6
CONTINUOUS
10
34.5349912808
20
22.6638962619
0
VERTEX
8
___SYMBOL
62
7
6
CONTINUOUS
10
34.5328099915
20
22.6644981368
0
VERTEX
8
___SYMBOL
62
7
6
CONTINUOUS
10
34.5306059598
20
22.6650418758
0
VERTEX
8
___SYMBOL
62
7
6
CONTINUOUS
10
34.5283815510
20
22.6655268577
0
VERTEX
8
___SYMBOL
62
7
6
CONTINUOUS
10
34.5261391302
20
22.6659524613
0
VERTEX
8
___SYMBOL
62
7
6
CONTINUOUS
10
34.5238810624
20
22.6663180654
0
VERTEX
8
___SYMBOL
62
7
6
CONTINUOUS
10
34.5216097129
20
22.6666230490
0
VERTEX
8
___SYMBOL
62
7
6
CONTINUOUS
10
34.5193274467
20
22.6668667907
0
VERTEX
8
___SYMBOL
62
7
6
CONTINUOUS
10
34.5175938045
20
22.6670102073
0
SEQEND
0
LINE
8
___SYMBOL
62
7
6
CONTINUOUS
10
33.8010825888
20
22.2001102073
11
32.8680025888
21
22.2001102073
0
LINE
8
___SYMBOL
62
7
6
CONTINUOUS
10
32.8680025888
20
22.2001102073
11
32.8437625888
21
22.3084602073
0
LINE
8
___SYMBOL
62
7
6
CONTINUOUS
10
32.8437625888
20
22.3084602073
11
32.8965125888
21
22.3654902073
0
LINE
8
___SYMBOL
62
7
6
CONTINUOUS
10
32.8965125888
20
22.3654902073
11
32.8680025888
21
22.4823902073
0
LINE
8
___SYMBOL
62
7
6
CONTINUOUS
10
32.8680025888
20
22.4823902073
11
32.9407025888
21
22.5280102073
0
LINE
8
___SYMBOL
62
7
6
CONTINUOUS
10
32.9407025888
20
22.5280102073
11
32.9435525888
21
22.6206802073
0
LINE
8
___SYMBOL
62
7
6
CONTINUOUS
10
32.9435525888
20
22.6206802073
11
33.0348025888
21
22.6670102073
0
LINE
8
___SYMBOL
62
7
6
CONTINUOUS
10
33.0348025888
20
22.6670102073
11
34.5175938045
21
22.6670102073
0
LINE
8
___SYMBOL
62
7
6
CONTINUOUS
10
33.8916025888
20
22.2001102073
11
34.5816125888
21
22.2001102073
0
LINE
8
___SYMBOL
62
7
6
CONTINUOUS
10
34.5816125888
20
22.2001102073
11
34.5816125888
21
22.6070102073
0
LINE
8
___SYMBOL
62
2
6
CONTINUOUS
10
34.5260125888
20
22.2001102073
11
34.5816125888
21
22.2500102073
0
LINE
8
___SYMBOL
62
2
6
CONTINUOUS
10
34.3385566474
20
22.2001102073
11
34.5816125888
21
22.4182402073
0
LINE
8
___SYMBOL
62
2
6
CONTINUOUS
10
34.2305345888
20
22.2001102073
11
34.5816125888
21
22.5151802073
0
LINE
8
___SYMBOL
62
2
6
CONTINUOUS
10
34.1304608752
20
22.2001102073
11
34.5816125888
21
22.6049902073
0
LINE
8
___SYMBOL
62
2
6
CONTINUOUS
10
34.0207627706
20
22.2001102073
11
34.5451197858
21
22.6601955511
0
LINE
8
___SYMBOL
62
2
6
CONTINUOUS
10
33.9436425888
20
22.2333602073
11
34.4268577384
21
22.6670102073
0
LINE
8
___SYMBOL
62
2
6
CONTINUOUS
10
33.9436425888
20
22.3401402073
11
34.3078729036
21
22.6670102073
0
LINE
8
___SYMBOL
62
2
6
CONTINUOUS
10
33.9436425888
20
22.4403302073
11
34.1962245967
21
22.6670102073
0
LINE
8
___SYMBOL
62
2
6
CONTINUOUS
10
33.4568605892
20
22.2001102073
11
33.7440525888
21
22.4578454789
0
LINE
8
___SYMBOL
62
2
6
CONTINUOUS
10
33.3452180488
20
22.2001102073
11
33.8654745919
21
22.6670102073
0
LINE
8
___SYMBOL
62
2
6
CONTINUOUS
10
33.2368722959
20
22.2001102073
11
33.7571334544
21
22.6670102073
0
LINE
8
___SYMBOL
62
2
6
CONTINUOUS
10
33.8576725888
20
22.4604202073
11
34.0878708662
21
22.6670102073
0
LINE
8
___SYMBOL
62
2
6
CONTINUOUS
10
33.6759574148
20
22.2001102073
11
33.7440525888
21
22.2612202073
0
LINE
8
___SYMBOL
62
2
6
CONTINUOUS
10
33.1275405892
20
22.2001102073
11
33.6478028870
21
22.6670102073
0
LINE
8
___SYMBOL
62
2
6
CONTINUOUS
10
33.0158816564
20
22.2001102073
11
33.5366225888
21
22.6674302073
0
LINE
8
___SYMBOL
62
2
6
CONTINUOUS
10
32.9075422959
20
22.2001102073
11
33.4278034544
21
22.6670102073
0
LINE
8
___SYMBOL
62
2
6
CONTINUOUS
10
32.8553795124
20
22.2565339006
11
33.3127729086
21
22.6670102073
0
LINE
8
___SYMBOL
62
2
6
CONTINUOUS
10
32.8908798501
20
22.3885862144
11
33.2011245875
21
22.6670102073
0
LINE
8
___SYMBOL
62
2
6
CONTINUOUS
10
32.9407822893
20
22.5306017319
11
33.0927835267
21
22.6670102073
0
LINE
8
___SYMBOL
62
7
6
CONTINUOUS
10
33.8010825888
20
21.9482502073
11
33.8916025888
21
21.9482502073
0
LINE
8
___SYMBOL
62
2
6
CONTINUOUS
10
33.5677814305
20
22.2001102073
11
33.7440525888
21
22.3583002073
0
LINE
8
___SYMBOL
62
2
6
CONTINUOUS
10
33.7467767268
20
22.4602902073
11
33.9771228870
21
22.6670102073
0
LINE
8
___SYMBOL
62
7
6
CONTINUOUS
10
33.7440525888
20
22.4602902073
11
33.7440525888
21
22.2001102073
0
LINE
8
___SYMBOL
62
7
6
CONTINUOUS
10
34.5090902366
20
22.0932002073
11
34.4295425888
21
21.9850802073
0
LINE
8
___SYMBOL
62
7
6
CONTINUOUS
10
34.4115487921
20
22.0247963854
11
34.4613341579
21
22.0932002073
0
LINE
8
___SYMBOL
62
7
6
CONTINUOUS
10
34.7593135401
20
21.3090902073
11
34.7593135401
21
22.0100302073
0
POLYLINE
8
___SYMBOL
62
7
6
CONTINUOUS
66
1
70
0
0
VERTEX
8
___SYMBOL
62
7
6
CONTINUOUS
10
34.7593162958
20
22.0100293398
0
VERTEX
8
___SYMBOL
62
7
6
CONTINUOUS
10
34.7592529484
20
22.0141691469
0
VERTEX
8
___SYMBOL
62
7
6
CONTINUOUS
10
34.7590636245
20
22.0183024701
0
VERTEX
8
___SYMBOL
62
7
6
CONTINUOUS
10
34.7587493673
20
22.0224250954
0
VERTEX
8
___SYMBOL
62
7
6
CONTINUOUS
10
34.7583112199
20
22.0265328091
0
VERTEX
8
___SYMBOL
62
7
6
CONTINUOUS
10
34.7577502252
20
22.0306213971
0
VERTEX
8
___SYMBOL
62
7
6
CONTINUOUS
10
34.7570674263
20
22.0346866456
0
VERTEX
8
___SYMBOL
62
7
6
CONTINUOUS
10
34.7562638663
20
22.0387243406
0
VERTEX
8
___SYMBOL
62
7
6
CONTINUOUS
10
34.7553405882
20
22.0427302683
0
VERTEX
8
___SYMBOL
62
7
6
CONTINUOUS
10
34.7542986351
20
22.0467002147
0
VERTEX
8
___SYMBOL
62
7
6
CONTINUOUS
10
34.7531390500
20
22.0506299659
0
VERTEX
8
___SYMBOL
62
7
6
CONTINUOUS
10
34.7518628760
20
22.0545153080
0
VERTEX
8
___SYMBOL
62
7
6
CONTINUOUS
10
34.7504711562
20
22.0583520271
0
VERTEX
8
___SYMBOL
62
7
6
CONTINUOUS
10
34.7489649335
20
22.0621359092
0
VERTEX
8
___SYMBOL
62
7
6
CONTINUOUS
10
34.7473452510
20
22.0658627405
0
VERTEX
8
___SYMBOL
62
7
6
CONTINUOUS
10
34.7456131519
20
22.0695283071
0
VERTEX
8
___SYMBOL
62
7
6
CONTINUOUS
10
34.7437696790
20
22.0731283950
0
VERTEX
8
___SYMBOL
62
7
6
CONTINUOUS
10
34.7418161799
20
22.0766589755
0
VERTEX
8
___SYMBOL
62
7
6
CONTINUOUS
10
34.7397552188
20
22.0801167606
0
VERTEX
8
___SYMBOL
62
7
6
CONTINUOUS
10
34.7375896645
20
22.0834986477
0
VERTEX
8
___SYMBOL
62
7
6
CONTINUOUS
10
34.7353223858
20
22.0868015338
0
VERTEX
8
___SYMBOL
62
7
6
CONTINUOUS
10
34.7329562512
20
22.0900223163
0
VERTEX
8
___SYMBOL
62
7
6
CONTINUOUS
10
34.7304941296
20
22.0931578924
0
VERTEX
8
___SYMBOL
62
7
6
CONTINUOUS
10
34.7279388896
20
22.0962051593
0
VERTEX
8
___SYMBOL
62
7
6
CONTINUOUS
10
34.7252933999
20
22.0991610142
0
VERTEX
8
___SYMBOL
62
7
6
CONTINUOUS
10
34.7225605292
20
22.1020223543
0
VERTEX
8
___SYMBOL
62
7
6
CONTINUOUS
10
34.7197431463
20
22.1047860770
0
VERTEX
8
___SYMBOL
62
7
6
CONTINUOUS
10
34.7168441198
20
22.1074490793
0
VERTEX
8
___SYMBOL
62
7
6
CONTINUOUS
10
34.7138663185
20
22.1100082587
0
VERTEX
8
___SYMBOL
62
7
6
CONTINUOUS
10
34.7108126110
20
22.1124605121
0
VERTEX
8
___SYMBOL
62
7
6
CONTINUOUS
10
34.7076858661
20
22.1148027370
0
VERTEX
8
___SYMBOL
62
7
6
CONTINUOUS
10
34.7044889524
20
22.1170318305
0
VERTEX
8
___SYMBOL
62
7
6
CONTINUOUS
10
34.7012247388
20
22.1191446899
0
VERTEX
8
___SYMBOL
62
7
6
CONTINUOUS
10
34.6980937713
20
22.1210245798
0
VERTEX
8
___SYMBOL
62
7
6
CONTINUOUS
10
34.6949089779
20
22.1227978189
0
VERTEX
8
___SYMBOL
62
7
6
CONTINUOUS
10
34.6916736065
20
22.1244634669
0
VERTEX
8
___SYMBOL
62
7
6
CONTINUOUS
10
34.6883909052
20
22.1260205832
0
VERTEX
8
___SYMBOL
62
7
6
CONTINUOUS
10
34.6850641222
20
22.1274682273
0
VERTEX
8
___SYMBOL
62
7
6
CONTINUOUS
10
34.6816965055
20
22.1288054587
0
VERTEX
8
___SYMBOL
62
7
6
CONTINUOUS
10
34.6782913033
20
22.1300313369
0
VERTEX
8
___SYMBOL
62
7
6
CONTINUOUS
10
34.6748517636
20
22.1311449215
0
VERTEX
8
___SYMBOL
62
7
6
CONTINUOUS
10
34.6713811344
20
22.1321452719
0
VERTEX
8
___SYMBOL
62
7
6
CONTINUOUS
10
34.6678826640
20
22.1330314476
0
VERTEX
8
___SYMBOL
62
7
6
CONTINUOUS
10
34.6643596003
20
22.1338025082
0
VERTEX
8
___SYMBOL
62
7
6
CONTINUOUS
10
34.6608151915
20
22.1344575131
0
VERTEX
8
___SYMBOL
62
7
6
CONTINUOUS
10
34.6572526857
20
22.1349955219
0
VERTEX
8
___SYMBOL
62
7
6
CONTINUOUS
10
34.6536753309
20
22.1354155940
0
VERTEX
8
___SYMBOL
62
7
6
CONTINUOUS
10
34.6500863753
20
22.1357167890
0
VERTEX
8
___SYMBOL
62
7
6
CONTINUOUS
10
34.6464890669
20
22.1358981664
0
VERTEX
8
___SYMBOL
62
7
6
CONTINUOUS
10
34.6428866538
20
22.1359587856
0
SEQEND
0
LINE
8
___SYMBOL
62
7
6
CONTINUOUS
10
34.7189235401
20
21.2957502073
11
34.7189235401
21
22.0076502073
0
POLYLINE
8
___SYMBOL
62
7
6
CONTINUOUS
66
1
70
0
0
VERTEX
8
___SYMBOL
62
7
6
CONTINUOUS
10
34.7189234202
20
22.0076513670
0
VERTEX
8
___SYMBOL
62
7
6
CONTINUOUS
10
34.7188822614
20
22.0104798540
0
VERTEX
8
___SYMBOL
62
7
6
CONTINUOUS
10
34.7187592499
20
22.0133023959
0
VERTEX
8
___SYMBOL
62
7
6
CONTINUOUS
10
34.7185550485
20
22.0161161881
0
VERTEX
8
___SYMBOL
62
7
6
CONTINUOUS
10
34.7182703200
20
22.0189184258
0
VERTEX
8
___SYMBOL
62
7
6
CONTINUOUS
10
34.7179057272
20
22.0217063044
0
VERTEX
8
___SYMBOL
62
7
6
CONTINUOUS
10
34.7174619330
20
22.0244770192
0
VERTEX
8
___SYMBOL
62
7
6
CONTINUOUS
10
34.7169396002
20
22.0272277654
0
VERTEX
8
___SYMBOL
62
7
6
CONTINUOUS
10
34.7163393916
20
22.0299557385
0
VERTEX
8
___SYMBOL
62
7
6
CONTINUOUS
10
34.7156619700
20
22.0326581338
0
VERTEX
8
___SYMBOL
62
7
6
CONTINUOUS
10
34.7149079983
20
22.0353321465
0
VERTEX
8
___SYMBOL
62
7
6
CONTINUOUS
10
34.7140781393
20
22.0379749719
0
VERTEX
8
___SYMBOL
62
7
6
CONTINUOUS
10
34.7131730558
20
22.0405838055
0
VERTEX
8
___SYMBOL
62
7
6
CONTINUOUS
10
34.7121934106
20
22.0431558425
0
VERTEX
8
___SYMBOL
62
7
6
CONTINUOUS
10
34.7111398666
20
22.0456882782
0
VERTEX
8
___SYMBOL
62
7
6
CONTINUOUS
10
34.7100130866
20
22.0481783079
0
VERTEX
8
___SYMBOL
62
7
6
CONTINUOUS
10
34.7088137335
20
22.0506231270
0
VERTEX
8
___SYMBOL
62
7
6
CONTINUOUS
10
34.7075426639
20
22.0530200558
0
VERTEX
8
___SYMBOL
62
7
6
CONTINUOUS
10
34.7062015107
20
22.0553669141
0
VERTEX
8
___SYMBOL
62
7
6
CONTINUOUS
10
34.7047921005
20
22.0576616468
0
VERTEX
8
___SYMBOL
62
7
6
CONTINUOUS
10
34.7033162600
20
22.0599021989
0
VERTEX
8
___SYMBOL
62
7
6
CONTINUOUS
10
34.7017758157
20
22.0620865151
0
VERTEX
8
___SYMBOL
62
7
6
CONTINUOUS
10
34.7001725945
20
22.0642125404
0
VERTEX
8
___SYMBOL
62
7
6
CONTINUOUS
10
34.6985084230
20
22.0662782197
0
VERTEX
8
___SYMBOL
62
7
6
CONTINUOUS
10
34.6967851279
20
22.0682814978
0
VERTEX
8
___SYMBOL
62
7
6
CONTINUOUS
10
34.6950045357
20
22.0702203195
0
VERTEX
8
___SYMBOL
62
7
6
CONTINUOUS
10
34.6931684733
20
22.0720926299
0
VERTEX
8
___SYMBOL
62
7
6
CONTINUOUS
10
34.6912787673
20
22.0738963736
0
VERTEX
8
___SYMBOL
62
7
6
CONTINUOUS
10
34.6893372443
20
22.0756294957
0
VERTEX
8
___SYMBOL
62
7
6
CONTINUOUS
10
34.6873457310
20
22.0772899410
0
VERTEX
8
___SYMBOL
62
7
6
CONTINUOUS
10
34.6853060541
20
22.0788756544
0
VERTEX
8
___SYMBOL
62
7
6
CONTINUOUS
10
34.6832200402
20
22.0803845807
0
VERTEX
8
___SYMBOL
62
7
6
CONTINUOUS
10
34.6810895161
20
22.0818146648
0
VERTEX
8
___SYMBOL
62
7
6
CONTINUOUS
10
34.6790453856
20
22.0830869458
0
VERTEX
8
___SYMBOL
62
7
6
CONTINUOUS
10
34.6769655238
20
22.0842869451
0
VERTEX
8
___SYMBOL
62
7
6
CONTINUOUS
10
34.6748520092
20
22.0854140409
0
VERTEX
8
___SYMBOL
62
7
6
CONTINUOUS
10
34.6727069202
20
22.0864676114
0
VERTEX
8
___SYMBOL
62
7
6
CONTINUOUS
10
34.6705323352
20
22.0874470349
0
VERTEX
8
___SYMBOL
62
7
6
CONTINUOUS
10
34.6683303327
20
22.0883516894
0
VERTEX
8
___SYMBOL
62
7
6
CONTINUOUS
10
34.6661029910
20
22.0891809532
0
VERTEX
8
___SYMBOL
62
7
6
CONTINUOUS
10
34.6638523887
20
22.0899342045
0
VERTEX
8
___SYMBOL
62
7
6
CONTINUOUS
10
34.6615806042
20
22.0906108216
0
VERTEX
8
___SYMBOL
62
7
6
CONTINUOUS
10
34.6592897158
20
22.0912101825
0
VERTEX
8
___SYMBOL
62
7
6
CONTINUOUS
10
34.6569818020
20
22.0917316656
0
VERTEX
8
___SYMBOL
62
7
6
CONTINUOUS
10
34.6546589412
20
22.0921746489
0
VERTEX
8
___SYMBOL
62
7
6
CONTINUOUS
10
34.6523232119
20
22.0925385107
0
VERTEX
8
___SYMBOL
62
7
6
CONTINUOUS
10
34.6499766926
20
22.0928226293
0
VERTEX
8
___SYMBOL
62
7
6
CONTINUOUS
10
34.6476214615
20
22.0930263827
0
VERTEX
8
___SYMBOL
62
7
6
CONTINUOUS
10
34.6452595972
20
22.0931491493
0
VERTEX
8
___SYMBOL
62
7
6
CONTINUOUS
10
34.6428931781
20
22.0931903071
0
SEQEND
0
LINE
8
___SYMBOL
62
7
6
CONTINUOUS
10
34.6428935401
20
22.0931902073
11
34.2294535401
21
22.0931902073
0
LINE
8
___SYMBOL
62
7
6
CONTINUOUS
10
34.2294535401
20
22.0931902073
11
34.2294535401
21
22.1359602073
0
LINE
8
___SYMBOL
62
7
6
CONTINUOUS
10
34.2294535401
20
22.1359602073
11
34.6428935401
21
22.1359602073
0
LINE
8
___SYMBOL
62
2
6
CONTINUOUS
10
34.6763053038
20
22.0846487900
11
34.7084041257
21
22.1142792283
0
LINE
8
___SYMBOL
62
7
6
CONTINUOUS
10
34.2667935401
20
22.1430902073
11
34.2637335401
21
22.1492002073
0
LINE
8
___SYMBOL
62
7
6
CONTINUOUS
10
34.2637335401
20
22.1492002073
11
34.2596635401
21
22.1502102073
0
LINE
8
___SYMBOL
62
7
6
CONTINUOUS
10
34.2596635401
20
22.1502102073
11
34.2555935401
21
22.1522502073
0
LINE
8
___SYMBOL
62
7
6
CONTINUOUS
10
34.2555935401
20
22.1522502073
11
34.2515135401
21
22.1563302073
0
LINE
8
___SYMBOL
62
7
6
CONTINUOUS
10
34.2515135401
20
22.1563302073
11
34.2464235401
21
22.1553102073
0
LINE
8
___SYMBOL
62
7
6
CONTINUOUS
10
34.3716835401
20
22.1461402073
11
34.3757535401
21
22.1481802073
0
LINE
8
___SYMBOL
62
7
6
CONTINUOUS
10
34.3757535401
20
22.1481802073
11
34.3798235401
21
22.1492002073
0
LINE
8
___SYMBOL
62
7
6
CONTINUOUS
10
34.3798235401
20
22.1492002073
11
34.3879735401
21
22.1451202073
0
LINE
8
___SYMBOL
62
7
6
CONTINUOUS
10
34.3879735401
20
22.1451202073
11
34.3920435401
21
22.1451202073
0
LINE
8
___SYMBOL
62
7
6
CONTINUOUS
10
34.5124835401
20
22.1471602073
11
34.5185935401
21
22.1502102073
0
LINE
8
___SYMBOL
62
7
6
CONTINUOUS
10
34.5185935401
20
22.1502102073
11
34.5287735401
21
22.1471602073
0
LINE
8
___SYMBOL
62
7
6
CONTINUOUS
10
34.5055335401
20
22.1848402073
11
34.5014635401
21
22.1848402073
0
LINE
8
___SYMBOL
62
7
6
CONTINUOUS
10
34.5014635401
20
22.1848402073
11
34.4902635401
21
22.1929902073
0
LINE
8
___SYMBOL
62
7
6
CONTINUOUS
10
34.4902635401
20
22.1929902073
11
34.4821135401
21
22.1929902073
0
LINE
8
___SYMBOL
62
7
6
CONTINUOUS
10
34.4821135401
20
22.1929902073
11
34.4821135401
21
22.1868702073
0
LINE
8
___SYMBOL
62
7
6
CONTINUOUS
10
34.3747335401
20
22.1868702073
11
34.3747335401
21
22.1919702073
0
LINE
8
___SYMBOL
62
7
6
CONTINUOUS
10
34.3747335401
20
22.1919702073
11
34.3788035401
21
22.1929902073
0
LINE
8
___SYMBOL
62
7
6
CONTINUOUS
10
34.3788035401
20
22.1929902073
11
34.3828835401
21
22.1919702073
0
LINE
8
___SYMBOL
62
7
6
CONTINUOUS
10
34.3828835401
20
22.1919702073
11
34.3879735401
21
22.1848402073
0
LINE
8
___SYMBOL
62
7
6
CONTINUOUS
10
34.3879735401
20
22.1848402073
11
34.3930635401
21
22.1828002073
0
LINE
8
___SYMBOL
62
7
6
CONTINUOUS
10
34.3930635401
20
22.1828002073
11
34.3981535401
21
22.1828002073
0
POLYLINE
8
___SYMBOL
62
7
6
CONTINUOUS
66
1
70
0
0
VERTEX
8
___SYMBOL
62
7
6
CONTINUOUS
10
34.2382763937
20
22.1369812771
0
VERTEX
8
___SYMBOL
62
7
6
CONTINUOUS
10
34.2366011101
20
22.1384569168
0
VERTEX
8
___SYMBOL
62
7
6
CONTINUOUS
10
34.2349716310
20
22.1399144019
0
VERTEX
8
___SYMBOL
62
7
6
CONTINUOUS
10
34.2333876863
20
22.1413538971
0
VERTEX
8
___SYMBOL
62
7
6
CONTINUOUS
10
34.2318490058
20
22.1427755674
0
VERTEX
8
___SYMBOL
62
7
6
CONTINUOUS
10
34.2303553196
20
22.1441795775
0
VERTEX
8
___SYMBOL
62
7
6
CONTINUOUS
10
34.2289063573
20
22.1455660922
0
VERTEX
8
___SYMBOL
62
7
6
CONTINUOUS
10
34.2275018488
20
22.1469352764
0
VERTEX
8
___SYMBOL
62
7
6
CONTINUOUS
10
34.2261415241
20
22.1482872947
0
VERTEX
8
___SYMBOL
62
7
6
CONTINUOUS
10
34.2248251129
20
22.1496223121
0
VERTEX
8
___SYMBOL
62
7
6
CONTINUOUS
10
34.2235523452
20
22.1509404933
0
VERTEX
8
___SYMBOL
62
7
6
CONTINUOUS
10
34.2223229507
20
22.1522420031
0
VERTEX
8
___SYMBOL
62
7
6
CONTINUOUS
10
34.2211366594
20
22.1535270064
0
VERTEX
8
___SYMBOL
62
7
6
CONTINUOUS
10
34.2199932011
20
22.1547956679
0
VERTEX
8
___SYMBOL
62
7
6
CONTINUOUS
10
34.2188923057
20
22.1560481524
0
VERTEX
8
___SYMBOL
62
7
6
CONTINUOUS
10
34.2178337030
20
22.1572846248
0
VERTEX
8
___SYMBOL
62
7
6
CONTINUOUS
10
34.2168171229
20
22.1585052498
0
VERTEX
8
___SYMBOL
62
7
6
CONTINUOUS
10
34.2158422952
20
22.1597101922
0
VERTEX
8
___SYMBOL
62
7
6
CONTINUOUS
10
34.2149089498
20
22.1608996169
0
VERTEX
8
___SYMBOL
62
7
6
CONTINUOUS
10
34.2140168165
20
22.1620736887
0
VERTEX
8
___SYMBOL
62
7
6
CONTINUOUS
10
34.2131656253
20
22.1632325723
0
VERTEX
8
___SYMBOL
62
7
6
CONTINUOUS
10
34.2123551060
20
22.1643764325
0
VERTEX
8
___SYMBOL
62
7
6
CONTINUOUS
10
34.2115850173
20
22.1655054229
0
VERTEX
8
___SYMBOL
62
7
6
CONTINUOUS
10
34.2108552342
20
22.1666196512
0
VERTEX
8
___SYMBOL
62
7
6
CONTINUOUS
10
34.2101656602
20
22.1677192139
0
VERTEX
8
___SYMBOL
62
7
6
CONTINUOUS
10
34.2095161992
20
22.1688042076
0
VERTEX
8
___SYMBOL
62
7
6
CONTINUOUS
10
34.2089067549
20
22.1698747287
0
VERTEX
8
___SYMBOL
62
7
6
CONTINUOUS
10
34.2083372310
20
22.1709308737
0
VERTEX
8
___SYMBOL
62
7
6
CONTINUOUS
10
34.2078075313
20
22.1719727391
0
VERTEX
8
___SYMBOL
62
7
6
CONTINUOUS
10
34.2073175596
20
22.1730004215
0
VERTEX
8
___SYMBOL
62
7
6
CONTINUOUS
10
34.2068672194
20
22.1740140172
0
VERTEX
8
___SYMBOL
62
7
6
CONTINUOUS
10
34.2064564147
20
22.1750136229
0
VERTEX
8
___SYMBOL
62
7
6
CONTINUOUS
10
34.2060850490
20
22.1759993349
0
VERTEX
8
___SYMBOL
62
7
6
CONTINUOUS
10
34.2057530263
20
22.1769712498
0
VERTEX
8
___SYMBOL
62
7
6
CONTINUOUS
10
34.2054602502
20
22.1779294641
0
VERTEX
8
___SYMBOL
62
7
6
CONTINUOUS
10
34.2052066244
20
22.1788740743
0
VERTEX
8
___SYMBOL
62
7
6
CONTINUOUS
10
34.2049600809
20
22.1799590541
0
VERTEX
8
___SYMBOL
62
7
6
CONTINUOUS
10
34.2047665415
20
22.1810258017
0
VERTEX
8
___SYMBOL
62
7
6
CONTINUOUS
10
34.2046258533
20
22.1820744704
0
VERTEX
8
___SYMBOL
62
7
6
CONTINUOUS
10
34.2045378635
20
22.1831052134
0
VERTEX
8
___SYMBOL
62
7
6
CONTINUOUS
10
34.2045024193
20
22.1841181839
0
VERTEX
8
___SYMBOL
62
7
6
CONTINUOUS
10
34.2045193677
20
22.1851135351
0
VERTEX
8
___SYMBOL
62
7
6
CONTINUOUS
10
34.2045885956
20
22.1860914070
0
VERTEX
8
___SYMBOL
62
7
6
CONTINUOUS
10
34.2047101490
20
22.1870518855
0
VERTEX
8
___SYMBOL
62
7
6
CONTINUOUS
10
34.2048841135
20
22.1879950437
0
VERTEX
8
___SYMBOL
62
7
6
CONTINUOUS
10
34.2051105748
20
22.1889209543
0
VERTEX
8
___SYMBOL
62
7
6
CONTINUOUS
10
34.2053896184
20
22.1898296901
0
VERTEX
8
___SYMBOL
62
7
6
CONTINUOUS
10
34.2057213301
20
22.1907213240
0
VERTEX
8
___SYMBOL
62
7
6
CONTINUOUS
10
34.2061057955
20
22.1915959286
0
VERTEX
8
___SYMBOL
62
7
6
CONTINUOUS
10
34.2065431002
20
22.1924535770
0
VERTEX
8
___SYMBOL
62
7
6
CONTINUOUS
10
34.2070333299
20
22.1932943418
0
VERTEX
8
___SYMBOL
62
7
6
CONTINUOUS
10
34.2075765703
20
22.1941182959
0
VERTEX
8
___SYMBOL
62
7
6
CONTINUOUS
10
34.2081729069
20
22.1949255121
0
VERTEX
8
___SYMBOL
62
7
6
CONTINUOUS
10
34.2088224254
20
22.1957160632
0
VERTEX
8
___SYMBOL
62
7
6
CONTINUOUS
10
34.2095252115
20
22.1964900221
0
VERTEX
8
___SYMBOL
62
7
6
CONTINUOUS
10
34.2102813509
20
22.1972474615
0
VERTEX
8
___SYMBOL
62
7
6
CONTINUOUS
10
34.2110909291
20
22.1979884542
0
VERTEX
8
___SYMBOL
62
7
6
CONTINUOUS
10
34.2119540318
20
22.1987130731
0
VERTEX
8
___SYMBOL
62
7
6
CONTINUOUS
10
34.2128707447
20
22.1994213909
0
VERTEX
8
___SYMBOL
62
7
6
CONTINUOUS
10
34.2138411534
20
22.2001134806
0
SEQEND
0
LINE
8
___SYMBOL
62
7
6
CONTINUOUS
10
34.5400768625
20
22.2001102073
11
34.5563435401
21
22.1919702073
0
LINE
8
___SYMBOL
62
7
6
CONTINUOUS
10
34.5563435401
20
22.1919702073
11
34.5594035401
21
22.1878902073
0
LINE
8
___SYMBOL
62
7
6
CONTINUOUS
10
34.5594035401
20
22.1878902073
11
34.5614435401
21
22.1797502073
0
LINE
8
___SYMBOL
62
7
6
CONTINUOUS
10
34.5614435401
20
22.1797502073
11
34.5614435401
21
22.1736402073
0
LINE
8
___SYMBOL
62
7
6
CONTINUOUS
10
34.5614435401
20
22.1736402073
11
34.5604235401
21
22.1685502073
0
LINE
8
___SYMBOL
62
7
6
CONTINUOUS
10
34.5604235401
20
22.1685502073
11
34.5522735401
21
22.1634502073
0
LINE
8
___SYMBOL
62
7
6
CONTINUOUS
10
34.5522735401
20
22.1634502073
11
34.5400535401
21
22.1624302073
0
LINE
8
___SYMBOL
62
7
6
CONTINUOUS
10
34.5400535401
20
22.1624302073
11
34.5278335401
21
22.1593802073
0
LINE
8
___SYMBOL
62
7
6
CONTINUOUS
10
34.5278335401
20
22.1593802073
11
34.5207035401
21
22.1593802073
0
LINE
8
___SYMBOL
62
7
6
CONTINUOUS
10
34.5207035401
20
22.1593802073
11
34.5125635401
21
22.1573402073
0
LINE
8
___SYMBOL
62
7
6
CONTINUOUS
10
34.5125635401
20
22.1573402073
11
34.4850635401
21
22.1573402073
0
LINE
8
___SYMBOL
62
7
6
CONTINUOUS
10
34.4850635401
20
22.1573402073
11
34.4807844985
21
22.1587696688
0
LINE
8
___SYMBOL
62
7
6
CONTINUOUS
10
34.4807844985
20
22.1587696688
11
34.4358335401
21
22.1573402073
0
LINE
8
___SYMBOL
62
7
6
CONTINUOUS
10
34.4358335401
20
22.1573402073
11
34.4266635401
21
22.1593802073
0
LINE
8
___SYMBOL
62
7
6
CONTINUOUS
10
34.4266635401
20
22.1593802073
11
34.3879735401
21
22.1634502073
0
LINE
8
___SYMBOL
62
7
6
CONTINUOUS
10
34.3879735401
20
22.1634502073
11
34.3788035401
21
22.1573402073
0
LINE
8
___SYMBOL
62
7
6
CONTINUOUS
10
34.3788035401
20
22.1573402073
11
34.3737135401
21
22.1553102073
0
LINE
8
___SYMBOL
62
7
6
CONTINUOUS
10
34.3737135401
20
22.1553102073
11
34.3401135401
21
22.1522502073
0
LINE
8
___SYMBOL
62
7
6
CONTINUOUS
10
34.3401135401
20
22.1522502073
11
34.2922535401
21
22.1542902073
0
LINE
8
___SYMBOL
62
7
6
CONTINUOUS
10
34.2922535401
20
22.1542902073
11
34.2820735401
21
22.1542902073
0
LINE
8
___SYMBOL
62
7
6
CONTINUOUS
10
34.2820735401
20
22.1542902073
11
34.2718835401
21
22.1563302073
0
LINE
8
___SYMBOL
62
7
6
CONTINUOUS
10
34.2718835401
20
22.1563302073
11
34.2576235401
21
22.1644702073
0
LINE
8
___SYMBOL
62
7
6
CONTINUOUS
10
34.2576235401
20
22.1644702073
11
34.2566135401
21
22.1685502073
0
LINE
8
___SYMBOL
62
7
6
CONTINUOUS
10
34.2566135401
20
22.1685502073
11
34.2464235401
21
22.1716002073
0
LINE
8
___SYMBOL
62
7
6
CONTINUOUS
10
34.2464235401
20
22.1716002073
11
34.2342035401
21
22.1817802073
0
LINE
8
___SYMBOL
62
7
6
CONTINUOUS
10
34.2342035401
20
22.1817802073
11
34.2311535401
21
22.1858602073
0
LINE
8
___SYMBOL
62
7
6
CONTINUOUS
10
34.2311535401
20
22.1858602073
11
34.2311535401
21
22.1919702073
0
LINE
8
___SYMBOL
62
7
6
CONTINUOUS
10
34.2311535401
20
22.1919702073
11
34.2331835401
21
22.1960402073
0
LINE
8
___SYMBOL
62
7
6
CONTINUOUS
10
34.2331835401
20
22.1960402073
11
34.2382835401
21
22.2001102073
0
POLYLINE
8
___SYMBOL
62
7
6
CONTINUOUS
66
1
70
0
0
VERTEX
8
___SYMBOL
62
7
6
CONTINUOUS
10
34.4429573237
20
22.1777149334
0
VERTEX
8
___SYMBOL
62
7
6
CONTINUOUS
10
34.4427535689
20
22.1779445234
0
VERTEX
8
___SYMBOL
62
7
6
CONTINUOUS
10
34.4425423056
20
22.1781672187
0
VERTEX
8
___SYMBOL
62
7
6
CONTINUOUS
10
34.4423238064
20
22.1783828333
0
VERTEX
8
___SYMBOL
62
7
6
CONTINUOUS
10
34.4420983440
20
22.1785911810
0
VERTEX
8
___SYMBOL
62
7
6
CONTINUOUS
10
34.4418661911
20
22.1787920760
0
VERTEX
8
___SYMBOL
62
7
6
CONTINUOUS
10
34.4416276203
20
22.1789853320
0
VERTEX
8
___SYMBOL
62
7
6
CONTINUOUS
10
34.4413829043
20
22.1791707630
0
VERTEX
8
___SYMBOL
62
7
6
CONTINUOUS
10
34.4411323159
20
22.1793481830
0
VERTEX
8
___SYMBOL
62
7
6
CONTINUOUS
10
34.4408761277
20
22.1795174060
0
VERTEX
8
___SYMBOL
62
7
6
CONTINUOUS
10
34.4406146123
20
22.1796782458
0
VERTEX
8
___SYMBOL
62
7
6
CONTINUOUS
10
34.4403480425
20
22.1798305165
0
VERTEX
8
___SYMBOL
62
7
6
CONTINUOUS
10
34.4400766910
20
22.1799740320
0
VERTEX
8
___SYMBOL
62
7
6
CONTINUOUS
10
34.4398008304
20
22.1801086062
0
VERTEX
8
___SYMBOL
62
7
6
CONTINUOUS
10
34.4395207333
20
22.1802340530
0
VERTEX
8
___SYMBOL
62
7
6
CONTINUOUS
10
34.4392366726
20
22.1803501865
0
VERTEX
8
___SYMBOL
62
7
6
CONTINUOUS
10
34.4389489208
20
22.1804568206
0
VERTEX
8
___SYMBOL
62
7
6
CONTINUOUS
10
34.4386577606
20
22.1805537959
0
VERTEX
8
___SYMBOL
62
7
6
CONTINUOUS
10
34.4383635143
20
22.1806410602
0
VERTEX
8
___SYMBOL
62
7
6
CONTINUOUS
10
34.4380665143
20
22.1807185880
0
VERTEX
8
___SYMBOL
62
7
6
CONTINUOUS
10
34.4377670927
20
22.1807863537
0
VERTEX
8
___SYMBOL
62
7
6
CONTINUOUS
10
34.4374655821
20
22.1808443319
0
VERTEX
8
___SYMBOL
62
7
6
CONTINUOUS
10
34.4371623145
20
22.1808924969
0
VERTEX
8
___SYMBOL
62
7
6
CONTINUOUS
10
34.4368576224
20
22.1809308233
0
VERTEX
8
___SYMBOL
62
7
6
CONTINUOUS
10
34.4365518379
20
22.1809592856
0
VERTEX
8
___SYMBOL
62
7
6
CONTINUOUS
10
34.4362452935
20
22.1809778582
0
VERTEX
8
___SYMBOL
62
7
6
CONTINUOUS
10
34.4359383214
20
22.1809865156
0
VERTEX
8
___SYMBOL
62
7
6
CONTINUOUS
10
34.4356312539
20
22.1809852322
0
VERTEX
8
___SYMBOL
62
7
6
CONTINUOUS
10
34.4353244233
20
22.1809739826
0
VERTEX
8
___SYMBOL
62
7
6
CONTINUOUS
10
34.4350181619
20
22.1809527413
0
VERTEX
8
___SYMBOL
62
7
6
CONTINUOUS
10
34.4347128020
20
22.1809214826
0
VERTEX
8
___SYMBOL
62
7
6
CONTINUOUS
10
34.4344086759
20
22.1808801811
0
VERTEX
8
___SYMBOL
62
7
6
CONTINUOUS
10
34.4341061158
20
22.1808288112
0
VERTEX
8
___SYMBOL
62
7
6
CONTINUOUS
10
34.4338054484
20
22.1807673754
0
VERTEX
8
___SYMBOL
62
7
6
CONTINUOUS
10
34.4335069773
20
22.1806959880
0
VERTEX
8
___SYMBOL
62
7
6
CONTINUOUS
10
34.4332110004
20
22.1806147911
0
VERTEX
8
___SYMBOL
62
7
6
CONTINUOUS
10
34.4329178156
20
22.1805239271
0
VERTEX
8
___SYMBOL
62
7
6
CONTINUOUS
10
34.4326277208
20
22.1804235380
0
VERTEX
8
___SYMBOL
62
7
6
CONTINUOUS
10
34.4323410139
20
22.1803137662
0
VERTEX
8
___SYMBOL
62
7
6
CONTINUOUS
10
34.4320579928
20
22.1801947539
0
VERTEX
8
___SYMBOL
62
7
6
CONTINUOUS
10
34.4317789555
20
22.1800666432
0
VERTEX
8
___SYMBOL
62
7
6
CONTINUOUS
10
34.4315041998
20
22.1799295765
0
VERTEX
8
___SYMBOL
62
7
6
CONTINUOUS
10
34.4312340237
20
22.1797836959
0
VERTEX
8
___SYMBOL
62
7
6
CONTINUOUS
10
34.4309687250
20
22.1796291436
0
VERTEX
8
___SYMBOL
62
7
6
CONTINUOUS
10
34.4307086016
20
22.1794660620
0
VERTEX
8
___SYMBOL
62
7
6
CONTINUOUS
10
34.4304539516
20
22.1792945931
0
VERTEX
8
___SYMBOL
62
7
6
CONTINUOUS
10
34.4302050727
20
22.1791148793
0
VERTEX
8
___SYMBOL
62
7
6
CONTINUOUS
10
34.4299622629
20
22.1789270627
0
VERTEX
8
___SYMBOL
62
7
6
CONTINUOUS
10
34.4297258201
20
22.1787312856
0
SEQEND
0
POLYLINE
8
___SYMBOL
62
7
6
CONTINUOUS
66
1
70
0
0
VERTEX
8
___SYMBOL
62
7
6
CONTINUOUS
10
34.3085445998
20
22.1777101135
0
VERTEX
8
___SYMBOL
62
7
6
CONTINUOUS
10
34.3083047631
20
22.1781060039
0
VERTEX
8
___SYMBOL
62
7
6
CONTINUOUS
10
34.3080519157
20
22.1784937004
0
VERTEX
8
___SYMBOL
62
7
6
CONTINUOUS
10
34.3077864119
20
22.1788728529
0
VERTEX
8
___SYMBOL
62
7
6
CONTINUOUS
10
34.3075086057
20
22.1792431112
0
VERTEX
8
___SYMBOL
62
7
6
CONTINUOUS
10
34.3072188512
20
22.1796041251
0
VERTEX
8
___SYMBOL
62
7
6
CONTINUOUS
10
34.3069175024
20
22.1799555446
0
VERTEX
8
___SYMBOL
62
7
6
CONTINUOUS
10
34.3066049134
20
22.1802970194
0
VERTEX
8
___SYMBOL
62
7
6
CONTINUOUS
10
34.3062814383
20
22.1806281994
0
VERTEX
8
___SYMBOL
62
7
6
CONTINUOUS
10
34.3059474312
20
22.1809487345
0
VERTEX
8
___SYMBOL
62
7
6
CONTINUOUS
10
34.3056032462
20
22.1812582745
0
VERTEX
8
___SYMBOL
62
7
6
CONTINUOUS
10
34.3052492373
20
22.1815564692
0
VERTEX
8
___SYMBOL
62
7
6
CONTINUOUS
10
34.3048857585
20
22.1818429685
0
VERTEX
8
___SYMBOL
62
7
6
CONTINUOUS
10
34.3045131641
20
22.1821174222
0
VERTEX
8
___SYMBOL
62
7
6
CONTINUOUS
10
34.3041318080
20
22.1823794802
0
VERTEX
8
___SYMBOL
62
7
6
CONTINUOUS
10
34.3037420443
20
22.1826287924
0
VERTEX
8
___SYMBOL
62
7
6
CONTINUOUS
10
34.3033442271
20
22.1828650086
0
VERTEX
8
___SYMBOL
62
7
6
CONTINUOUS
10
34.3029387325
20
22.1830878156
0
VERTEX
8
___SYMBOL
62
7
6
CONTINUOUS
10
34.3025260246
20
22.1832970484
0
VERTEX
8
___SYMBOL
62
7
6
CONTINUOUS
10
34.3021065896
20
22.1834925791
0
VERTEX
8
___SYMBOL
62
7
6
CONTINUOUS
10
34.3016809135
20
22.1836742797
0
VERTEX
8
___SYMBOL
62
7
6
CONTINUOUS
10
34.3012494826
20
22.1838420222
0
VERTEX
8
___SYMBOL
62
7
6
CONTINUOUS
10
34.3008127830
20
22.1839956785
0
VERTEX
8
___SYMBOL
62
7
6
CONTINUOUS
10
34.3003713008
20
22.1841351207
0
VERTEX
8
___SYMBOL
62
7
6
CONTINUOUS
10
34.2999255221
20
22.1842602208
0
VERTEX
8
___SYMBOL
62
7
6
CONTINUOUS
10
34.2994759332
20
22.1843708509
0
VERTEX
8
___SYMBOL
62
7
6
CONTINUOUS
10
34.2990230200
20
22.1844668828
0
VERTEX
8
___SYMBOL
62
7
6
CONTINUOUS
10
34.2985672689
20
22.1845481887
0
VERTEX
8
___SYMBOL
62
7
6
CONTINUOUS
10
34.2981091659
20
22.1846146406
0
VERTEX
8
___SYMBOL
62
7
6
CONTINUOUS
10
34.2976491971
20
22.1846661103
0
VERTEX
8
___SYMBOL
62
7
6
CONTINUOUS
10
34.2971878487
20
22.1847024701
0
VERTEX
8
___SYMBOL
62
7
6
CONTINUOUS
10
34.2967256069
20
22.1847235918
0
VERTEX
8
___SYMBOL
62
7
6
CONTINUOUS
10
34.2962629577
20
22.1847293475
0
VERTEX
8
___SYMBOL
62
7
6
CONTINUOUS
10
34.2958003864
20
22.1847196523
0
VERTEX
8
___SYMBOL
62
7
6
CONTINUOUS
10
34.2953383746
20
22.1846945935
0
VERTEX
8
___SYMBOL
62
7
6
CONTINUOUS
10
34.2948774028
20
22.1846543015
0
VERTEX
8
___SYMBOL
62
7
6
CONTINUOUS
10
34.2944179516
20
22.1845989066
0
VERTEX
8
___SYMBOL
62
7
6
CONTINUOUS
10
34.2939605018
20
22.1845285393
0
VERTEX
8
___SYMBOL
62
7
6
CONTINUOUS
10
34.2935055338
20
22.1844433300
0
VERTEX
8
___SYMBOL
62
7
6
CONTINUOUS
10
34.2930535284
20
22.1843434091
0
VERTEX
8
___SYMBOL
62
7
6
CONTINUOUS
10
34.2926049660
20
22.1842289070
0
VERTEX
8
___SYMBOL
62
7
6
CONTINUOUS
10
34.2921603274
20
22.1840999540
0
VERTEX
8
___SYMBOL
62
7
6
CONTINUOUS
10
34.2917200932
20
22.1839566807
0
VERTEX
8
___SYMBOL
62
7
6
CONTINUOUS
10
34.2912847439
20
22.1837992172
0
VERTEX
8
___SYMBOL
62
7
6
CONTINUOUS
10
34.2908547602
20
22.1836276942
0
VERTEX
8
___SYMBOL
62
7
6
CONTINUOUS
10
34.2904306226
20
22.1834422419
0
VERTEX
8
___SYMBOL
62
7
6
CONTINUOUS
10
34.2900128119
20
22.1832429907
0
VERTEX
8
___SYMBOL
62
7
6
CONTINUOUS
10
34.2896018087
20
22.1830300712
0
VERTEX
8
___SYMBOL
62
7
6
CONTINUOUS
10
34.2891980934
20
22.1828036135
0
SEQEND
0
LINE
8
___SYMBOL
62
7
6
CONTINUOUS
10
34.4378735401
20
22.1441102073
11
34.4348135401
21
22.1481802073
0
LINE
8
___SYMBOL
62
7
6
CONTINUOUS
10
34.4348135401
20
22.1481802073
11
34.4307435401
21
22.1492002073
0
LINE
8
___SYMBOL
62
7
6
CONTINUOUS
10
34.4307435401
20
22.1492002073
11
34.4205535401
21
22.1492002073
0
POLYLINE
8
___SYMBOL
62
7
6
CONTINUOUS
66
1
70
0
0
VERTEX
8
___SYMBOL
62
7
6
CONTINUOUS
10
34.4778556784
20
22.1471625130
0
VERTEX
8
___SYMBOL
62
7
6
CONTINUOUS
10
34.4780248965
20
22.1469987112
0
VERTEX
8
___SYMBOL
62
7
6
CONTINUOUS
10
34.4781994785
20
22.1468406222
0
VERTEX
8
___SYMBOL
62
7
6
CONTINUOUS
10
34.4783792040
20
22.1466883729
0
VERTEX
8
___SYMBOL
62
7
6
CONTINUOUS
10
34.4785638524
20
22.1465420904
0
VERTEX
8
___SYMBOL
62
7
6
CONTINUOUS
10
34.4787532033
20
22.1464019016
0
VERTEX
8
___SYMBOL
62
7
6
CONTINUOUS
10
34.4789470364
20
22.1462679334
0
VERTEX
8
___SYMBOL
62
7
6
CONTINUOUS
10
34.4791451310
20
22.1461403129
0
VERTEX
8
___SYMBOL
62
7
6
CONTINUOUS
10
34.4793472669
20
22.1460191670
0
VERTEX
8
___SYMBOL
62
7
6
CONTINUOUS
10
34.4795532235
20
22.1459046227
0
VERTEX
8
___SYMBOL
62
7
6
CONTINUOUS
10
34.4797627805
20
22.1457968070
0
VERTEX
8
___SYMBOL
62
7
6
CONTINUOUS
10
34.4799757173
20
22.1456958467
0
VERTEX
8
___SYMBOL
62
7
6
CONTINUOUS
10
34.4801918136
20
22.1456018690
0
VERTEX
8
___SYMBOL
62
7
6
CONTINUOUS
10
34.4804108489
20
22.1455150007
0
VERTEX
8
___SYMBOL
62
7
6
CONTINUOUS
10
34.4806326027
20
22.1454353689
0
VERTEX
8
___SYMBOL
62
7
6
CONTINUOUS
10
34.4808568546
20
22.1453631004
0
VERTEX
8
___SYMBOL
62
7
6
CONTINUOUS
10
34.4810833842
20
22.1452983224
0
VERTEX
8
___SYMBOL
62
7
6
CONTINUOUS
10
34.4813119649
20
22.1452411405
0
VERTEX
8
___SYMBOL
62
7
6
CONTINUOUS
10
34.4815423459
20
22.1451915760
0
VERTEX
8
___SYMBOL
62
7
6
CONTINUOUS
10
34.4817742702
20
22.1451496290
0
VERTEX
8
___SYMBOL
62
7
6
CONTINUOUS
10
34.4820074809
20
22.1451152995
0
VERTEX
8
___SYMBOL
62
7
6
CONTINUOUS
10
34.4822417210
20
22.1450885876
0
VERTEX
8
___SYMBOL
62
7
6
CONTINUOUS
10
34.4824767336
20
22.1450694933
0
VERTEX
8
___SYMBOL
62
7
6
CONTINUOUS
10
34.4827122616
20
22.1450580166
0
VERTEX
8
___SYMBOL
62
7
6
CONTINUOUS
10
34.4829480482
20
22.1450541577
0
VERTEX
8
___SYMBOL
62
7
6
CONTINUOUS
10
34.4831838365
20
22.1450579165
0
VERTEX
8
___SYMBOL
62
7
6
CONTINUOUS
10
34.4834193693
20
22.1450692932
0
VERTEX
8
___SYMBOL
62
7
6
CONTINUOUS
10
34.4836543899
20
22.1450882878
0
VERTEX
8
___SYMBOL
62
7
6
CONTINUOUS
10
34.4838886412
20
22.1451149004
0
VERTEX
8
___SYMBOL
62
7
6
CONTINUOUS
10
34.4841218663
20
22.1451491309
0
VERTEX
8
___SYMBOL
62
7
6
CONTINUOUS
10
34.4843538082
20
22.1451909795
0
VERTEX
8
___SYMBOL
62
7
6
CONTINUOUS
10
34.4845842100
20
22.1452404462
0
VERTEX
8
___SYMBOL
62
7
6
CONTINUOUS
10
34.4848128147
20
22.1452975310
0
VERTEX
8
___SYMBOL
62
7
6
CONTINUOUS
10
34.4850393715
20
22.1453622130
0
VERTEX
8
___SYMBOL
62
7
6
CONTINUOUS
10
34.4852636537
20
22.1454343862
0
VERTEX
8
___SYMBOL
62
7
6
CONTINUOUS
10
34.4854854410
20
22.1455139240
0
VERTEX
8
___SYMBOL
62
7
6
CONTINUOUS
10
34.4857045127
20
22.1456006993
0
VERTEX
8
___SYMBOL
62
7
6
CONTINUOUS
10
34.4859206484
20
22.1456945853
0
VERTEX
8
___SYMBOL
62
7
6
CONTINUOUS
10
34.4861336276
20
22.1457954552
0
VERTEX
8
___SYMBOL
62
7
6
CONTINUOUS
10
34.4863432299
20
22.1459031820
0
VERTEX
8
___SYMBOL
62
7
6
CONTINUOUS
10
34.4865492346
20
22.1460176389
0
VERTEX
8
___SYMBOL
62
7
6
CONTINUOUS
10
34.4867514213
20
22.1461386990
0
VERTEX
8
___SYMBOL
62
7
6
CONTINUOUS
10
34.4869495696
20
22.1462662354
0
VERTEX
8
___SYMBOL
62
7
6
CONTINUOUS
10
34.4871434589
20
22.1464001213
0
VERTEX
8
___SYMBOL
62
7
6
CONTINUOUS
10
34.4873328687
20
22.1465402298
0
VERTEX
8
___SYMBOL
62
7
6
CONTINUOUS
10
34.4875175785
20
22.1466864339
0
VERTEX
8
___SYMBOL
62
7
6
CONTINUOUS
10
34.4876973679
20
22.1468386069
0
VERTEX
8
___SYMBOL
62
7
6
CONTINUOUS
10
34.4878720163
20
22.1469966218
0
VERTEX
8
___SYMBOL
62
7
6
CONTINUOUS
10
34.4880413033
20
22.1471603518
0
SEQEND
0
POLYLINE
8
___SYMBOL
62
7
6
CONTINUOUS
66
1
70
0
0
VERTEX
8
___SYMBOL
62
7
6
CONTINUOUS
10
34.2291151700
20
22.1593812461
0
VERTEX
8
___SYMBOL
62
7
6
CONTINUOUS
10
34.2290593450
20
22.1597300143
0
VERTEX
8
___SYMBOL
62
7
6
CONTINUOUS
10
34.2289919507
20
22.1600767498
0
VERTEX
8
___SYMBOL
62
7
6
CONTINUOUS
10
34.2289131375
20
22.1604211022
0
VERTEX
8
___SYMBOL
62
7
6
CONTINUOUS
10
34.2288230556
20
22.1607627209
0
VERTEX
8
___SYMBOL
62
7
6
CONTINUOUS
10
34.2287218554
20
22.1611012556
0
VERTEX
8
___SYMBOL
62
7
6
CONTINUOUS
10
34.2286096872
20
22.1614363558
0
VERTEX
8
___SYMBOL
62
7
6
CONTINUOUS
10
34.2284867013
20
22.1617676711
0
VERTEX
8
___SYMBOL
62
7
6
CONTINUOUS
10
34.2283530479
20
22.1620948509
0
VERTEX
8
___SYMBOL
62
7
6
CONTINUOUS
10
34.2282088774
20
22.1624175448
0
VERTEX
8
___SYMBOL
62
7
6
CONTINUOUS
10
34.2280543401
20
22.1627354024
0
VERTEX
8
___SYMBOL
62
7
6
CONTINUOUS
10
34.2278895863
20
22.1630480732
0
VERTEX
8
___SYMBOL
62
7
6
CONTINUOUS
10
34.2277147663
20
22.1633552068
0
VERTEX
8
___SYMBOL
62
7
6
CONTINUOUS
10
34.2275300304
20
22.1636564526
0
VERTEX
8
___SYMBOL
62
7
6
CONTINUOUS
10
34.2273355289
20
22.1639514603
0
VERTEX
8
___SYMBOL
62
7
6
CONTINUOUS
10
34.2271314122
20
22.1642398794
0
VERTEX
8
___SYMBOL
62
7
6
CONTINUOUS
10
34.2269178305
20
22.1645213594
0
VERTEX
8
___SYMBOL
62
7
6
CONTINUOUS
10
34.2266949604
20
22.1647955698
0
VERTEX
8
___SYMBOL
62
7
6
CONTINUOUS
10
34.2264630838
20
22.1650622596
0
VERTEX
8
___SYMBOL
62
7
6
CONTINUOUS
10
34.2262225087
20
22.1653211977
0
VERTEX
8
___SYMBOL
62
7
6
CONTINUOUS
10
34.2259735433
20
22.1655721530
0
VERTEX
8
___SYMBOL
62
7
6
CONTINUOUS
10
34.2257164956
20
22.1658148946
0
VERTEX
8
___SYMBOL
62
7
6
CONTINUOUS
10
34.2254516738
20
22.1660491913
0
VERTEX
8
___SYMBOL
62
7
6
CONTINUOUS
10
34.2251793860
20
22.1662748120
0
VERTEX
8
___SYMBOL
62
7
6
CONTINUOUS
10
34.2248999402
20
22.1664915257
0
VERTEX
8
___SYMBOL
62
7
6
CONTINUOUS
10
34.2246136447
20
22.1666991013
0
VERTEX
8
___SYMBOL
62
7
6
CONTINUOUS
10
34.2243208074
20
22.1668973078
0
VERTEX
8
___SYMBOL
62
7
6
CONTINUOUS
10
34.2240217365
20
22.1670859140
0
VERTEX
8
___SYMBOL
62
7
6
CONTINUOUS
10
34.2237167401
20
22.1672646890
0
VERTEX
8
___SYMBOL
62
7
6
CONTINUOUS
10
34.2234061263
20
22.1674334015
0
VERTEX
8
___SYMBOL
62
7
6
CONTINUOUS
10
34.2230902032
20
22.1675918206
0
VERTEX
8
___SYMBOL
62
7
6
CONTINUOUS
10
34.2227692790
20
22.1677397153
0
VERTEX
8
___SYMBOL
62
7
6
CONTINUOUS
10
34.2224436616
20
22.1678768543
0
VERTEX
8
___SYMBOL
62
7
6
CONTINUOUS
10
34.2221136710
20
22.1680030375
0
VERTEX
8
___SYMBOL
62
7
6
CONTINUOUS
10
34.2217796739
20
22.1681181880
0
VERTEX
8
___SYMBOL
62
7
6
CONTINUOUS
10
34.2214420487
20
22.1682222596
0
VERTEX
8
___SYMBOL
62
7
6
CONTINUOUS
10
34.2211011739
20
22.1683152063
0
VERTEX
8
___SYMBOL
62
7
6
CONTINUOUS
10
34.2207574279
20
22.1683969820
0
VERTEX
8
___SYMBOL
62
7
6
CONTINUOUS
10
34.2204111892
20
22.1684675405
0
VERTEX
8
___SYMBOL
62
7
6
CONTINUOUS
10
34.2200628363
20
22.1685268358
0
VERTEX
8
___SYMBOL
62
7
6
CONTINUOUS
10
34.2197127475
20
22.1685748218
0
VERTEX
8
___SYMBOL
62
7
6
CONTINUOUS
10
34.2193613013
20
22.1686114523
0
VERTEX
8
___SYMBOL
62
7
6
CONTINUOUS
10
34.2190088763
20
22.1686366814
0
VERTEX
8
___SYMBOL
62
7
6
CONTINUOUS
10
34.2186558508
20
22.1686504628
0
VERTEX
8
___SYMBOL
62
7
6
CONTINUOUS
10
34.2183026032
20
22.1686527505
0
VERTEX
8
___SYMBOL
62
7
6
CONTINUOUS
10
34.2179495121
20
22.1686434984
0
VERTEX
8
___SYMBOL
62
7
6
CONTINUOUS
10
34.2175969559
20
22.1686226604
0
VERTEX
8
___SYMBOL
62
7
6
CONTINUOUS
10
34.2172453131
20
22.1685901904
0
VERTEX
8
___SYMBOL
62
7
6
CONTINUOUS
10
34.2168949620
20
22.1685460422
0
SEQEND
0
POLYLINE
8
___SYMBOL
62
7
6
CONTINUOUS
66
1
70
0
0
VERTEX
8
___SYMBOL
62
7
6
CONTINUOUS
10
34.3492778112
20
22.1756688641
0
VERTEX
8
___SYMBOL
62
7
6
CONTINUOUS
10
34.3492254561
20
22.1758180488
0
VERTEX
8
___SYMBOL
62
7
6
CONTINUOUS
10
34.3491681773
20
22.1759654086
0
VERTEX
8
___SYMBOL
62
7
6
CONTINUOUS
10
34.3491060686
20
22.1761108016
0
VERTEX
8
___SYMBOL
62
7
6
CONTINUOUS
10
34.3490392237
20
22.1762540858
0
VERTEX
8
___SYMBOL
62
7
6
CONTINUOUS
10
34.3489677363
20
22.1763951193
0
VERTEX
8
___SYMBOL
62
7
6
CONTINUOUS
10
34.3488917002
20
22.1765337601
0
VERTEX
8
___SYMBOL
62
7
6
CONTINUOUS
10
34.3488112093
20
22.1766698663
0
VERTEX
8
___SYMBOL
62
7
6
CONTINUOUS
10
34.3487263571
20
22.1768032961
0
VERTEX
8
___SYMBOL
62
7
6
CONTINUOUS
10
34.3486372376
20
22.1769339074
0
VERTEX
8
___SYMBOL
62
7
6
CONTINUOUS
10
34.3485439443
20
22.1770615583
0
VERTEX
8
___SYMBOL
62
7
6
CONTINUOUS
10
34.3484465712
20
22.1771861069
0
VERTEX
8
___SYMBOL
62
7
6
CONTINUOUS
10
34.3483452119
20
22.1773074113
0
VERTEX
8
___SYMBOL
62
7
6
CONTINUOUS
10
34.3482399603
20
22.1774253294
0
VERTEX
8
___SYMBOL
62
7
6
CONTINUOUS
10
34.3481309099
20
22.1775397195
0
VERTEX
8
___SYMBOL
62
7
6
CONTINUOUS
10
34.3480181547
20
22.1776504395
0
VERTEX
8
___SYMBOL
62
7
6
CONTINUOUS
10
34.3479017884
20
22.1777573476
0
VERTEX
8
___SYMBOL
62
7
6
CONTINUOUS
10
34.3477819146
20
22.1778603125
0
VERTEX
8
___SYMBOL
62
7
6
CONTINUOUS
10
34.3476586770
20
22.1779592466
0
VERTEX
8
___SYMBOL
62
7
6
CONTINUOUS
10
34.3475322289
20
22.1780540730
0
VERTEX
8
___SYMBOL
62
7
6
CONTINUOUS
10
34.3474027240
20
22.1781447145
0
VERTEX
8
___SYMBOL
62
7
6
CONTINUOUS
10
34.3472703157
20
22.1782310944
0
VERTEX
8
___SYMBOL
62
7
6
CONTINUOUS
10
34.3471351575
20
22.1783131357
0
VERTEX
8
___SYMBOL
62
7
6
CONTINUOUS
10
34.3469974029
20
22.1783907614
0
VERTEX
8
___SYMBOL
62
7
6
CONTINUOUS
10
34.3468572054
20
22.1784638947
0
VERTEX
8
___SYMBOL
62
7
6
CONTINUOUS
10
34.3467147185
20
22.1785324585
0
VERTEX
8
___SYMBOL
62
7
6
CONTINUOUS
10
34.3465700957
20
22.1785963759
0
VERTEX
8
___SYMBOL
62
7
6
CONTINUOUS
10
34.3464234904
20
22.1786555699
0
VERTEX
8
___SYMBOL
62
7
6
CONTINUOUS
10
34.3462750563
20
22.1787099638
0
VERTEX
8
___SYMBOL
62
7
6
CONTINUOUS
10
34.3461249467
20
22.1787594804
0
VERTEX
8
___SYMBOL
62
7
6
CONTINUOUS
10
34.3459733152
20
22.1788040428
0
VERTEX
8
___SYMBOL
62
7
6
CONTINUOUS
10
34.3458203153
20
22.1788435742
0
VERTEX
8
___SYMBOL
62
7
6
CONTINUOUS
10
34.3456661005
20
22.1788779976
0
VERTEX
8
___SYMBOL
62
7
6
CONTINUOUS
10
34.3455108269
20
22.1789072504
0
VERTEX
8
___SYMBOL
62
7
6
CONTINUOUS
10
34.3453546617
20
22.1789313281
0
VERTEX
8
___SYMBOL
62
7
6
CONTINUOUS
10
34.3451977747
20
22.1789502405
0
VERTEX
8
___SYMBOL
62
7
6
CONTINUOUS
10
34.3450403356
20
22.1789639974
0
VERTEX
8
___SYMBOL
62
7
6
CONTINUOUS
10
34.3448825142
20
22.1789726087
0
VERTEX
8
___SYMBOL
62
7
6
CONTINUOUS
10
34.3447244804
20
22.1789760841
0
VERTEX
8
___SYMBOL
62
7
6
CONTINUOUS
10
34.3445664039
20
22.1789744335
0
VERTEX
8
___SYMBOL
62
7
6
CONTINUOUS
10
34.3444084545
20
22.1789676668
0
VERTEX
8
___SYMBOL
62
7
6
CONTINUOUS
10
34.3442508020
20
22.1789557938
0
VERTEX
8
___SYMBOL
62
7
6
CONTINUOUS
10
34.3440936162
20
22.1789388242
0
VERTEX
8
___SYMBOL
62
7
6
CONTINUOUS
10
34.3439370668
20
22.1789167680
0
VERTEX
8
___SYMBOL
62
7
6
CONTINUOUS
10
34.3437813238
20
22.1788896349
0
VERTEX
8
___SYMBOL
62
7
6
CONTINUOUS
10
34.3436265568
20
22.1788574348
0
VERTEX
8
___SYMBOL
62
7
6
CONTINUOUS
10
34.3434729357
20
22.1788201776
0
VERTEX
8
___SYMBOL
62
7
6
CONTINUOUS
10
34.3433206302
20
22.1787778729
0
VERTEX
8
___SYMBOL
62
7
6
CONTINUOUS
10
34.3431698102
20
22.1787305308
0
SEQEND
0
POLYLINE
8
___SYMBOL
62
7
6
CONTINUOUS
66
1
70
0
0
VERTEX
8
___SYMBOL
62
7
6
CONTINUOUS
10
34.5728366597
20
22.1741597234
0
VERTEX
8
___SYMBOL
62
7
6
CONTINUOUS
10
34.5729168705
20
22.1743442931
0
VERTEX
8
___SYMBOL
62
7
6
CONTINUOUS
10
34.5729909053
20
22.1745314216
0
VERTEX
8
___SYMBOL
62
7
6
CONTINUOUS
10
34.5730587289
20
22.1747208955
0
VERTEX
8
___SYMBOL
62
7
6
CONTINUOUS
10
34.5731203060
20
22.1749125010
0
VERTEX
8
___SYMBOL
62
7
6
CONTINUOUS
10
34.5731756013
20
22.1751060247
0
VERTEX
8
___SYMBOL
62
7
6
CONTINUOUS
10
34.5732245795
20
22.1753012530
0
VERTEX
8
___SYMBOL
62
7
6
CONTINUOUS
10
34.5732672054
20
22.1754979722
0
VERTEX
8
___SYMBOL
62
7
6
CONTINUOUS
10
34.5733034437
20
22.1756959688
0
VERTEX
8
___SYMBOL
62
7
6
CONTINUOUS
10
34.5733332592
20
22.1758950293
0
VERTEX
8
___SYMBOL
62
7
6
CONTINUOUS
10
34.5733566164
20
22.1760949401
0
VERTEX
8
___SYMBOL
62
7
6
CONTINUOUS
10
34.5733734803
20
22.1762954875
0
VERTEX
8
___SYMBOL
62
7
6
CONTINUOUS
10
34.5733838155
20
22.1764964581
0
VERTEX
8
___SYMBOL
62
7
6
CONTINUOUS
10
34.5733875867
20
22.1766976381
0
VERTEX
8
___SYMBOL
62
7
6
CONTINUOUS
10
34.5733847586
20
22.1768988142
0
VERTEX
8
___SYMBOL
62
7
6
CONTINUOUS
10
34.5733752960
20
22.1770997727
0
VERTEX
8
___SYMBOL
62
7
6
CONTINUOUS
10
34.5733591636
20
22.1773002999
0
VERTEX
8
___SYMBOL
62
7
6
CONTINUOUS
10
34.5733363448
20
22.1775001839
0
VERTEX
8
___SYMBOL
62
7
6
CONTINUOUS
10
34.5733068977
20
22.1776992185
0
VERTEX
8
___SYMBOL
62
7
6
CONTINUOUS
10
34.5732708989
20
22.1778971991
0
VERTEX
8
___SYMBOL
62
7
6
CONTINUOUS
10
34.5732284251
20
22.1780939209
0
VERTEX
8
___SYMBOL
62
7
6
CONTINUOUS
10
34.5731795531
20
22.1782891794
0
VERTEX
8
___SYMBOL
62
7
6
CONTINUOUS
10
34.5731243595
20
22.1784827700
0
VERTEX
8
___SYMBOL
62
7
6
CONTINUOUS
10
34.5730629210
20
22.1786744879
0
VERTEX
8
___SYMBOL
62
7
6
CONTINUOUS
10
34.5729953145
20
22.1788641285
0
VERTEX
8
___SYMBOL
62
7
6
CONTINUOUS
10
34.5729216164
20
22.1790514872
0
VERTEX
8
___SYMBOL
62
7
6
CONTINUOUS
10
34.5728419037
20
22.1792363594
0
VERTEX
8
___SYMBOL
62
7
6
CONTINUOUS
10
34.5727562529
20
22.1794185403
0
VERTEX
8
___SYMBOL
62
7
6
CONTINUOUS
10
34.5726647408
20
22.1795978254
0
VERTEX
8
___SYMBOL
62
7
6
CONTINUOUS
10
34.5725674441
20
22.1797740100
0
VERTEX
8
___SYMBOL
62
7
6
CONTINUOUS
10
34.5724644394
20
22.1799468894
0
VERTEX
8
___SYMBOL
62
7
6
CONTINUOUS
10
34.5723558036
20
22.1801162590
0
VERTEX
8
___SYMBOL
62
7
6
CONTINUOUS
10
34.5722416132
20
22.1802819142
0
VERTEX
8
___SYMBOL
62
7
6
CONTINUOUS
10
34.5721219600
20
22.1804436615
0
VERTEX
8
___SYMBOL
62
7
6
CONTINUOUS
10
34.5719969961
20
22.1806013519
0
VERTEX
8
___SYMBOL
62
7
6
CONTINUOUS
10
34.5718668882
20
22.1807548475
0
VERTEX
8
___SYMBOL
62
7
6
CONTINUOUS
10
34.5717318035
20
22.1809040107
0
VERTEX
8
___SYMBOL
62
7
6
CONTINUOUS
10
34.5715919089
20
22.1810487035
0
VERTEX
8
___SYMBOL
62
7
6
CONTINUOUS
10
34.5714473714
20
22.1811887882
0
VERTEX
8
___SYMBOL
62
7
6
CONTINUOUS
10
34.5712983579
20
22.1813241270
0
VERTEX
8
___SYMBOL
62
7
6
CONTINUOUS
10
34.5711450355
20
22.1814545821
0
VERTEX
8
___SYMBOL
62
7
6
CONTINUOUS
10
34.5709875711
20
22.1815800156
0
VERTEX
8
___SYMBOL
62
7
6
CONTINUOUS
10
34.5708261317
20
22.1817002897
0
VERTEX
8
___SYMBOL
62
7
6
CONTINUOUS
10
34.5706608842
20
22.1818152666
0
VERTEX
8
___SYMBOL
62
7
6
CONTINUOUS
10
34.5704919957
20
22.1819248086
0
VERTEX
8
___SYMBOL
62
7
6
CONTINUOUS
10
34.5703196331
20
22.1820287778
0
VERTEX
8
___SYMBOL
62
7
6
CONTINUOUS
10
34.5701439634
20
22.1821270364
0
VERTEX
8
___SYMBOL
62
7
6
CONTINUOUS
10
34.5699651536
20
22.1822194466
0
VERTEX
8
___SYMBOL
62
7
6
CONTINUOUS
10
34.5697833706
20
22.1823058706
0
SEQEND
0
LINE
8
___SYMBOL
62
7
6
CONTINUOUS
10
34.5644709706
20
22.1505465178
11
34.5492009706
21
22.1525865178
0
LINE
8
___SYMBOL
62
7
6
CONTINUOUS
10
34.5492009706
20
22.1525865178
11
34.5430909706
21
22.1546165178
0
LINE
8
___SYMBOL
62
7
6
CONTINUOUS
10
34.5430909706
20
22.1546165178
11
34.5359609706
21
22.1546165178
0
LINE
8
___SYMBOL
62
2
6
CONTINUOUS
10
34.2627235401
20
22.0931902073
11
34.3090535401
21
22.1359602073
0
LINE
8
___SYMBOL
62
2
6
CONTINUOUS
10
34.3173735401
20
22.0931902073
11
34.3637035401
21
22.1359602073
0
LINE
8
___SYMBOL
62
2
6
CONTINUOUS
10
34.3850835401
20
22.0931902073
11
34.4314235401
21
22.1359602073
0
LINE
8
___SYMBOL
62
2
6
CONTINUOUS
10
34.4444935401
20
22.0931902073
11
34.4908235401
21
22.1359602073
0
LINE
8
___SYMBOL
62
2
6
CONTINUOUS
10
34.5027035401
20
22.0931902073
11
34.5490335401
21
22.1359602073
0
LINE
8
___SYMBOL
62
2
6
CONTINUOUS
10
34.5597235401
20
22.0931902073
11
34.6060635401
21
22.1359602073
0
LINE
8
___SYMBOL
62
2
6
CONTINUOUS
10
34.6238835401
20
22.0931902073
11
34.6672135903
21
22.1331871767
0
LINE
8
___SYMBOL
62
2
6
CONTINUOUS
10
34.7103852720
20
22.0473782511
11
34.7419129349
21
22.0764902572
0
LINE
8
___SYMBOL
62
2
6
CONTINUOUS
10
34.7189235401
20
21.9825215823
11
34.7593135401
21
22.0198102073
0
LINE
8
___SYMBOL
62
2
6
CONTINUOUS
10
34.7189235401
20
21.9204702073
11
34.7593135401
21
21.9577502073
0
LINE
8
___SYMBOL
62
2
6
CONTINUOUS
10
34.7189235401
20
21.8503802073
11
34.7593135401
21
21.8876602073
0
LINE
8
___SYMBOL
62
2
6
CONTINUOUS
10
34.7189235401
20
21.7802802073
11
34.7593135401
21
21.8175702073
0
LINE
8
___SYMBOL
62
2
6
CONTINUOUS
10
34.7189235401
20
21.7042502073
11
34.7593135401
21
21.7415302073
0
LINE
8
___SYMBOL
62
2
6
CONTINUOUS
10
34.7189235401
20
21.6389102073
11
34.7593135401
21
21.6761902073
0
LINE
8
___SYMBOL
62
2
6
CONTINUOUS
10
34.7189235401
20
21.5723802073
11
34.7593135401
21
21.6096602073
0
LINE
8
___SYMBOL
62
2
6
CONTINUOUS
10
34.7189235401
20
21.4951602073
11
34.7593135401
21
21.5324402073
0
LINE
8
___SYMBOL
62
2
6
CONTINUOUS
10
34.7189235401
20
21.4262502073
11
34.7593135401
21
21.4635302073
0
LINE
8
___SYMBOL
62
2
6
CONTINUOUS
10
34.7189235401
20
21.3561602073
11
34.7593135401
21
21.3934402073
0
LINE
8
___SYMBOL
62
2
6
CONTINUOUS
10
34.7189235401
20
21.2979471304
11
34.7593135401
21
21.3352302073
0
POLYLINE
8
___SYMBOL
62
7
6
CONTINUOUS
66
1
70
0
0
VERTEX
8
___SYMBOL
62
7
6
CONTINUOUS
10
34.5816125888
20
22.2001102073
0
VERTEX
8
___SYMBOL
62
7
6
CONTINUOUS
10
34.5816158029
20
22.1989898617
0
VERTEX
8
___SYMBOL
62
7
6
CONTINUOUS
10
34.5816249257
20
22.1978519618
0
VERTEX
8
___SYMBOL
62
7
6
CONTINUOUS
10
34.5816391776
20
22.1966975457
0
VERTEX
8
___SYMBOL
62
7
6
CONTINUOUS
10
34.5816577792
20
22.1955276517
0
VERTEX
8
___SYMBOL
62
7
6
CONTINUOUS
10
34.5816799513
20
22.1943433178
0
VERTEX
8
___SYMBOL
62
7
6
CONTINUOUS
10
34.5817049142
20
22.1931455822
0
VERTEX
8
___SYMBOL
62
7
6
CONTINUOUS
10
34.5817318886
20
22.1919354831
0
VERTEX
8
___SYMBOL
62
7
6
CONTINUOUS
10
34.5817600951
20
22.1907140586
0
VERTEX
8
___SYMBOL
62
7
6
CONTINUOUS
10
34.5817887542
20
22.1894823468
0
VERTEX
8
___SYMBOL
62
7
6
CONTINUOUS
10
34.5818170865
20
22.1882413860
0
VERTEX
8
___SYMBOL
62
7
6
CONTINUOUS
10
34.5818443127
20
22.1869922142
0
VERTEX
8
___SYMBOL
62
7
6
CONTINUOUS
10
34.5818696531
20
22.1857358697
0
VERTEX
8
___SYMBOL
62
7
6
CONTINUOUS
10
34.5818923286
20
22.1844733905
0
VERTEX
8
___SYMBOL
62
7
6
CONTINUOUS
10
34.5819115595
20
22.1832058149
0
VERTEX
8
___SYMBOL
62
7
6
CONTINUOUS
10
34.5819265665
20
22.1819341809
0
VERTEX
8
___SYMBOL
62
7
6
CONTINUOUS
10
34.5819365702
20
22.1806595267
0
VERTEX
8
___SYMBOL
62
7
6
CONTINUOUS
10
34.5819407911
20
22.1793828905
0
VERTEX
8
___SYMBOL
62
7
6
CONTINUOUS
10
34.5819384498
20
22.1781053105
0
VERTEX
8
___SYMBOL
62
7
6
CONTINUOUS
10
34.5819287670
20
22.1768278247
0
VERTEX
8
___SYMBOL
62
7
6
CONTINUOUS
10
34.5819109630
20
22.1755514714
0
VERTEX
8
___SYMBOL
62
7
6
CONTINUOUS
10
34.5818842587
20
22.1742772886
0
VERTEX
8
___SYMBOL
62
7
6
CONTINUOUS
10
34.5818478744
20
22.1730063146
0
VERTEX
8
___SYMBOL
62
7
6
CONTINUOUS
10
34.5818010308
20
22.1717395874
0
VERTEX
8
___SYMBOL
62
7
6
CONTINUOUS
10
34.5817429485
20
22.1704781453
0
VERTEX
8
___SYMBOL
62
7
6
CONTINUOUS
10
34.5816728480
20
22.1692230264
0
VERTEX
8
___SYMBOL
62
7
6
CONTINUOUS
10
34.5815899500
20
22.1679752688
0
VERTEX
8
___SYMBOL
62
7
6
CONTINUOUS
10
34.5814934749
20
22.1667359107
0
VERTEX
8
___SYMBOL
62
7
6
CONTINUOUS
10
34.5813826434
20
22.1655059902
0
VERTEX
8
___SYMBOL
62
7
6
CONTINUOUS
10
34.5812566760
20
22.1642865456
0
VERTEX
8
___SYMBOL
62
7
6
CONTINUOUS
10
34.5811147934
20
22.1630786148
0
VERTEX
8
___SYMBOL
62
7
6
CONTINUOUS
10
34.5809562160
20
22.1618832362
0
VERTEX
8
___SYMBOL
62
7
6
CONTINUOUS
10
34.5807801645
20
22.1607014478
0
VERTEX
8
___SYMBOL
62
7
6
CONTINUOUS
10
34.5805858594
20
22.1595342879
0
VERTEX
8
___SYMBOL
62
7
6
CONTINUOUS
10
34.5803725214
20
22.1583827944
0
VERTEX
8
___SYMBOL
62
7
6
CONTINUOUS
10
34.5801393709
20
22.1572480057
0
VERTEX
8
___SYMBOL
62
7
6
CONTINUOUS
10
34.5798856286
20
22.1561309598
0
VERTEX
8
___SYMBOL
62
7
6
CONTINUOUS
10
34.5796105150
20
22.1550326950
0
VERTEX
8
___SYMBOL
62
7
6
CONTINUOUS
10
34.5793132508
20
22.1539542493
0
VERTEX
8
___SYMBOL
62
7
6
CONTINUOUS
10
34.5789930564
20
22.1528966609
0
VERTEX
8
___SYMBOL
62
7
6
CONTINUOUS
10
34.5786491525
20
22.1518609679
0
VERTEX
8
___SYMBOL
62
7
6
CONTINUOUS
10
34.5782807596
20
22.1508482086
0
VERTEX
8
___SYMBOL
62
7
6
CONTINUOUS
10
34.5778870984
20
22.1498594210
0
VERTEX
8
___SYMBOL
62
7
6
CONTINUOUS
10
34.5774673893
20
22.1488956433
0
VERTEX
8
___SYMBOL
62
7
6
CONTINUOUS
10
34.5770208530
20
22.1479579137
0
VERTEX
8
___SYMBOL
62
7
6
CONTINUOUS
10
34.5765467101
20
22.1470472704
0
VERTEX
8
___SYMBOL
62
7
6
CONTINUOUS
10
34.5760441810
20
22.1461647514
0
VERTEX
8
___SYMBOL
62
7
6
CONTINUOUS
10
34.5755124864
20
22.1453113949
0
VERTEX
8
___SYMBOL
62
7
6
CONTINUOUS
10
34.5749508470
20
22.1444882390
0
VERTEX
8
___SYMBOL
62
7
6
CONTINUOUS
10
34.5743584831
20
22.1436963220
0
VERTEX
8
___SYMBOL
62
7
6
CONTINUOUS
10
34.5737346155
20
22.1429366820
0
VERTEX
8
___SYMBOL
62
7
6
CONTINUOUS
10
34.5730784646
20
22.1422103571
0
VERTEX
8
___SYMBOL
62
7
6
CONTINUOUS
10
34.5723892511
20
22.1415183855
0
VERTEX
8
___SYMBOL
62
7
6
CONTINUOUS
10
34.5716661956
20
22.1408618053
0
VERTEX
8
___SYMBOL
62
7
6
CONTINUOUS
10
34.5709085185
20
22.1402416547
0
VERTEX
8
___SYMBOL
62
7
6
CONTINUOUS
10
34.5701154406
20
22.1396589718
0
VERTEX
8
___SYMBOL
62
7
6
CONTINUOUS
10
34.5692861823
20
22.1391147948
0
VERTEX
8
___SYMBOL
62
7
6
CONTINUOUS
10
34.5685793278
20
22.1386984127
0
VERTEX
8
___SYMBOL
62
7
6
CONTINUOUS
10
34.5678472401
20
22.1383091406
0
VERTEX
8
___SYMBOL
62
7
6
CONTINUOUS
10
34.5670894907
20
22.1379475491
0
VERTEX
8
___SYMBOL
62
7
6
CONTINUOUS
10
34.5663056509
20
22.1376142090
0
VERTEX
8
___SYMBOL
62
7
6
CONTINUOUS
10
34.5654952923
20
22.1373096911
0
VERTEX
8
___SYMBOL
62
7
6
CONTINUOUS
10
34.5646579864
20
22.1370345661
0
VERTEX
8
___SYMBOL
62
7
6
CONTINUOUS
10
34.5637933046
20
22.1367894050
0
VERTEX
8
___SYMBOL
62
7
6
CONTINUOUS
10
34.5629008183
20
22.1365747783
0
VERTEX
8
___SYMBOL
62
7
6
CONTINUOUS
10
34.5619800991
20
22.1363912570
0
VERTEX
8
___SYMBOL
62
7
6
CONTINUOUS
10
34.5610307185
20
22.1362394118
0
VERTEX
8
___SYMBOL
62
7
6
CONTINUOUS
10
34.5600522478
20
22.1361198134
0
VERTEX
8
___SYMBOL
62
7
6
CONTINUOUS
10
34.5590442586
20
22.1360330327
0
VERTEX
8
___SYMBOL
62
7
6
CONTINUOUS
10
34.5580063223
20
22.1359796404
0
VERTEX
8
___SYMBOL
62
7
6
CONTINUOUS
10
34.5569380104
20
22.1359602073
0
SEQEND
0
ENDBLK
8
0
6
BYBLOCK
62
0
0
BLOCK
8
___SYMBOL
62
2
6
CONTINUOUS
2
REVEAL-NOREVEAL_BL1
70
64
10
33.9065123422
20
20.1575060695
0
LINE
8
___SYMBOL
62
7
6
CONTINUOUS
10
34.7778109643
20
19.4850060695
11
34.7778109643
21
20.1859460695
0
POLYLINE
8
___SYMBOL
62
7
6
CONTINUOUS
66
1
70
0
0
VERTEX
8
___SYMBOL
62
7
6
CONTINUOUS
10
34.7778137200
20
20.1859452020
0
VERTEX
8
___SYMBOL
62
7
6
CONTINUOUS
10
34.7777503726
20
20.1900850091
0
VERTEX
8
___SYMBOL
62
7
6
CONTINUOUS
10
34.7775610487
20
20.1942183323
0
VERTEX
8
___SYMBOL
62
7
6
CONTINUOUS
10
34.7772467915
20
20.1983409577
0
VERTEX
8
___SYMBOL
62
7
6
CONTINUOUS
10
34.7768086440
20
20.2024486713
0
VERTEX
8
___SYMBOL
62
7
6
CONTINUOUS
10
34.7762476493
20
20.2065372593
0
VERTEX
8
___SYMBOL
62
7
6
CONTINUOUS
10
34.7755648505
20
20.2106025078
0
VERTEX
8
___SYMBOL
62
7
6
CONTINUOUS
10
34.7747612905
20
20.2146402029
0
VERTEX
8
___SYMBOL
62
7
6
CONTINUOUS
10
34.7738380124
20
20.2186461305
0
VERTEX
8
___SYMBOL
62
7
6
CONTINUOUS
10
34.7727960593
20
20.2226160769
0
VERTEX
8
___SYMBOL
62
7
6
CONTINUOUS
10
34.7716364742
20
20.2265458281
0
VERTEX
8
___SYMBOL
62
7
6
CONTINUOUS
10
34.7703603002
20
20.2304311702
0
VERTEX
8
___SYMBOL
62
7
6
CONTINUOUS
10
34.7689685803
20
20.2342678893
0
VERTEX
8
___SYMBOL
62
7
6
CONTINUOUS
10
34.7674623577
20
20.2380517714
0
VERTEX
8
___SYMBOL
62
7
6
CONTINUOUS
10
34.7658426752
20
20.2417786027
0
VERTEX
8
___SYMBOL
62
7
6
CONTINUOUS
10
34.7641105760
20
20.2454441693
0
VERTEX
8
___SYMBOL
62
7
6
CONTINUOUS
10
34.7622671032
20
20.2490442572
0
VERTEX
8
___SYMBOL
62
7
6
CONTINUOUS
10
34.7603136041
20
20.2525748377
0
VERTEX
8
___SYMBOL
62
7
6
CONTINUOUS
10
34.7582526430
20
20.2560326229
0
VERTEX
8
___SYMBOL
62
7
6
CONTINUOUS
10
34.7560870887
20
20.2594145099
0
VERTEX
8
___SYMBOL
62
7
6
CONTINUOUS
10
34.7538198100
20
20.2627173961
0
VERTEX
8
___SYMBOL
62
7
6
CONTINUOUS
10
34.7514536754
20
20.2659381786
0
VERTEX
8
___SYMBOL
62
7
6
CONTINUOUS
10
34.7489915538
20
20.2690737546
0
VERTEX
8
___SYMBOL
62
7
6
CONTINUOUS
10
34.7464363137
20
20.2721210215
0
VERTEX
8
___SYMBOL
62
7
6
CONTINUOUS
10
34.7437908241
20
20.2750768764
0
VERTEX
8
___SYMBOL
62
7
6
CONTINUOUS
10
34.7410579534
20
20.2779382166
0
VERTEX
8
___SYMBOL
62
7
6
CONTINUOUS
10
34.7382405705
20
20.2807019392
0
VERTEX
8
___SYMBOL
62
7
6
CONTINUOUS
10
34.7353415440
20
20.2833649416
0
VERTEX
8
___SYMBOL
62
7
6
CONTINUOUS
10
34.7323637427
20
20.2859241209
0
VERTEX
8
___SYMBOL
62
7
6
CONTINUOUS
10
34.7293100352
20
20.2883763744
0
VERTEX
8
___SYMBOL
62
7
6
CONTINUOUS
10
34.7261832903
20
20.2907185992
0
VERTEX
8
___SYMBOL
62
7
6
CONTINUOUS
10
34.7229863766
20
20.2929476928
0
VERTEX
8
___SYMBOL
62
7
6
CONTINUOUS
10
34.7197221629
20
20.2950605522
0
VERTEX
8
___SYMBOL
62
7
6
CONTINUOUS
10
34.7165911955
20
20.2969404420
0
VERTEX
8
___SYMBOL
62
7
6
CONTINUOUS
10
34.7134064020
20
20.2987136812
0
VERTEX
8
___SYMBOL
62
7
6
CONTINUOUS
10
34.7101710306
20
20.3003793291
0
VERTEX
8
___SYMBOL
62
7
6
CONTINUOUS
10
34.7068883294
20
20.3019364454
0
VERTEX
8
___SYMBOL
62
7
6
CONTINUOUS
10
34.7035615464
20
20.3033840895
0
VERTEX
8
___SYMBOL
62
7
6
CONTINUOUS
10
34.7001939297
20
20.3047213209
0
VERTEX
8
___SYMBOL
62
7
6
CONTINUOUS
10
34.6967887275
20
20.3059471991
0
VERTEX
8
___SYMBOL
62
7
6
CONTINUOUS
10
34.6933491878
20
20.3070607837
0
VERTEX
8
___SYMBOL
62
7
6
CONTINUOUS
10
34.6898785586
20
20.3080611341
0
VERTEX
8
___SYMBOL
62
7
6
CONTINUOUS
10
34.6863800882
20
20.3089473098
0
VERTEX
8
___SYMBOL
62
7
6
CONTINUOUS
10
34.6828570245
20
20.3097183704
0
VERTEX
8
___SYMBOL
62
7
6
CONTINUOUS
10
34.6793126157
20
20.3103733753
0
VERTEX
8
___SYMBOL
62
7
6
CONTINUOUS
10
34.6757501099
20
20.3109113841
0
VERTEX
8
___SYMBOL
62
7
6
CONTINUOUS
10
34.6721727551
20
20.3113314563
0
VERTEX
8
___SYMBOL
62
7
6
CONTINUOUS
10
34.6685837995
20
20.3116326513
0
VERTEX
8
___SYMBOL
62
7
6
CONTINUOUS
10
34.6649864911
20
20.3118140286
0
VERTEX
8
___SYMBOL
62
7
6
CONTINUOUS
10
34.6613840780
20
20.3118746479
0
SEQEND
0
POLYLINE
8
___SYMBOL
62
7
6
CONTINUOUS
66
1
70
0
0
VERTEX
8
___SYMBOL
62
7
6
CONTINUOUS
10
34.6613880295
20
20.3118750877
0
VERTEX
8
___SYMBOL
62
7
6
CONTINUOUS
10
34.6627136561
20
20.3122374336
0
VERTEX
8
___SYMBOL
62
7
6
CONTINUOUS
10
34.6640549996
20
20.3126545085
0
VERTEX
8
___SYMBOL
62
7
6
CONTINUOUS
10
34.6654097860
20
20.3131252415
0
VERTEX
8
___SYMBOL
62
7
6
CONTINUOUS
10
34.6667757416
20
20.3136485618
0
VERTEX
8
___SYMBOL
62
7
6
CONTINUOUS
10
34.6681505925
20
20.3142233985
0
VERTEX
8
___SYMBOL
62
7
6
CONTINUOUS
10
34.6695320647
20
20.3148486809
0
VERTEX
8
___SYMBOL
62
7
6
CONTINUOUS
10
34.6709178845
20
20.3155233382
0
VERTEX
8
___SYMBOL
62
7
6
CONTINUOUS
10
34.6723057779
20
20.3162462995
0
VERTEX
8
___SYMBOL
62
7
6
CONTINUOUS
10
34.6736934711
20
20.3170164941
0
VERTEX
8
___SYMBOL
62
7
6
CONTINUOUS
10
34.6750786903
20
20.3178328510
0
VERTEX
8
___SYMBOL
62
7
6
CONTINUOUS
10
34.6764591615
20
20.3186942996
0
VERTEX
8
___SYMBOL
62
7
6
CONTINUOUS
10
34.6778326108
20
20.3195997689
0
VERTEX
8
___SYMBOL
62
7
6
CONTINUOUS
10
34.6793202744
20
20.3206363211
0
VERTEX
8
___SYMBOL
62
7
6
CONTINUOUS
10
34.6807941356
20
20.3217215183
0
VERTEX
8
___SYMBOL
62
7
6
CONTINUOUS
10
34.6822514548
20
20.3228528914
0
VERTEX
8
___SYMBOL
62
7
6
CONTINUOUS
10
34.6836894922
20
20.3240279715
0
VERTEX
8
___SYMBOL
62
7
6
CONTINUOUS
10
34.6851055082
20
20.3252442895
0
VERTEX
8
___SYMBOL
62
7
6
CONTINUOUS
10
34.6864967631
20
20.3264993763
0
VERTEX
8
___SYMBOL
62
7
6
CONTINUOUS
10
34.6878605171
20
20.3277907631
0
VERTEX
8
___SYMBOL
62
7
6
CONTINUOUS
10
34.6891940305
20
20.3291159806
0
VERTEX
8
___SYMBOL
62
7
6
CONTINUOUS
10
34.6904945636
20
20.3304725600
0
VERTEX
8
___SYMBOL
62
7
6
CONTINUOUS
10
34.6917593768
20
20.3318580322
0
VERTEX
8
___SYMBOL
62
7
6
CONTINUOUS
10
34.6929857303
20
20.3332699282
0
VERTEX
8
___SYMBOL
62
7
6
CONTINUOUS
10
34.6941710293
20
20.3347056953
0
VERTEX
8
___SYMBOL
62
7
6
CONTINUOUS
10
34.6953132592
20
20.3361624472
0
VERTEX
8
___SYMBOL
62
7
6
CONTINUOUS
10
34.6964105501
20
20.3376372137
0
VERTEX
8
___SYMBOL
62
7
6
CONTINUOUS
10
34.6974610321
20
20.3391270248
0
VERTEX
8
___SYMBOL
62
7
6
CONTINUOUS
10
34.6984628355
20
20.3406289105
0
VERTEX
8
___SYMBOL
62
7
6
CONTINUOUS
10
34.6994140904
20
20.3421399007
0
VERTEX
8
___SYMBOL
62
7
6
CONTINUOUS
10
34.7003129270
20
20.3436570253
0
VERTEX
8
___SYMBOL
62
7
6
CONTINUOUS
10
34.7011574756
20
20.3451773144
0
VERTEX
8
___SYMBOL
62
7
6
CONTINUOUS
10
34.7019458662
20
20.3466977978
0
VERTEX
8
___SYMBOL
62
7
6
CONTINUOUS
10
34.7026762291
20
20.3482155055
0
VERTEX
8
___SYMBOL
62
7
6
CONTINUOUS
10
34.7033466945
20
20.3497274675
0
VERTEX
8
___SYMBOL
62
7
6
CONTINUOUS
10
34.7039072392
20
20.3511058717
0
VERTEX
8
___SYMBOL
62
7
6
CONTINUOUS
10
34.7044154423
20
20.3524748032
0
VERTEX
8
___SYMBOL
62
7
6
CONTINUOUS
10
34.7048708638
20
20.3538321131
0
VERTEX
8
___SYMBOL
62
7
6
CONTINUOUS
10
34.7052730638
20
20.3551756524
0
VERTEX
8
___SYMBOL
62
7
6
CONTINUOUS
10
34.7056216024
20
20.3565032720
0
VERTEX
8
___SYMBOL
62
7
6
CONTINUOUS
10
34.7059160397
20
20.3578128230
0
VERTEX
8
___SYMBOL
62
7
6
CONTINUOUS
10
34.7061250208
20
20.3589192852
0
VERTEX
8
___SYMBOL
62
7
6
CONTINUOUS
10
34.7062936538
20
20.3600095403
0
VERTEX
8
___SYMBOL
62
7
6
CONTINUOUS
10
34.7064216616
20
20.3610822351
0
VERTEX
8
___SYMBOL
62
7
6
CONTINUOUS
10
34.7065087672
20
20.3621360163
0
VERTEX
8
___SYMBOL
62
7
6
CONTINUOUS
10
34.7065546935
20
20.3631695305
0
VERTEX
8
___SYMBOL
62
7
6
CONTINUOUS
10
34.7065591635
20
20.3641814244
0
VERTEX
8
___SYMBOL
62
7
6
CONTINUOUS
10
34.7065219002
20
20.3651703449
0
VERTEX
8
___SYMBOL
62
7
6
CONTINUOUS
10
34.7064349239
20
20.3662081761
0
VERTEX
8
___SYMBOL
62
7
6
CONTINUOUS
10
34.7062997390
20
20.3672166110
0
VERTEX
8
___SYMBOL
62
7
6
CONTINUOUS
10
34.7061168590
20
20.3681944667
0
VERTEX
8
___SYMBOL
62
7
6
CONTINUOUS
10
34.7058867976
20
20.3691405604
0
VERTEX
8
___SYMBOL
62
7
6
CONTINUOUS
10
34.7056100682
20
20.3700537089
0
VERTEX
8
___SYMBOL
62
7
6
CONTINUOUS
10
34.7052871843
20
20.3709327296
0
VERTEX
8
___SYMBOL
62
7
6
CONTINUOUS
10
34.7049186594
20
20.3717764393
0
VERTEX
8
___SYMBOL
62
7
6
CONTINUOUS
10
34.7045050071
20
20.3725836553
0
VERTEX
8
___SYMBOL
62
7
6
CONTINUOUS
10
34.7040467409
20
20.3733531947
0
VERTEX
8
___SYMBOL
62
7
6
CONTINUOUS
10
34.7035443743
20
20.3740838744
0
VERTEX
8
___SYMBOL
62
7
6
CONTINUOUS
10
34.7029984208
20
20.3747745116
0
VERTEX
8
___SYMBOL
62
7
6
CONTINUOUS
10
34.7024093940
20
20.3754239233
0
VERTEX
8
___SYMBOL
62
7
6
CONTINUOUS
10
34.7017778073
20
20.3760309267
0
SEQEND
0
LINE
8
___SYMBOL
62
7
6
CONTINUOUS
10
34.7374209643
20
19.4716660695
11
34.7374209643
21
20.1835660695
0
POLYLINE
8
___SYMBOL
62
7
6
CONTINUOUS
66
1
70
0
0
VERTEX
8
___SYMBOL
62
7
6
CONTINUOUS
10
34.7374208444
20
20.1835672292
0
VERTEX
8
___SYMBOL
62
7
6
CONTINUOUS
10
34.7373796856
20
20.1863957162
0
VERTEX
8
___SYMBOL
62
7
6
CONTINUOUS
10
34.7372566741
20
20.1892182582
0
VERTEX
8
___SYMBOL
62
7
6
CONTINUOUS
10
34.7370524727
20
20.1920320503
0
VERTEX
8
___SYMBOL
62
7
6
CONTINUOUS
10
34.7367677442
20
20.1948342881
0
VERTEX
8
___SYMBOL
62
7
6
CONTINUOUS
10
34.7364031514
20
20.1976221666
0
VERTEX
8
___SYMBOL
62
7
6
CONTINUOUS
10
34.7359593572
20
20.2003928814
0
VERTEX
8
___SYMBOL
62
7
6
CONTINUOUS
10
34.7354370244
20
20.2031436277
0
VERTEX
8
___SYMBOL
62
7
6
CONTINUOUS
10
34.7348368158
20
20.2058716008
0
VERTEX
8
___SYMBOL
62
7
6
CONTINUOUS
10
34.7341593942
20
20.2085739960
0
VERTEX
8
___SYMBOL
62
7
6
CONTINUOUS
10
34.7334054225
20
20.2112480087
0
VERTEX
8
___SYMBOL
62
7
6
CONTINUOUS
10
34.7325755635
20
20.2138908341
0
VERTEX
8
___SYMBOL
62
7
6
CONTINUOUS
10
34.7316704800
20
20.2164996677
0
VERTEX
8
___SYMBOL
62
7
6
CONTINUOUS
10
34.7306908348
20
20.2190717047
0
VERTEX
8
___SYMBOL
62
7
6
CONTINUOUS
10
34.7296372908
20
20.2216041404
0
VERTEX
8
___SYMBOL
62
7
6
CONTINUOUS
10
34.7285105108
20
20.2240941701
0
VERTEX
8
___SYMBOL
62
7
6
CONTINUOUS
10
34.7273111577
20
20.2265389893
0
VERTEX
8
___SYMBOL
62
7
6
CONTINUOUS
10
34.7260400881
20
20.2289359180
0
VERTEX
8
___SYMBOL
62
7
6
CONTINUOUS
10
34.7246989349
20
20.2312827763
0
VERTEX
8
___SYMBOL
62
7
6
CONTINUOUS
10
34.7232895247
20
20.2335775091
0
VERTEX
8
___SYMBOL
62
7
6
CONTINUOUS
10
34.7218136841
20
20.2358180611
0
VERTEX
8
___SYMBOL
62
7
6
CONTINUOUS
10
34.7202732399
20
20.2380023774
0
VERTEX
8
___SYMBOL
62
7
6
CONTINUOUS
10
34.7186700187
20
20.2401284027
0
VERTEX
8
___SYMBOL
62
7
6
CONTINUOUS
10
34.7170058472
20
20.2421940819
0
VERTEX
8
___SYMBOL
62
7
6
CONTINUOUS
10
34.7152825521
20
20.2441973600
0
VERTEX
8
___SYMBOL
62
7
6
CONTINUOUS
10
34.7135019599
20
20.2461361817
0
VERTEX
8
___SYMBOL
62
7
6
CONTINUOUS
10
34.7116658975
20
20.2480084921
0
VERTEX
8
___SYMBOL
62
7
6
CONTINUOUS
10
34.7097761915
20
20.2498122359
0
VERTEX
8
___SYMBOL
62
7
6
CONTINUOUS
10
34.7078346684
20
20.2515453579
0
VERTEX
8
___SYMBOL
62
7
6
CONTINUOUS
10
34.7058431552
20
20.2532058032
0
VERTEX
8
___SYMBOL
62
7
6
CONTINUOUS
10
34.7038034783
20
20.2547915166
0
VERTEX
8
___SYMBOL
62
7
6
CONTINUOUS
10
34.7017174644
20
20.2563004429
0
VERTEX
8
___SYMBOL
62
7
6
CONTINUOUS
10
34.6995869403
20
20.2577305270
0
VERTEX
8
___SYMBOL
62
7
6
CONTINUOUS
10
34.6975428098
20
20.2590028080
0
VERTEX
8
___SYMBOL
62
7
6
CONTINUOUS
10
34.6954629480
20
20.2602028073
0
VERTEX
8
___SYMBOL
62
7
6
CONTINUOUS
10
34.6933494334
20
20.2613299031
0
VERTEX
8
___SYMBOL
62
7
6
CONTINUOUS
10
34.6912043444
20
20.2623834737
0
VERTEX
8
___SYMBOL
62
7
6
CONTINUOUS
10
34.6890297594
20
20.2633628971
0
VERTEX
8
___SYMBOL
62
7
6
CONTINUOUS
10
34.6868277569
20
20.2642675516
0
VERTEX
8
___SYMBOL
62
7
6
CONTINUOUS
10
34.6846004152
20
20.2650968154
0
VERTEX
8
___SYMBOL
62
7
6
CONTINUOUS
10
34.6823498129
20
20.2658500668
0
VERTEX
8
___SYMBOL
62
7
6
CONTINUOUS
10
34.6800780283
20
20.2665266838
0
VERTEX
8
___SYMBOL
62
7
6
CONTINUOUS
10
34.6777871399
20
20.2671260447
0
VERTEX
8
___SYMBOL
62
7
6
CONTINUOUS
10
34.6754792262
20
20.2676475278
0
VERTEX
8
___SYMBOL
62
7
6
CONTINUOUS
10
34.6731563654
20
20.2680905111
0
VERTEX
8
___SYMBOL
62
7
6
CONTINUOUS
10
34.6708206361
20
20.2684543730
0
VERTEX
8
___SYMBOL
62
7
6
CONTINUOUS
10
34.6684741167
20
20.2687384915
0
VERTEX
8
___SYMBOL
62
7
6
CONTINUOUS
10
34.6661188857
20
20.2689422450
0
VERTEX
8
___SYMBOL
62
7
6
CONTINUOUS
10
34.6637570214
20
20.2690650115
0
VERTEX
8
___SYMBOL
62
7
6
CONTINUOUS
10
34.6613906022
20
20.2691061694
0
SEQEND
0
LINE
8
___SYMBOL
62
7
6
CONTINUOUS
10
34.6613909643
20
20.2691060695
11
34.2479509643
21
20.2691060695
0
LINE
8
___SYMBOL
62
7
6
CONTINUOUS
10
34.2479509643
20
20.2691060695
11
34.2479509643
21
20.3118760695
0
LINE
8
___SYMBOL
62
7
6
CONTINUOUS
10
34.2479509643
20
20.3118760695
11
34.6613909643
21
20.3118760695
0
LINE
8
___SYMBOL
62
7
6
CONTINUOUS
10
34.7242094433
20
20.2320983330
11
34.6209909643
21
20.1609960695
0
LINE
8
___SYMBOL
62
7
6
CONTINUOUS
10
34.6209909643
20
20.1609960695
11
33.3082209643
21
20.2584160695
0
LINE
8
___SYMBOL
62
7
6
CONTINUOUS
10
33.3082209643
20
20.2584160695
11
33.2369409643
21
20.3570160695
0
LINE
8
___SYMBOL
62
7
6
CONTINUOUS
10
33.2369409643
20
20.3570160695
11
33.2761409643
21
20.3760260695
0
LINE
8
___SYMBOL
62
7
6
CONTINUOUS
10
33.2761409643
20
20.3760260695
11
33.3343609643
21
20.2904860695
0
LINE
8
___SYMBOL
62
7
6
CONTINUOUS
10
33.3343609643
20
20.2904860695
11
34.6043609643
21
20.2025760695
0
LINE
8
___SYMBOL
62
7
6
CONTINUOUS
10
34.6043609643
20
20.2025760695
11
34.6951277133
21
20.2603876633
0
LINE
8
___SYMBOL
62
2
6
CONTINUOUS
10
34.6948027280
20
20.2605646523
11
34.7269015499
21
20.2901950905
0
LINE
8
___SYMBOL
62
7
6
CONTINUOUS
10
34.2852909643
20
20.3190060695
11
34.2822309643
21
20.3251160695
0
LINE
8
___SYMBOL
62
7
6
CONTINUOUS
10
34.2822309643
20
20.3251160695
11
34.2781609643
21
20.3261260695
0
LINE
8
___SYMBOL
62
7
6
CONTINUOUS
10
34.2781609643
20
20.3261260695
11
34.2740909643
21
20.3281660695
0
LINE
8
___SYMBOL
62
7
6
CONTINUOUS
10
34.2740909643
20
20.3281660695
11
34.2700109643
21
20.3322460695
0
LINE
8
___SYMBOL
62
7
6
CONTINUOUS
10
34.2700109643
20
20.3322460695
11
34.2649209643
21
20.3312260695
0
LINE
8
___SYMBOL
62
7
6
CONTINUOUS
10
34.3901809643
20
20.3220560695
11
34.3942509643
21
20.3240960695
0
LINE
8
___SYMBOL
62
7
6
CONTINUOUS
10
34.3942509643
20
20.3240960695
11
34.3983209643
21
20.3251160695
0
LINE
8
___SYMBOL
62
7
6
CONTINUOUS
10
34.3983209643
20
20.3251160695
11
34.4064709643
21
20.3210360695
0
LINE
8
___SYMBOL
62
7
6
CONTINUOUS
10
34.4064709643
20
20.3210360695
11
34.4105409643
21
20.3210360695
0
LINE
8
___SYMBOL
62
7
6
CONTINUOUS
10
34.5459809643
20
20.3230760695
11
34.5520909643
21
20.3261260695
0
LINE
8
___SYMBOL
62
7
6
CONTINUOUS
10
34.5520909643
20
20.3261260695
11
34.5622709643
21
20.3230760695
0
LINE
8
___SYMBOL
62
7
6
CONTINUOUS
10
34.5490309643
20
20.3607560695
11
34.5449609643
21
20.3607560695
0
LINE
8
___SYMBOL
62
7
6
CONTINUOUS
10
34.5449609643
20
20.3607560695
11
34.5337609643
21
20.3689060695
0
LINE
8
___SYMBOL
62
7
6
CONTINUOUS
10
34.5337609643
20
20.3689060695
11
34.5256109643
21
20.3689060695
0
LINE
8
___SYMBOL
62
7
6
CONTINUOUS
10
34.5256109643
20
20.3689060695
11
34.5256109643
21
20.3627860695
0
LINE
8
___SYMBOL
62
7
6
CONTINUOUS
10
34.3932309643
20
20.3627860695
11
34.3932309643
21
20.3678860695
0
LINE
8
___SYMBOL
62
7
6
CONTINUOUS
10
34.3932309643
20
20.3678860695
11
34.3973009643
21
20.3689060695
0
LINE
8
___SYMBOL
62
7
6
CONTINUOUS
10
34.3973009643
20
20.3689060695
11
34.4013809643
21
20.3678860695
0
LINE
8
___SYMBOL
62
7
6
CONTINUOUS
10
34.4013809643
20
20.3678860695
11
34.4064709643
21
20.3607560695
0
LINE
8
___SYMBOL
62
7
6
CONTINUOUS
10
34.4064709643
20
20.3607560695
11
34.4115609643
21
20.3587160695
0
LINE
8
___SYMBOL
62
7
6
CONTINUOUS
10
34.4115609643
20
20.3587160695
11
34.4166509643
21
20.3587160695
0
POLYLINE
8
___SYMBOL
62
7
6
CONTINUOUS
66
1
70
0
0
VERTEX
8
___SYMBOL
62
7
6
CONTINUOUS
10
34.2567738179
20
20.3128971394
0
VERTEX
8
___SYMBOL
62
7
6
CONTINUOUS
10
34.2550985342
20
20.3143727790
0
VERTEX
8
___SYMBOL
62
7
6
CONTINUOUS
10
34.2534690551
20
20.3158302641
0
VERTEX
8
___SYMBOL
62
7
6
CONTINUOUS
10
34.2518851104
20
20.3172697594
0
VERTEX
8
___SYMBOL
62
7
6
CONTINUOUS
10
34.2503464300
20
20.3186914296
0
VERTEX
8
___SYMBOL
62
7
6
CONTINUOUS
10
34.2488527437
20
20.3200954397
0
VERTEX
8
___SYMBOL
62
7
6
CONTINUOUS
10
34.2474037814
20
20.3214819545
0
VERTEX
8
___SYMBOL
62
7
6
CONTINUOUS
10
34.2459992730
20
20.3228511386
0
VERTEX
8
___SYMBOL
62
7
6
CONTINUOUS
10
34.2446389483
20
20.3242031569
0
VERTEX
8
___SYMBOL
62
7
6
CONTINUOUS
10
34.2433225371
20
20.3255381743
0
VERTEX
8
___SYMBOL
62
7
6
CONTINUOUS
10
34.2420497694
20
20.3268563555
0
VERTEX
8
___SYMBOL
62
7
6
CONTINUOUS
10
34.2408203749
20
20.3281578653
0
VERTEX
8
___SYMBOL
62
7
6
CONTINUOUS
10
34.2396340836
20
20.3294428686
0
VERTEX
8
___SYMBOL
62
7
6
CONTINUOUS
10
34.2384906253
20
20.3307115301
0
VERTEX
8
___SYMBOL
62
7
6
CONTINUOUS
10
34.2373897299
20
20.3319640146
0
VERTEX
8
___SYMBOL
62
7
6
CONTINUOUS
10
34.2363311272
20
20.3332004870
0
VERTEX
8
___SYMBOL
62
7
6
CONTINUOUS
10
34.2353145470
20
20.3344211120
0
VERTEX
8
___SYMBOL
62
7
6
CONTINUOUS
10
34.2343397193
20
20.3356260544
0
VERTEX
8
___SYMBOL
62
7
6
CONTINUOUS
10
34.2334063739
20
20.3368154791
0
VERTEX
8
___SYMBOL
62
7
6
CONTINUOUS
10
34.2325142407
20
20.3379895509
0
VERTEX
8
___SYMBOL
62
7
6
CONTINUOUS
10
34.2316630495
20
20.3391484345
0
VERTEX
8
___SYMBOL
62
7
6
CONTINUOUS
10
34.2308525301
20
20.3402922948
0
VERTEX
8
___SYMBOL
62
7
6
CONTINUOUS
10
34.2300824415
20
20.3414212851
0
VERTEX
8
___SYMBOL
62
7
6
CONTINUOUS
10
34.2293526583
20
20.3425355134
0
VERTEX
8
___SYMBOL
62
7
6
CONTINUOUS
10
34.2286630844
20
20.3436350761
0
VERTEX
8
___SYMBOL
62
7
6
CONTINUOUS
10
34.2280136234
20
20.3447200698
0
VERTEX
8
___SYMBOL
62
7
6
CONTINUOUS
10
34.2274041791
20
20.3457905909
0
VERTEX
8
___SYMBOL
62
7
6
CONTINUOUS
10
34.2268346552
20
20.3468467359
0
VERTEX
8
___SYMBOL
62
7
6
CONTINUOUS
10
34.2263049555
20
20.3478886013
0
VERTEX
8
___SYMBOL
62
7
6
CONTINUOUS
10
34.2258149837
20
20.3489162837
0
VERTEX
8
___SYMBOL
62
7
6
CONTINUOUS
10
34.2253646436
20
20.3499298794
0
VERTEX
8
___SYMBOL
62
7
6
CONTINUOUS
10
34.2249538388
20
20.3509294851
0
VERTEX
8
___SYMBOL
62
7
6
CONTINUOUS
10
34.2245824732
20
20.3519151971
0
VERTEX
8
___SYMBOL
62
7
6
CONTINUOUS
10
34.2242504505
20
20.3528871120
0
VERTEX
8
___SYMBOL
62
7
6
CONTINUOUS
10
34.2239576743
20
20.3538453263
0
VERTEX
8
___SYMBOL
62
7
6
CONTINUOUS
10
34.2237040485
20
20.3547899365
0
VERTEX
8
___SYMBOL
62
7
6
CONTINUOUS
10
34.2234575050
20
20.3558749163
0
VERTEX
8
___SYMBOL
62
7
6
CONTINUOUS
10
34.2232639657
20
20.3569416639
0
VERTEX
8
___SYMBOL
62
7
6
CONTINUOUS
10
34.2231232775
20
20.3579903326
0
VERTEX
8
___SYMBOL
62
7
6
CONTINUOUS
10
34.2230352877
20
20.3590210756
0
VERTEX
8
___SYMBOL
62
7
6
CONTINUOUS
10
34.2229998434
20
20.3600340461
0
VERTEX
8
___SYMBOL
62
7
6
CONTINUOUS
10
34.2230167918
20
20.3610293974
0
VERTEX
8
___SYMBOL
62
7
6
CONTINUOUS
10
34.2230860198
20
20.3620072692
0
VERTEX
8
___SYMBOL
62
7
6
CONTINUOUS
10
34.2232075732
20
20.3629677478
0
VERTEX
8
___SYMBOL
62
7
6
CONTINUOUS
10
34.2233815377
20
20.3639109059
0
VERTEX
8
___SYMBOL
62
7
6
CONTINUOUS
10
34.2236079990
20
20.3648368165
0
VERTEX
8
___SYMBOL
62
7
6
CONTINUOUS
10
34.2238870426
20
20.3657455523
0
VERTEX
8
___SYMBOL
62
7
6
CONTINUOUS
10
34.2242187543
20
20.3666371862
0
VERTEX
8
___SYMBOL
62
7
6
CONTINUOUS
10
34.2246032197
20
20.3675117909
0
VERTEX
8
___SYMBOL
62
7
6
CONTINUOUS
10
34.2250405244
20
20.3683694392
0
VERTEX
8
___SYMBOL
62
7
6
CONTINUOUS
10
34.2255307541
20
20.3692102040
0
VERTEX
8
___SYMBOL
62
7
6
CONTINUOUS
10
34.2260739944
20
20.3700341581
0
VERTEX
8
___SYMBOL
62
7
6
CONTINUOUS
10
34.2266703311
20
20.3708413743
0
VERTEX
8
___SYMBOL
62
7
6
CONTINUOUS
10
34.2273198496
20
20.3716319255
0
VERTEX
8
___SYMBOL
62
7
6
CONTINUOUS
10
34.2280226357
20
20.3724058843
0
VERTEX
8
___SYMBOL
62
7
6
CONTINUOUS
10
34.2287787751
20
20.3731633237
0
VERTEX
8
___SYMBOL
62
7
6
CONTINUOUS
10
34.2295883533
20
20.3739043164
0
VERTEX
8
___SYMBOL
62
7
6
CONTINUOUS
10
34.2304514560
20
20.3746289353
0
VERTEX
8
___SYMBOL
62
7
6
CONTINUOUS
10
34.2313681689
20
20.3753372532
0
VERTEX
8
___SYMBOL
62
7
6
CONTINUOUS
10
34.2323385776
20
20.3760293428
0
SEQEND
0
LINE
8
___SYMBOL
62
7
6
CONTINUOUS
10
34.1350909643
20
20.3760260695
11
34.1350909643
21
20.6362060695
0
LINE
8
___SYMBOL
62
7
6
CONTINUOUS
10
34.1350909643
20
20.6362060695
11
33.9355009643
21
20.6362060695
0
LINE
8
___SYMBOL
62
7
6
CONTINUOUS
10
33.9925309643
20
20.2449272312
11
33.9925309643
21
20.5984260695
0
LINE
8
___SYMBOL
62
7
6
CONTINUOUS
10
33.9925309643
20
20.5984260695
11
34.0360109643
21
20.6362060695
0
LINE
8
___SYMBOL
62
7
6
CONTINUOUS
10
34.0360109643
20
20.6362060695
11
34.0830509643
21
20.5984260695
0
LINE
8
___SYMBOL
62
7
6
CONTINUOUS
10
34.0830509643
20
20.2386613940
11
34.0830509643
21
20.5984260695
0
LINE
8
___SYMBOL
62
7
6
CONTINUOUS
10
34.0830509643
20
20.5984260695
11
33.9925309643
21
20.5984260695
0
LINE
8
___SYMBOL
62
7
6
CONTINUOUS
10
33.9925309643
20
20.5000560695
11
34.0830509643
21
20.5000560695
0
LINE
8
___SYMBOL
62
7
6
CONTINUOUS
10
34.0830609643
20
20.5000560695
11
34.0360109643
21
20.5378360695
0
LINE
8
___SYMBOL
62
7
6
CONTINUOUS
10
34.0360109643
20
20.5378360695
11
33.9925309643
21
20.5000560695
0
LINE
8
___SYMBOL
62
2
6
CONTINUOUS
10
34.7730609643
20
20.5057660695
11
34.6285041783
21
20.3760260695
0
LINE
8
___SYMBOL
62
7
6
CONTINUOUS
10
34.6335742867
20
20.3760260695
11
34.6498409643
21
20.3678860695
0
LINE
8
___SYMBOL
62
7
6
CONTINUOUS
10
34.6498409643
20
20.3678860695
11
34.6529009643
21
20.3638060695
0
LINE
8
___SYMBOL
62
7
6
CONTINUOUS
10
34.6529009643
20
20.3638060695
11
34.6549409643
21
20.3556660695
0
LINE
8
___SYMBOL
62
7
6
CONTINUOUS
10
34.6549409643
20
20.3556660695
11
34.6549409643
21
20.3495560695
0
LINE
8
___SYMBOL
62
7
6
CONTINUOUS
10
34.6549409643
20
20.3495560695
11
34.6539209643
21
20.3444660695
0
LINE
8
___SYMBOL
62
7
6
CONTINUOUS
10
34.6539209643
20
20.3444660695
11
34.6457709643
21
20.3393660695
0
LINE
8
___SYMBOL
62
7
6
CONTINUOUS
10
34.6457709643
20
20.3393660695
11
34.6335509643
21
20.3383460695
0
LINE
8
___SYMBOL
62
7
6
CONTINUOUS
10
34.6335509643
20
20.3383460695
11
34.6213309643
21
20.3352960695
0
LINE
8
___SYMBOL
62
7
6
CONTINUOUS
10
34.6213309643
20
20.3352960695
11
34.6142009643
21
20.3352960695
0
LINE
8
___SYMBOL
62
7
6
CONTINUOUS
10
34.6142009643
20
20.3352960695
11
34.6060609643
21
20.3332560695
0
LINE
8
___SYMBOL
62
7
6
CONTINUOUS
10
34.6060609643
20
20.3332560695
11
34.5785609643
21
20.3332560695
0
LINE
8
___SYMBOL
62
7
6
CONTINUOUS
10
34.5785609643
20
20.3332560695
11
34.5694009643
21
20.3363160695
0
LINE
8
___SYMBOL
62
7
6
CONTINUOUS
10
34.5694009643
20
20.3363160695
11
34.5663409643
21
20.3393660695
0
LINE
8
___SYMBOL
62
7
6
CONTINUOUS
10
34.5663409643
20
20.3393660695
11
34.5622709643
21
20.3403860695
0
LINE
8
___SYMBOL
62
7
6
CONTINUOUS
10
34.5622709643
20
20.3403860695
11
34.5561609643
21
20.3403860695
0
LINE
8
___SYMBOL
62
7
6
CONTINUOUS
10
34.5561609643
20
20.3403860695
11
34.5449609643
21
20.3424260695
0
LINE
8
___SYMBOL
62
7
6
CONTINUOUS
10
34.5449609643
20
20.3424260695
11
34.5368109643
21
20.3424260695
0
LINE
8
___SYMBOL
62
7
6
CONTINUOUS
10
34.5368109643
20
20.3424260695
11
34.5276509643
21
20.3403860695
0
LINE
8
___SYMBOL
62
7
6
CONTINUOUS
10
34.5276509643
20
20.3403860695
11
34.5225609643
21
20.3363160695
0
LINE
8
___SYMBOL
62
7
6
CONTINUOUS
10
34.5225609643
20
20.3363160695
11
34.5184809643
21
20.3352960695
0
LINE
8
___SYMBOL
62
7
6
CONTINUOUS
10
34.5184809643
20
20.3352960695
11
34.4543309643
21
20.3332560695
0
LINE
8
___SYMBOL
62
7
6
CONTINUOUS
10
34.4543309643
20
20.3332560695
11
34.4451609643
21
20.3352960695
0
LINE
8
___SYMBOL
62
7
6
CONTINUOUS
10
34.4451609643
20
20.3352960695
11
34.4064709643
21
20.3393660695
0
LINE
8
___SYMBOL
62
7
6
CONTINUOUS
10
34.4064709643
20
20.3393660695
11
34.3973009643
21
20.3332560695
0
LINE
8
___SYMBOL
62
7
6
CONTINUOUS
10
34.3973009643
20
20.3332560695
11
34.3922109643
21
20.3312260695
0
LINE
8
___SYMBOL
62
7
6
CONTINUOUS
10
34.3922109643
20
20.3312260695
11
34.3586109643
21
20.3281660695
0
LINE
8
___SYMBOL
62
7
6
CONTINUOUS
10
34.3586109643
20
20.3281660695
11
34.3107509643
21
20.3302060695
0
LINE
8
___SYMBOL
62
7
6
CONTINUOUS
10
34.3107509643
20
20.3302060695
11
34.3005709643
21
20.3302060695
0
LINE
8
___SYMBOL
62
7
6
CONTINUOUS
10
34.3005709643
20
20.3302060695
11
34.2903809643
21
20.3322460695
0
LINE
8
___SYMBOL
62
7
6
CONTINUOUS
10
34.2903809643
20
20.3322460695
11
34.2761209643
21
20.3403860695
0
LINE
8
___SYMBOL
62
7
6
CONTINUOUS
10
34.2761209643
20
20.3403860695
11
34.2751109643
21
20.3444660695
0
LINE
8
___SYMBOL
62
7
6
CONTINUOUS
10
34.2751109643
20
20.3444660695
11
34.2649209643
21
20.3475160695
0
LINE
8
___SYMBOL
62
7
6
CONTINUOUS
10
34.2649209643
20
20.3475160695
11
34.2527009643
21
20.3576960695
0
LINE
8
___SYMBOL
62
7
6
CONTINUOUS
10
34.2527009643
20
20.3576960695
11
34.2496509643
21
20.3617760695
0
LINE
8
___SYMBOL
62
7
6
CONTINUOUS
10
34.2496509643
20
20.3617760695
11
34.2496509643
21
20.3678860695
0
LINE
8
___SYMBOL
62
7
6
CONTINUOUS
10
34.2496509643
20
20.3678860695
11
34.2516809643
21
20.3719560695
0
LINE
8
___SYMBOL
62
7
6
CONTINUOUS
10
34.2516809643
20
20.3719560695
11
34.2567809643
21
20.3760260695
0
LINE
8
___SYMBOL
62
7
6
CONTINUOUS
10
34.0830509643
20
20.2009163258
11
34.0830509643
21
20.1241660695
0
LINE
8
___SYMBOL
62
7
6
CONTINUOUS
10
34.0830509643
20
20.1241660695
11
34.1279609643
21
20.0647660695
0
LINE
8
___SYMBOL
62
7
6
CONTINUOUS
10
34.1279609643
20
20.0647660695
11
33.9461909643
21
20.0647660695
0
LINE
8
___SYMBOL
62
7
6
CONTINUOUS
10
33.9461909643
20
20.0647660695
11
33.9925309643
21
20.1241660695
0
LINE
8
___SYMBOL
62
7
6
CONTINUOUS
10
33.9925309643
20
20.1241660695
11
33.9925309643
21
20.2076337694
0
POLYLINE
8
___SYMBOL
62
7
6
CONTINUOUS
66
1
70
0
0
VERTEX
8
___SYMBOL
62
7
6
CONTINUOUS
10
34.4614547479
20
20.3536307956
0
VERTEX
8
___SYMBOL
62
7
6
CONTINUOUS
10
34.4612509931
20
20.3538603856
0
VERTEX
8
___SYMBOL
62
7
6
CONTINUOUS
10
34.4610397298
20
20.3540830809
0
VERTEX
8
___SYMBOL
62
7
6
CONTINUOUS
10
34.4608212306
20
20.3542986955
0
VERTEX
8
___SYMBOL
62
7
6
CONTINUOUS
10
34.4605957682
20
20.3545070433
0
VERTEX
8
___SYMBOL
62
7
6
CONTINUOUS
10
34.4603636153
20
20.3547079382
0
VERTEX
8
___SYMBOL
62
7
6
CONTINUOUS
10
34.4601250445
20
20.3549011942
0
VERTEX
8
___SYMBOL
62
7
6
CONTINUOUS
10
34.4598803285
20
20.3550866252
0
VERTEX
8
___SYMBOL
62
7
6
CONTINUOUS
10
34.4596297401
20
20.3552640452
0
VERTEX
8
___SYMBOL
62
7
6
CONTINUOUS
10
34.4593735519
20
20.3554332682
0
VERTEX
8
___SYMBOL
62
7
6
CONTINUOUS
10
34.4591120365
20
20.3555941081
0
VERTEX
8
___SYMBOL
62
7
6
CONTINUOUS
10
34.4588454667
20
20.3557463787
0
VERTEX
8
___SYMBOL
62
7
6
CONTINUOUS
10
34.4585741152
20
20.3558898942
0
VERTEX
8
___SYMBOL
62
7
6
CONTINUOUS
10
34.4582982545
20
20.3560244684
0
VERTEX
8
___SYMBOL
62
7
6
CONTINUOUS
10
34.4580181575
20
20.3561499152
0
VERTEX
8
___SYMBOL
62
7
6
CONTINUOUS
10
34.4577340968
20
20.3562660487
0
VERTEX
8
___SYMBOL
62
7
6
CONTINUOUS
10
34.4574463450
20
20.3563726828
0
VERTEX
8
___SYMBOL
62
7
6
CONTINUOUS
10
34.4571551848
20
20.3564696581
0
VERTEX
8
___SYMBOL
62
7
6
CONTINUOUS
10
34.4568609385
20
20.3565569224
0
VERTEX
8
___SYMBOL
62
7
6
CONTINUOUS
10
34.4565639384
20
20.3566344502
0
VERTEX
8
___SYMBOL
62
7
6
CONTINUOUS
10
34.4562645169
20
20.3567022160
0
VERTEX
8
___SYMBOL
62
7
6
CONTINUOUS
10
34.4559630063
20
20.3567601941
0
VERTEX
8
___SYMBOL
62
7
6
CONTINUOUS
10
34.4556597387
20
20.3568083592
0
VERTEX
8
___SYMBOL
62
7
6
CONTINUOUS
10
34.4553550466
20
20.3568466856
0
VERTEX
8
___SYMBOL
62
7
6
CONTINUOUS
10
34.4550492621
20
20.3568751478
0
VERTEX
8
___SYMBOL
62
7
6
CONTINUOUS
10
34.4547427177
20
20.3568937204
0
VERTEX
8
___SYMBOL
62
7
6
CONTINUOUS
10
34.4544357456
20
20.3569023778
0
VERTEX
8
___SYMBOL
62
7
6
CONTINUOUS
10
34.4541286781
20
20.3569010945
0
VERTEX
8
___SYMBOL
62
7
6
CONTINUOUS
10
34.4538218475
20
20.3568898449
0
VERTEX
8
___SYMBOL
62
7
6
CONTINUOUS
10
34.4535155861
20
20.3568686035
0
VERTEX
8
___SYMBOL
62
7
6
CONTINUOUS
10
34.4532102262
20
20.3568373448
0
VERTEX
8
___SYMBOL
62
7
6
CONTINUOUS
10
34.4529061001
20
20.3567960433
0
VERTEX
8
___SYMBOL
62
7
6
CONTINUOUS
10
34.4526035400
20
20.3567446734
0
VERTEX
8
___SYMBOL
62
7
6
CONTINUOUS
10
34.4523028726
20
20.3566832377
0
VERTEX
8
___SYMBOL
62
7
6
CONTINUOUS
10
34.4520044015
20
20.3566118502
0
VERTEX
8
___SYMBOL
62
7
6
CONTINUOUS
10
34.4517084246
20
20.3565306534
0
VERTEX
8
___SYMBOL
62
7
6
CONTINUOUS
10
34.4514152398
20
20.3564397893
0
VERTEX
8
___SYMBOL
62
7
6
CONTINUOUS
10
34.4511251450
20
20.3563394002
0
VERTEX
8
___SYMBOL
62
7
6
CONTINUOUS
10
34.4508384381
20
20.3562296284
0
VERTEX
8
___SYMBOL
62
7
6
CONTINUOUS
10
34.4505554170
20
20.3561106161
0
VERTEX
8
___SYMBOL
62
7
6
CONTINUOUS
10
34.4502763797
20
20.3559825054
0
VERTEX
8
___SYMBOL
62
7
6
CONTINUOUS
10
34.4500016240
20
20.3558454387
0
VERTEX
8
___SYMBOL
62
7
6
CONTINUOUS
10
34.4497314478
20
20.3556995581
0
VERTEX
8
___SYMBOL
62
7
6
CONTINUOUS
10
34.4494661492
20
20.3555450059
0
VERTEX
8
___SYMBOL
62
7
6
CONTINUOUS
10
34.4492060258
20
20.3553819242
0
VERTEX
8
___SYMBOL
62
7
6
CONTINUOUS
10
34.4489513758
20
20.3552104553
0
VERTEX
8
___SYMBOL
62
7
6
CONTINUOUS
10
34.4487024969
20
20.3550307415
0
VERTEX
8
___SYMBOL
62
7
6
CONTINUOUS
10
34.4484596871
20
20.3548429249
0
VERTEX
8
___SYMBOL
62
7
6
CONTINUOUS
10
34.4482232443
20
20.3546471478
0
SEQEND
0
POLYLINE
8
___SYMBOL
62
7
6
CONTINUOUS
66
1
70
0
0
VERTEX
8
___SYMBOL
62
7
6
CONTINUOUS
10
34.3270420240
20
20.3536259757
0
VERTEX
8
___SYMBOL
62
7
6
CONTINUOUS
10
34.3268021872
20
20.3540218661
0
VERTEX
8
___SYMBOL
62
7
6
CONTINUOUS
10
34.3265493399
20
20.3544095626
0
VERTEX
8
___SYMBOL
62
7
6
CONTINUOUS
10
34.3262838361
20
20.3547887151
0
VERTEX
8
___SYMBOL
62
7
6
CONTINUOUS
10
34.3260060299
20
20.3551589734
0
VERTEX
8
___SYMBOL
62
7
6
CONTINUOUS
10
34.3257162753
20
20.3555199874
0
VERTEX
8
___SYMBOL
62
7
6
CONTINUOUS
10
34.3254149265
20
20.3558714068
0
VERTEX
8
___SYMBOL
62
7
6
CONTINUOUS
10
34.3251023376
20
20.3562128816
0
VERTEX
8
___SYMBOL
62
7
6
CONTINUOUS
10
34.3247788625
20
20.3565440617
0
VERTEX
8
___SYMBOL
62
7
6
CONTINUOUS
10
34.3244448554
20
20.3568645967
0
VERTEX
8
___SYMBOL
62
7
6
CONTINUOUS
10
34.3241006704
20
20.3571741367
0
VERTEX
8
___SYMBOL
62
7
6
CONTINUOUS
10
34.3237466614
20
20.3574723314
0
VERTEX
8
___SYMBOL
62
7
6
CONTINUOUS
10
34.3233831827
20
20.3577588307
0
VERTEX
8
___SYMBOL
62
7
6
CONTINUOUS
10
34.3230105883
20
20.3580332844
0
VERTEX
8
___SYMBOL
62
7
6
CONTINUOUS
10
34.3226292321
20
20.3582953425
0
VERTEX
8
___SYMBOL
62
7
6
CONTINUOUS
10
34.3222394685
20
20.3585446546
0
VERTEX
8
___SYMBOL
62
7
6
CONTINUOUS
10
34.3218416513
20
20.3587808708
0
VERTEX
8
___SYMBOL
62
7
6
CONTINUOUS
10
34.3214361567
20
20.3590036778
0
VERTEX
8
___SYMBOL
62
7
6
CONTINUOUS
10
34.3210234488
20
20.3592129107
0
VERTEX
8
___SYMBOL
62
7
6
CONTINUOUS
10
34.3206040138
20
20.3594084414
0
VERTEX
8
___SYMBOL
62
7
6
CONTINUOUS
10
34.3201783377
20
20.3595901419
0
VERTEX
8
___SYMBOL
62
7
6
CONTINUOUS
10
34.3197469068
20
20.3597578844
0
VERTEX
8
___SYMBOL
62
7
6
CONTINUOUS
10
34.3193102072
20
20.3599115407
0
VERTEX
8
___SYMBOL
62
7
6
CONTINUOUS
10
34.3188687250
20
20.3600509829
0
VERTEX
8
___SYMBOL
62
7
6
CONTINUOUS
10
34.3184229463
20
20.3601760830
0
VERTEX
8
___SYMBOL
62
7
6
CONTINUOUS
10
34.3179733574
20
20.3602867131
0
VERTEX
8
___SYMBOL
62
7
6
CONTINUOUS
10
34.3175204442
20
20.3603827450
0
VERTEX
8
___SYMBOL
62
7
6
CONTINUOUS
10
34.3170646931
20
20.3604640509
0
VERTEX
8
___SYMBOL
62
7
6
CONTINUOUS
10
34.3166065900
20
20.3605305028
0
VERTEX
8
___SYMBOL
62
7
6
CONTINUOUS
10
34.3161466213
20
20.3605819726
0
VERTEX
8
___SYMBOL
62
7
6
CONTINUOUS
10
34.3156852729
20
20.3606183323
0
VERTEX
8
___SYMBOL
62
7
6
CONTINUOUS
10
34.3152230310
20
20.3606394541
0
VERTEX
8
___SYMBOL
62
7
6
CONTINUOUS
10
34.3147603819
20
20.3606452098
0
VERTEX
8
___SYMBOL
62
7
6
CONTINUOUS
10
34.3142978106
20
20.3606355146
0
VERTEX
8
___SYMBOL
62
7
6
CONTINUOUS
10
34.3138357988
20
20.3606104557
0
VERTEX
8
___SYMBOL
62
7
6
CONTINUOUS
10
34.3133748270
20
20.3605701637
0
VERTEX
8
___SYMBOL
62
7
6
CONTINUOUS
10
34.3129153758
20
20.3605147688
0
VERTEX
8
___SYMBOL
62
7
6
CONTINUOUS
10
34.3124579260
20
20.3604444016
0
VERTEX
8
___SYMBOL
62
7
6
CONTINUOUS
10
34.3120029580
20
20.3603591923
0
VERTEX
8
___SYMBOL
62
7
6
CONTINUOUS
10
34.3115509525
20
20.3602592714
0
VERTEX
8
___SYMBOL
62
7
6
CONTINUOUS
10
34.3111023902
20
20.3601447692
0
VERTEX
8
___SYMBOL
62
7
6
CONTINUOUS
10
34.3106577516
20
20.3600158163
0
VERTEX
8
___SYMBOL
62
7
6
CONTINUOUS
10
34.3102175173
20
20.3598725429
0
VERTEX
8
___SYMBOL
62
7
6
CONTINUOUS
10
34.3097821681
20
20.3597150795
0
VERTEX
8
___SYMBOL
62
7
6
CONTINUOUS
10
34.3093521843
20
20.3595435564
0
VERTEX
8
___SYMBOL
62
7
6
CONTINUOUS
10
34.3089280468
20
20.3593581041
0
VERTEX
8
___SYMBOL
62
7
6
CONTINUOUS
10
34.3085102361
20
20.3591588530
0
VERTEX
8
___SYMBOL
62
7
6
CONTINUOUS
10
34.3080992328
20
20.3589459334
0
VERTEX
8
___SYMBOL
62
7
6
CONTINUOUS
10
34.3076955176
20
20.3587194758
0
SEQEND
0
LINE
8
___SYMBOL
62
7
6
CONTINUOUS
10
34.4563709643
20
20.3200260695
11
34.4533109643
21
20.3240960695
0
LINE
8
___SYMBOL
62
7
6
CONTINUOUS
10
34.4533109643
20
20.3240960695
11
34.4492409643
21
20.3251160695
0
LINE
8
___SYMBOL
62
7
6
CONTINUOUS
10
34.4492409643
20
20.3251160695
11
34.4390509643
21
20.3251160695
0
POLYLINE
8
___SYMBOL
62
7
6
CONTINUOUS
66
1
70
0
0
VERTEX
8
___SYMBOL
62
7
6
CONTINUOUS
10
34.5113531025
20
20.3230783752
0
VERTEX
8
___SYMBOL
62
7
6
CONTINUOUS
10
34.5115223207
20
20.3229145734
0
VERTEX
8
___SYMBOL
62
7
6
CONTINUOUS
10
34.5116969027
20
20.3227564844
0
VERTEX
8
___SYMBOL
62
7
6
CONTINUOUS
10
34.5118766282
20
20.3226042351
0
VERTEX
8
___SYMBOL
62
7
6
CONTINUOUS
10
34.5120612766
20
20.3224579526
0
VERTEX
8
___SYMBOL
62
7
6
CONTINUOUS
10
34.5122506275
20
20.3223177638
0
VERTEX
8
___SYMBOL
62
7
6
CONTINUOUS
10
34.5124444605
20
20.3221837957
0
VERTEX
8
___SYMBOL
62
7
6
CONTINUOUS
10
34.5126425552
20
20.3220561751
0
VERTEX
8
___SYMBOL
62
7
6
CONTINUOUS
10
34.5128446911
20
20.3219350293
0
VERTEX
8
___SYMBOL
62
7
6
CONTINUOUS
10
34.5130506477
20
20.3218204849
0
VERTEX
8
___SYMBOL
62
7
6
CONTINUOUS
10
34.5132602047
20
20.3217126692
0
VERTEX
8
___SYMBOL
62
7
6
CONTINUOUS
10
34.5134731415
20
20.3216117090
0
VERTEX
8
___SYMBOL
62
7
6
CONTINUOUS
10
34.5136892378
20
20.3215177312
0
VERTEX
8
___SYMBOL
62
7
6
CONTINUOUS
10
34.5139082730
20
20.3214308629
0
VERTEX
8
___SYMBOL
62
7
6
CONTINUOUS
10
34.5141300269
20
20.3213512311
0
VERTEX
8
___SYMBOL
62
7
6
CONTINUOUS
10
34.5143542788
20
20.3212789627
0
VERTEX
8
___SYMBOL
62
7
6
CONTINUOUS
10
34.5145808084
20
20.3212141846
0
VERTEX
8
___SYMBOL
62
7
6
CONTINUOUS
10
34.5148093891
20
20.3211570027
0
VERTEX
8
___SYMBOL
62
7
6
CONTINUOUS
10
34.5150397701
20
20.3211074383
0
VERTEX
8
___SYMBOL
62
7
6
CONTINUOUS
10
34.5152716944
20
20.3210654912
0
VERTEX
8
___SYMBOL
62
7
6
CONTINUOUS
10
34.5155049051
20
20.3210311617
0
VERTEX
8
___SYMBOL
62
7
6
CONTINUOUS
10
34.5157391452
20
20.3210044498
0
VERTEX
8
___SYMBOL
62
7
6
CONTINUOUS
10
34.5159741577
20
20.3209853555
0
VERTEX
8
___SYMBOL
62
7
6
CONTINUOUS
10
34.5162096858
20
20.3209738788
0
VERTEX
8
___SYMBOL
62
7
6
CONTINUOUS
10
34.5164454724
20
20.3209700199
0
VERTEX
8
___SYMBOL
62
7
6
CONTINUOUS
10
34.5166812606
20
20.3209737788
0
VERTEX
8
___SYMBOL
62
7
6
CONTINUOUS
10
34.5169167935
20
20.3209851555
0
VERTEX
8
___SYMBOL
62
7
6
CONTINUOUS
10
34.5171518141
20
20.3210041501
0
VERTEX
8
___SYMBOL
62
7
6
CONTINUOUS
10
34.5173860654
20
20.3210307626
0
VERTEX
8
___SYMBOL
62
7
6
CONTINUOUS
10
34.5176192904
20
20.3210649931
0
VERTEX
8
___SYMBOL
62
7
6
CONTINUOUS
10
34.5178512324
20
20.3211068417
0
VERTEX
8
___SYMBOL
62
7
6
CONTINUOUS
10
34.5180816342
20
20.3211563084
0
VERTEX
8
___SYMBOL
62
7
6
CONTINUOUS
10
34.5183102389
20
20.3212133933
0
VERTEX
8
___SYMBOL
62
7
6
CONTINUOUS
10
34.5185367957
20
20.3212780752
0
VERTEX
8
___SYMBOL
62
7
6
CONTINUOUS
10
34.5187610779
20
20.3213502485
0
VERTEX
8
___SYMBOL
62
7
6
CONTINUOUS
10
34.5189828652
20
20.3214297862
0
VERTEX
8
___SYMBOL
62
7
6
CONTINUOUS
10
34.5192019369
20
20.3215165615
0
VERTEX
8
___SYMBOL
62
7
6
CONTINUOUS
10
34.5194180726
20
20.3216104475
0
VERTEX
8
___SYMBOL
62
7
6
CONTINUOUS
10
34.5196310518
20
20.3217113174
0
VERTEX
8
___SYMBOL
62
7
6
CONTINUOUS
10
34.5198406541
20
20.3218190442
0
VERTEX
8
___SYMBOL
62
7
6
CONTINUOUS
10
34.5200466588
20
20.3219335011
0
VERTEX
8
___SYMBOL
62
7
6
CONTINUOUS
10
34.5202488455
20
20.3220545612
0
VERTEX
8
___SYMBOL
62
7
6
CONTINUOUS
10
34.5204469938
20
20.3221820976
0
VERTEX
8
___SYMBOL
62
7
6
CONTINUOUS
10
34.5206408831
20
20.3223159835
0
VERTEX
8
___SYMBOL
62
7
6
CONTINUOUS
10
34.5208302929
20
20.3224560920
0
VERTEX
8
___SYMBOL
62
7
6
CONTINUOUS
10
34.5210150027
20
20.3226022961
0
VERTEX
8
___SYMBOL
62
7
6
CONTINUOUS
10
34.5211947921
20
20.3227544691
0
VERTEX
8
___SYMBOL
62
7
6
CONTINUOUS
10
34.5213694405
20
20.3229124840
0
VERTEX
8
___SYMBOL
62
7
6
CONTINUOUS
10
34.5215387274
20
20.3230762140
0
SEQEND
0
POLYLINE
8
___SYMBOL
62
7
6
CONTINUOUS
66
1
70
0
0
VERTEX
8
___SYMBOL
62
7
6
CONTINUOUS
10
34.2476125942
20
20.3352971083
0
VERTEX
8
___SYMBOL
62
7
6
CONTINUOUS
10
34.2475567692
20
20.3356458765
0
VERTEX
8
___SYMBOL
62
7
6
CONTINUOUS
10
34.2474893749
20
20.3359926120
0
VERTEX
8
___SYMBOL
62
7
6
CONTINUOUS
10
34.2474105617
20
20.3363369644
0
VERTEX
8
___SYMBOL
62
7
6
CONTINUOUS
10
34.2473204798
20
20.3366785832
0
VERTEX
8
___SYMBOL
62
7
6
CONTINUOUS
10
34.2472192796
20
20.3370171179
0
VERTEX
8
___SYMBOL
62
7
6
CONTINUOUS
10
34.2471071114
20
20.3373522181
0
VERTEX
8
___SYMBOL
62
7
6
CONTINUOUS
10
34.2469841254
20
20.3376835333
0
VERTEX
8
___SYMBOL
62
7
6
CONTINUOUS
10
34.2468504721
20
20.3380107131
0
VERTEX
8
___SYMBOL
62
7
6
CONTINUOUS
10
34.2467063016
20
20.3383334071
0
VERTEX
8
___SYMBOL
62
7
6
CONTINUOUS
10
34.2465517643
20
20.3386512647
0
VERTEX
8
___SYMBOL
62
7
6
CONTINUOUS
10
34.2463870105
20
20.3389639355
0
VERTEX
8
___SYMBOL
62
7
6
CONTINUOUS
10
34.2462121905
20
20.3392710690
0
VERTEX
8
___SYMBOL
62
7
6
CONTINUOUS
10
34.2460274546
20
20.3395723149
0
VERTEX
8
___SYMBOL
62
7
6
CONTINUOUS
10
34.2458329531
20
20.3398673226
0
VERTEX
8
___SYMBOL
62
7
6
CONTINUOUS
10
34.2456288364
20
20.3401557416
0
VERTEX
8
___SYMBOL
62
7
6
CONTINUOUS
10
34.2454152547
20
20.3404372216
0
VERTEX
8
___SYMBOL
62
7
6
CONTINUOUS
10
34.2451923846
20
20.3407114320
0
VERTEX
8
___SYMBOL
62
7
6
CONTINUOUS
10
34.2449605080
20
20.3409781218
0
VERTEX
8
___SYMBOL
62
7
6
CONTINUOUS
10
34.2447199329
20
20.3412370599
0
VERTEX
8
___SYMBOL
62
7
6
CONTINUOUS
10
34.2444709675
20
20.3414880153
0
VERTEX
8
___SYMBOL
62
7
6
CONTINUOUS
10
34.2442139198
20
20.3417307568
0
VERTEX
8
___SYMBOL
62
7
6
CONTINUOUS
10
34.2439490980
20
20.3419650535
0
VERTEX
8
___SYMBOL
62
7
6
CONTINUOUS
10
34.2436768102
20
20.3421906742
0
VERTEX
8
___SYMBOL
62
7
6
CONTINUOUS
10
34.2433973644
20
20.3424073879
0
VERTEX
8
___SYMBOL
62
7
6
CONTINUOUS
10
34.2431110689
20
20.3426149635
0
VERTEX
8
___SYMBOL
62
7
6
CONTINUOUS
10
34.2428182316
20
20.3428131700
0
VERTEX
8
___SYMBOL
62
7
6
CONTINUOUS
10
34.2425191607
20
20.3430017762
0
VERTEX
8
___SYMBOL
62
7
6
CONTINUOUS
10
34.2422141643
20
20.3431805512
0
VERTEX
8
___SYMBOL
62
7
6
CONTINUOUS
10
34.2419035505
20
20.3433492637
0
VERTEX
8
___SYMBOL
62
7
6
CONTINUOUS
10
34.2415876274
20
20.3435076829
0
VERTEX
8
___SYMBOL
62
7
6
CONTINUOUS
10
34.2412667032
20
20.3436555775
0
VERTEX
8
___SYMBOL
62
7
6
CONTINUOUS
10
34.2409410858
20
20.3437927165
0
VERTEX
8
___SYMBOL
62
7
6
CONTINUOUS
10
34.2406110952
20
20.3439188998
0
VERTEX
8
___SYMBOL
62
7
6
CONTINUOUS
10
34.2402770981
20
20.3440340502
0
VERTEX
8
___SYMBOL
62
7
6
CONTINUOUS
10
34.2399394729
20
20.3441381219
0
VERTEX
8
___SYMBOL
62
7
6
CONTINUOUS
10
34.2395985981
20
20.3442310686
0
VERTEX
8
___SYMBOL
62
7
6
CONTINUOUS
10
34.2392548521
20
20.3443128442
0
VERTEX
8
___SYMBOL
62
7
6
CONTINUOUS
10
34.2389086134
20
20.3443834027
0
VERTEX
8
___SYMBOL
62
7
6
CONTINUOUS
10
34.2385602605
20
20.3444426980
0
VERTEX
8
___SYMBOL
62
7
6
CONTINUOUS
10
34.2382101717
20
20.3444906840
0
VERTEX
8
___SYMBOL
62
7
6
CONTINUOUS
10
34.2378587255
20
20.3445273146
0
VERTEX
8
___SYMBOL
62
7
6
CONTINUOUS
10
34.2375063005
20
20.3445525436
0
VERTEX
8
___SYMBOL
62
7
6
CONTINUOUS
10
34.2371532749
20
20.3445663250
0
VERTEX
8
___SYMBOL
62
7
6
CONTINUOUS
10
34.2368000274
20
20.3445686127
0
VERTEX
8
___SYMBOL
62
7
6
CONTINUOUS
10
34.2364469363
20
20.3445593606
0
VERTEX
8
___SYMBOL
62
7
6
CONTINUOUS
10
34.2360943801
20
20.3445385226
0
VERTEX
8
___SYMBOL
62
7
6
CONTINUOUS
10
34.2357427373
20
20.3445060526
0
VERTEX
8
___SYMBOL
62
7
6
CONTINUOUS
10
34.2353923862
20
20.3444619045
0
SEQEND
0
POLYLINE
8
___SYMBOL
62
7
6
CONTINUOUS
66
1
70
0
0
VERTEX
8
___SYMBOL
62
7
6
CONTINUOUS
10
34.3677752354
20
20.3515847263
0
VERTEX
8
___SYMBOL
62
7
6
CONTINUOUS
10
34.3677228803
20
20.3517339110
0
VERTEX
8
___SYMBOL
62
7
6
CONTINUOUS
10
34.3676656015
20
20.3518812708
0
VERTEX
8
___SYMBOL
62
7
6
CONTINUOUS
10
34.3676034928
20
20.3520266638
0
VERTEX
8
___SYMBOL
62
7
6
CONTINUOUS
10
34.3675366478
20
20.3521699480
0
VERTEX
8
___SYMBOL
62
7
6
CONTINUOUS
10
34.3674651605
20
20.3523109815
0
VERTEX
8
___SYMBOL
62
7
6
CONTINUOUS
10
34.3673891244
20
20.3524496223
0
VERTEX
8
___SYMBOL
62
7
6
CONTINUOUS
10
34.3673086334
20
20.3525857286
0
VERTEX
8
___SYMBOL
62
7
6
CONTINUOUS
10
34.3672237813
20
20.3527191583
0
VERTEX
8
___SYMBOL
62
7
6
CONTINUOUS
10
34.3671346617
20
20.3528497696
0
VERTEX
8
___SYMBOL
62
7
6
CONTINUOUS
10
34.3670413685
20
20.3529774205
0
VERTEX
8
___SYMBOL
62
7
6
CONTINUOUS
10
34.3669439954
20
20.3531019691
0
VERTEX
8
___SYMBOL
62
7
6
CONTINUOUS
10
34.3668426361
20
20.3532232735
0
VERTEX
8
___SYMBOL
62
7
6
CONTINUOUS
10
34.3667373844
20
20.3533411917
0
VERTEX
8
___SYMBOL
62
7
6
CONTINUOUS
10
34.3666283341
20
20.3534555817
0
VERTEX
8
___SYMBOL
62
7
6
CONTINUOUS
10
34.3665155789
20
20.3535663018
0
VERTEX
8
___SYMBOL
62
7
6
CONTINUOUS
10
34.3663992126
20
20.3536732098
0
VERTEX
8
___SYMBOL
62
7
6
CONTINUOUS
10
34.3662793388
20
20.3537761748
0
VERTEX
8
___SYMBOL
62
7
6
CONTINUOUS
10
34.3661561012
20
20.3538751089
0
VERTEX
8
___SYMBOL
62
7
6
CONTINUOUS
10
34.3660296531
20
20.3539699352
0
VERTEX
8
___SYMBOL
62
7
6
CONTINUOUS
10
34.3659001482
20
20.3540605768
0
VERTEX
8
___SYMBOL
62
7
6
CONTINUOUS
10
34.3657677399
20
20.3541469567
0
VERTEX
8
___SYMBOL
62
7
6
CONTINUOUS
10
34.3656325817
20
20.3542289979
0
VERTEX
8
___SYMBOL
62
7
6
CONTINUOUS
10
34.3654948271
20
20.3543066237
0
VERTEX
8
___SYMBOL
62
7
6
CONTINUOUS
10
34.3653546296
20
20.3543797569
0
VERTEX
8
___SYMBOL
62
7
6
CONTINUOUS
10
34.3652121427
20
20.3544483207
0
VERTEX
8
___SYMBOL
62
7
6
CONTINUOUS
10
34.3650675198
20
20.3545122381
0
VERTEX
8
___SYMBOL
62
7
6
CONTINUOUS
10
34.3649209146
20
20.3545714322
0
VERTEX
8
___SYMBOL
62
7
6
CONTINUOUS
10
34.3647724805
20
20.3546258260
0
VERTEX
8
___SYMBOL
62
7
6
CONTINUOUS
10
34.3646223709
20
20.3546753426
0
VERTEX
8
___SYMBOL
62
7
6
CONTINUOUS
10
34.3644707394
20
20.3547199051
0
VERTEX
8
___SYMBOL
62
7
6
CONTINUOUS
10
34.3643177395
20
20.3547594364
0
VERTEX
8
___SYMBOL
62
7
6
CONTINUOUS
10
34.3641635247
20
20.3547938598
0
VERTEX
8
___SYMBOL
62
7
6
CONTINUOUS
10
34.3640082511
20
20.3548231126
0
VERTEX
8
___SYMBOL
62
7
6
CONTINUOUS
10
34.3638520859
20
20.3548471903
0
VERTEX
8
___SYMBOL
62
7
6
CONTINUOUS
10
34.3636951989
20
20.3548661027
0
VERTEX
8
___SYMBOL
62
7
6
CONTINUOUS
10
34.3635377598
20
20.3548798596
0
VERTEX
8
___SYMBOL
62
7
6
CONTINUOUS
10
34.3633799384
20
20.3548884709
0
VERTEX
8
___SYMBOL
62
7
6
CONTINUOUS
10
34.3632219046
20
20.3548919463
0
VERTEX
8
___SYMBOL
62
7
6
CONTINUOUS
10
34.3630638281
20
20.3548902958
0
VERTEX
8
___SYMBOL
62
7
6
CONTINUOUS
10
34.3629058786
20
20.3548835290
0
VERTEX
8
___SYMBOL
62
7
6
CONTINUOUS
10
34.3627482261
20
20.3548716560
0
VERTEX
8
___SYMBOL
62
7
6
CONTINUOUS
10
34.3625910403
20
20.3548546864
0
VERTEX
8
___SYMBOL
62
7
6
CONTINUOUS
10
34.3624344910
20
20.3548326302
0
VERTEX
8
___SYMBOL
62
7
6
CONTINUOUS
10
34.3622787480
20
20.3548054971
0
VERTEX
8
___SYMBOL
62
7
6
CONTINUOUS
10
34.3621239810
20
20.3547732971
0
VERTEX
8
___SYMBOL
62
7
6
CONTINUOUS
10
34.3619703599
20
20.3547360398
0
VERTEX
8
___SYMBOL
62
7
6
CONTINUOUS
10
34.3618180544
20
20.3546937352
0
VERTEX
8
___SYMBOL
62
7
6
CONTINUOUS
10
34.3616672344
20
20.3546463930
0
SEQEND
0
POLYLINE
8
___SYMBOL
62
7
6
CONTINUOUS
66
1
70
0
0
VERTEX
8
___SYMBOL
62
7
6
CONTINUOUS
10
34.6732671117
20
20.3505708019
0
VERTEX
8
___SYMBOL
62
7
6
CONTINUOUS
10
34.6733473225
20
20.3507553716
0
VERTEX
8
___SYMBOL
62
7
6
CONTINUOUS
10
34.6734213573
20
20.3509425001
0
VERTEX
8
___SYMBOL
62
7
6
CONTINUOUS
10
34.6734891809
20
20.3511319740
0
VERTEX
8
___SYMBOL
62
7
6
CONTINUOUS
10
34.6735507579
20
20.3513235795
0
VERTEX
8
___SYMBOL
62
7
6
CONTINUOUS
10
34.6736060532
20
20.3515171032
0
VERTEX
8
___SYMBOL
62
7
6
CONTINUOUS
10
34.6736550315
20
20.3517123315
0
VERTEX
8
___SYMBOL
62
7
6
CONTINUOUS
10
34.6736976574
20
20.3519090507
0
VERTEX
8
___SYMBOL
62
7
6
CONTINUOUS
10
34.6737338957
20
20.3521070473
0
VERTEX
8
___SYMBOL
62
7
6
CONTINUOUS
10
34.6737637111
20
20.3523061078
0
VERTEX
8
___SYMBOL
62
7
6
CONTINUOUS
10
34.6737870684
20
20.3525060186
0
VERTEX
8
___SYMBOL
62
7
6
CONTINUOUS
10
34.6738039323
20
20.3527065660
0
VERTEX
8
___SYMBOL
62
7
6
CONTINUOUS
10
34.6738142675
20
20.3529075365
0
VERTEX
8
___SYMBOL
62
7
6
CONTINUOUS
10
34.6738180386
20
20.3531087166
0
VERTEX
8
___SYMBOL
62
7
6
CONTINUOUS
10
34.6738152106
20
20.3533098927
0
VERTEX
8
___SYMBOL
62
7
6
CONTINUOUS
10
34.6738057480
20
20.3535108511
0
VERTEX
8
___SYMBOL
62
7
6
CONTINUOUS
10
34.6737896156
20
20.3537113784
0
VERTEX
8
___SYMBOL
62
7
6
CONTINUOUS
10
34.6737667968
20
20.3539112624
0
VERTEX
8
___SYMBOL
62
7
6
CONTINUOUS
10
34.6737373497
20
20.3541102970
0
VERTEX
8
___SYMBOL
62
7
6
CONTINUOUS
10
34.6737013508
20
20.3543082776
0
VERTEX
8
___SYMBOL
62
7
6
CONTINUOUS
10
34.6736588771
20
20.3545049994
0
VERTEX
8
___SYMBOL
62
7
6
CONTINUOUS
10
34.6736100050
20
20.3547002579
0
VERTEX
8
___SYMBOL
62
7
6
CONTINUOUS
10
34.6735548115
20
20.3548938485
0
VERTEX
8
___SYMBOL
62
7
6
CONTINUOUS
10
34.6734933730
20
20.3550855664
0
VERTEX
8
___SYMBOL
62
7
6
CONTINUOUS
10
34.6734257664
20
20.3552752070
0
VERTEX
8
___SYMBOL
62
7
6
CONTINUOUS
10
34.6733520684
20
20.3554625657
0
VERTEX
8
___SYMBOL
62
7
6
CONTINUOUS
10
34.6732723557
20
20.3556474379
0
VERTEX
8
___SYMBOL
62
7
6
CONTINUOUS
10
34.6731867049
20
20.3558296188
0
VERTEX
8
___SYMBOL
62
7
6
CONTINUOUS
10
34.6730951928
20
20.3560089039
0
VERTEX
8
___SYMBOL
62
7
6
CONTINUOUS
10
34.6729978961
20
20.3561850885
0
VERTEX
8
___SYMBOL
62
7
6
CONTINUOUS
10
34.6728948914
20
20.3563579679
0
VERTEX
8
___SYMBOL
62
7
6
CONTINUOUS
10
34.6727862555
20
20.3565273375
0
VERTEX
8
___SYMBOL
62
7
6
CONTINUOUS
10
34.6726720652
20
20.3566929927
0
VERTEX
8
___SYMBOL
62
7
6
CONTINUOUS
10
34.6725524120
20
20.3568547400
0
VERTEX
8
___SYMBOL
62
7
6
CONTINUOUS
10
34.6724274480
20
20.3570124304
0
VERTEX
8
___SYMBOL
62
7
6
CONTINUOUS
10
34.6722973402
20
20.3571659260
0
VERTEX
8
___SYMBOL
62
7
6
CONTINUOUS
10
34.6721622555
20
20.3573150892
0
VERTEX
8
___SYMBOL
62
7
6
CONTINUOUS
10
34.6720223609
20
20.3574597820
0
VERTEX
8
___SYMBOL
62
7
6
CONTINUOUS
10
34.6718778234
20
20.3575998667
0
VERTEX
8
___SYMBOL
62
7
6
CONTINUOUS
10
34.6717288099
20
20.3577352055
0
VERTEX
8
___SYMBOL
62
7
6
CONTINUOUS
10
34.6715754875
20
20.3578656606
0
VERTEX
8
___SYMBOL
62
7
6
CONTINUOUS
10
34.6714180231
20
20.3579910941
0
VERTEX
8
___SYMBOL
62
7
6
CONTINUOUS
10
34.6712565836
20
20.3581113682
0
VERTEX
8
___SYMBOL
62
7
6
CONTINUOUS
10
34.6710913362
20
20.3582263451
0
VERTEX
8
___SYMBOL
62
7
6
CONTINUOUS
10
34.6709224477
20
20.3583358871
0
VERTEX
8
___SYMBOL
62
7
6
CONTINUOUS
10
34.6707500851
20
20.3584398563
0
VERTEX
8
___SYMBOL
62
7
6
CONTINUOUS
10
34.6705744154
20
20.3585381149
0
VERTEX
8
___SYMBOL
62
7
6
CONTINUOUS
10
34.6703956056
20
20.3586305251
0
VERTEX
8
___SYMBOL
62
7
6
CONTINUOUS
10
34.6702138226
20
20.3587169491
0
SEQEND
0
LINE
8
___SYMBOL
62
7
6
CONTINUOUS
10
34.6753009643
20
20.3291860695
11
34.6600309643
21
20.3312260695
0
LINE
8
___SYMBOL
62
7
6
CONTINUOUS
10
34.6600309643
20
20.3312260695
11
34.6539209643
21
20.3332560695
0
LINE
8
___SYMBOL
62
7
6
CONTINUOUS
10
34.6539209643
20
20.3332560695
11
34.6467909643
21
20.3332560695
0
POLYLINE
8
___SYMBOL
62
7
6
CONTINUOUS
66
1
70
0
0
VERTEX
8
___SYMBOL
62
7
6
CONTINUOUS
10
34.7730609643
20
20.7829260695
0
VERTEX
8
___SYMBOL
62
7
6
CONTINUOUS
10
34.7731298015
20
20.7846957283
0
VERTEX
8
___SYMBOL
62
7
6
CONTINUOUS
10
34.7731309897
20
20.7864662354
0
VERTEX
8
___SYMBOL
62
7
6
CONTINUOUS
10
34.7730649696
20
20.7882359424
0
VERTEX
8
___SYMBOL
62
7
6
CONTINUOUS
10
34.7729321819
20
20.7900032007
0
VERTEX
8
___SYMBOL
62
7
6
CONTINUOUS
10
34.7727330675
20
20.7917663618
0
VERTEX
8
___SYMBOL
62
7
6
CONTINUOUS
10
34.7724680671
20
20.7935237772
0
VERTEX
8
___SYMBOL
62
7
6
CONTINUOUS
10
34.7721376213
20
20.7952737982
0
VERTEX
8
___SYMBOL
62
7
6
CONTINUOUS
10
34.7717421709
20
20.7970147765
0
VERTEX
8
___SYMBOL
62
7
6
CONTINUOUS
10
34.7712821567
20
20.7987450635
0
VERTEX
8
___SYMBOL
62
7
6
CONTINUOUS
10
34.7707580193
20
20.8004630106
0
VERTEX
8
___SYMBOL
62
7
6
CONTINUOUS
10
34.7701701996
20
20.8021669692
0
VERTEX
8
___SYMBOL
62
7
6
CONTINUOUS
10
34.7695191383
20
20.8038552910
0
VERTEX
8
___SYMBOL
62
7
6
CONTINUOUS
10
34.7688052761
20
20.8055263272
0
VERTEX
8
___SYMBOL
62
7
6
CONTINUOUS
10
34.7680290537
20
20.8071784295
0
VERTEX
8
___SYMBOL
62
7
6
CONTINUOUS
10
34.7671909119
20
20.8088099493
0
VERTEX
8
___SYMBOL
62
7
6
CONTINUOUS
10
34.7662912914
20
20.8104192380
0
VERTEX
8
___SYMBOL
62
7
6
CONTINUOUS
10
34.7653306330
20
20.8120046471
0
VERTEX
8
___SYMBOL
62
7
6
CONTINUOUS
10
34.7643095373
20
20.8135645927
0
VERTEX
8
___SYMBOL
62
7
6
CONTINUOUS
10
34.7632292444
20
20.8150977498
0
VERTEX
8
___SYMBOL
62
7
6
CONTINUOUS
10
34.7620911543
20
20.8166028579
0
VERTEX
8
___SYMBOL
62
7
6
CONTINUOUS
10
34.7608966673
20
20.8180786565
0
VERTEX
8
___SYMBOL
62
7
6
CONTINUOUS
10
34.7596471832
20
20.8195238851
0
VERTEX
8
___SYMBOL
62
7
6
CONTINUOUS
10
34.7583441022
20
20.8209372834
0
VERTEX
8
___SYMBOL
62
7
6
CONTINUOUS
10
34.7569888242
20
20.8223175909
0
VERTEX
8
___SYMBOL
62
7
6
CONTINUOUS
10
34.7555827494
20
20.8236635472
0
VERTEX
8
___SYMBOL
62
7
6
CONTINUOUS
10
34.7541272778
20
20.8249738917
0
VERTEX
8
___SYMBOL
62
7
6
CONTINUOUS
10
34.7526238094
20
20.8262473640
0
VERTEX
8
___SYMBOL
62
7
6
CONTINUOUS
10
34.7510737443
20
20.8274827038
0
VERTEX
8
___SYMBOL
62
7
6
CONTINUOUS
10
34.7494784825
20
20.8286786505
0
VERTEX
8
___SYMBOL
62
7
6
CONTINUOUS
10
34.7478394241
20
20.8298339436
0
VERTEX
8
___SYMBOL
62
7
6
CONTINUOUS
10
34.7461579692
20
20.8309473229
0
VERTEX
8
___SYMBOL
62
7
6
CONTINUOUS
10
34.7444355177
20
20.8320175277
0
VERTEX
8
___SYMBOL
62
7
6
CONTINUOUS
10
34.7426734698
20
20.8330432977
0
VERTEX
8
___SYMBOL
62
7
6
CONTINUOUS
10
34.7408732254
20
20.8340233724
0
VERTEX
8
___SYMBOL
62
7
6
CONTINUOUS
10
34.7389173561
20
20.8350148059
0
VERTEX
8
___SYMBOL
62
7
6
CONTINUOUS
10
34.7369221885
20
20.8359524517
0
VERTEX
8
___SYMBOL
62
7
6
CONTINUOUS
10
34.7348900877
20
20.8368356887
0
VERTEX
8
___SYMBOL
62
7
6
CONTINUOUS
10
34.7328234190
20
20.8376638956
0
VERTEX
8
___SYMBOL
62
7
6
CONTINUOUS
10
34.7307245474
20
20.8384364512
0
VERTEX
8
___SYMBOL
62
7
6
CONTINUOUS
10
34.7285958381
20
20.8391527344
0
VERTEX
8
___SYMBOL
62
7
6
CONTINUOUS
10
34.7264396563
20
20.8398121241
0
VERTEX
8
___SYMBOL
62
7
6
CONTINUOUS
10
34.7242583669
20
20.8404139990
0
VERTEX
8
___SYMBOL
62
7
6
CONTINUOUS
10
34.7220543353
20
20.8409577380
0
VERTEX
8
___SYMBOL
62
7
6
CONTINUOUS
10
34.7198299265
20
20.8414427199
0
VERTEX
8
___SYMBOL
62
7
6
CONTINUOUS
10
34.7175875056
20
20.8418683235
0
VERTEX
8
___SYMBOL
62
7
6
CONTINUOUS
10
34.7153294379
20
20.8422339276
0
VERTEX
8
___SYMBOL
62
7
6
CONTINUOUS
10
34.7130580884
20
20.8425389112
0
VERTEX
8
___SYMBOL
62
7
6
CONTINUOUS
10
34.7107758222
20
20.8427826529
0
VERTEX
8
___SYMBOL
62
7
6
CONTINUOUS
10
34.7090421799
20
20.8429260695
0
SEQEND
0
LINE
8
___SYMBOL
62
7
6
CONTINUOUS
10
33.9925309643
20
20.3760260695
11
33.0594509643
21
20.3760260695
0
LINE
8
___SYMBOL
62
7
6
CONTINUOUS
10
33.0594509643
20
20.3760260695
11
33.0352109643
21
20.4843760695
0
LINE
8
___SYMBOL
62
7
6
CONTINUOUS
10
33.0352109643
20
20.4843760695
11
33.0879609643
21
20.5414060695
0
LINE
8
___SYMBOL
62
7
6
CONTINUOUS
10
33.0879609643
20
20.5414060695
11
33.0594509643
21
20.6583060695
0
LINE
8
___SYMBOL
62
7
6
CONTINUOUS
10
33.0594509643
20
20.6583060695
11
33.1321509643
21
20.7039260695
0
LINE
8
___SYMBOL
62
7
6
CONTINUOUS
10
33.1321509643
20
20.7039260695
11
33.1350009643
21
20.7965960695
0
LINE
8
___SYMBOL
62
7
6
CONTINUOUS
10
33.1350009643
20
20.7965960695
11
33.2262509643
21
20.8429260695
0
LINE
8
___SYMBOL
62
7
6
CONTINUOUS
10
33.2262509643
20
20.8429260695
11
34.7090421799
21
20.8429260695
0
LINE
8
___SYMBOL
62
7
6
CONTINUOUS
10
34.0830509643
20
20.3760260695
11
34.7730609643
21
20.3760260695
0
LINE
8
___SYMBOL
62
7
6
CONTINUOUS
10
34.7730609643
20
20.3760260695
11
34.7730609643
21
20.7829260695
0
LINE
8
___SYMBOL
62
2
6
CONTINUOUS
10
34.7174609643
20
20.3760260695
11
34.7730609643
21
20.4259260695
0
LINE
8
___SYMBOL
62
2
6
CONTINUOUS
10
34.5300050229
20
20.3760260695
11
34.7730609643
21
20.5941560695
0
LINE
8
___SYMBOL
62
2
6
CONTINUOUS
10
34.4219829643
20
20.3760260695
11
34.7730609643
21
20.6910960695
0
LINE
8
___SYMBOL
62
2
6
CONTINUOUS
10
34.3219092506
20
20.3760260695
11
34.7730609643
21
20.7809060695
0
LINE
8
___SYMBOL
62
2
6
CONTINUOUS
10
34.2122111460
20
20.3760260695
11
34.7365681612
21
20.8361114133
0
LINE
8
___SYMBOL
62
2
6
CONTINUOUS
10
34.1350909643
20
20.4092760695
11
34.6183061139
21
20.8429260695
0
LINE
8
___SYMBOL
62
2
6
CONTINUOUS
10
34.1350909643
20
20.5160560695
11
34.4993212791
21
20.8429260695
0
LINE
8
___SYMBOL
62
2
6
CONTINUOUS
10
34.1350909643
20
20.6162460695
11
34.3876729722
21
20.8429260695
0
LINE
8
___SYMBOL
62
2
6
CONTINUOUS
10
33.6483089646
20
20.3760260695
11
33.9355009643
21
20.6337613411
0
LINE
8
___SYMBOL
62
2
6
CONTINUOUS
10
33.5366664243
20
20.3760260695
11
34.0569229674
21
20.8429260695
0
LINE
8
___SYMBOL
62
2
6
CONTINUOUS
10
33.4283206714
20
20.3760260695
11
33.9485818299
21
20.8429260695
0
LINE
8
___SYMBOL
62
2
6
CONTINUOUS
10
34.0491209643
20
20.6363360695
11
34.2793192416
21
20.8429260695
0
LINE
8
___SYMBOL
62
2
6
CONTINUOUS
10
33.8674057903
20
20.3760260695
11
33.9355009643
21
20.4371360695
0
LINE
8
___SYMBOL
62
2
6
CONTINUOUS
10
33.3189889646
20
20.3760260695
11
33.8392512625
21
20.8429260695
0
LINE
8
___SYMBOL
62
2
6
CONTINUOUS
10
33.2073300319
20
20.3760260695
11
33.7280709643
21
20.8433460695
0
LINE
8
___SYMBOL
62
2
6
CONTINUOUS
10
33.0989906714
20
20.3760260695
11
33.6192518299
21
20.8429260695
0
LINE
8
___SYMBOL
62
2
6
CONTINUOUS
10
33.0468278879
20
20.4324497629
11
33.5042212841
21
20.8429260695
0
LINE
8
___SYMBOL
62
2
6
CONTINUOUS
10
33.0823282255
20
20.5645020766
11
33.3925729630
21
20.8429260695
0
LINE
8
___SYMBOL
62
2
6
CONTINUOUS
10
33.1322306648
20
20.7065175941
11
33.2842319022
21
20.8429260695
0
LINE
8
___SYMBOL
62
2
6
CONTINUOUS
10
34.2812209643
20
20.2691060695
11
34.3275509643
21
20.3118760695
0
LINE
8
___SYMBOL
62
2
6
CONTINUOUS
10
34.3358709643
20
20.2691060695
11
34.3822009643
21
20.3118760695
0
LINE
8
___SYMBOL
62
2
6
CONTINUOUS
10
34.4035809643
20
20.2691060695
11
34.4499209643
21
20.3118760695
0
LINE
8
___SYMBOL
62
2
6
CONTINUOUS
10
34.4629909643
20
20.2691060695
11
34.5093209643
21
20.3118760695
0
LINE
8
___SYMBOL
62
2
6
CONTINUOUS
10
34.5212009643
20
20.2691060695
11
34.5675309643
21
20.3118760695
0
LINE
8
___SYMBOL
62
2
6
CONTINUOUS
10
34.5782209643
20
20.2691060695
11
34.6245609643
21
20.3118760695
0
LINE
8
___SYMBOL
62
2
6
CONTINUOUS
10
34.6423809643
20
20.2691060695
11
34.6857110145
21
20.3091030389
0
LINE
8
___SYMBOL
62
2
6
CONTINUOUS
10
34.7288826962
20
20.2232941133
11
34.7604103591
21
20.2524061194
0
LINE
8
___SYMBOL
62
2
6
CONTINUOUS
10
34.7374209643
20
20.1584374445
11
34.7778109643
21
20.1957260695
0
LINE
8
___SYMBOL
62
2
6
CONTINUOUS
10
34.7374209643
20
20.0963860695
11
34.7778109643
21
20.1336660695
0
LINE
8
___SYMBOL
62
2
6
CONTINUOUS
10
34.7374209643
20
20.0262960695
11
34.7778109643
21
20.0635760695
0
LINE
8
___SYMBOL
62
2
6
CONTINUOUS
10
34.7374209643
20
19.9561960695
11
34.7778109643
21
19.9934860695
0
LINE
8
___SYMBOL
62
2
6
CONTINUOUS
10
34.7374209643
20
19.8801660695
11
34.7778109643
21
19.9174460695
0
LINE
8
___SYMBOL
62
2
6
CONTINUOUS
10
34.7374209643
20
19.8148260695
11
34.7778109643
21
19.8521060695
0
LINE
8
___SYMBOL
62
2
6
CONTINUOUS
10
34.7374209643
20
19.7482960695
11
34.7778109643
21
19.7855760695
0
LINE
8
___SYMBOL
62
2
6
CONTINUOUS
10
34.7374209643
20
19.6710760695
11
34.7778109643
21
19.7083560695
0
LINE
8
___SYMBOL
62
2
6
CONTINUOUS
10
34.7374209643
20
19.6021660695
11
34.7778109643
21
19.6394460695
0
LINE
8
___SYMBOL
62
2
6
CONTINUOUS
10
34.7374209643
20
19.5320760695
11
34.7778109643
21
19.5693560695
0
LINE
8
___SYMBOL
62
2
6
CONTINUOUS
10
34.7374209643
20
19.4738629926
11
34.7778109643
21
19.5111460695
0
LINE
8
___SYMBOL
62
7
6
CONTINUOUS
10
33.9925309643
20
20.1241660695
11
34.0830509643
21
20.1241660695
0
LINE
8
___SYMBOL
62
2
6
CONTINUOUS
10
33.7592298060
20
20.3760260695
11
33.9355009643
21
20.5342160695
0
LINE
8
___SYMBOL
62
2
6
CONTINUOUS
10
33.9382251023
20
20.6362060695
11
34.1685712625
21
20.8429260695
0
LINE
8
___SYMBOL
62
7
6
CONTINUOUS
10
33.9355009643
20
20.6362060695
11
33.9355009643
21
20.3760260695
0
ENDBLK
8
0
6
BYBLOCK
62
0
0
BLOCK
8
___SYMBOL
62
2
6
CONTINUOUS
2
CUT-OUT_TEMPLATE_SKU_SIN_BL2
70
64
10
8.2503145221
20
22.6893854299
0
TEXT
8
___SYMBOL
62
2
6
CONTINUOUS
10
5.8448766270
20
24.3501979874
40
0.2500000089
1
CUT-OUT TEMPLATE
72
5
11
9.0448767408
21
24.3501979874
0
TEXT
8
___SYMBOL
62
2
6
CONTINUOUS
10
5.8448766270
20
23.9751979740
40
0.2500000089
1
UNDERCOUNTER SINK
72
5
11
9.2448767479
21
23.9751979740
0
TEXT
8
___SYMBOL
62
2
6
CONTINUOUS
10
5.8448766270
20
23.6001979607
40
0.2500000089
1
PLANTILLA DE RECORTE
72
5
11
9.8448767692
21
23.6001979607
0
TEXT
8
___SYMBOL
62
2
6
CONTINUOUS
10
5.8448766270
20
23.2251979474
40
0.2500000089
1
FREGADERO MONTADO DEBAJO
72
5
11
10.6448767976
21
23.2251979474
0
TEXT
8
___SYMBOL
62
2
6
CONTINUOUS
10
5.8448766270
20
22.8501979340
40
0.2500000089
1
  DEL MOSTRADOR
72
5
11
8.8448767337
21
22.8501979340
0
TEXT
8
___SYMBOL
62
2
6
CONTINUOUS
10
5.8448766270
20
22.4751979207
40
0.2500000089
1
PLAN DE DÉCOUPE
72
5
11
8.8448767337
21
22.4751979207
0
TEXT
8
___SYMBOL
62
2
6
CONTINUOUS
10
5.8448766270
20
22.1001979074
40
0.2500000089
1
ÉVIER SOUS-COMPTOIR
72
5
11
9.6448767621
21
22.1001979074
0
TEXT
8
___SYMBOL
62
2
6
CONTINUOUS
10
5.8448766270
20
21.7251978941
40
0.2500000089
1
UNDERTONE
72
5
11
7.6448766910
21
21.7251978941
0
TEXT
8
___SYMBOL
62
2
6
CONTINUOUS
10
7.6448766910
20
21.7251978941
40
0.2500000089
1
   
72
5
11
8.2448767123
21
21.7251978941
0
TEXT
8
___SYMBOL
62
2
6
CONTINUOUS
10
8.2448767123
20
21.7251978941
40
0.2500000089
1
3165
72
5
11
9.0448767408
21
21.7251978941
0
TEXT
8
___SYMBOL
62
2
6
CONTINUOUS
10
9.0448767408
20
21.7251978941
40
0.2500000089
1
-**-
72
5
11
9.8448767692
21
21.7251978941
0
TEXT
8
___SYMBOL
62
2
6
CONTINUOUS
10
9.8448767692
20
21.7251978941
40
0.2500000089
1
AA
72
5
11
10.2448767834
21
21.7251978941
0
LINE
8
___SYMBOL
62
2
6
CONTINUOUS
10
6.3714484219
20
25.4021112626
11
6.1581449625
21
25.1484629806
0
LINE
8
___SYMBOL
62
2
6
CONTINUOUS
10
6.1793866030
20
25.4021112626
11
6.3714484219
21
25.4021112626
0
LINE
8
___SYMBOL
62
2
6
CONTINUOUS
10
6.1793866030
20
25.4021112626
11
6.0416224314
21
25.2382900671
0
LINE
8
___SYMBOL
62
2
6
CONTINUOUS
10
6.0416224314
20
25.4021112626
11
6.0416224314
21
25.2382900671
0
LINE
8
___SYMBOL
62
2
6
CONTINUOUS
10
5.8671221982
20
25.4021112626
11
6.0416224314
21
25.4021112626
0
LINE
8
___SYMBOL
62
2
6
CONTINUOUS
10
5.8671221982
20
25.4021112626
11
5.8671221982
21
24.8161735889
0
LINE
8
___SYMBOL
62
2
6
CONTINUOUS
10
6.0416224314
20
24.8161975924
11
5.8671221982
21
24.8161735889
0
LINE
8
___SYMBOL
62
2
6
CONTINUOUS
10
6.0416224314
20
25.0176974336
11
6.0416224314
21
24.8161975924
0
LINE
8
___SYMBOL
62
2
6
CONTINUOUS
10
6.1953603769
20
24.8161975924
11
6.0416224314
21
25.0176974336
0
LINE
8
___SYMBOL
62
2
6
CONTINUOUS
10
6.1953603769
20
24.8161975924
11
6.4116528062
21
24.8161975924
0
LINE
8
___SYMBOL
62
2
6
CONTINUOUS
10
6.4116528062
20
24.8161975924
11
6.1581449625
21
25.1484629806
0
SOLID
8
___SYMBOL
62
2
6
CONTINUOUS
10
6.0416224314
20
25.2382900671
11
6.1793866030
21
25.4021112626
12
6.3714484219
22
25.4021112626
13
6.3714484219
23
25.4021112626
0
SOLID
8
___SYMBOL
62
2
6
CONTINUOUS
10
6.3714484219
20
25.4021112626
11
6.1581449625
21
25.1484629806
12
6.0416224314
22
25.2382900671
13
6.0416224314
23
25.2382900671
0
SOLID
8
___SYMBOL
62
2
6
CONTINUOUS
10
6.0416224314
20
25.0176974336
11
6.1581449625
21
25.1484629806
12
6.1953603769
22
24.8161975924
13
6.1953603769
23
24.8161975924
0
SOLID
8
___SYMBOL
62
2
6
CONTINUOUS
10
6.1581449625
20
25.1484629806
11
6.4116528062
21
24.8161975924
12
6.1953603769
22
24.8161975924
13
6.1953603769
23
24.8161975924
0
SOLID
8
___SYMBOL
62
2
6
CONTINUOUS
10
6.0416224314
20
24.8161975924
11
5.8671221982
21
24.8161735889
12
6.0416224314
22
25.0176974336
13
6.0416224314
23
25.0176974336
0
SOLID
8
___SYMBOL
62
2
6
CONTINUOUS
10
6.1581449625
20
25.1484629806
11
6.0416224314
21
25.0176974336
12
6.0416224314
22
25.2382900671
13
6.0416224314
23
25.2382900671
0
SOLID
8
___SYMBOL
62
2
6
CONTINUOUS
10
6.0416224314
20
25.0176974336
11
5.8671221982
21
24.8161735889
12
6.0416224314
22
25.2382900671
13
6.0416224314
23
25.2382900671
0
SOLID
8
___SYMBOL
62
2
6
CONTINUOUS
10
6.0416224314
20
25.2382900671
11
5.8671221982
21
24.8161735889
12
6.0416224314
22
25.4021112626
13
6.0416224314
23
25.4021112626
0
SOLID
8
___SYMBOL
62
2
6
CONTINUOUS
10
5.8671221982
20
24.8161735889
11
5.8671221982
21
25.4021112626
12
6.0416224314
22
25.4021112626
13
6.0416224314
23
25.4021112626
0
CIRCLE
8
___SYMBOL
62
2
6
CONTINUOUS
10
6.5881616491
20
25.1080331756
40
0.2980566016
0
CIRCLE
8
___SYMBOL
62
2
6
CONTINUOUS
10
6.5881616491
20
25.1080331756
40
0.1247694195
0
SOLID
8
___SYMBOL
62
2
6
CONTINUOUS
10
6.4960570939
20
25.3915018488
11
6.5570062506
21
25.4044569919
12
6.6193170476
22
25.4044569919
13
6.6193170476
23
25.4044569919
0
SOLID
8
___SYMBOL
62
2
6
CONTINUOUS
10
6.6193170476
20
25.4044569919
11
6.6802662043
21
25.3915018488
12
6.4960570939
22
25.3915018488
13
6.4960570939
23
25.3915018488
0
SOLID
8
___SYMBOL
62
2
6
CONTINUOUS
10
6.4391333483
20
25.3661577643
11
6.4960570939
21
25.3915018488
12
6.6802662043
22
25.3915018488
13
6.6802662043
23
25.3915018488
0
SOLID
8
___SYMBOL
62
2
6
CONTINUOUS
10
6.6802662043
20
25.3915018488
11
6.7371899499
21
25.3661577643
12
6.4391333483
22
25.3661577643
13
6.4391333483
23
25.3661577643
0
SOLID
8
___SYMBOL
62
2
6
CONTINUOUS
10
6.3887228545
20
25.3295323968
11
6.4391333483
21
25.3661577643
12
6.7371899499
22
25.3661577643
13
6.7371899499
23
25.3661577643
0
SOLID
8
___SYMBOL
62
2
6
CONTINUOUS
10
6.7371899499
20
25.3661577643
11
6.7876004436
21
25.3295323968
12
6.3887228545
22
25.3295323968
13
6.3887228545
23
25.3295323968
0
SOLID
8
___SYMBOL
62
2
6
CONTINUOUS
10
6.3470287931
20
25.2832264504
11
6.3887228545
21
25.3295323968
12
6.7876004436
22
25.3295323968
13
6.7876004436
23
25.3295323968
0
SOLID
8
___SYMBOL
62
2
6
CONTINUOUS
10
6.7876004436
20
25.3295323968
11
6.8292945051
21
25.2832264504
12
6.3470287931
22
25.2832264504
13
6.3470287931
23
25.2832264504
0
SOLID
8
___SYMBOL
62
2
6
CONTINUOUS
10
6.5881616491
20
25.2328025951
11
6.3158733946
21
25.2292637172
12
6.8292945051
22
25.2832264504
13
6.8292945051
23
25.2832264504
0
SOLID
8
___SYMBOL
62
2
6
CONTINUOUS
10
6.3158733946
20
25.2292637172
11
6.3470287931
21
25.2832264504
12
6.8292945051
22
25.2832264504
13
6.8292945051
23
25.2832264504
0
SOLID
8
___SYMBOL
62
2
6
CONTINUOUS
10
6.8292945051
20
25.2832264504
11
6.8604499036
21
25.2292637172
12
6.5881616491
22
25.2328025951
13
6.5881616491
23
25.2328025951
0
SOLID
8
___SYMBOL
62
2
6
CONTINUOUS
10
6.5881616491
20
25.2328025951
11
6.5496057781
21
25.2266959451
12
6.3158733946
22
25.2292637172
13
6.3158733946
23
25.2292637172
0
SOLID
8
___SYMBOL
62
2
6
CONTINUOUS
10
6.6267175201
20
25.2266959451
11
6.5881616491
21
25.2328025951
12
6.8604499036
22
25.2292637172
13
6.8604499036
23
25.2292637172
0
SOLID
8
___SYMBOL
62
2
6
CONTINUOUS
10
6.4872210683
20
25.1813708003
11
6.2966182994
21
25.1700026276
12
6.5148240244
22
25.2089737564
13
6.5148240244
23
25.2089737564
0
SOLID
8
___SYMBOL
62
2
6
CONTINUOUS
10
6.5148240244
20
25.2089737564
11
6.2966182994
21
25.1700026276
12
6.5496057781
22
25.2266959451
13
6.5496057781
23
25.2266959451
0
SOLID
8
___SYMBOL
62
2
6
CONTINUOUS
10
6.2966182994
20
25.1700026276
11
6.3158733946
21
25.2292637172
12
6.5496057781
22
25.2266959451
13
6.5496057781
23
25.2266959451
0
SOLID
8
___SYMBOL
62
2
6
CONTINUOUS
10
6.6267175201
20
25.2266959451
11
6.8604499036
21
25.2292637172
12
6.6614992738
22
25.2089737564
13
6.6614992738
23
25.2089737564
0
SOLID
8
___SYMBOL
62
2
6
CONTINUOUS
10
6.6614992738
20
25.2089737564
11
6.8604499036
21
25.2292637172
12
6.6891022299
22
25.1813708003
13
6.6891022299
23
25.1813708003
0
SOLID
8
___SYMBOL
62
2
6
CONTINUOUS
10
6.8604499036
20
25.2292637172
11
6.8797049988
21
25.1700026276
12
6.6891022299
22
25.1813708003
13
6.6891022299
23
25.1813708003
0
SOLID
8
___SYMBOL
62
2
6
CONTINUOUS
10
6.4872210683
20
25.1813708003
11
6.4694988796
21
25.1465890466
12
6.2966182994
22
25.1700026276
13
6.2966182994
23
25.1700026276
0
SOLID
8
___SYMBOL
62
2
6
CONTINUOUS
10
6.7068244186
20
25.1465890466
11
6.6891022299
21
25.1813708003
12
6.8797049988
22
25.1700026276
13
6.8797049988
23
25.1700026276
0
SOLID
8
___SYMBOL
62
2
6
CONTINUOUS
10
6.2901050475
20
25.1080331756
11
6.2966182994
21
25.1700026276
12
6.4694988796
22
25.1465890466
13
6.4694988796
23
25.1465890466
0
SOLID
8
___SYMBOL
62
2
6
CONTINUOUS
10
6.4694988796
20
25.1465890466
11
6.4633922296
21
25.1080331756
12
6.2901050475
22
25.1080331756
13
6.2901050475
23
25.1080331756
0
SOLID
8
___SYMBOL
62
2
6
CONTINUOUS
10
6.7068244186
20
25.1465890466
11
6.8797049988
21
25.1700026276
12
6.7129310686
22
25.1080331756
13
6.7129310686
23
25.1080331756
0
SOLID
8
___SYMBOL
62
2
6
CONTINUOUS
10
6.8797049988
20
25.1700026276
11
6.8862182507
21
25.1080331756
12
6.7129310686
22
25.1080331756
13
6.7129310686
23
25.1080331756
0
SOLID
8
___SYMBOL
62
2
6
CONTINUOUS
10
6.7068244186
20
25.0694773046
11
6.7129310686
21
25.1080331756
12
6.8862182507
22
25.1080331756
13
6.8862182507
23
25.1080331756
0
SOLID
8
___SYMBOL
62
2
6
CONTINUOUS
10
6.4694988796
20
25.0694773046
11
6.2966182994
21
25.0460637236
12
6.4633922296
22
25.1080331756
13
6.4633922296
23
25.1080331756
0
SOLID
8
___SYMBOL
62
2
6
CONTINUOUS
10
6.2966182994
20
25.0460637236
11
6.2901050475
21
25.1080331756
12
6.4633922296
22
25.1080331756
13
6.4633922296
23
25.1080331756
0
SOLID
8
___SYMBOL
62
2
6
CONTINUOUS
10
6.8862182507
20
25.1080331756
11
6.8797049988
21
25.0460637236
12
6.7068244186
22
25.0694773046
13
6.7068244186
23
25.0694773046
0
SOLID
8
___SYMBOL
62
2
6
CONTINUOUS
10
6.4694988796
20
25.0694773046
11
6.4872210683
21
25.0346955509
12
6.2966182994
22
25.0460637236
13
6.2966182994
23
25.0460637236
0
SOLID
8
___SYMBOL
62
2
6
CONTINUOUS
10
6.6891022299
20
25.0346955509
11
6.7068244186
21
25.0694773046
12
6.8797049988
22
25.0460637236
13
6.8797049988
23
25.0460637236
0
SOLID
8
___SYMBOL
62
2
6
CONTINUOUS
10
6.5496057781
20
24.9893704061
11
6.3158733946
21
24.9868026340
12
6.5148240244
22
25.0070925948
13
6.5148240244
23
25.0070925948
0
SOLID
8
___SYMBOL
62
2
6
CONTINUOUS
10
6.5148240244
20
25.0070925948
11
6.3158733946
21
24.9868026340
12
6.4872210683
22
25.0346955509
13
6.4872210683
23
25.0346955509
0
SOLID
8
___SYMBOL
62
2
6
CONTINUOUS
10
6.3158733946
20
24.9868026340
11
6.2966182994
21
25.0460637236
12
6.4872210683
22
25.0346955509
13
6.4872210683
23
25.0346955509
0
SOLID
8
___SYMBOL
62
2
6
CONTINUOUS
10
6.6891022299
20
25.0346955509
11
6.8797049988
21
25.0460637236
12
6.6614992738
22
25.0070925948
13
6.6614992738
23
25.0070925948
0
SOLID
8
___SYMBOL
62
2
6
CONTINUOUS
10
6.6614992738
20
25.0070925948
11
6.8797049988
21
25.0460637236
12
6.6267175201
22
24.9893704061
13
6.6267175201
23
24.9893704061
0
SOLID
8
___SYMBOL
62
2
6
CONTINUOUS
10
6.8797049988
20
25.0460637236
11
6.8604499036
21
24.9868026340
12
6.6267175201
22
24.9893704061
13
6.6267175201
23
24.9893704061
0
SOLID
8
___SYMBOL
62
2
6
CONTINUOUS
10
6.5496057781
20
24.9893704061
11
6.5881616491
21
24.9832637561
12
6.3158733946
22
24.9868026340
13
6.3158733946
23
24.9868026340
0
SOLID
8
___SYMBOL
62
2
6
CONTINUOUS
10
6.5881616491
20
24.9832637561
11
6.6267175201
21
24.9893704061
12
6.8604499036
22
24.9868026340
13
6.8604499036
23
24.9868026340
0
SOLID
8
___SYMBOL
62
2
6
CONTINUOUS
10
6.3470287931
20
24.9328399008
11
6.3158733946
21
24.9868026340
12
6.5881616491
22
24.9832637561
13
6.5881616491
23
24.9832637561
0
SOLID
8
___SYMBOL
62
2
6
CONTINUOUS
10
6.5881616491
20
24.9832637561
11
6.8604499036
21
24.9868026340
12
6.3470287931
22
24.9328399008
13
6.3470287931
23
24.9328399008
0
SOLID
8
___SYMBOL
62
2
6
CONTINUOUS
10
6.8604499036
20
24.9868026340
11
6.8292945051
21
24.9328399008
12
6.3470287931
22
24.9328399008
13
6.3470287931
23
24.9328399008
0
SOLID
8
___SYMBOL
62
2
6
CONTINUOUS
10
6.3887228545
20
24.8865339544
11
6.3470287931
21
24.9328399008
12
6.8292945051
22
24.9328399008
13
6.8292945051
23
24.9328399008
0
SOLID
8
___SYMBOL
62
2
6
CONTINUOUS
10
6.8292945051
20
24.9328399008
11
6.7876004436
21
24.8865339544
12
6.3887228545
22
24.8865339544
13
6.3887228545
23
24.8865339544
0
SOLID
8
___SYMBOL
62
2
6
CONTINUOUS
10
6.4391333483
20
24.8499085869
11
6.3887228545
21
24.8865339544
12
6.7876004436
22
24.8865339544
13
6.7876004436
23
24.8865339544
0
SOLID
8
___SYMBOL
62
2
6
CONTINUOUS
10
6.7876004436
20
24.8865339544
11
6.7371899499
21
24.8499085869
12
6.4391333483
22
24.8499085869
13
6.4391333483
23
24.8499085869
0
SOLID
8
___SYMBOL
62
2
6
CONTINUOUS
10
6.4960570939
20
24.8245645024
11
6.4391333483
21
24.8499085869
12
6.7371899499
22
24.8499085869
13
6.7371899499
23
24.8499085869
0
SOLID
8
___SYMBOL
62
2
6
CONTINUOUS
10
6.7371899499
20
24.8499085869
11
6.6802662043
21
24.8245645024
12
6.4960570939
22
24.8245645024
13
6.4960570939
23
24.8245645024
0
SOLID
8
___SYMBOL
62
2
6
CONTINUOUS
10
6.5570062506
20
24.8116093593
11
6.4960570939
21
24.8245645024
12
6.6802662043
22
24.8245645024
13
6.6802662043
23
24.8245645024
0
SOLID
8
___SYMBOL
62
2
6
CONTINUOUS
10
6.6802662043
20
24.8245645024
11
6.6193170476
21
24.8116093593
12
6.5570062506
22
24.8116093593
13
6.5570062506
23
24.8116093593
0
LINE
8
___SYMBOL
62
2
6
CONTINUOUS
10
7.3807976865
20
25.4021112626
11
7.3807976865
21
24.8161975924
0
LINE
8
___SYMBOL
62
2
6
CONTINUOUS
10
7.3807976865
20
24.8161975924
11
7.2160640008
21
24.8161975924
0
LINE
8
___SYMBOL
62
2
6
CONTINUOUS
10
7.2160640008
20
25.0445222103
11
7.2160640008
21
24.8161975924
0
LINE
8
___SYMBOL
62
2
6
CONTINUOUS
10
7.0680671844
20
25.0445222103
11
7.2160640008
21
25.0445222103
0
LINE
8
___SYMBOL
62
2
6
CONTINUOUS
10
7.0680671844
20
25.0445222103
11
7.0680671844
21
24.8161975924
0
LINE
8
___SYMBOL
62
2
6
CONTINUOUS
10
7.0680671844
20
24.8161975924
11
6.9033334987
21
24.8161975924
0
LINE
8
___SYMBOL
62
2
6
CONTINUOUS
10
6.9033334987
20
25.4021112626
11
6.9033334987
21
24.8161975924
0
LINE
8
___SYMBOL
62
2
6
CONTINUOUS
10
6.9033334987
20
25.4021112626
11
7.0680671844
21
25.4021112626
0
LINE
8
___SYMBOL
62
2
6
CONTINUOUS
10
7.0680671844
20
25.4021112626
11
7.0680671844
21
25.1817274951
0
LINE
8
___SYMBOL
62
2
6
CONTINUOUS
10
7.0680671844
20
25.1817274951
11
7.2160640008
21
25.1817274951
0
LINE
8
___SYMBOL
62
2
6
CONTINUOUS
10
7.2160640008
20
25.4021112626
11
7.2160640008
21
25.1817274951
0
LINE
8
___SYMBOL
62
2
6
CONTINUOUS
10
7.2160640008
20
25.4021112626
11
7.3807976865
21
25.4021112626
0
SOLID
8
___SYMBOL
62
2
6
CONTINUOUS
10
7.2160640008
20
25.1817274951
11
7.2160640008
21
25.4021112626
12
7.3807976865
22
25.4021112626
13
7.3807976865
23
25.4021112626
0
SOLID
8
___SYMBOL
62
2
6
CONTINUOUS
10
7.2160640008
20
25.1817274951
11
7.0680671844
21
25.0445222103
12
7.0680671844
22
25.1817274951
13
7.0680671844
23
25.1817274951
0
SOLID
8
___SYMBOL
62
2
6
CONTINUOUS
10
7.0680671844
20
25.0445222103
11
6.9033334987
21
24.8161975924
12
7.0680671844
22
25.1817274951
13
7.0680671844
23
25.1817274951
0
SOLID
8
___SYMBOL
62
2
6
CONTINUOUS
10
7.0680671844
20
25.1817274951
11
6.9033334987
21
24.8161975924
12
7.0680671844
22
25.4021112626
13
7.0680671844
23
25.4021112626
0
SOLID
8
___SYMBOL
62
2
6
CONTINUOUS
10
6.9033334987
20
24.8161975924
11
6.9033334987
21
25.4021112626
12
7.0680671844
22
25.4021112626
13
7.0680671844
23
25.4021112626
0
SOLID
8
___SYMBOL
62
2
6
CONTINUOUS
10
7.0680671844
20
25.0445222103
11
7.0680671844
21
24.8161975924
12
6.9033334987
22
24.8161975924
13
6.9033334987
23
24.8161975924
0
SOLID
8
___SYMBOL
62
2
6
CONTINUOUS
10
7.0680671844
20
25.0445222103
11
7.2160640008
21
25.1817274951
12
7.2160640008
22
25.0445222103
13
7.2160640008
23
25.0445222103
0
SOLID
8
___SYMBOL
62
2
6
CONTINUOUS
10
7.2160640008
20
25.1817274951
11
7.3807976865
21
25.4021112626
12
7.2160640008
22
25.0445222103
13
7.2160640008
23
25.0445222103
0
SOLID
8
___SYMBOL
62
2
6
CONTINUOUS
10
7.2160640008
20
25.0445222103
11
7.3807976865
21
25.4021112626
12
7.2160640008
22
24.8161975924
13
7.2160640008
23
24.8161975924
0
SOLID
8
___SYMBOL
62
2
6
CONTINUOUS
10
7.3807976865
20
25.4021112626
11
7.3807976865
21
24.8161975924
12
7.2160640008
22
24.8161975924
13
7.2160640008
23
24.8161975924
0
LINE
8
___SYMBOL
62
2
6
CONTINUOUS
10
7.5758886004
20
24.8161975924
11
7.7385726761
21
24.8161975924
0
LINE
8
___SYMBOL
62
2
6
CONTINUOUS
10
7.5758886004
20
24.8161975924
11
7.4258425323
21
24.8161975924
0
LINE
8
___SYMBOL
62
2
6
CONTINUOUS
10
7.4258425323
20
24.8161975924
11
7.4258425323
21
25.4021112626
0
LINE
8
___SYMBOL
62
2
6
CONTINUOUS
10
7.4258425323
20
25.4021112626
11
7.5758886004
21
25.4021112626
0
LINE
8
___SYMBOL
62
2
6
CONTINUOUS
10
7.5758886004
20
25.4021112626
11
7.5758886004
21
24.9574243546
0
LINE
8
___SYMBOL
62
2
6
CONTINUOUS
10
7.5758886004
20
24.9574243546
11
7.7385726761
21
24.9574243546
0
LINE
8
___SYMBOL
62
2
6
CONTINUOUS
10
7.7385726761
20
24.9574243546
11
7.7385726761
21
24.8161975924
0
SOLID
8
___SYMBOL
62
2
6
CONTINUOUS
10
7.7385726761
20
24.9574243546
11
7.4258425323
21
24.8161975924
12
7.5758886004
22
24.9574243546
13
7.5758886004
23
24.9574243546
0
SOLID
8
___SYMBOL
62
2
6
CONTINUOUS
10
7.5758886004
20
24.9574243546
11
7.4258425323
21
24.8161975924
12
7.5758886004
22
25.4021112626
13
7.5758886004
23
25.4021112626
0
SOLID
8
___SYMBOL
62
2
6
CONTINUOUS
10
7.4258425323
20
24.8161975924
11
7.4258425323
21
25.4021112626
12
7.5758886004
22
25.4021112626
13
7.5758886004
23
25.4021112626
0
SOLID
8
___SYMBOL
62
2
6
CONTINUOUS
10
7.4258425323
20
24.8161975924
11
7.7385726761
21
24.9574243546
12
7.5758886004
22
24.8161975924
13
7.5758886004
23
24.8161975924
0
SOLID
8
___SYMBOL
62
2
6
CONTINUOUS
10
7.7385726761
20
24.9574243546
11
7.7385726761
21
24.8161975924
12
7.5758886004
22
24.8161975924
13
7.5758886004
23
24.8161975924
0
LINE
8
___SYMBOL
62
2
6
CONTINUOUS
10
8.0768246021
20
25.0373458884
11
8.0768246021
21
25.1817274951
0
LINE
8
___SYMBOL
62
2
6
CONTINUOUS
10
7.9259670734
20
25.1817274951
11
8.0768246021
21
25.1817274951
0
LINE
8
___SYMBOL
62
2
6
CONTINUOUS
10
7.9259670734
20
25.2593518607
11
7.9259670734
21
25.1817274951
0
LINE
8
___SYMBOL
62
2
6
CONTINUOUS
10
7.9259670734
20
25.2593518607
11
8.0768246021
21
25.2593518607
0
LINE
8
___SYMBOL
62
2
6
CONTINUOUS
10
8.0768246021
20
25.2593518607
11
8.0768246021
21
25.4021112626
0
LINE
8
___SYMBOL
62
2
6
CONTINUOUS
10
7.9401713972
20
25.4021112626
11
8.0768246021
21
25.4021112626
0
LINE
8
___SYMBOL
62
2
6
CONTINUOUS
10
7.7677204158
20
25.4021112626
11
7.9401713972
21
25.4021112626
0
LINE
8
___SYMBOL
62
2
6
CONTINUOUS
10
7.7677204158
20
24.8161975924
11
7.7677204158
21
25.4021112626
0
LINE
8
___SYMBOL
62
2
6
CONTINUOUS
10
7.7677204158
20
24.8161975924
11
8.0768246021
21
24.8161975924
0
LINE
8
___SYMBOL
62
2
6
CONTINUOUS
10
8.0768246021
20
24.8161975924
11
8.0768246021
21
24.9574243546
0
LINE
8
___SYMBOL
62
2
6
CONTINUOUS
10
7.9259670734
20
24.9574243546
11
8.0768246021
21
24.9574243546
0
LINE
8
___SYMBOL
62
2
6
CONTINUOUS
10
7.9259670734
20
25.0373458884
11
7.9259670734
21
24.9574243546
0
LINE
8
___SYMBOL
62
2
6
CONTINUOUS
10
7.9259670734
20
25.0373458884
11
8.0768246021
21
25.0373458884
0
SOLID
8
___SYMBOL
62
2
6
CONTINUOUS
10
8.0768246021
20
25.4021112626
11
8.0768246021
21
25.2593518607
12
7.9259670734
22
25.2593518607
13
7.9259670734
23
25.2593518607
0
SOLID
8
___SYMBOL
62
2
6
CONTINUOUS
10
8.0768246021
20
25.1817274951
11
8.0768246021
21
25.0373458884
12
7.9259670734
22
25.0373458884
13
7.9259670734
23
25.0373458884
0
SOLID
8
___SYMBOL
62
2
6
CONTINUOUS
10
8.0768246021
20
24.9574243546
11
7.7677204158
21
24.8161975924
12
7.9259670734
22
24.9574243546
13
7.9259670734
23
24.9574243546
0
SOLID
8
___SYMBOL
62
2
6
CONTINUOUS
10
7.9259670734
20
24.9574243546
11
7.7677204158
21
24.8161975924
12
7.9259670734
22
25.0373458884
13
7.9259670734
23
25.0373458884
0
SOLID
8
___SYMBOL
62
2
6
CONTINUOUS
10
8.0768246021
20
25.1817274951
11
7.9259670734
21
25.0373458884
12
7.9259670734
22
25.1817274951
13
7.9259670734
23
25.1817274951
0
SOLID
8
___SYMBOL
62
2
6
CONTINUOUS
10
7.9259670734
20
25.0373458884
11
7.7677204158
21
24.8161975924
12
7.9259670734
22
25.1817274951
13
7.9259670734
23
25.1817274951
0
SOLID
8
___SYMBOL
62
2
6
CONTINUOUS
10
7.9259670734
20
25.1817274951
11
7.7677204158
21
24.8161975924
12
7.9259670734
22
25.2593518607
13
7.9259670734
23
25.2593518607
0
SOLID
8
___SYMBOL
62
2
6
CONTINUOUS
10
8.0768246021
20
25.4021112626
11
7.9259670734
21
25.2593518607
12
7.9401713972
22
25.4021112626
13
7.9401713972
23
25.4021112626
0
SOLID
8
___SYMBOL
62
2
6
CONTINUOUS
10
7.9259670734
20
25.2593518607
11
7.7677204158
21
24.8161975924
12
7.9401713972
22
25.4021112626
13
7.9401713972
23
25.4021112626
0
SOLID
8
___SYMBOL
62
2
6
CONTINUOUS
10
7.7677204158
20
24.8161975924
11
7.7677204158
21
25.4021112626
12
7.9401713972
22
25.4021112626
13
7.9401713972
23
25.4021112626
0
SOLID
8
___SYMBOL
62
2
6
CONTINUOUS
10
8.0768246021
20
24.9574243546
11
8.0768246021
21
24.8161975924
12
7.7677204158
22
24.8161975924
13
7.7677204158
23
24.8161975924
0
LINE
8
___SYMBOL
62
2
6
CONTINUOUS
10
8.5870750263
20
24.8161975924
11
8.4276317776
21
25.0677801426
0
ARC
8
___SYMBOL
62
2
6
CONTINUOUS
10
8.3551925274
20
25.2271017457
40
0.1750166225
50
294.4500166359
51
90.0000000000
0
LINE
8
___SYMBOL
62
2
6
CONTINUOUS
10
8.1216448184
20
25.4021112626
11
8.3551925274
21
25.4021112626
0
LINE
8
___SYMBOL
62
2
6
CONTINUOUS
10
8.1216448184
20
24.8161975924
11
8.1216448184
21
25.4021112626
0
LINE
8
___SYMBOL
62
2
6
CONTINUOUS
10
8.1216448184
20
24.8161975924
11
8.2723006464
21
24.8161975924
0
LINE
8
___SYMBOL
62
2
6
CONTINUOUS
10
8.2723006464
20
25.0131539702
11
8.2723006464
21
24.8161975924
0
LINE
8
___SYMBOL
62
2
6
CONTINUOUS
10
8.3971240800
20
24.8161975924
11
8.2723006464
21
25.0131539702
0
LINE
8
___SYMBOL
62
2
6
CONTINUOUS
10
8.3971240800
20
24.8161975924
11
8.5870750263
21
24.8161975924
0
LINE
8
___SYMBOL
62
2
6
CONTINUOUS
10
8.2723006464
20
25.1524292859
11
8.3246403984
21
25.1524292859
0
ARC
8
___SYMBOL
62
2
6
CONTINUOUS
10
8.3282304279
20
25.2059206873
40
0.0536117369
50
266.1604009902
51
89.9998910512
0
LINE
8
___SYMBOL
62
2
6
CONTINUOUS
10
8.3282305298
20
25.2595324242
11
8.2723006464
21
25.2595324242
0
LINE
8
___SYMBOL
62
2
6
CONTINUOUS
10
8.2723006464
20
25.2595324242
11
8.2723006464
21
25.1524292859
0
SOLID
8
___SYMBOL
62
2
6
CONTINUOUS
10
8.3551925274
20
25.4021183682
11
8.4021255526
21
25.3957081195
12
8.1216448184
22
25.4021112626
13
8.1216448184
23
25.4021112626
0
SOLID
8
___SYMBOL
62
2
6
CONTINUOUS
10
8.2723006464
20
25.2595324242
11
8.5262403965
21
25.2641617599
12
8.3282305298
22
25.2595324242
13
8.3282305298
23
25.2595324242
0
SOLID
8
___SYMBOL
62
2
6
CONTINUOUS
10
8.3282305298
20
25.2595324242
11
8.5262403965
21
25.2641617599
12
8.3519531122
22
25.2539982556
13
8.3519531122
23
25.2539982556
0
SOLID
8
___SYMBOL
62
2
6
CONTINUOUS
10
8.3519531122
20
25.2539982556
11
8.5262403965
21
25.2641617599
12
8.3707781006
22
25.2385383801
13
8.3707781006
23
25.2385383801
0
SOLID
8
___SYMBOL
62
2
6
CONTINUOUS
10
8.5262403965
20
25.2641617599
11
8.5299136430
21
25.2169356294
12
8.3707781006
22
25.2385383801
13
8.3707781006
23
25.2385383801
0
SOLID
8
___SYMBOL
62
2
6
CONTINUOUS
10
8.3808190395
20
25.2163445187
11
8.3707781006
21
25.2385383801
12
8.5299136430
22
25.2169356294
13
8.5299136430
23
25.2169356294
0
SOLID
8
___SYMBOL
62
2
6
CONTINUOUS
10
8.3808190395
20
25.2163445187
11
8.5299136430
21
25.2169356294
12
8.3800029578
22
25.1919986371
13
8.3800029578
23
25.1919986371
0
SOLID
8
___SYMBOL
62
2
6
CONTINUOUS
10
8.3800029578
20
25.1919986371
11
8.5299136430
21
25.2169356294
12
8.3684983370
22
25.1705269897
13
8.3684983370
23
25.1705269897
0
SOLID
8
___SYMBOL
62
2
6
CONTINUOUS
10
8.5299136430
20
25.2169356294
11
8.5207880390
21
25.1704541977
12
8.3684983370
22
25.1705269897
13
8.3684983370
23
25.1705269897
0
SOLID
8
___SYMBOL
62
2
6
CONTINUOUS
10
8.3486803285
20
25.1563624397
11
8.3684983370
21
25.1705269897
12
8.5207880390
22
25.1704541977
13
8.5207880390
23
25.1704541977
0
SOLID
8
___SYMBOL
62
2
6
CONTINUOUS
10
8.3486803285
20
25.1563624397
11
8.5207880390
21
25.1704541977
12
8.3246403984
22
25.1524292859
13
8.3246403984
23
25.1524292859
0
SOLID
8
___SYMBOL
62
2
6
CONTINUOUS
10
8.5207880390
20
25.1704541977
11
8.4995320626
21
25.1281223703
12
8.3246403984
22
25.1524292859
13
8.3246403984
23
25.1524292859
0
SOLID
8
___SYMBOL
62
2
6
CONTINUOUS
10
8.4276317776
20
25.0677801426
11
8.2723006464
21
25.0131539702
12
8.4677027783
22
25.0930410818
13
8.4677027783
23
25.0930410818
0
SOLID
8
___SYMBOL
62
2
6
CONTINUOUS
10
8.4677027783
20
25.0930410818
11
8.2723006464
21
25.0131539702
12
8.4995320626
22
25.1281223703
13
8.4995320626
23
25.1281223703
0
SOLID
8
___SYMBOL
62
2
6
CONTINUOUS
10
8.4995320626
20
25.1281223703
11
8.2723006464
21
25.0131539702
12
8.3246403984
22
25.1524292859
13
8.3246403984
23
25.1524292859
0
SOLID
8
___SYMBOL
62
2
6
CONTINUOUS
10
8.2723006464
20
25.0131539702
11
8.1216448184
21
24.8161975924
12
8.3246403984
22
25.1524292859
13
8.3246403984
23
25.1524292859
0
SOLID
8
___SYMBOL
62
2
6
CONTINUOUS
10
8.3246403984
20
25.1524292859
11
8.1216448184
21
24.8161975924
12
8.2723006464
22
25.1524292859
13
8.2723006464
23
25.1524292859
0
SOLID
8
___SYMBOL
62
2
6
CONTINUOUS
10
8.2723006464
20
25.1524292859
11
8.1216448184
21
24.8161975924
12
8.2723006464
22
25.2595324242
13
8.2723006464
23
25.2595324242
0
SOLID
8
___SYMBOL
62
2
6
CONTINUOUS
10
8.5262403965
20
25.2641617599
11
8.2723006464
21
25.2595324242
12
8.5100373758
22
25.3086731322
13
8.5100373758
23
25.3086731322
0
SOLID
8
___SYMBOL
62
2
6
CONTINUOUS
10
8.5100373758
20
25.3086731322
11
8.2723006464
21
25.2595324242
12
8.4824915013
22
25.3472091535
13
8.4824915013
23
25.3472091535
0
SOLID
8
___SYMBOL
62
2
6
CONTINUOUS
10
8.4824915013
20
25.3472091535
11
8.2723006464
21
25.2595324242
12
8.4456205916
22
25.3769469437
13
8.4456205916
23
25.3769469437
0
SOLID
8
___SYMBOL
62
2
6
CONTINUOUS
10
8.4456205916
20
25.3769469437
11
8.2723006464
21
25.2595324242
12
8.4021255526
22
25.3957081195
13
8.4021255526
23
25.3957081195
0
SOLID
8
___SYMBOL
62
2
6
CONTINUOUS
10
8.4021255526
20
25.3957081195
11
8.2723006464
21
25.2595324242
12
8.1216448184
22
25.4021112626
13
8.1216448184
23
25.4021112626
0
SOLID
8
___SYMBOL
62
2
6
CONTINUOUS
10
8.1216448184
20
24.8161975924
11
8.1216448184
21
25.4021112626
12
8.2723006464
22
25.2595324242
13
8.2723006464
23
25.2595324242
0
SOLID
8
___SYMBOL
62
2
6
CONTINUOUS
10
8.2723006464
20
25.0131539702
11
8.2723006464
21
24.8161975924
12
8.1216448184
22
24.8161975924
13
8.1216448184
23
24.8161975924
0
SOLID
8
___SYMBOL
62
2
6
CONTINUOUS
10
8.2723006464
20
25.0131539702
11
8.4276317776
21
25.0677801426
12
8.3971240800
22
24.8161975924
13
8.3971240800
23
24.8161975924
0
SOLID
8
___SYMBOL
62
2
6
CONTINUOUS
10
8.4276317776
20
25.0677801426
11
8.5870750263
21
24.8161975924
12
8.3971240800
22
24.8161975924
13
8.3971240800
23
24.8161975924
0
CIRCLE
8
___SYMBOL
62
2
6
CONTINUOUS
10
8.7278450059
20
24.8161975924
40
0.0653578744
0
LINE
8
___SYMBOL
62
2
6
CONTINUOUS
10
8.7235569825
20
24.8156598430
11
8.7554249964
21
24.7833569005
0
LINE
8
___SYMBOL
62
2
6
CONTINUOUS
10
8.7119590059
20
24.7833569005
11
8.7119590059
21
24.8493231017
0
LINE
8
___SYMBOL
62
2
6
CONTINUOUS
10
8.7119590059
20
24.8493231017
11
8.7362383397
21
24.8493231017
0
ARC
8
___SYMBOL
62
2
6
CONTINUOUS
10
8.7362383397
20
24.8324916515
40
0.0168314502
50
270.0000000000
51
90.0000000000
0
LINE
8
___SYMBOL
62
2
6
CONTINUOUS
10
8.7362383397
20
24.8156598430
11
8.7119590059
21
24.8156598430
0
TEXT
8
___SYMBOL
62
2
6
CONTINUOUS
10
5.8526159427
20
20.8652059392
40
0.2500000089
1
UNDERTONE
72
5
11
7.6526160066
21
20.8652059392
0
TEXT
8
___SYMBOL
62
2
6
CONTINUOUS
10
7.6526160066
20
20.8652059392
40
0.2500000089
1
   
72
5
11
8.2526160280
21
20.8652059392
0
TEXT
8
___SYMBOL
62
2
6
CONTINUOUS
10
8.2526160280
20
20.8652059392
40
0.2500000089
1
3166
72
5
11
9.0526160564
21
20.8652059392
0
TEXT
8
___SYMBOL
62
2
6
CONTINUOUS
10
9.0526160564
20
20.8652059392
40
0.2500000089
1
-**-
72
5
11
9.8526160848
21
20.8652059392
0
TEXT
8
___SYMBOL
62
2
6
CONTINUOUS
10
9.8526160848
20
20.8652059392
40
0.2500000089
1
AA
72
5
11
10.2526160991
21
20.8652059392
0
TEXT
8
___SYMBOL
62
2
6
CONTINUOUS
10
5.8557522465
20
19.9726810827
40
0.2500000089
1
UNDERTONE
72
5
11
7.6557523105
21
19.9726810827
0
TEXT
8
___SYMBOL
62
2
6
CONTINUOUS
10
7.6557523105
20
19.9726810827
40
0.2500000089
1
   
72
5
11
8.2557523318
21
19.9726810827
0
TEXT
8
___SYMBOL
62
2
6
CONTINUOUS
10
8.2557523318
20
19.9726810827
40
0.2500000089
1
3166-L
72
5
11
9.4557523745
21
19.9726810827
0
TEXT
8
___SYMBOL
62
2
6
CONTINUOUS
10
9.4557523745
20
19.9726810827
40
0.2500000089
1
-**-
72
5
11
10.2557524029
21
19.9726810827
0
TEXT
8
___SYMBOL
62
2
6
CONTINUOUS
10
10.2557524029
20
19.9726810827
40
0.2500000089
1
AA
72
5
11
10.6557524171
21
19.9726810827
0
ENDBLK
8
0
6
BYBLOCK
62
0
0
BLOCK
8
___SYMBOL
62
2
6
CONTINUOUS
2
COPYRIGHT_YEAR_BL3
70
64
10
36.2186363454
20
9.5922182474
0
TEXT
8
___SYMBOL
62
2
6
CONTINUOUS
10
35.8449460419
20
9.5569447474
40
0.0704997506
1
2004
72
5
11
36.0705452438
21
9.5569447474
0
TEXT
8
___SYMBOL
62
2
6
CONTINUOUS
10
36.0705452438
20
9.5569447474
40
0.0704997506
1
 KOHLER CO.
72
5
11
36.6909430489
21
9.5569447474
0
TEXT
8
___SYMBOL
62
7
6
CONTINUOUS
10
35.7649205760
20
9.5734296893
40
0.0421873503
1
C
72
5
11
35.8071079262
21
9.5734296893
0
CIRCLE
8
___SYMBOL
62
7
6
CONTINUOUS
10
35.7791555254
20
9.5946658639
40
0.0328258835
0
ENDBLK
8
0
6
BYBLOCK
62
0
0
BLOCK
8
___SYMBOL
62
2
6
CONTINUOUS
2
PACKAGING_UPC_BL4
70
64
10
8.2712540143
20
13.5209003994
0
TEXT
8
___SYMBOL
62
7
6
CONTINUOUS
10
6.7372531260
20
14.0479037008
40
0.0593587494
1
XXXXX-XX-X-XX
72
5
11
7.3745663698
21
14.0479037008
0
TEXT
8
___SYMBOL
62
7
6
CONTINUOUS
10
8.3712331100
20
13.9187387020
40
0.0445192496
1
xxxxxx-xx
72
5
11
8.6412953574
21
13.9187387020
0
TEXT
8
___SYMBOL
62
2
6
CONTINUOUS
10
5.6069088285
20
15.5915323655
40
0.1562500055
1
PACKAGING/UPC LABEL ON BOX
72
5
11
8.8569089434
21
15.5915323655
0
TEXT
8
___SYMBOL
62
2
6
CONTINUOUS
10
5.6069088285
20
15.3571573572
40
0.1562500055
1
ETIQUETA DE EMBALAJE/UPC EN LA CAJA
72
5
11
9.9819089832
21
15.3571573572
0
TEXT
8
___SYMBOL
62
2
6
CONTINUOUS
10
5.6069088285
20
15.1227823559
40
0.1562500003
1
ETIQUETTE D'EMBALLAGE/UPC SUR LA BOÎTE
72
5
11
10.3569088285
21
15.1227823559
0
TEXT
8
___SYMBOL
62
2
6
CONTINUOUS
10
5.5837539193
20
13.4033934457
40
0.1562500055
1
The template and the label suffixes circled
72
5
11
10.9587541094
21
13.4033934457
0
TEXT
8
___SYMBOL
62
2
6
CONTINUOUS
10
5.5837539193
20
13.1690184374
40
0.1562500055
1
must match for proper cut-out.
72
5
11
9.3337540519
21
13.1690184374
0
TEXT
8
___SYMBOL
62
2
6
CONTINUOUS
10
5.5837539193
20
12.9346434360
40
0.1562500003
1
 
72
5
11
5.7087539193
21
12.9346434360
0
TEXT
8
___SYMBOL
62
2
6
CONTINUOUS
10
5.5837539193
20
12.7002684291
40
0.1562500055
1
A fin de realizar el corte apropiado, la
72
5
11
10.5837540961
21
12.7002684291
0
TEXT
8
___SYMBOL
62
2
6
CONTINUOUS
10
5.5837539193
20
12.4658934277
40
0.1562500003
1
plantilla y los sufijos de la etiqueta
72
5
11
10.3337539193
21
12.4658934277
0
TEXT
8
___SYMBOL
62
2
6
CONTINUOUS
10
5.5837539193
20
12.2315184277
40
0.1562500003
1
demarcados deben concordar.
72
5
11
8.9587539193
21
12.2315184277
0
TEXT
8
___SYMBOL
62
2
6
CONTINUOUS
10
5.5837539193
20
11.9971434277
40
0.1562500003
1
 
72
5
11
5.7087539193
21
11.9971434277
0
TEXT
8
___SYMBOL
62
2
6
CONTINUOUS
10
5.5837539193
20
11.7627684277
40
0.1562500003
1
Afin de découper l'ouverture correctement,
72
5
11
10.8337539193
21
11.7627684277
0
TEXT
8
___SYMBOL
62
2
6
CONTINUOUS
10
5.5837539193
20
11.5283934277
40
0.1562500003
1
le gabarit et les suffixes encerclés
72
5
11
10.0837539193
21
11.5283934277
0
TEXT
8
___SYMBOL
62
2
6
CONTINUOUS
10
5.5837539193
20
11.2940184277
40
0.1562500003
1
doivent correspondre
72
5
11
8.0837539193
21
11.2940184277
0
LINE
8
___SYMBOL
62
7
6
CONTINUOUS
10
8.7260581066
20
13.8920087023
11
6.5410156279
21
13.8920087023
0
LINE
8
___SYMBOL
62
7
6
CONTINUOUS
10
6.5410156279
20
13.8920087023
11
6.5410156279
21
14.8850386926
0
LINE
8
___SYMBOL
62
7
6
CONTINUOUS
10
6.5410156279
20
14.8850386926
11
8.7260581066
21
14.8850386926
0
LINE
8
___SYMBOL
62
7
6
CONTINUOUS
10
8.7260581066
20
14.8850386926
11
8.7260581066
21
13.8920087023
0
LINE
8
___SYMBOL
62
7
6
CONTINUOUS
10
6.5076481282
20
14.9174986923
11
8.7602131062
21
14.9174986923
0
LINE
8
___SYMBOL
62
7
6
CONTINUOUS
10
8.7602131062
20
14.9174986923
11
8.7602131062
21
13.8245912029
0
LINE
8
___SYMBOL
62
7
6
CONTINUOUS
10
8.7602131062
20
13.8245912029
11
6.5076481282
21
13.8245912029
0
LINE
8
___SYMBOL
62
7
6
CONTINUOUS
10
6.5076481282
20
13.8245912029
11
6.5076481282
21
14.9174986923
0
LINE
8
___SYMBOL
62
7
6
CONTINUOUS
10
8.5208731086
20
14.3236786981
11
8.5208731086
21
14.2020436992
0
LINE
8
___SYMBOL
62
7
6
CONTINUOUS
10
8.5208731086
20
14.2020436992
11
8.1779206119
21
14.2020436992
0
LINE
8
___SYMBOL
62
7
6
CONTINUOUS
10
8.1779206119
20
14.2020436992
11
8.1779206119
21
14.3236786981
0
LINE
8
___SYMBOL
62
7
6
CONTINUOUS
10
8.1779206119
20
14.3236786981
11
8.5208731086
21
14.3236786981
0
SOLID
8
___SYMBOL
62
7
6
CONTINUOUS
10
8.1779206119
20
14.2020436902
11
8.1779206119
21
14.3236786904
12
8.5208731086
22
14.3236786904
13
8.5208731086
23
14.3236786904
0
SOLID
8
___SYMBOL
62
7
6
CONTINUOUS
10
8.5208731086
20
14.3236786904
11
8.5208731086
21
14.2020436902
12
8.1779206119
22
14.2020436902
13
8.1779206119
23
14.2020436902
0
LINE
8
___SYMBOL
62
7
6
CONTINUOUS
10
7.4454181191
20
14.3236786981
11
7.4454181191
21
14.2020436992
0
LINE
8
___SYMBOL
62
7
6
CONTINUOUS
10
7.4454181191
20
14.2020436992
11
6.5897131274
21
14.2020436992
0
LINE
8
___SYMBOL
62
7
6
CONTINUOUS
10
6.5897131274
20
14.2020436992
11
6.5897131274
21
14.3236786981
0
LINE
8
___SYMBOL
62
7
6
CONTINUOUS
10
6.5897131274
20
14.3236786981
11
7.4454181191
21
14.3236786981
0
SOLID
8
___SYMBOL
62
7
6
CONTINUOUS
10
6.5897131274
20
14.2020436902
11
6.5897131274
21
14.3236786904
12
7.4454181191
22
14.3236786904
13
7.4454181191
23
14.3236786904
0
SOLID
8
___SYMBOL
62
7
6
CONTINUOUS
10
7.4454181191
20
14.3236786904
11
7.4454181191
21
14.2020436902
12
6.5897131274
22
14.2020436902
13
6.5897131274
23
14.2020436902
0
LINE
8
___SYMBOL
62
7
6
CONTINUOUS
10
7.4454181191
20
13.9504112017
11
7.4454181191
21
13.9154312020
0
LINE
8
___SYMBOL
62
7
6
CONTINUOUS
10
7.4454181191
20
13.9154312020
11
6.5897131274
21
13.9154312020
0
LINE
8
___SYMBOL
62
7
6
CONTINUOUS
10
6.5897131274
20
13.9154312020
11
6.5897131274
21
13.9504112017
0
LINE
8
___SYMBOL
62
7
6
CONTINUOUS
10
6.5897131274
20
13.9504112017
11
7.4454181191
21
13.9504112017
0
SOLID
8
___SYMBOL
62
7
6
CONTINUOUS
10
6.5897131274
20
13.9154312036
11
6.5897131274
21
13.9504111857
12
7.4454181191
22
13.9504111857
13
7.4454181191
23
13.9504111857
0
SOLID
8
___SYMBOL
62
7
6
CONTINUOUS
10
7.4454181191
20
13.9504111857
11
7.4454181191
21
13.9154312036
12
6.5897131274
22
13.9154312036
13
6.5897131274
23
13.9154312036
0
POLYLINE
8
___SYMBOL
62
7
6
CONTINUOUS
66
1
70
0
0
VERTEX
8
___SYMBOL
62
7
6
CONTINUOUS
10
7.3114230724
20
14.1621888199
0
VERTEX
8
___SYMBOL
62
7
6
CONTINUOUS
10
7.3015528420
20
14.1592030373
0
VERTEX
8
___SYMBOL
62
7
6
CONTINUOUS
10
7.2921334822
20
14.1550063270
0
VERTEX
8
___SYMBOL
62
7
6
CONTINUOUS
10
7.2833128965
20
14.1496645863
0
VERTEX
8
___SYMBOL
62
7
6
CONTINUOUS
10
7.2752295868
20
14.1432616917
0
VERTEX
8
___SYMBOL
62
7
6
CONTINUOUS
10
7.2680104780
20
14.1358981821
0
VERTEX
8
___SYMBOL
62
7
6
CONTINUOUS
10
7.2617689251
20
14.1276896801
0
VERTEX
8
___SYMBOL
62
7
6
CONTINUOUS
10
7.2566029338
20
14.1187650762
0
VERTEX
8
___SYMBOL
62
7
6
CONTINUOUS
10
7.2525936209
20
14.1092645057
0
VERTEX
8
___SYMBOL
62
7
6
CONTINUOUS
10
7.2498039411
20
14.0993371473
0
VERTEX
8
___SYMBOL
62
7
6
CONTINUOUS
10
7.2482776981
20
14.0891388814
0
VERTEX
8
___SYMBOL
62
7
6
CONTINUOUS
10
7.2480388572
20
14.0788298422
0
VERTEX
8
___SYMBOL
62
7
6
CONTINUOUS
10
7.2490911687
20
14.0685719033
0
VERTEX
8
___SYMBOL
62
7
6
CONTINUOUS
10
7.2514181091
20
14.0585261358
0
VERTEX
8
___SYMBOL
62
7
6
CONTINUOUS
10
7.2549831406
20
14.0488502794
0
VERTEX
8
___SYMBOL
62
7
6
CONTINUOUS
10
7.2597302846
20
14.0396962652
0
VERTEX
8
___SYMBOL
62
7
6
CONTINUOUS
10
7.2655850010
20
14.0312078307
0
VERTEX
8
___SYMBOL
62
7
6
CONTINUOUS
10
7.2724553586
20
14.0235182619
0
VERTEX
8
___SYMBOL
62
7
6
CONTINUOUS
10
7.2802334782
20
14.0167483013
0
VERTEX
8
___SYMBOL
62
7
6
CONTINUOUS
10
7.2887972271
20
14.0110042514
0
VERTEX
8
___SYMBOL
62
7
6
CONTINUOUS
10
7.2980121364
20
14.0063763059
0
VERTEX
8
___SYMBOL
62
7
6
CONTINUOUS
10
7.3077335128
20
14.0029371333
0
VERTEX
8
___SYMBOL
62
7
6
CONTINUOUS
10
7.3178087102
20
14.0007407357
0
VERTEX
8
___SYMBOL
62
7
6
CONTINUOUS
10
7.3280795268
20
13.9998216013
0
VERTEX
8
___SYMBOL
62
7
6
CONTINUOUS
10
7.3383846893
20
14.0001941623
0
VERTEX
8
___SYMBOL
62
7
6
CONTINUOUS
10
7.3485623850
20
14.0018525688
0
VERTEX
8
___SYMBOL
62
7
6
CONTINUOUS
10
7.3584528027
20
14.0047707803
0
VERTEX
8
___SYMBOL
62
7
6
CONTINUOUS
10
7.3679006422
20
14.0089029748
0
VERTEX
8
___SYMBOL
62
7
6
CONTINUOUS
10
7.3767575524
20
14.0141842682
0
VERTEX
8
___SYMBOL
62
7
6
CONTINUOUS
10
7.3848844613
20
14.0205317330
0
VERTEX
8
___SYMBOL
62
7
6
CONTINUOUS
10
7.3921537594
20
14.0278457007
0
VERTEX
8
___SYMBOL
62
7
6
CONTINUOUS
10
7.3984513035
20
14.0360113267
0
VERTEX
8
___SYMBOL
62
7
6
CONTINUOUS
10
7.4036782088
20
14.0449003935
0
VERTEX
8
___SYMBOL
62
7
6
CONTINUOUS
10
7.4077524020
20
14.0543733242
0
VERTEX
8
___SYMBOL
62
7
6
CONTINUOUS
10
7.4106099098
20
14.0642813737
0
VERTEX
8
___SYMBOL
62
7
6
CONTINUOUS
10
7.4122058632
20
14.0744689650
0
VERTEX
8
___SYMBOL
62
7
6
CONTINUOUS
10
7.4125152024
20
14.0847761315
0
VERTEX
8
___SYMBOL
62
7
6
CONTINUOUS
10
7.4115330702
20
14.0950410290
0
VERTEX
8
___SYMBOL
62
7
6
CONTINUOUS
10
7.4092748881
20
14.1051024771
0
VERTEX
8
___SYMBOL
62
7
6
CONTINUOUS
10
7.4057761142
20
14.1148024900
0
VERTEX
8
___SYMBOL
62
7
6
CONTINUOUS
10
7.4010916868
20
14.1239887570
0
VERTEX
8
___SYMBOL
62
7
6
CONTINUOUS
10
7.3952951611
20
14.1325170346
0
VERTEX
8
___SYMBOL
62
7
6
CONTINUOUS
10
7.3884775547
20
14.1402534108
0
VERTEX
8
___SYMBOL
62
7
6
CONTINUOUS
10
7.3807459184
20
14.1470764083
0
VERTEX
8
___SYMBOL
62
7
6
CONTINUOUS
10
7.3722216551
20
14.1528788917
0
VERTEX
8
___SYMBOL
62
7
6
CONTINUOUS
10
7.3630386136
20
14.1575697499
0
VERTEX
8
___SYMBOL
62
7
6
CONTINUOUS
10
7.3533409869
20
14.1610753265
0
VERTEX
8
___SYMBOL
62
7
6
CONTINUOUS
10
7.3432810482
20
14.1633405766
0
VERTEX
8
___SYMBOL
62
7
6
CONTINUOUS
10
7.3330167596
20
14.1643299311
0
VERTEX
8
___SYMBOL
62
7
6
CONTINUOUS
10
7.3227092919
20
14.1640278550
0
VERTEX
8
___SYMBOL
62
7
6
CONTINUOUS
10
7.3125204941
20
14.1624390915
0
SEQEND
0
LINE
8
___SYMBOL
62
7
6
CONTINUOUS
10
7.4920681186
20
14.8569136929
11
7.4920681186
21
14.7952636935
0
LINE
8
___SYMBOL
62
7
6
CONTINUOUS
10
7.4920681186
20
14.7952636935
11
6.6363631270
21
14.7952636935
0
LINE
8
___SYMBOL
62
7
6
CONTINUOUS
10
6.6363631270
20
14.7952636935
11
6.6363631270
21
14.8569136929
0
LINE
8
___SYMBOL
62
7
6
CONTINUOUS
10
6.6363631270
20
14.8569136929
11
7.4920681186
21
14.8569136929
0
SOLID
8
___SYMBOL
62
7
6
CONTINUOUS
10
6.6363631270
20
14.7952636893
11
6.6363631270
21
14.8569136794
12
7.4920681186
22
14.8569136794
13
7.4920681186
23
14.8569136794
0
SOLID
8
___SYMBOL
62
7
6
CONTINUOUS
10
7.4920681186
20
14.8569136794
11
7.4920681186
21
14.7952636893
12
6.6363631270
22
14.7952636893
13
6.6363631270
23
14.7952636893
0
LINE
8
___SYMBOL
62
7
6
CONTINUOUS
10
7.4920681186
20
14.7569311938
11
7.4920681186
21
14.6952811944
0
LINE
8
___SYMBOL
62
7
6
CONTINUOUS
10
7.4920681186
20
14.6952811944
11
6.6363631270
21
14.6952811944
0
LINE
8
___SYMBOL
62
7
6
CONTINUOUS
10
6.6363631270
20
14.6952811944
11
6.6363631270
21
14.7569311938
0
LINE
8
___SYMBOL
62
7
6
CONTINUOUS
10
6.6363631270
20
14.7569311938
11
7.4920681186
21
14.7569311938
0
SOLID
8
___SYMBOL
62
7
6
CONTINUOUS
10
6.6363631270
20
14.6952811811
11
6.6363631270
21
14.7569312052
12
7.4920681186
22
14.7569312052
13
7.4920681186
23
14.7569312052
0
SOLID
8
___SYMBOL
62
7
6
CONTINUOUS
10
7.4920681186
20
14.7569312052
11
7.4920681186
21
14.6952811811
12
6.6363631270
22
14.6952811811
13
6.6363631270
23
14.6952811811
0
LINE
8
___SYMBOL
62
7
6
CONTINUOUS
10
7.4920681186
20
14.6569486948
11
7.4920681186
21
14.5953061954
0
LINE
8
___SYMBOL
62
7
6
CONTINUOUS
10
7.4920681186
20
14.5953061954
11
6.6363631270
21
14.5953061954
0
LINE
8
___SYMBOL
62
7
6
CONTINUOUS
10
6.6363631270
20
14.5953061954
11
6.6363631270
21
14.6569486948
0
LINE
8
___SYMBOL
62
7
6
CONTINUOUS
10
6.6363631270
20
14.6569486948
11
7.4920681186
21
14.6569486948
0
SOLID
8
___SYMBOL
62
7
6
CONTINUOUS
10
6.6363631270
20
14.5953061869
11
6.6363631270
21
14.6569486970
12
7.4920681186
22
14.6569486970
13
7.4920681186
23
14.6569486970
0
SOLID
8
___SYMBOL
62
7
6
CONTINUOUS
10
7.4920681186
20
14.6569486970
11
7.4920681186
21
14.5953061869
12
6.6363631270
22
14.5953061869
13
6.6363631270
23
14.5953061869
0
LINE
8
___SYMBOL
62
7
6
CONTINUOUS
10
7.4920681186
20
14.5569661958
11
7.4920681186
21
14.4953236964
0
LINE
8
___SYMBOL
62
7
6
CONTINUOUS
10
7.4920681186
20
14.4953236964
11
6.6363631270
21
14.4953236964
0
LINE
8
___SYMBOL
62
7
6
CONTINUOUS
10
6.6363631270
20
14.4953236964
11
6.6363631270
21
14.5569661958
0
LINE
8
___SYMBOL
62
7
6
CONTINUOUS
10
6.6363631270
20
14.5569661958
11
7.4920681186
21
14.5569661958
0
SOLID
8
___SYMBOL
62
7
6
CONTINUOUS
10
6.6363631270
20
14.4953237127
11
6.6363631270
21
14.5569661889
12
7.4920681186
22
14.5569661889
13
7.4920681186
23
14.5569661889
0
SOLID
8
___SYMBOL
62
7
6
CONTINUOUS
10
7.4920681186
20
14.5569661889
11
7.4920681186
21
14.4953237127
12
6.6363631270
22
14.4953237127
13
6.6363631270
23
14.4953237127
0
LINE
8
___SYMBOL
62
7
6
CONTINUOUS
10
7.4920681186
20
14.4303286970
11
7.4920681186
21
14.3686786976
0
LINE
8
___SYMBOL
62
7
6
CONTINUOUS
10
7.4920681186
20
14.3686786976
11
6.6363631270
21
14.3686786976
0
LINE
8
___SYMBOL
62
7
6
CONTINUOUS
10
6.6363631270
20
14.3686786976
11
6.6363631270
21
14.4303286970
0
LINE
8
___SYMBOL
62
7
6
CONTINUOUS
10
6.6363631270
20
14.4303286970
11
7.4920681186
21
14.4303286970
0
SOLID
8
___SYMBOL
62
7
6
CONTINUOUS
10
6.6363631270
20
14.3686787105
11
6.6363631270
21
14.4303287006
12
7.4920681186
22
14.4303287006
13
7.4920681186
23
14.4303287006
0
SOLID
8
___SYMBOL
62
7
6
CONTINUOUS
10
7.4920681186
20
14.4303287006
11
7.4920681186
21
14.3686787105
12
6.6363631270
22
14.3686787105
13
6.6363631270
23
14.3686787105
0
ENDBLK
8
0
6
BYBLOCK
62
0
0
BLOCK
8
___SYMBOL
62
2
6
CONTINUOUS
2
TEMPLATE_NUMBER_BL5
70
64
10
7.5080368952
20
9.5745351390
0
TEXT
8
___SYMBOL
62
2
6
CONTINUOUS
10
7.1978369927
20
9.5392851501
40
0.0704999778
1
1047579-7
72
5
11
7.7054368331
21
9.5392851501
0
TEXT
8
___SYMBOL
62
2
6
CONTINUOUS
10
7.7054368331
20
9.5392851501
40
0.0704999778
1
-
72
5
11
7.7618368154
21
9.5392851501
0
TEXT
8
___SYMBOL
62
2
6
CONTINUOUS
10
7.7618368154
20
9.5392851501
40
0.0704999778
1
A
72
5
11
7.8182367977
21
9.5392851501
0
ENDBLK
8
0
6
BYBLOCK
62
0
0
BLOCK
8
___SYMBOL
62
2
6
CONTINUOUS
2
TEMPLATE_NUMBER_BL6
70
64
10
7.5512258778
20
7.7185626173
0
TEXT
8
___SYMBOL
62
2
6
CONTINUOUS
10
7.2410259754
20
7.6833126284
40
0.0704999778
1
1047579-7
72
5
11
7.7486258158
21
7.6833126284
0
TEXT
8
___SYMBOL
62
2
6
CONTINUOUS
10
7.7486258158
20
7.6833126284
40
0.0704999778
1
-
72
5
11
7.8050257981
21
7.6833126284
0
TEXT
8
___SYMBOL
62
2
6
CONTINUOUS
10
7.8050257981
20
7.6833126284
40
0.0704999778
1
A
72
5
11
7.8614257803
21
7.6833126284
0
ENDBLK
8
0
6
BYBLOCK
62
0
0
BLOCK
8
___SYMBOL
62
2
6
CONTINUOUS
2
WHEN_PLOTTING_TEMPLATE_N_BL7
70
64
10
36.2668778645
20
13.3369726611
0
TEXT
8
___SYMBOL
62
2
6
CONTINUOUS
10
32.9543776321
20
14.5479102461
40
0.1562500110
1
WHEN PLOTTING TEMPLATE FULL SIZE:
72
5
11
37.0793779216
21
14.5479102461
0
TEXT
8
___SYMBOL
62
2
6
CONTINUOUS
10
32.9543776321
20
14.3135352296
40
0.1562500110
1
Make sure horizontal and vertical dimensions
72
5
11
38.4543780180
21
14.3135352296
0
TEXT
8
___SYMBOL
62
2
6
CONTINUOUS
10
32.9543776321
20
14.0791602132
40
0.1562500110
1
match the dimensions labeled on the template.
72
5
11
38.5793780268
21
14.0791602132
0
TEXT
8
___SYMBOL
62
2
6
CONTINUOUS
10
32.9543776321
20
13.8447851967
40
0.1562500110
1
 
72
5
11
33.0793776409
21
13.8447851967
0
TEXT
8
___SYMBOL
62
2
6
CONTINUOUS
10
32.9543776321
20
13.6104101803
40
0.1562500110
1
AL TRAZAR LA PLANTILLA A ESCALA,
72
5
11
36.9543779128
21
13.6104101803
0
TEXT
8
___SYMBOL
62
2
6
CONTINUOUS
10
32.9543776321
20
13.3760351638
40
0.1562500110
1
asegúrese de que las dimensiones horizontales
72
5
11
38.5793780268
21
13.3760351638
0
TEXT
8
___SYMBOL
62
2
6
CONTINUOUS
10
32.9543776321
20
13.1416601474
40
0.1562500110
1
y verticales concuerden con las dimensiones marcadas
72
5
11
39.4543780882
21
13.1416601474
0
TEXT
8
___SYMBOL
62
2
6
CONTINUOUS
10
32.9543776321
20
12.9072851310
40
0.1562500110
1
en la plantilla.
72
5
11
34.9543777725
21
12.9072851310
0
TEXT
8
___SYMBOL
62
2
6
CONTINUOUS
10
32.9543776321
20
12.6729101145
40
0.1562500110
1
 
72
5
11
33.0793776409
21
12.6729101145
0
TEXT
8
___SYMBOL
62
2
6
CONTINUOUS
10
32.9543776321
20
12.4385350981
40
0.1562500110
1
AU MOMENT DE TRACER LA DÉCOUPE À L'ÉCHELLE,
72
5
11
38.3293780093
21
12.4385350981
0
TEXT
8
___SYMBOL
62
2
6
CONTINUOUS
10
32.9543776321
20
12.2041600816
40
0.1562500110
1
Assurez vos que les dimensions horizotales et
72
5
11
38.5793780268
21
12.2041600816
0
TEXT
8
___SYMBOL
62
2
6
CONTINUOUS
10
32.9543776321
20
11.9697850652
40
0.1562500110
1
verticales correspondent avec les dimensions du plan.
72
5
11
39.5793780970
21
11.9697850652
0
ENDBLK
8
0
6
BYBLOCK
62
0
0
BLOCK
8
0
2
_FILLED
70
64
10
0.0000000000
20
0.0000000000
0
SOLID
8
0
6
BYBLOCK
62
0
10
0.0000000000
20
0.0000000000
11
-1.0000000000
21
0.1666666667
12
-1.0000000000
22
-0.1666666667
13
-1.0000000000
23
-0.1666666667
0
ENDBLK
8
0
6
BYBLOCK
62
0
0
ENDSEC
0
SECTION
2
ENTITIES
0
DIMENSION
8
0
62
2
6
CONTINUOUS
2
*D0
10
12.7056155783
20
27.0984336723
11
12.8306155783
21
16.7736657611
70
128
13
12.1550000000
23
9.2184336723
14
9.1342593987
24
27.0984336723
50
90.000000
0
DIMENSION
8
0
62
2
6
CONTINUOUS
2
*D1
10
13.6458895509
20
27.8484336723
11
13.7708895509
21
19.4980493227
70
128
13
12.9385616438
23
8.4684336723
14
9.1342593987
24
27.8484336723
50
90.000000
0
DIMENSION
8
0
62
2
6
CONTINUOUS
2
*D2
10
22.4699991399
20
9.2184336723
11
22.4699991399
21
17.0071561845
70
128
13
21.7069324190
23
24.9130506635
14
21.7988356164
24
9.2184336723
50
270.000000
0
DIMENSION
8
0
62
2
6
CONTINUOUS
2
*D3
10
21.5297251673
20
8.4684336723
11
21.6547251673
21
19.3801798022
70
128
13
21.2883301918
23
25.3484336723
14
22.0993459392
24
8.4684336723
50
270.000000
0
DIMENSION
8
0
62
2
6
CONTINUOUS
2
*D4
10
31.0585753425
20
27.0984336723
11
31.1835753425
21
16.8262303082
70
128
13
31.9550000000
23
9.2184336723
14
34.6392593987
24
27.0984336723
50
90.000000
0
DIMENSION
8
0
62
2
6
CONTINUOUS
2
*D5
10
30.0353922906
20
27.8484336723
11
30.1603922906
21
19.5385590753
70
128
13
30.9303424658
23
8.4684336723
14
34.6392593987
24
27.8484336723
50
90.000000
0
DIMENSION
8
0
62
2
6
CONTINUOUS
2
*D6
10
2.1967593987
20
17.6776583981
11
26.5776472767
21
17.5604708981
70
128
13
41.5767593987
23
18.0959336723
14
2.1967593987
24
18.0959336723
50
180.000000
0
DIMENSION
8
0
62
2
6
CONTINUOUS
2
*D7
10
42.3267593987
20
18.6900727816
11
17.6615513863
21
18.5728852816
70
128
13
1.4467593987
23
18.2209336723
14
42.3267593987
24
18.2209336723
0
TEXT
8
___NOTE
62
2
6
CONTINUOUS
10
7.6010567267
20
21.9302982905
40
0.0940000000
1
TM
72
5
11
7.7890567267
21
21.9302982905
0
SOLID
8
___NOTE
62
2
6
CONTINUOUS
10
42.7017593987
20
21.6975650685
11
42.5289275044
21
21.7766975448
12
42.5639343558
22
21.8284737010
13
42.5639343558
23
21.8284737010
0
TEXT
8
___NOTE
62
2
6
CONTINUOUS
10
37.2462756011
20
24.2093035740
40
0.1562500000
1
RIM OF SINK
72
5
11
38.6212756011
21
24.2093035740
0
TEXT
8
___NOTE
62
2
6
CONTINUOUS
10
36.1212756011
20
23.9749285740
40
0.1562500000
1
REBORDE DE FREGADERO
72
5
11
38.6212756011
21
23.9749285740
0
TEXT
8
___NOTE
62
2
6
CONTINUOUS
10
36.8712756011
20
23.7405535740
40
0.1562500000
1
REBORD D'ÉVIER
72
5
11
38.6212756011
21
23.7405535740
0
SOLID
8
___NOTE
62
2
6
CONTINUOUS
10
42.2957094298
20
20.4658360145
11
42.1218323857
21
20.5426447773
12
42.1561420949
22
20.5948855071
13
42.1561420949
23
20.5948855071
0
TEXT
8
___NOTE
62
2
6
CONTINUOUS
10
35.6068014044
20
22.4820635900
40
0.1562500000
1
CUT OUT LINE FOR A REVEAL
72
5
11
38.8568014044
21
22.4820635900
0
TEXT
8
___NOTE
62
2
6
CONTINUOUS
10
35.3568014044
20
22.2476885900
40
0.1562500000
1
LÍNEA DE CORTE CON BATIENTE
72
5
11
38.8568014044
21
22.2476885900
0
TEXT
8
___NOTE
62
2
6
CONTINUOUS
10
34.8568014044
20
22.0133135900
40
0.1562500000
1
LINGE DE COUPE AVEC EBRASEMENTS
72
5
11
38.8568014044
21
22.0133135900
0
SOLID
8
___NOTE
62
2
6
CONTINUOUS
10
41.5707450998
20
19.1695689976
11
41.3965102870
21
19.2455626980
12
41.4305749905
22
19.2979635184
13
41.4305749905
23
19.2979635184
0
TEXT
8
___NOTE
62
2
6
CONTINUOUS
10
35.5147266959
20
20.6717994332
40
0.1562500000
1
CUT OUT LINE FOR NO REVEAL
72
5
11
38.8897266959
21
20.6717994332
0
TEXT
8
___NOTE
62
2
6
CONTINUOUS
10
35.3897266959
20
20.4374244332
40
0.1562500000
1
LÍNEA DE CORTE SIN BATIENTE
72
5
11
38.8897266959
21
20.4374244332
0
TEXT
8
___NOTE
62
2
6
CONTINUOUS
10
34.8897266959
20
20.2030494332
40
0.1562500000
1
LINGE DE COUPE SANS ÉBRASEMENTS
72
5
11
38.8897266959
21
20.2030494332
0
TEXT
8
0
62
2
6
CONTINUOUS
10
7.6073769108
20
21.0770734357
40
0.0940000000
1
TM
72
5
11
7.7953769108
21
21.0770734357
0
TEXT
8
0
62
2
6
CONTINUOUS
10
7.6136970949
20
20.2238485809
40
0.0940000000
1
TM
72
5
11
7.8016970949
21
20.2238485809
0
INSERT
8
___SYMBOL
62
2
6
CONTINUOUS
2
REVEAL-NOREVEAL_BL0
10
33.8015394423
20
21.9815902073
0
INSERT
8
___SYMBOL
62
2
6
CONTINUOUS
2
REVEAL-NOREVEAL_BL1
10
33.9065123422
20
20.1575060695
0
INSERT
8
___SYMBOL
62
2
6
CONTINUOUS
2
CUT-OUT_TEMPLATE_SKU_SIN_BL2
10
8.2503145221
20
22.6893854299
0
INSERT
8
___SYMBOL
62
2
6
CONTINUOUS
2
COPYRIGHT_YEAR_BL3
10
36.2186363454
20
9.5922182474
0
INSERT
8
___SYMBOL
62
2
6
CONTINUOUS
2
PACKAGING_UPC_BL4
10
8.2712540143
20
13.5209003994
0
INSERT
8
___SYMBOL
62
2
6
CONTINUOUS
2
TEMPLATE_NUMBER_BL5
10
7.5080368952
20
9.5745351390
0
INSERT
8
___SYMBOL
62
2
6
CONTINUOUS
2
TEMPLATE_NUMBER_BL6
10
7.5512258778
20
7.7185626173
0
INSERT
8
___SYMBOL
62
2
6
CONTINUOUS
2
WHEN_PLOTTING_TEMPLATE_N_BL7
10
36.2668778645
20
13.3369726611
0
LINE
8
_CURVE
62
8
6
HIDDEN
10
1.0717593987
20
11.3434336723
11
1.0717593987
21
24.9684336723
0
LINE
8
_CURVE
62
8
6
HIDDEN
10
4.3217593987
20
28.2184336723
11
1.0717593987
21
24.9684336723
0
LINE
8
_CURVE
62
8
6
HIDDEN
10
1.0717593987
20
11.3434336723
11
4.3217593987
21
8.0934336723
0
LINE
8
_CURVE
62
8
6
HIDDEN
10
39.4517593987
20
8.0934336723
11
4.3217593987
21
8.0934336723
0
LINE
8
_CURVE
62
7
6
CONTINUOUS
10
34.7017593987
20
8.4684336723
11
9.0717593987
21
8.4684336723
0
LINE
8
_CURVE
62
7
6
CONTINUOUS
10
34.7017593987
20
9.2184336723
11
9.0717593987
21
9.2184336723
0
LINE
8
_CURVE
62
8
6
HIDDEN
10
27.3867593987
20
25.7234336723
11
29.8817593987
21
28.2184336723
0
LINE
8
_CURVE
62
8
6
HIDDEN
10
13.8917593987
20
28.2184336723
11
16.3867593987
21
25.7234336723
0
LINE
8
___NOTE
62
2
6
CONTINUOUS
10
39.1397266959
20
20.7499244332
11
38.8897266959
21
20.7499244332
0
LINE
8
___NOTE
62
2
6
CONTINUOUS
10
39.1068014044
20
22.5601885900
11
38.8568014044
21
22.5601885900
0
LINE
8
___NOTE
62
2
6
CONTINUOUS
10
38.8712756011
20
24.2874285740
11
38.6212756011
21
24.2874285740
0
LINE
8
_CURVE
62
7
6
CONTINUOUS
10
27.1358520023
20
24.9130506635
11
16.6376667951
21
24.9130506635
0
LINE
8
_CURVE
62
7
6
CONTINUOUS
10
27.0541031638
20
25.3484336723
11
16.7194156335
21
25.3484336723
0
LINE
8
_CURVE
62
8
6
HIDDEN
10
16.3867593987
20
25.7234336723
11
27.3867593987
21
25.7234336723
0
LINE
8
_CURVE
62
8
6
HIDDEN
10
4.3217593987
20
28.2184336723
11
13.8917593987
21
28.2184336723
0
LINE
8
_CURVE
62
8
6
HIDDEN
10
29.8817593987
20
28.2184336723
11
39.4517593987
21
28.2184336723
0
LINE
8
___NOTE
62
2
6
CONTINUOUS
10
41.5707450998
20
19.1695689976
11
39.1397266959
21
20.7499244332
0
LINE
8
___NOTE
62
2
6
CONTINUOUS
10
42.2957094298
20
20.4658360145
11
39.1068014044
21
22.5601885900
0
LINE
8
___NOTE
62
2
6
CONTINUOUS
10
42.7017593987
20
21.6975650685
11
38.8712756011
21
24.2874285740
0
LINE
8
_CURVE
62
8
6
HIDDEN
10
39.4517593987
20
8.0934336723
11
42.7017593987
21
11.3434336723
0
LINE
8
_CURVE
62
8
6
HIDDEN
10
42.7017593987
20
24.9684336723
11
39.4517593987
21
28.2184336723
0
LINE
8
_CURVE
62
8
6
HIDDEN
10
42.7017593987
20
24.9684336723
11
42.7017593987
21
11.3434336723
0
CIRCLE
8
0
62
2
6
CONTINUOUS
10
10.0505727452
20
21.8343778437
40
0.2513022906
0
CIRCLE
8
0
62
2
6
CONTINUOUS
10
10.0568929293
20
20.9811529889
40
0.2513022906
0
CIRCLE
8
0
62
2
6
CONTINUOUS
10
10.4582208013
20
20.0878203861
40
0.2513022906
0
ARC
8
_CURVE
62
7
6
CONTINUOUS
10
6.9408964229
20
22.4401807468
40
4.6300000000
50
91.5192704182
51
176.9460963651
0
ARC
8
_CURVE
62
7
6
CONTINUOUS
10
87.1967593987
20
18.1584336723
40
85.0000000000
50
176.9460963651
51
183.0539036349
0
ARC
8
_CURVE
62
7
6
CONTINUOUS
10
6.9408964229
20
13.8766865979
40
4.6300000000
50
183.0539036349
51
268.4807295818
0
ARC
8
_CURVE
62
7
6
CONTINUOUS
10
9.0717593987
20
94.2184336723
40
85.0000000000
50
268.4807295818
51
270.0000000000
0
ARC
8
_CURVE
62
7
6
CONTINUOUS
10
34.7017593987
20
94.2184336723
40
85.0000000000
50
270.0000000000
51
271.5192704182
0
ARC
8
_CURVE
62
7
6
CONTINUOUS
10
36.8326223745
20
13.8766865979
40
4.6300000000
50
271.5192704182
51
356.9460963651
0
ARC
8
_CURVE
62
7
6
CONTINUOUS
10
-43.4232406013
20
18.1584336723
40
85.0000000000
50
356.9460963651
51
3.0539036349
0
ARC
8
_CURVE
62
7
6
CONTINUOUS
10
36.8326223745
20
22.4401807468
40
4.6300000000
50
3.0539036349
51
88.4807295818
0
ARC
8
_CURVE
62
7
6
CONTINUOUS
10
34.7017593987
20
-57.9015663277
40
85.0000000000
50
88.4807295818
51
91.5192704182
0
ARC
8
_CURVE
62
7
6
CONTINUOUS
10
32.4506223745
20
22.4385538017
40
4.6300000000
50
90.0307132625
51
134.1518436747
0
ARC
8
_CURVE
62
7
6
CONTINUOUS
10
27.1358520023
20
27.9130506635
40
3.0000000000
50
270.0000000000
51
314.1518436747
0
ARC
8
_CURVE
62
7
6
CONTINUOUS
10
16.6376667951
20
27.9130506635
40
3.0000000000
50
225.8481563253
51
270.0000000000
0
ARC
8
_CURVE
62
7
6
CONTINUOUS
10
11.3228964229
20
22.4385538017
40
4.6300000000
50
45.8481563253
51
89.9692867375
0
ARC
8
_CURVE
62
7
6
CONTINUOUS
10
9.0717593987
20
-57.9015663277
40
85.0000000000
50
88.4807295818
51
91.5192704182
0
ARC
8
_CURVE
62
7
6
CONTINUOUS
10
6.9408964229
20
22.4401807468
40
5.3800000000
50
91.5192704182
51
176.9460963651
0
ARC
8
_CURVE
62
7
6
CONTINUOUS
10
9.0717593987
20
-57.9015663277
40
85.7500000000
50
88.4807295818
51
91.5192704182
0
ARC
8
_CURVE
62
7
6
CONTINUOUS
10
11.3228964229
20
22.4385538017
40
5.3800000000
50
40.8105204051
51
89.9692867375
0
ARC
8
_CURVE
62
7
6
CONTINUOUS
10
16.7194156335
20
27.0984336723
40
1.7500000000
50
220.8105204051
51
270.0000000000
0
ARC
8
_CURVE
62
7
6
CONTINUOUS
10
27.0541031638
20
27.0984336723
40
1.7500000000
50
270.0000000000
51
319.1894795949
0
ARC
8
_CURVE
62
7
6
CONTINUOUS
10
32.4506223745
20
22.4385538017
40
5.3800000000
50
90.0307132625
51
139.1894795949
0
ARC
8
_CURVE
62
7
6
CONTINUOUS
10
34.7017593987
20
-57.9015663277
40
85.7500000000
50
88.4807295818
51
91.5192704182
0
ARC
8
_CURVE
62
7
6
CONTINUOUS
10
36.8326223745
20
22.4401807468
40
5.3800000000
50
3.0539036349
51
88.4807295818
0
ARC
8
_CURVE
62
7
6
CONTINUOUS
10
-43.4232406013
20
18.1584336723
40
85.7500000000
50
356.9460963651
51
3.0539036349
0
ARC
8
_CURVE
62
7
6
CONTINUOUS
10
36.8326223745
20
13.8766865979
40
5.3800000000
50
271.5192704182
51
356.9460963651
0
ARC
8
_CURVE
62
7
6
CONTINUOUS
10
34.7017593987
20
94.2184336723
40
85.7500000000
50
270.0000000000
51
271.5192704182
0
ARC
8
_CURVE
62
7
6
CONTINUOUS
10
9.0717593987
20
94.2184336723
40
85.7500000000
50
268.4807295818
51
270.0000000000
0
ARC
8
_CURVE
62
7
6
CONTINUOUS
10
6.9408964229
20
13.8766865979
40
5.3800000000
50
183.0539036349
51
268.4807295818
0
ARC
8
_CURVE
62
7
6
CONTINUOUS
10
87.1967593987
20
18.1584336723
40
85.7500000000
50
176.9460963651
51
183.0539036349
0
ENDSEC
0
EOF
