999
DXF file: 1040557_7_b.dxf
999
Pro/ENGINEER 2008250 by Parametric Technology Corporation
  0
SECTION
  2
HEADER
  9
$EXTMAX
 10
44.0
 20
34.0
 30
0.0
  9
$EXTMIN
 10
0.0
 20
0.0
 30
0.0
  9
$LIMMIN
 10
0.0
 20
0.0
  9
$LIMMAX
 10
44.0
 20
34.0
  9
$VIEWCTR
 10
22.0
 20
17.0
  9
$VIEWSIZE
 40
34.0
  9
$CLAYER
  8
0
  9
$LTSCALE
 40
2.42
  9
$CELTYPE
  6
BYLAYER
  9
$DIMSCALE
 40
1.0
  9
$DIMASZ
 40
0.1875
  9
$DIMEXO
 40
0.275
  9
$DIMDLI
 40
1.672
  9
$DIMEXE
 40
0.792
  9
$DIMCEN
 40
0.396
  9
$DIMLFAC
 40
1.0
  9
$DIMBLK
  1
_FILLED
  9
$DIMTXT
 40
0.15625
  9
$PDMODE
 70
3
  9
$PDSIZE
 40
0.3125
  0
ENDSEC
  0
SECTION
  2
TABLES
  0
TABLE
  2
LTYPE
 70
6
  0
LTYPE
  2
BYBLOCK
 70
0
  3

 72
65
 73
0
 40
0.0
  0
LTYPE
  2
BYLAYER
 70
0
  3

 72
65
 73
0
 40
0.0
  0
LTYPE
  2
CONTINUOUS
 70
64
  3
Solid line
 72
65
 73
0
 40
0.0
  0
LTYPE
  2
CENTER
 70
64
  3
____ _ ____ _ ____ _ ____ _ ____ _ ____ _ ____
 72
65
 73
4
 40
0.6
 49
0.375
 49
-0.075
 49
0.075
 49
-0.075
  0
LTYPE
  2
HIDDEN
 70
64
  3
- - - - - - - - - - - - - - - - - - - -
 72
65
 73
2
 40
0.2
 49
0.1
 49
-0.1
  0
LTYPE
  2
PHANTOM
 70
64
  3
_____ _ _ _____ _ _ _____ _ _ _____
 72
65
 73
6
 40
0.8
 49
0.45
 49
-0.05
 49
0.1
 49
-0.05
 49
0.1
 49
-0.05
  0
LTYPE
  2
DOT
 70
64
  3
. . . . . . . . . . . . . . . . . . . .
 72
65
 73
2
 40
0.2
 49
0.1
 49
-0.1
  0
LTYPE
  2
DASHED
 70
64
  3
- - - - - - - - - - - - - - - - - - - -
 72
65
 73
2
 40
0.2
 49
0.1
 49
-0.1
  0
ENDTAB
  0
TABLE
  2
LAYER
 70
36
  0
LAYER
  2
0
 70
0
 62
7
  6
CONTINUOUS
  0
LAYER
  2
DEFAULT_1
 70
0
 62
7
  6
CENTER
  0
LAYER
  2
DEFAULT_2
 70
0
 62
8
  6
HIDDEN
  0
LAYER
  2
DEFAULT_3
 70
0
 62
7
  6
PHANTOM
  0
LAYER
  2
_2D_DELETED_OBJS
 70
0
 62
7
  6
CONTINUOUS
  0
LAYER
  2
DATUMS
 70
0
 62
7
  6
CONTINUOUS
  0
LAYER
  2
DATUM_AXIS
 70
0
 62
7
  6
CONTINUOUS
  0
LAYER
  2
DATUM_CSYS
 70
0
 62
7
  6
CONTINUOUS
  0
LAYER
  2
DATUM_PLANE
 70
0
 62
7
  6
CONTINUOUS
  0
LAYER
  2
DATUM_POINT
 70
0
 62
7
  6
CONTINUOUS
  0
LAYER
  2
_CURVE
 70
0
 62
7
  6
CONTINUOUS
  0
LAYER
  2
_SURFACE
 70
0
 62
7
  6
CONTINUOUS
  0
LAYER
  2
__REF_CURVE
 70
0
 62
7
  6
CONTINUOUS
  0
LAYER
  2
__REF_SURFACE
 70
0
 62
7
  6
CONTINUOUS
  0
LAYER
  2
___NOTE
 70
0
 62
7
  6
CONTINUOUS
  0
LAYER
  2
___SYMBOL
 70
0
 62
7
  6
CONTINUOUS
  0
ENDTAB
  0
TABLE
  2
STYLE
 70
1
  0
STYLE
  2
STANDARD
 70
0
 40
0.0
 41
0.8
 50
0.0
 71
0
 42
0.2
  3
txt
  4

  0
STYLE
  2
TEXTSTYLE_1
 70
0
 40
0.0
 41
1.0
 50
0.0
 71
0
 42
0.2
  3
txt
  4

  0
STYLE
  2
TEXTSTYLE_2
 70
0
 40
0.0
 41
0.8258950223
 50
0.0
 71
0
 42
0.2
  3
txt
  4

  0
STYLE
  2
TEXTSTYLE_3
 70
0
 40
0.0
 41
0.6740211631
 50
0.0
 71
0
 42
0.2
  3
txt
  4

  0
ENDTAB
  0
ENDSEC
  0
SECTION
  2
BLOCKS
  0
BLOCK
  8
0
 62
2
  6
CONTINUOUS
  2
*D0
 70
65
 10
0.0
 20
0.0
  0
TEXT
  8
0
 62
2
  6
CONTINUOUS
 10
18.3530374964
 20
16.0821065901
  7
STANDARD
 40
0.15625
  1
18-5/8"
 41
0.8
 72
0
  0
TEXT
  8
0
 62
2
  6
CONTINUOUS
 10
18.3530374964
 20
15.8477315901
  7
STANDARD
 40
0.15625
  1
[47,3 cm]
 41
0.8
 72
0
  0
LINE
  8
0
 62
2
  6
CONTINUOUS
 10
20.0330490618
 20
26.9077871809
 11
18.6655374964
 21
26.9077871809
  0
LINE
  8
0
 62
2
  6
CONTINUOUS
 10
9.6580490618
 20
8.2777871809
 11
18.9155374964
 21
8.2777871809
  0
LINE
  8
0
 62
2
  6
CONTINUOUS
 10
18.7905374964
 20
26.9077871809
 11
18.7905374964
 21
16.3164815901
  0
LINE
  8
0
 62
2
  6
CONTINUOUS
 10
18.7905374964
 20
8.2777871809
 11
18.7905374964
 21
15.7696065901
  0
INSERT
  8
0
 62
2
  6
CONTINUOUS
  2
_FILLED
 10
18.7905374964
 20
26.9077871809
 41
0.1875
 42
0.1875
 43
0.1875
 50
90.0
  0
INSERT
  8
0
 62
2
  6
CONTINUOUS
  2
_FILLED
 10
18.7905374964
 20
8.2777871809
 41
0.1875
 42
0.1875
 43
0.1875
 50
270.0
  0
ENDBLK
  8
0
  6
BYBLOCK
 62
0
  0
BLOCK
  8
0
 62
2
  6
CONTINUOUS
  2
*D1
 70
65
 10
0.0
 20
0.0
  0
TEXT
  8
0
 62
2
  6
CONTINUOUS
 10
17.3733226471
 20
18.931166864
  7
STANDARD
 40
0.15625
  1
20-1/8"
 41
0.8
 72
0
  0
TEXT
  8
0
 62
2
  6
CONTINUOUS
 10
17.3733226471
 20
18.696791864
  7
STANDARD
 40
0.15625
  1
[51,1 cm]
 41
0.8
 72
0
  0
LINE
  8
0
 62
2
  6
CONTINUOUS
 10
20.0330490618
 20
27.6577871809
 11
17.6858226471
 21
27.6577871809
  0
LINE
  8
0
 62
2
  6
CONTINUOUS
 10
9.6580490618
 20
7.5277871809
 11
17.9358226471
 21
7.5277871809
  0
LINE
  8
0
 62
2
  6
CONTINUOUS
 10
17.8108226471
 20
27.6577871809
 11
17.8108226471
 21
19.165541864
  0
LINE
  8
0
 62
2
  6
CONTINUOUS
 10
17.8108226471
 20
7.5277871809
 11
17.8108226471
 21
18.618666864
  0
INSERT
  8
0
 62
2
  6
CONTINUOUS
  2
_FILLED
 10
17.8108226471
 20
27.6577871809
 41
0.1875
 42
0.1875
 43
0.1875
 50
90.0
  0
INSERT
  8
0
 62
2
  6
CONTINUOUS
  2
_FILLED
 10
17.8108226471
 20
7.5277871809
 41
0.1875
 42
0.1875
 43
0.1875
 50
270.0
  0
ENDBLK
  8
0
  6
BYBLOCK
 62
0
  0
BLOCK
  8
0
 62
2
  6
CONTINUOUS
  2
*D2
 70
65
 10
0.0
 20
0.0
  0
TEXT
  8
0
 62
2
  6
CONTINUOUS
 10
27.0844939347
 20
16.2699817682
  7
STANDARD
 40
0.15625
  1
15-3/4"
 41
0.8
 72
0
  0
TEXT
  8
0
 62
2
  6
CONTINUOUS
 10
27.0844939347
 20
16.0356067682
  7
STANDARD
 40
0.15625
  1
[40 cm]
 41
0.8
 72
0
  0
LINE
  8
0
 62
2
  6
CONTINUOUS
 10
24.7984567019
 20
24.0277871809
 11
27.6469939347
 21
24.0277871809
  0
LINE
  8
0
 62
2
  6
CONTINUOUS
 10
35.2830490618
 20
8.2777871809
 11
27.3969939347
 21
8.2777871809
  0
LINE
  8
0
 62
2
  6
CONTINUOUS
 10
27.5219939347
 20
24.0277871809
 11
27.5219939347
 21
16.5043567682
  0
LINE
  8
0
 62
2
  6
CONTINUOUS
 10
27.5219939347
 20
8.2777871809
 11
27.5219939347
 21
15.9574817682
  0
INSERT
  8
0
 62
2
  6
CONTINUOUS
  2
_FILLED
 10
27.5219939347
 20
24.0277871809
 41
0.1875
 42
0.1875
 43
0.1875
 50
90.0
  0
INSERT
  8
0
 62
2
  6
CONTINUOUS
  2
_FILLED
 10
27.5219939347
 20
8.2777871809
 41
0.1875
 42
0.1875
 43
0.1875
 50
270.0
  0
ENDBLK
  8
0
  6
BYBLOCK
 62
0
  0
BLOCK
  8
0
 62
2
  6
CONTINUOUS
  2
*D3
 70
65
 10
0.0
 20
0.0
  0
TEXT
  8
0
 62
2
  6
CONTINUOUS
 10
26.1524895512
 20
18.4921613846
  7
STANDARD
 40
0.15625
  1
17-1/4"
 41
0.8
 72
0
  0
TEXT
  8
0
 62
2
  6
CONTINUOUS
 10
26.1524895512
 20
18.2577863846
  7
STANDARD
 40
0.15625
  1
[43,8 cm]
 41
0.8
 72
0
  0
LINE
  8
0
 62
2
  6
CONTINUOUS
 10
24.7984567019
 20
24.7777871809
 11
26.7149895512
 21
24.7777871809
  0
LINE
  8
0
 62
2
  6
CONTINUOUS
 10
35.2830490618
 20
7.5277871809
 11
26.4649895512
 21
7.5277871809
  0
LINE
  8
0
 62
2
  6
CONTINUOUS
 10
26.5899895512
 20
24.7777871809
 11
26.5899895512
 21
18.7265363846
  0
LINE
  8
0
 62
2
  6
CONTINUOUS
 10
26.5899895512
 20
7.5277871809
 11
26.5899895512
 21
18.1796613846
  0
INSERT
  8
0
 62
2
  6
CONTINUOUS
  2
_FILLED
 10
26.5899895512
 20
24.7777871809
 41
0.1875
 42
0.1875
 43
0.1875
 50
90.0
  0
INSERT
  8
0
 62
2
  6
CONTINUOUS
  2
_FILLED
 10
26.5899895512
 20
7.5277871809
 41
0.1875
 42
0.1875
 43
0.1875
 50
270.0
  0
ENDBLK
  8
0
  6
BYBLOCK
 62
0
  0
BLOCK
  8
0
 62
2
  6
CONTINUOUS
  2
*D4
 70
65
 10
0.0
 20
0.0
  0
TEXT
  8
0
 62
2
  6
CONTINUOUS
 10
22.7994870306
 20
16.878627138
  7
STANDARD
 40
0.15625
  1
29-1/4"
 41
0.8
 72
0
  0
TEXT
  8
0
 62
2
  6
CONTINUOUS
 10
22.7994870306
 20
16.644252138
  7
STANDARD
 40
0.15625
  1
[74,3 cm]
 41
0.8
 72
0
  0
LINE
  8
0
 62
2
  6
CONTINUOUS
 10
37.0955490618
 20
22.2152871809
 11
37.0955490618
 21
16.831752138
  0
LINE
  8
0
 62
2
  6
CONTINUOUS
 10
7.8455490618
 20
10.0902871809
 11
7.8455490618
 21
17.081752138
  0
LINE
  8
0
 62
2
  6
CONTINUOUS
 10
37.0955490618
 20
16.956752138
 11
24.0026120306
 21
16.956752138
  0
LINE
  8
0
 62
2
  6
CONTINUOUS
 10
7.8455490618
 20
16.956752138
 11
22.7213620306
 21
16.956752138
  0
INSERT
  8
0
 62
2
  6
CONTINUOUS
  2
_FILLED
 10
37.0955490618
 20
16.956752138
 41
0.1875
 42
0.1875
 43
0.1875
  0
INSERT
  8
0
 62
2
  6
CONTINUOUS
  2
_FILLED
 10
7.8455490618
 20
16.956752138
 41
0.1875
 42
0.1875
 43
0.1875
 50
180.0
  0
ENDBLK
  8
0
  6
BYBLOCK
 62
0
  0
BLOCK
  8
0
 62
2
  6
CONTINUOUS
  2
*D5
 70
65
 10
0.0
 20
0.0
  0
TEXT
  8
0
 62
2
  6
CONTINUOUS
 10
21.9330486744
 20
17.697147686
  7
STANDARD
 40
0.15625
  1
30-3/4"
 41
0.8
 72
0
  0
TEXT
  8
0
 62
2
  6
CONTINUOUS
 10
21.9330486744
 20
17.462772686
  7
STANDARD
 40
0.15625
  1
[78,1 cm]
 41
0.8
 72
0
  0
LINE
  8
0
 62
2
  6
CONTINUOUS
 10
37.8455490618
 20
22.2152871809
 11
37.8455490618
 21
17.650272686
  0
LINE
  8
0
 62
2
  6
CONTINUOUS
 10
7.0955490618
 20
10.0902871809
 11
7.0955490618
 21
17.900272686
  0
LINE
  8
0
 62
2
  6
CONTINUOUS
 10
37.8455490618
 20
17.775272686
 11
23.1361736744
 21
17.775272686
  0
LINE
  8
0
 62
2
  6
CONTINUOUS
 10
7.0955490618
 20
17.775272686
 11
21.8549236744
 21
17.775272686
  0
INSERT
  8
0
 62
2
  6
CONTINUOUS
  2
_FILLED
 10
37.8455490618
 20
17.775272686
 41
0.1875
 42
0.1875
 43
0.1875
  0
INSERT
  8
0
 62
2
  6
CONTINUOUS
  2
_FILLED
 10
7.0955490618
 20
17.775272686
 41
0.1875
 42
0.1875
 43
0.1875
 50
180.0
  0
ENDBLK
  8
0
  6
BYBLOCK
 62
0
  0
BLOCK
  8
___SYMBOL
 62
2
  6
CONTINUOUS
  2
REVEAL-NOREVEAL_BL0
 70
64
 10
30.1052508396
 20
20.4516570593
  0
LINE
  8
___SYMBOL
 62
7
  6
CONTINUOUS
 10
30.7332539861
 20
20.4551470593
 11
29.4204839861
 21
20.5525670593
  0
LINE
  8
___SYMBOL
 62
7
  6
CONTINUOUS
 10
29.4204839861
 20
20.5525670593
 11
29.3492039861
 21
20.6511670593
  0
LINE
  8
___SYMBOL
 62
7
  6
CONTINUOUS
 10
29.3492039861
 20
20.6511670593
 11
29.3884039861
 21
20.6701770593
  0
LINE
  8
___SYMBOL
 62
7
  6
CONTINUOUS
 10
29.3884039861
 20
20.6701770593
 11
29.4466239861
 21
20.5846370593
  0
LINE
  8
___SYMBOL
 62
7
  6
CONTINUOUS
 10
29.4466239861
 20
20.5846370593
 11
30.7166239861
 21
20.4967270593
  0
LINE
  8
___SYMBOL
 62
7
  6
CONTINUOUS
 10
30.2473539861
 20
20.6701770593
 11
30.2473539861
 21
20.9303570593
  0
LINE
  8
___SYMBOL
 62
7
  6
CONTINUOUS
 10
30.2473539861
 20
20.9303570593
 11
30.0477639861
 21
20.9303570593
  0
LINE
  8
___SYMBOL
 62
7
  6
CONTINUOUS
 10
30.1047939861
 20
20.539078221
 11
30.1047939861
 21
20.8925770593
  0
LINE
  8
___SYMBOL
 62
7
  6
CONTINUOUS
 10
30.1047939861
 20
20.8925770593
 11
30.1482739861
 21
20.9303570593
  0
LINE
  8
___SYMBOL
 62
7
  6
CONTINUOUS
 10
30.1482739861
 20
20.9303570593
 11
30.1953139861
 21
20.8925770593
  0
LINE
  8
___SYMBOL
 62
7
  6
CONTINUOUS
 10
30.1953139861
 20
20.5328123838
 11
30.1953139861
 21
20.8925770593
  0
LINE
  8
___SYMBOL
 62
7
  6
CONTINUOUS
 10
30.1953139861
 20
20.8925770593
 11
30.1047939861
 21
20.8925770593
  0
LINE
  8
___SYMBOL
 62
7
  6
CONTINUOUS
 10
30.1047939861
 20
20.7942070593
 11
30.1953139861
 21
20.7942070593
  0
LINE
  8
___SYMBOL
 62
7
  6
CONTINUOUS
 10
30.1953239861
 20
20.7942070593
 11
30.1482739861
 21
20.8319870593
  0
LINE
  8
___SYMBOL
 62
7
  6
CONTINUOUS
 10
30.1482739861
 20
20.8319870593
 11
30.1047939861
 21
20.7942070593
  0
LINE
  8
___SYMBOL
 62
2
  6
CONTINUOUS
 10
30.8853239861
 20
20.7999170593
 11
30.7407672001
 21
20.6701770593
  0
LINE
  8
___SYMBOL
 62
7
  6
CONTINUOUS
 10
30.1953139861
 20
20.4950673155
 11
30.1953139861
 21
20.4183170593
  0
LINE
  8
___SYMBOL
 62
7
  6
CONTINUOUS
 10
30.1953139861
 20
20.4183170593
 11
30.2402239861
 21
20.3589170593
  0
LINE
  8
___SYMBOL
 62
7
  6
CONTINUOUS
 10
30.2402239861
 20
20.3589170593
 11
30.0584539861
 21
20.3589170593
  0
LINE
  8
___SYMBOL
 62
7
  6
CONTINUOUS
 10
30.0584539861
 20
20.3589170593
 11
30.1047939861
 21
20.4183170593
  0
LINE
  8
___SYMBOL
 62
7
  6
CONTINUOUS
 10
30.1047939861
 20
20.4183170593
 11
30.1047939861
 21
20.5017847591
  0
POLYLINE
  8
___SYMBOL
 62
7
  6
CONTINUOUS
 66
1
 70
0
  0
VERTEX
  8
___SYMBOL
 62
7
  6
CONTINUOUS
 10
30.8853239861
 20
21.0770770593
  0
VERTEX
  8
___SYMBOL
 62
7
  6
CONTINUOUS
 10
30.8853928233
 20
21.078846718
  0
VERTEX
  8
___SYMBOL
 62
7
  6
CONTINUOUS
 10
30.8853940115
 20
21.0806172252
  0
VERTEX
  8
___SYMBOL
 62
7
  6
CONTINUOUS
 10
30.8853279914
 20
21.0823869322
  0
VERTEX
  8
___SYMBOL
 62
7
  6
CONTINUOUS
 10
30.8851952038
 20
21.0841541905
  0
VERTEX
  8
___SYMBOL
 62
7
  6
CONTINUOUS
 10
30.8849960894
 20
21.0859173516
  0
VERTEX
  8
___SYMBOL
 62
7
  6
CONTINUOUS
 10
30.8847310889
 20
21.0876747669
  0
VERTEX
  8
___SYMBOL
 62
7
  6
CONTINUOUS
 10
30.8844006431
 20
21.089424788
  0
VERTEX
  8
___SYMBOL
 62
7
  6
CONTINUOUS
 10
30.8840051927
 20
21.0911657663
  0
VERTEX
  8
___SYMBOL
 62
7
  6
CONTINUOUS
 10
30.8835451785
 20
21.0928960532
  0
VERTEX
  8
___SYMBOL
 62
7
  6
CONTINUOUS
 10
30.8830210412
 20
21.0946140003
  0
VERTEX
  8
___SYMBOL
 62
7
  6
CONTINUOUS
 10
30.8824332215
 20
21.096317959
  0
VERTEX
  8
___SYMBOL
 62
7
  6
CONTINUOUS
 10
30.8817821601
 20
21.0980062807
  0
VERTEX
  8
___SYMBOL
 62
7
  6
CONTINUOUS
 10
30.8810682979
 20
21.099677317
  0
VERTEX
  8
___SYMBOL
 62
7
  6
CONTINUOUS
 10
30.8802920755
 20
21.1013294193
  0
VERTEX
  8
___SYMBOL
 62
7
  6
CONTINUOUS
 10
30.8794539337
 20
21.102960939
  0
VERTEX
  8
___SYMBOL
 62
7
  6
CONTINUOUS
 10
30.8785543132
 20
21.1045702277
  0
VERTEX
  8
___SYMBOL
 62
7
  6
CONTINUOUS
 10
30.8775936548
 20
21.1061556368
  0
VERTEX
  8
___SYMBOL
 62
7
  6
CONTINUOUS
 10
30.8765725591
 20
21.1077155825
  0
VERTEX
  8
___SYMBOL
 62
7
  6
CONTINUOUS
 10
30.8754922662
 20
21.1092487396
  0
VERTEX
  8
___SYMBOL
 62
7
  6
CONTINUOUS
 10
30.8743541762
 20
21.1107538476
  0
VERTEX
  8
___SYMBOL
 62
7
  6
CONTINUOUS
 10
30.8731596891
 20
21.1122296462
  0
VERTEX
  8
___SYMBOL
 62
7
  6
CONTINUOUS
 10
30.871910205
 20
21.1136748749
  0
VERTEX
  8
___SYMBOL
 62
7
  6
CONTINUOUS
 10
30.870607124
 20
21.1150882732
  0
VERTEX
  8
___SYMBOL
 62
7
  6
CONTINUOUS
 10
30.869251846
 20
21.1164685807
  0
VERTEX
  8
___SYMBOL
 62
7
  6
CONTINUOUS
 10
30.8678457712
 20
21.1178145369
  0
VERTEX
  8
___SYMBOL
 62
7
  6
CONTINUOUS
 10
30.8663902996
 20
21.1191248814
  0
VERTEX
  8
___SYMBOL
 62
7
  6
CONTINUOUS
 10
30.8648868312
 20
21.1203983538
  0
VERTEX
  8
___SYMBOL
 62
7
  6
CONTINUOUS
 10
30.8633367661
 20
21.1216336935
  0
VERTEX
  8
___SYMBOL
 62
7
  6
CONTINUOUS
 10
30.8617415043
 20
21.1228296402
  0
VERTEX
  8
___SYMBOL
 62
7
  6
CONTINUOUS
 10
30.860102446
 20
21.1239849334
  0
VERTEX
  8
___SYMBOL
 62
7
  6
CONTINUOUS
 10
30.858420991
 20
21.1250983126
  0
VERTEX
  8
___SYMBOL
 62
7
  6
CONTINUOUS
 10
30.8566985395
 20
21.1261685175
  0
VERTEX
  8
___SYMBOL
 62
7
  6
CONTINUOUS
 10
30.8549364916
 20
21.1271942875
  0
VERTEX
  8
___SYMBOL
 62
7
  6
CONTINUOUS
 10
30.8531362473
 20
21.1281743621
  0
VERTEX
  8
___SYMBOL
 62
7
  6
CONTINUOUS
 10
30.8511803779
 20
21.1291657957
  0
VERTEX
  8
___SYMBOL
 62
7
  6
CONTINUOUS
 10
30.8491852103
 20
21.1301034415
  0
VERTEX
  8
___SYMBOL
 62
7
  6
CONTINUOUS
 10
30.8471531095
 20
21.1309866784
  0
VERTEX
  8
___SYMBOL
 62
7
  6
CONTINUOUS
 10
30.8450864408
 20
21.1318148853
  0
VERTEX
  8
___SYMBOL
 62
7
  6
CONTINUOUS
 10
30.8429875692
 20
21.132587441
  0
VERTEX
  8
___SYMBOL
 62
7
  6
CONTINUOUS
 10
30.84085886
 20
21.1333037242
  0
VERTEX
  8
___SYMBOL
 62
7
  6
CONTINUOUS
 10
30.8387026781
 20
21.1339631139
  0
VERTEX
  8
___SYMBOL
 62
7
  6
CONTINUOUS
 10
30.8365213888
 20
21.1345649888
  0
VERTEX
  8
___SYMBOL
 62
7
  6
CONTINUOUS
 10
30.8343173571
 20
21.1351087278
  0
VERTEX
  8
___SYMBOL
 62
7
  6
CONTINUOUS
 10
30.8320929483
 20
21.1355937096
  0
VERTEX
  8
___SYMBOL
 62
7
  6
CONTINUOUS
 10
30.8298505275
 20
21.1360193132
  0
VERTEX
  8
___SYMBOL
 62
7
  6
CONTINUOUS
 10
30.8275924597
 20
21.1363849174
  0
VERTEX
  8
___SYMBOL
 62
7
  6
CONTINUOUS
 10
30.8253211102
 20
21.1366899009
  0
VERTEX
  8
___SYMBOL
 62
7
  6
CONTINUOUS
 10
30.823038844
 20
21.1369336427
  0
VERTEX
  8
___SYMBOL
 62
7
  6
CONTINUOUS
 10
30.8213052018
 20
21.1370770593
  0
SEQEND
  0
LINE
  8
___SYMBOL
 62
7
  6
CONTINUOUS
 10
30.1047939861
 20
20.6701770593
 11
29.1717139861
 21
20.6701770593
  0
LINE
  8
___SYMBOL
 62
7
  6
CONTINUOUS
 10
29.1717139861
 20
20.6701770593
 11
29.1474739861
 21
20.7785270593
  0
LINE
  8
___SYMBOL
 62
7
  6
CONTINUOUS
 10
29.1474739861
 20
20.7785270593
 11
29.2002239861
 21
20.8355570593
  0
LINE
  8
___SYMBOL
 62
7
  6
CONTINUOUS
 10
29.2002239861
 20
20.8355570593
 11
29.1717139861
 21
20.9524570593
  0
LINE
  8
___SYMBOL
 62
7
  6
CONTINUOUS
 10
29.1717139861
 20
20.9524570593
 11
29.2444139861
 21
20.9980770593
  0
LINE
  8
___SYMBOL
 62
7
  6
CONTINUOUS
 10
29.2444139861
 20
20.9980770593
 11
29.2472639861
 21
21.0907470593
  0
LINE
  8
___SYMBOL
 62
7
  6
CONTINUOUS
 10
29.2472639861
 20
21.0907470593
 11
29.3385139861
 21
21.1370770593
  0
LINE
  8
___SYMBOL
 62
7
  6
CONTINUOUS
 10
29.3385139861
 20
21.1370770593
 11
30.8213052018
 21
21.1370770593
  0
LINE
  8
___SYMBOL
 62
7
  6
CONTINUOUS
 10
30.1953139861
 20
20.6701770593
 11
30.8853239861
 21
20.6701770593
  0
LINE
  8
___SYMBOL
 62
7
  6
CONTINUOUS
 10
30.8853239861
 20
20.6701770593
 11
30.8853239861
 21
21.0770770593
  0
LINE
  8
___SYMBOL
 62
2
  6
CONTINUOUS
 10
30.8297239861
 20
20.6701770593
 11
30.8853239861
 21
20.7200770593
  0
LINE
  8
___SYMBOL
 62
2
  6
CONTINUOUS
 10
30.6422680447
 20
20.6701770593
 11
30.8853239861
 21
20.8883070593
  0
LINE
  8
___SYMBOL
 62
2
  6
CONTINUOUS
 10
30.5342459861
 20
20.6701770593
 11
30.8853239861
 21
20.9852470593
  0
LINE
  8
___SYMBOL
 62
2
  6
CONTINUOUS
 10
30.4341722725
 20
20.6701770593
 11
30.8853239861
 21
21.0750570593
  0
LINE
  8
___SYMBOL
 62
2
  6
CONTINUOUS
 10
30.3244741679
 20
20.6701770593
 11
30.8488311831
 21
21.130262403
  0
LINE
  8
___SYMBOL
 62
2
  6
CONTINUOUS
 10
30.2473539861
 20
20.7034270593
 11
30.7305691357
 21
21.1370770593
  0
LINE
  8
___SYMBOL
 62
2
  6
CONTINUOUS
 10
30.2473539861
 20
20.8102070593
 11
30.6115843009
 21
21.1370770593
  0
LINE
  8
___SYMBOL
 62
2
  6
CONTINUOUS
 10
30.2473539861
 20
20.9103970593
 11
30.499935994
 21
21.1370770593
  0
LINE
  8
___SYMBOL
 62
2
  6
CONTINUOUS
 10
29.7605719865
 20
20.6701770593
 11
30.0477639861
 21
20.9279123309
  0
LINE
  8
___SYMBOL
 62
2
  6
CONTINUOUS
 10
29.6489294461
 20
20.6701770593
 11
30.1691859892
 21
21.1370770593
  0
LINE
  8
___SYMBOL
 62
2
  6
CONTINUOUS
 10
29.5405836932
 20
20.6701770593
 11
30.0608448517
 21
21.1370770593
  0
LINE
  8
___SYMBOL
 62
2
  6
CONTINUOUS
 10
30.1613839861
 20
20.9304870593
 11
30.3915822635
 21
21.1370770593
  0
LINE
  8
___SYMBOL
 62
2
  6
CONTINUOUS
 10
29.9796688121
 20
20.6701770593
 11
30.0477639861
 21
20.7312870593
  0
LINE
  8
___SYMBOL
 62
2
  6
CONTINUOUS
 10
29.4312519865
 20
20.6701770593
 11
29.9515142843
 21
21.1370770593
  0
LINE
  8
___SYMBOL
 62
2
  6
CONTINUOUS
 10
29.3195930537
 20
20.6701770593
 11
29.8403339861
 21
21.1374970593
  0
LINE
  8
___SYMBOL
 62
2
  6
CONTINUOUS
 10
29.2112536932
 20
20.6701770593
 11
29.7315148517
 21
21.1370770593
  0
LINE
  8
___SYMBOL
 62
2
  6
CONTINUOUS
 10
29.1590909097
 20
20.7266007526
 11
29.6164843059
 21
21.1370770593
  0
LINE
  8
___SYMBOL
 62
2
  6
CONTINUOUS
 10
29.1945912474
 20
20.8586530663
 11
29.5048359848
 21
21.1370770593
  0
LINE
  8
___SYMBOL
 62
2
  6
CONTINUOUS
 10
29.2444936866
 20
21.0006685839
 11
29.396494924
 21
21.1370770593
  0
LINE
  8
___SYMBOL
 62
7
  6
CONTINUOUS
 10
30.1047939861
 20
20.4183170593
 11
30.1953139861
 21
20.4183170593
  0
LINE
  8
___SYMBOL
 62
2
  6
CONTINUOUS
 10
29.8714928278
 20
20.6701770593
 11
30.0477639861
 21
20.8283670593
  0
LINE
  8
___SYMBOL
 62
2
  6
CONTINUOUS
 10
30.0504881241
 20
20.9303570593
 11
30.2808342843
 21
21.1370770593
  0
LINE
  8
___SYMBOL
 62
7
  6
CONTINUOUS
 10
30.0477639861
 20
20.9303570593
 11
30.0477639861
 21
20.6701770593
  0
LINE
  8
___SYMBOL
 62
7
  6
CONTINUOUS
 10
30.8128016339
 20
20.5632670593
 11
30.7332539861
 21
20.4551470593
  0
LINE
  8
___SYMBOL
 62
7
  6
CONTINUOUS
 10
30.7152601894
 20
20.4948632374
 11
30.7650455552
 21
20.5632670593
  0
LINE
  8
___SYMBOL
 62
7
  6
CONTINUOUS
 10
31.0630249374
 20
19.7791570593
 11
31.0630249374
 21
20.4800970593
  0
POLYLINE
  8
___SYMBOL
 62
7
  6
CONTINUOUS
 66
1
 70
0
  0
VERTEX
  8
___SYMBOL
 62
7
  6
CONTINUOUS
 10
31.0630276931
 20
20.4800961918
  0
VERTEX
  8
___SYMBOL
 62
7
  6
CONTINUOUS
 10
31.0629643457
 20
20.4842359989
  0
VERTEX
  8
___SYMBOL
 62
7
  6
CONTINUOUS
 10
31.0627750218
 20
20.488369322
  0
VERTEX
  8
___SYMBOL
 62
7
  6
CONTINUOUS
 10
31.0624607646
 20
20.4924919474
  0
VERTEX
  8
___SYMBOL
 62
7
  6
CONTINUOUS
 10
31.0620226172
 20
20.4965996611
  0
VERTEX
  8
___SYMBOL
 62
7
  6
CONTINUOUS
 10
31.0614616225
 20
20.5006882491
  0
VERTEX
  8
___SYMBOL
 62
7
  6
CONTINUOUS
 10
31.0607788236
 20
20.5047534976
  0
VERTEX
  8
___SYMBOL
 62
7
  6
CONTINUOUS
 10
31.0599752636
 20
20.5087911926
  0
VERTEX
  8
___SYMBOL
 62
7
  6
CONTINUOUS
 10
31.0590519855
 20
20.5127971203
  0
VERTEX
  8
___SYMBOL
 62
7
  6
CONTINUOUS
 10
31.0580100324
 20
20.5167670667
  0
VERTEX
  8
___SYMBOL
 62
7
  6
CONTINUOUS
 10
31.0568504473
 20
20.5206968179
  0
VERTEX
  8
___SYMBOL
 62
7
  6
CONTINUOUS
 10
31.0555742733
 20
20.52458216
  0
VERTEX
  8
___SYMBOL
 62
7
  6
CONTINUOUS
 10
31.0541825535
 20
20.528418879
  0
VERTEX
  8
___SYMBOL
 62
7
  6
CONTINUOUS
 10
31.0526763308
 20
20.5322027612
  0
VERTEX
  8
___SYMBOL
 62
7
  6
CONTINUOUS
 10
31.0510566483
 20
20.5359295925
  0
VERTEX
  8
___SYMBOL
 62
7
  6
CONTINUOUS
 10
31.0493245492
 20
20.5395951591
  0
VERTEX
  8
___SYMBOL
 62
7
  6
CONTINUOUS
 10
31.0474810763
 20
20.543195247
  0
VERTEX
  8
___SYMBOL
 62
7
  6
CONTINUOUS
 10
31.0455275772
 20
20.5467258275
  0
VERTEX
  8
___SYMBOL
 62
7
  6
CONTINUOUS
 10
31.0434666161
 20
20.5501836126
  0
VERTEX
  8
___SYMBOL
 62
7
  6
CONTINUOUS
 10
31.0413010618
 20
20.5535654997
  0
VERTEX
  8
___SYMBOL
 62
7
  6
CONTINUOUS
 10
31.0390337831
 20
20.5568683858
  0
VERTEX
  8
___SYMBOL
 62
7
  6
CONTINUOUS
 10
31.0366676485
 20
20.5600891683
  0
VERTEX
  8
___SYMBOL
 62
7
  6
CONTINUOUS
 10
31.0342055269
 20
20.5632247444
  0
VERTEX
  8
___SYMBOL
 62
7
  6
CONTINUOUS
 10
31.0316502869
 20
20.5662720113
  0
VERTEX
  8
___SYMBOL
 62
7
  6
CONTINUOUS
 10
31.0290047972
 20
20.5692278662
  0
VERTEX
  8
___SYMBOL
 62
7
  6
CONTINUOUS
 10
31.0262719265
 20
20.5720892063
  0
VERTEX
  8
___SYMBOL
 62
7
  6
CONTINUOUS
 10
31.0234545436
 20
20.574852929
  0
VERTEX
  8
___SYMBOL
 62
7
  6
CONTINUOUS
 10
31.0205555171
 20
20.5775159313
  0
VERTEX
  8
___SYMBOL
 62
7
  6
CONTINUOUS
 10
31.0175777158
 20
20.5800751106
  0
VERTEX
  8
___SYMBOL
 62
7
  6
CONTINUOUS
 10
31.0145240083
 20
20.5825273641
  0
VERTEX
  8
___SYMBOL
 62
7
  6
CONTINUOUS
 10
31.0113972634
 20
20.584869589
  0
VERTEX
  8
___SYMBOL
 62
7
  6
CONTINUOUS
 10
31.0082003497
 20
20.5870986825
  0
VERTEX
  8
___SYMBOL
 62
7
  6
CONTINUOUS
 10
31.0049361361
 20
20.5892115419
  0
VERTEX
  8
___SYMBOL
 62
7
  6
CONTINUOUS
 10
31.0018051686
 20
20.5910914318
  0
VERTEX
  8
___SYMBOL
 62
7
  6
CONTINUOUS
 10
30.9986203752
 20
20.5928646709
  0
VERTEX
  8
___SYMBOL
 62
7
  6
CONTINUOUS
 10
30.9953850038
 20
20.5945303189
  0
VERTEX
  8
___SYMBOL
 62
7
  6
CONTINUOUS
 10
30.9921023025
 20
20.5960874352
  0
VERTEX
  8
___SYMBOL
 62
7
  6
CONTINUOUS
 10
30.9887755195
 20
20.5975350792
  0
VERTEX
  8
___SYMBOL
 62
7
  6
CONTINUOUS
 10
30.9854079028
 20
20.5988723107
  0
VERTEX
  8
___SYMBOL
 62
7
  6
CONTINUOUS
 10
30.9820027006
 20
20.6000981889
  0
VERTEX
  8
___SYMBOL
 62
7
  6
CONTINUOUS
 10
30.9785631609
 20
20.6012117735
  0
VERTEX
  8
___SYMBOL
 62
7
  6
CONTINUOUS
 10
30.9750925317
 20
20.6022121239
  0
VERTEX
  8
___SYMBOL
 62
7
  6
CONTINUOUS
 10
30.9715940613
 20
20.6030982996
  0
VERTEX
  8
___SYMBOL
 62
7
  6
CONTINUOUS
 10
30.9680709976
 20
20.6038693602
  0
VERTEX
  8
___SYMBOL
 62
7
  6
CONTINUOUS
 10
30.9645265888
 20
20.6045243651
  0
VERTEX
  8
___SYMBOL
 62
7
  6
CONTINUOUS
 10
30.960964083
 20
20.6050623739
  0
VERTEX
  8
___SYMBOL
 62
7
  6
CONTINUOUS
 10
30.9573867282
 20
20.605482446
  0
VERTEX
  8
___SYMBOL
 62
7
  6
CONTINUOUS
 10
30.9537977726
 20
20.605783641
  0
VERTEX
  8
___SYMBOL
 62
7
  6
CONTINUOUS
 10
30.9502004642
 20
20.6059650184
  0
VERTEX
  8
___SYMBOL
 62
7
  6
CONTINUOUS
 10
30.9465980511
 20
20.6060256376
  0
SEQEND
  0
LINE
  8
___SYMBOL
 62
7
  6
CONTINUOUS
 10
31.0226349374
 20
19.7658170593
 11
31.0226349374
 21
20.4777170593
  0
POLYLINE
  8
___SYMBOL
 62
7
  6
CONTINUOUS
 66
1
 70
0
  0
VERTEX
  8
___SYMBOL
 62
7
  6
CONTINUOUS
 10
31.0226348175
 20
20.477718219
  0
VERTEX
  8
___SYMBOL
 62
7
  6
CONTINUOUS
 10
31.0225936587
 20
20.480546706
  0
VERTEX
  8
___SYMBOL
 62
7
  6
CONTINUOUS
 10
31.0224706472
 20
20.4833692479
  0
VERTEX
  8
___SYMBOL
 62
7
  6
CONTINUOUS
 10
31.0222664458
 20
20.4861830401
  0
VERTEX
  8
___SYMBOL
 62
7
  6
CONTINUOUS
 10
31.0219817173
 20
20.4889852778
  0
VERTEX
  8
___SYMBOL
 62
7
  6
CONTINUOUS
 10
31.0216171245
 20
20.4917731564
  0
VERTEX
  8
___SYMBOL
 62
7
  6
CONTINUOUS
 10
31.0211733303
 20
20.4945438712
  0
VERTEX
  8
___SYMBOL
 62
7
  6
CONTINUOUS
 10
31.0206509975
 20
20.4972946174
  0
VERTEX
  8
___SYMBOL
 62
7
  6
CONTINUOUS
 10
31.0200507889
 20
20.5000225905
  0
VERTEX
  8
___SYMBOL
 62
7
  6
CONTINUOUS
 10
31.0193733673
 20
20.5027249858
  0
VERTEX
  8
___SYMBOL
 62
7
  6
CONTINUOUS
 10
31.0186193956
 20
20.5053989984
  0
VERTEX
  8
___SYMBOL
 62
7
  6
CONTINUOUS
 10
31.0177895366
 20
20.5080418239
  0
VERTEX
  8
___SYMBOL
 62
7
  6
CONTINUOUS
 10
31.0168844531
 20
20.5106506575
  0
VERTEX
  8
___SYMBOL
 62
7
  6
CONTINUOUS
 10
31.0159048079
 20
20.5132226944
  0
VERTEX
  8
___SYMBOL
 62
7
  6
CONTINUOUS
 10
31.0148512639
 20
20.5157551301
  0
VERTEX
  8
___SYMBOL
 62
7
  6
CONTINUOUS
 10
31.0137244839
 20
20.5182451599
  0
VERTEX
  8
___SYMBOL
 62
7
  6
CONTINUOUS
 10
31.0125251308
 20
20.520689979
  0
VERTEX
  8
___SYMBOL
 62
7
  6
CONTINUOUS
 10
31.0112540612
 20
20.5230869078
  0
VERTEX
  8
___SYMBOL
 62
7
  6
CONTINUOUS
 10
31.009912908
 20
20.5254337661
  0
VERTEX
  8
___SYMBOL
 62
7
  6
CONTINUOUS
 10
31.0085034978
 20
20.5277284988
  0
VERTEX
  8
___SYMBOL
 62
7
  6
CONTINUOUS
 10
31.0070276573
 20
20.5299690509
  0
VERTEX
  8
___SYMBOL
 62
7
  6
CONTINUOUS
 10
31.005487213
 20
20.5321533671
  0
VERTEX
  8
___SYMBOL
 62
7
  6
CONTINUOUS
 10
31.0038839918
 20
20.5342793924
  0
VERTEX
  8
___SYMBOL
 62
7
  6
CONTINUOUS
 10
31.0022198203
 20
20.5363450717
  0
VERTEX
  8
___SYMBOL
 62
7
  6
CONTINUOUS
 10
31.0004965252
 20
20.5383483497
  0
VERTEX
  8
___SYMBOL
 62
7
  6
CONTINUOUS
 10
30.9987159331
 20
20.5402871715
  0
VERTEX
  8
___SYMBOL
 62
7
  6
CONTINUOUS
 10
30.9968798706
 20
20.5421594818
  0
VERTEX
  8
___SYMBOL
 62
7
  6
CONTINUOUS
 10
30.9949901646
 20
20.5439632256
  0
VERTEX
  8
___SYMBOL
 62
7
  6
CONTINUOUS
 10
30.9930486416
 20
20.5456963477
  0
VERTEX
  8
___SYMBOL
 62
7
  6
CONTINUOUS
 10
30.9910571283
 20
20.547356793
  0
VERTEX
  8
___SYMBOL
 62
7
  6
CONTINUOUS
 10
30.9890174514
 20
20.5489425064
  0
VERTEX
  8
___SYMBOL
 62
7
  6
CONTINUOUS
 10
30.9869314375
 20
20.5504514327
  0
VERTEX
  8
___SYMBOL
 62
7
  6
CONTINUOUS
 10
30.9848009134
 20
20.5518815168
  0
VERTEX
  8
___SYMBOL
 62
7
  6
CONTINUOUS
 10
30.9827567829
 20
20.5531537978
  0
VERTEX
  8
___SYMBOL
 62
7
  6
CONTINUOUS
 10
30.9806769211
 20
20.5543537971
  0
VERTEX
  8
___SYMBOL
 62
7
  6
CONTINUOUS
 10
30.9785634065
 20
20.5554808929
  0
VERTEX
  8
___SYMBOL
 62
7
  6
CONTINUOUS
 10
30.9764183175
 20
20.5565344634
  0
VERTEX
  8
___SYMBOL
 62
7
  6
CONTINUOUS
 10
30.9742437325
 20
20.5575138868
  0
VERTEX
  8
___SYMBOL
 62
7
  6
CONTINUOUS
 10
30.97204173
 20
20.5584185414
  0
VERTEX
  8
___SYMBOL
 62
7
  6
CONTINUOUS
 10
30.9698143883
 20
20.5592478052
  0
VERTEX
  8
___SYMBOL
 62
7
  6
CONTINUOUS
 10
30.967563786
 20
20.5600010565
  0
VERTEX
  8
___SYMBOL
 62
7
  6
CONTINUOUS
 10
30.9652920015
 20
20.5606776736
  0
VERTEX
  8
___SYMBOL
 62
7
  6
CONTINUOUS
 10
30.9630011131
 20
20.5612770345
  0
VERTEX
  8
___SYMBOL
 62
7
  6
CONTINUOUS
 10
30.9606931993
 20
20.5617985175
  0
VERTEX
  8
___SYMBOL
 62
7
  6
CONTINUOUS
 10
30.9583703385
 20
20.5622415009
  0
VERTEX
  8
___SYMBOL
 62
7
  6
CONTINUOUS
 10
30.9560346092
 20
20.5626053627
  0
VERTEX
  8
___SYMBOL
 62
7
  6
CONTINUOUS
 10
30.9536880899
 20
20.5628894813
  0
VERTEX
  8
___SYMBOL
 62
7
  6
CONTINUOUS
 10
30.9513328588
 20
20.5630932347
  0
VERTEX
  8
___SYMBOL
 62
7
  6
CONTINUOUS
 10
30.9489709945
 20
20.5632160013
  0
VERTEX
  8
___SYMBOL
 62
7
  6
CONTINUOUS
 10
30.9466045754
 20
20.5632571591
  0
SEQEND
  0
LINE
  8
___SYMBOL
 62
7
  6
CONTINUOUS
 10
30.9466049374
 20
20.5632570593
 11
30.5331649374
 21
20.5632570593
  0
LINE
  8
___SYMBOL
 62
7
  6
CONTINUOUS
 10
30.5331649374
 20
20.5632570593
 11
30.5331649374
 21
20.6060270593
  0
LINE
  8
___SYMBOL
 62
7
  6
CONTINUOUS
 10
30.5331649374
 20
20.6060270593
 11
30.9466049374
 21
20.6060270593
  0
LINE
  8
___SYMBOL
 62
2
  6
CONTINUOUS
 10
30.9800167011
 20
20.554715642
 11
31.012115523
 21
20.5843460802
  0
LINE
  8
___SYMBOL
 62
7
  6
CONTINUOUS
 10
30.5705049374
 20
20.6131570593
 11
30.5674449374
 21
20.6192670593
  0
LINE
  8
___SYMBOL
 62
7
  6
CONTINUOUS
 10
30.5674449374
 20
20.6192670593
 11
30.5633749374
 21
20.6202770593
  0
LINE
  8
___SYMBOL
 62
7
  6
CONTINUOUS
 10
30.5633749374
 20
20.6202770593
 11
30.5593049374
 21
20.6223170593
  0
LINE
  8
___SYMBOL
 62
7
  6
CONTINUOUS
 10
30.5593049374
 20
20.6223170593
 11
30.5552249374
 21
20.6263970593
  0
LINE
  8
___SYMBOL
 62
7
  6
CONTINUOUS
 10
30.5552249374
 20
20.6263970593
 11
30.5501349374
 21
20.6253770593
  0
LINE
  8
___SYMBOL
 62
7
  6
CONTINUOUS
 10
30.6753949374
 20
20.6162070593
 11
30.6794649374
 21
20.6182470593
  0
LINE
  8
___SYMBOL
 62
7
  6
CONTINUOUS
 10
30.6794649374
 20
20.6182470593
 11
30.6835349374
 21
20.6192670593
  0
LINE
  8
___SYMBOL
 62
7
  6
CONTINUOUS
 10
30.6835349374
 20
20.6192670593
 11
30.6916849374
 21
20.6151870593
  0
LINE
  8
___SYMBOL
 62
7
  6
CONTINUOUS
 10
30.6916849374
 20
20.6151870593
 11
30.6957549374
 21
20.6151870593
  0
LINE
  8
___SYMBOL
 62
7
  6
CONTINUOUS
 10
30.8161949374
 20
20.6172270593
 11
30.8223049374
 21
20.6202770593
  0
LINE
  8
___SYMBOL
 62
7
  6
CONTINUOUS
 10
30.8223049374
 20
20.6202770593
 11
30.8324849374
 21
20.6172270593
  0
LINE
  8
___SYMBOL
 62
7
  6
CONTINUOUS
 10
30.8092449374
 20
20.6549070593
 11
30.8051749374
 21
20.6549070593
  0
LINE
  8
___SYMBOL
 62
7
  6
CONTINUOUS
 10
30.8051749374
 20
20.6549070593
 11
30.7939749374
 21
20.6630570593
  0
LINE
  8
___SYMBOL
 62
7
  6
CONTINUOUS
 10
30.7939749374
 20
20.6630570593
 11
30.7858249374
 21
20.6630570593
  0
LINE
  8
___SYMBOL
 62
7
  6
CONTINUOUS
 10
30.7858249374
 20
20.6630570593
 11
30.7858249374
 21
20.6569370593
  0
LINE
  8
___SYMBOL
 62
7
  6
CONTINUOUS
 10
30.6784449374
 20
20.6569370593
 11
30.6784449374
 21
20.6620370593
  0
LINE
  8
___SYMBOL
 62
7
  6
CONTINUOUS
 10
30.6784449374
 20
20.6620370593
 11
30.6825149374
 21
20.6630570593
  0
LINE
  8
___SYMBOL
 62
7
  6
CONTINUOUS
 10
30.6825149374
 20
20.6630570593
 11
30.6865949374
 21
20.6620370593
  0
LINE
  8
___SYMBOL
 62
7
  6
CONTINUOUS
 10
30.6865949374
 20
20.6620370593
 11
30.6916849374
 21
20.6549070593
  0
LINE
  8
___SYMBOL
 62
7
  6
CONTINUOUS
 10
30.6916849374
 20
20.6549070593
 11
30.6967749374
 21
20.6528670593
  0
LINE
  8
___SYMBOL
 62
7
  6
CONTINUOUS
 10
30.6967749374
 20
20.6528670593
 11
30.7018649374
 21
20.6528670593
  0
POLYLINE
  8
___SYMBOL
 62
7
  6
CONTINUOUS
 66
1
 70
0
  0
VERTEX
  8
___SYMBOL
 62
7
  6
CONTINUOUS
 10
30.541987791
 20
20.6070481291
  0
VERTEX
  8
___SYMBOL
 62
7
  6
CONTINUOUS
 10
30.5403125074
 20
20.6085237688
  0
VERTEX
  8
___SYMBOL
 62
7
  6
CONTINUOUS
 10
30.5386830283
 20
20.6099812539
  0
VERTEX
  8
___SYMBOL
 62
7
  6
CONTINUOUS
 10
30.5370990836
 20
20.6114207491
  0
VERTEX
  8
___SYMBOL
 62
7
  6
CONTINUOUS
 10
30.5355604031
 20
20.6128424194
  0
VERTEX
  8
___SYMBOL
 62
7
  6
CONTINUOUS
 10
30.5340667169
 20
20.6142464295
  0
VERTEX
  8
___SYMBOL
 62
7
  6
CONTINUOUS
 10
30.5326177546
 20
20.6156329442
  0
VERTEX
  8
___SYMBOL
 62
7
  6
CONTINUOUS
 10
30.5312132461
 20
20.6170021283
  0
VERTEX
  8
___SYMBOL
 62
7
  6
CONTINUOUS
 10
30.5298529214
 20
20.6183541467
  0
VERTEX
  8
___SYMBOL
 62
7
  6
CONTINUOUS
 10
30.5285365102
 20
20.6196891641
  0
VERTEX
  8
___SYMBOL
 62
7
  6
CONTINUOUS
 10
30.5272637425
 20
20.6210073453
  0
VERTEX
  8
___SYMBOL
 62
7
  6
CONTINUOUS
 10
30.526034348
 20
20.6223088551
  0
VERTEX
  8
___SYMBOL
 62
7
  6
CONTINUOUS
 10
30.5248480567
 20
20.6235938583
  0
VERTEX
  8
___SYMBOL
 62
7
  6
CONTINUOUS
 10
30.5237045984
 20
20.6248625198
  0
VERTEX
  8
___SYMBOL
 62
7
  6
CONTINUOUS
 10
30.522603703
 20
20.6261150044
  0
VERTEX
  8
___SYMBOL
 62
7
  6
CONTINUOUS
 10
30.5215451003
 20
20.6273514767
  0
VERTEX
  8
___SYMBOL
 62
7
  6
CONTINUOUS
 10
30.5205285202
 20
20.6285721017
  0
VERTEX
  8
___SYMBOL
 62
7
  6
CONTINUOUS
 10
30.5195536925
 20
20.6297770442
  0
VERTEX
  8
___SYMBOL
 62
7
  6
CONTINUOUS
 10
30.5186203471
 20
20.6309664689
  0
VERTEX
  8
___SYMBOL
 62
7
  6
CONTINUOUS
 10
30.5177282138
 20
20.6321405407
  0
VERTEX
  8
___SYMBOL
 62
7
  6
CONTINUOUS
 10
30.5168770226
 20
20.6332994243
  0
VERTEX
  8
___SYMBOL
 62
7
  6
CONTINUOUS
 10
30.5160665033
 20
20.6344432845
  0
VERTEX
  8
___SYMBOL
 62
7
  6
CONTINUOUS
 10
30.5152964146
 20
20.6355722749
  0
VERTEX
  8
___SYMBOL
 62
7
  6
CONTINUOUS
 10
30.5145666315
 20
20.6366865031
  0
VERTEX
  8
___SYMBOL
 62
7
  6
CONTINUOUS
 10
30.5138770575
 20
20.6377860659
  0
VERTEX
  8
___SYMBOL
 62
7
  6
CONTINUOUS
 10
30.5132275965
 20
20.6388710595
  0
VERTEX
  8
___SYMBOL
 62
7
  6
CONTINUOUS
 10
30.5126181522
 20
20.6399415806
  0
VERTEX
  8
___SYMBOL
 62
7
  6
CONTINUOUS
 10
30.5120486283
 20
20.6409977257
  0
VERTEX
  8
___SYMBOL
 62
7
  6
CONTINUOUS
 10
30.5115189286
 20
20.6420395911
  0
VERTEX
  8
___SYMBOL
 62
7
  6
CONTINUOUS
 10
30.5110289569
 20
20.6430672734
  0
VERTEX
  8
___SYMBOL
 62
7
  6
CONTINUOUS
 10
30.5105786167
 20
20.6440808692
  0
VERTEX
  8
___SYMBOL
 62
7
  6
CONTINUOUS
 10
30.510167812
 20
20.6450804748
  0
VERTEX
  8
___SYMBOL
 62
7
  6
CONTINUOUS
 10
30.5097964463
 20
20.6460661869
  0
VERTEX
  8
___SYMBOL
 62
7
  6
CONTINUOUS
 10
30.5094644236
 20
20.6470381018
  0
VERTEX
  8
___SYMBOL
 62
7
  6
CONTINUOUS
 10
30.5091716475
 20
20.6479963161
  0
VERTEX
  8
___SYMBOL
 62
7
  6
CONTINUOUS
 10
30.5089180217
 20
20.6489409263
  0
VERTEX
  8
___SYMBOL
 62
7
  6
CONTINUOUS
 10
30.5086714782
 20
20.6500259061
  0
VERTEX
  8
___SYMBOL
 62
7
  6
CONTINUOUS
 10
30.5084779388
 20
20.6510926537
  0
VERTEX
  8
___SYMBOL
 62
7
  6
CONTINUOUS
 10
30.5083372506
 20
20.6521413224
  0
VERTEX
  8
___SYMBOL
 62
7
  6
CONTINUOUS
 10
30.5082492608
 20
20.6531720654
  0
VERTEX
  8
___SYMBOL
 62
7
  6
CONTINUOUS
 10
30.5082138166
 20
20.6541850359
  0
VERTEX
  8
___SYMBOL
 62
7
  6
CONTINUOUS
 10
30.508230765
 20
20.6551803871
  0
VERTEX
  8
___SYMBOL
 62
7
  6
CONTINUOUS
 10
30.5082999929
 20
20.6561582589
  0
VERTEX
  8
___SYMBOL
 62
7
  6
CONTINUOUS
 10
30.5084215463
 20
20.6571187375
  0
VERTEX
  8
___SYMBOL
 62
7
  6
CONTINUOUS
 10
30.5085955108
 20
20.6580618957
  0
VERTEX
  8
___SYMBOL
 62
7
  6
CONTINUOUS
 10
30.5088219721
 20
20.6589878063
  0
VERTEX
  8
___SYMBOL
 62
7
  6
CONTINUOUS
 10
30.5091010157
 20
20.6598965421
  0
VERTEX
  8
___SYMBOL
 62
7
  6
CONTINUOUS
 10
30.5094327274
 20
20.6607881759
  0
VERTEX
  8
___SYMBOL
 62
7
  6
CONTINUOUS
 10
30.5098171928
 20
20.6616627806
  0
VERTEX
  8
___SYMBOL
 62
7
  6
CONTINUOUS
 10
30.5102544975
 20
20.662520429
  0
VERTEX
  8
___SYMBOL
 62
7
  6
CONTINUOUS
 10
30.5107447272
 20
20.6633611938
  0
VERTEX
  8
___SYMBOL
 62
7
  6
CONTINUOUS
 10
30.5112879676
 20
20.6641851479
  0
VERTEX
  8
___SYMBOL
 62
7
  6
CONTINUOUS
 10
30.5118843042
 20
20.6649923641
  0
VERTEX
  8
___SYMBOL
 62
7
  6
CONTINUOUS
 10
30.5125338227
 20
20.6657829152
  0
VERTEX
  8
___SYMBOL
 62
7
  6
CONTINUOUS
 10
30.5132366088
 20
20.6665568741
  0
VERTEX
  8
___SYMBOL
 62
7
  6
CONTINUOUS
 10
30.5139927482
 20
20.6673143134
  0
VERTEX
  8
___SYMBOL
 62
7
  6
CONTINUOUS
 10
30.5148023264
 20
20.6680553062
  0
VERTEX
  8
___SYMBOL
 62
7
  6
CONTINUOUS
 10
30.5156654291
 20
20.6687799251
  0
VERTEX
  8
___SYMBOL
 62
7
  6
CONTINUOUS
 10
30.516582142
 20
20.6694882429
  0
VERTEX
  8
___SYMBOL
 62
7
  6
CONTINUOUS
 10
30.5175525507
 20
20.6701803326
  0
SEQEND
  0
LINE
  8
___SYMBOL
 62
7
  6
CONTINUOUS
 10
30.8437882598
 20
20.6701770593
 11
30.8600549374
 21
20.6620370593
  0
LINE
  8
___SYMBOL
 62
7
  6
CONTINUOUS
 10
30.8600549374
 20
20.6620370593
 11
30.8631149374
 21
20.6579570593
  0
LINE
  8
___SYMBOL
 62
7
  6
CONTINUOUS
 10
30.8631149374
 20
20.6579570593
 11
30.8651549374
 21
20.6498170593
  0
LINE
  8
___SYMBOL
 62
7
  6
CONTINUOUS
 10
30.8651549374
 20
20.6498170593
 11
30.8651549374
 21
20.6437070593
  0
LINE
  8
___SYMBOL
 62
7
  6
CONTINUOUS
 10
30.8651549374
 20
20.6437070593
 11
30.8641349374
 21
20.6386170593
  0
LINE
  8
___SYMBOL
 62
7
  6
CONTINUOUS
 10
30.8641349374
 20
20.6386170593
 11
30.8559849374
 21
20.6335170593
  0
LINE
  8
___SYMBOL
 62
7
  6
CONTINUOUS
 10
30.8559849374
 20
20.6335170593
 11
30.8437649374
 21
20.6324970593
  0
LINE
  8
___SYMBOL
 62
7
  6
CONTINUOUS
 10
30.8437649374
 20
20.6324970593
 11
30.8315449374
 21
20.6294470593
  0
LINE
  8
___SYMBOL
 62
7
  6
CONTINUOUS
 10
30.8315449374
 20
20.6294470593
 11
30.8244149374
 21
20.6294470593
  0
LINE
  8
___SYMBOL
 62
7
  6
CONTINUOUS
 10
30.8244149374
 20
20.6294470593
 11
30.8162749374
 21
20.6274070593
  0
LINE
  8
___SYMBOL
 62
7
  6
CONTINUOUS
 10
30.8162749374
 20
20.6274070593
 11
30.7887749374
 21
20.6274070593
  0
LINE
  8
___SYMBOL
 62
7
  6
CONTINUOUS
 10
30.7887749374
 20
20.6274070593
 11
30.7844958958
 21
20.6288365208
  0
LINE
  8
___SYMBOL
 62
7
  6
CONTINUOUS
 10
30.7844958958
 20
20.6288365208
 11
30.7395449374
 21
20.6274070593
  0
LINE
  8
___SYMBOL
 62
7
  6
CONTINUOUS
 10
30.7395449374
 20
20.6274070593
 11
30.7303749374
 21
20.6294470593
  0
LINE
  8
___SYMBOL
 62
7
  6
CONTINUOUS
 10
30.7303749374
 20
20.6294470593
 11
30.6916849374
 21
20.6335170593
  0
LINE
  8
___SYMBOL
 62
7
  6
CONTINUOUS
 10
30.6916849374
 20
20.6335170593
 11
30.6825149374
 21
20.6274070593
  0
LINE
  8
___SYMBOL
 62
7
  6
CONTINUOUS
 10
30.6825149374
 20
20.6274070593
 11
30.6774249374
 21
20.6253770593
  0
LINE
  8
___SYMBOL
 62
7
  6
CONTINUOUS
 10
30.6774249374
 20
20.6253770593
 11
30.6438249374
 21
20.6223170593
  0
LINE
  8
___SYMBOL
 62
7
  6
CONTINUOUS
 10
30.6438249374
 20
20.6223170593
 11
30.5959649374
 21
20.6243570593
  0
LINE
  8
___SYMBOL
 62
7
  6
CONTINUOUS
 10
30.5959649374
 20
20.6243570593
 11
30.5857849374
 21
20.6243570593
  0
LINE
  8
___SYMBOL
 62
7
  6
CONTINUOUS
 10
30.5857849374
 20
20.6243570593
 11
30.5755949374
 21
20.6263970593
  0
LINE
  8
___SYMBOL
 62
7
  6
CONTINUOUS
 10
30.5755949374
 20
20.6263970593
 11
30.5613349374
 21
20.6345370593
  0
LINE
  8
___SYMBOL
 62
7
  6
CONTINUOUS
 10
30.5613349374
 20
20.6345370593
 11
30.5603249374
 21
20.6386170593
  0
LINE
  8
___SYMBOL
 62
7
  6
CONTINUOUS
 10
30.5603249374
 20
20.6386170593
 11
30.5501349374
 21
20.6416670593
  0
LINE
  8
___SYMBOL
 62
7
  6
CONTINUOUS
 10
30.5501349374
 20
20.6416670593
 11
30.5379149374
 21
20.6518470593
  0
LINE
  8
___SYMBOL
 62
7
  6
CONTINUOUS
 10
30.5379149374
 20
20.6518470593
 11
30.5348649374
 21
20.6559270593
  0
LINE
  8
___SYMBOL
 62
7
  6
CONTINUOUS
 10
30.5348649374
 20
20.6559270593
 11
30.5348649374
 21
20.6620370593
  0
LINE
  8
___SYMBOL
 62
7
  6
CONTINUOUS
 10
30.5348649374
 20
20.6620370593
 11
30.5368949374
 21
20.6661070593
  0
LINE
  8
___SYMBOL
 62
7
  6
CONTINUOUS
 10
30.5368949374
 20
20.6661070593
 11
30.5419949374
 21
20.6701770593
  0
POLYLINE
  8
___SYMBOL
 62
7
  6
CONTINUOUS
 66
1
 70
0
  0
VERTEX
  8
___SYMBOL
 62
7
  6
CONTINUOUS
 10
30.746668721
 20
20.6477817854
  0
VERTEX
  8
___SYMBOL
 62
7
  6
CONTINUOUS
 10
30.7464649662
 20
20.6480113754
  0
VERTEX
  8
___SYMBOL
 62
7
  6
CONTINUOUS
 10
30.7462537029
 20
20.6482340707
  0
VERTEX
  8
___SYMBOL
 62
7
  6
CONTINUOUS
 10
30.7460352037
 20
20.6484496853
  0
VERTEX
  8
___SYMBOL
 62
7
  6
CONTINUOUS
 10
30.7458097413
 20
20.648658033
  0
VERTEX
  8
___SYMBOL
 62
7
  6
CONTINUOUS
 10
30.7455775884
 20
20.6488589279
  0
VERTEX
  8
___SYMBOL
 62
7
  6
CONTINUOUS
 10
30.7453390176
 20
20.6490521839
  0
VERTEX
  8
___SYMBOL
 62
7
  6
CONTINUOUS
 10
30.7450943017
 20
20.649237615
  0
VERTEX
  8
___SYMBOL
 62
7
  6
CONTINUOUS
 10
30.7448437132
 20
20.649415035
  0
VERTEX
  8
___SYMBOL
 62
7
  6
CONTINUOUS
 10
30.744587525
 20
20.649584258
  0
VERTEX
  8
___SYMBOL
 62
7
  6
CONTINUOUS
 10
30.7443260096
 20
20.6497450978
  0
VERTEX
  8
___SYMBOL
 62
7
  6
CONTINUOUS
 10
30.7440594398
 20
20.6498973685
  0
VERTEX
  8
___SYMBOL
 62
7
  6
CONTINUOUS
 10
30.7437880883
 20
20.650040884
  0
VERTEX
  8
___SYMBOL
 62
7
  6
CONTINUOUS
 10
30.7435122277
 20
20.6501754581
  0
VERTEX
  8
___SYMBOL
 62
7
  6
CONTINUOUS
 10
30.7432321306
 20
20.650300905
  0
VERTEX
  8
___SYMBOL
 62
7
  6
CONTINUOUS
 10
30.7429480699
 20
20.6504170385
  0
VERTEX
  8
___SYMBOL
 62
7
  6
CONTINUOUS
 10
30.7426603181
 20
20.6505236725
  0
VERTEX
  8
___SYMBOL
 62
7
  6
CONTINUOUS
 10
30.7423691579
 20
20.6506206479
  0
VERTEX
  8
___SYMBOL
 62
7
  6
CONTINUOUS
 10
30.7420749116
 20
20.6507079122
  0
VERTEX
  8
___SYMBOL
 62
7
  6
CONTINUOUS
 10
30.7417779116
 20
20.65078544
  0
VERTEX
  8
___SYMBOL
 62
7
  6
CONTINUOUS
 10
30.7414784901
 20
20.6508532057
  0
VERTEX
  8
___SYMBOL
 62
7
  6
CONTINUOUS
 10
30.7411769794
 20
20.6509111839
  0
VERTEX
  8
___SYMBOL
 62
7
  6
CONTINUOUS
 10
30.7408737118
 20
20.6509593489
  0
VERTEX
  8
___SYMBOL
 62
7
  6
CONTINUOUS
 10
30.7405690197
 20
20.6509976753
  0
VERTEX
  8
___SYMBOL
 62
7
  6
CONTINUOUS
 10
30.7402632353
 20
20.6510261376
  0
VERTEX
  8
___SYMBOL
 62
7
  6
CONTINUOUS
 10
30.7399566908
 20
20.6510447102
  0
VERTEX
  8
___SYMBOL
 62
7
  6
CONTINUOUS
 10
30.7396497187
 20
20.6510533676
  0
VERTEX
  8
___SYMBOL
 62
7
  6
CONTINUOUS
 10
30.7393426512
 20
20.6510520842
  0
VERTEX
  8
___SYMBOL
 62
7
  6
CONTINUOUS
 10
30.7390358206
 20
20.6510408346
  0
VERTEX
  8
___SYMBOL
 62
7
  6
CONTINUOUS
 10
30.7387295592
 20
20.6510195932
  0
VERTEX
  8
___SYMBOL
 62
7
  6
CONTINUOUS
 10
30.7384241993
 20
20.6509883346
  0
VERTEX
  8
___SYMBOL
 62
7
  6
CONTINUOUS
 10
30.7381200732
 20
20.650947033
  0
VERTEX
  8
___SYMBOL
 62
7
  6
CONTINUOUS
 10
30.7378175131
 20
20.6508956632
  0
VERTEX
  8
___SYMBOL
 62
7
  6
CONTINUOUS
 10
30.7375168457
 20
20.6508342274
  0
VERTEX
  8
___SYMBOL
 62
7
  6
CONTINUOUS
 10
30.7372183746
 20
20.65076284
  0
VERTEX
  8
___SYMBOL
 62
7
  6
CONTINUOUS
 10
30.7369223977
 20
20.6506816431
  0
VERTEX
  8
___SYMBOL
 62
7
  6
CONTINUOUS
 10
30.7366292129
 20
20.6505907791
  0
VERTEX
  8
___SYMBOL
 62
7
  6
CONTINUOUS
 10
30.7363391181
 20
20.65049039
  0
VERTEX
  8
___SYMBOL
 62
7
  6
CONTINUOUS
 10
30.7360524112
 20
20.6503806182
  0
VERTEX
  8
___SYMBOL
 62
7
  6
CONTINUOUS
 10
30.7357693901
 20
20.6502616059
  0
VERTEX
  8
___SYMBOL
 62
7
  6
CONTINUOUS
 10
30.7354903528
 20
20.6501334952
  0
VERTEX
  8
___SYMBOL
 62
7
  6
CONTINUOUS
 10
30.7352155971
 20
20.6499964285
  0
VERTEX
  8
___SYMBOL
 62
7
  6
CONTINUOUS
 10
30.734945421
 20
20.6498505479
  0
VERTEX
  8
___SYMBOL
 62
7
  6
CONTINUOUS
 10
30.7346801223
 20
20.6496959956
  0
VERTEX
  8
___SYMBOL
 62
7
  6
CONTINUOUS
 10
30.7344199989
 20
20.649532914
  0
VERTEX
  8
___SYMBOL
 62
7
  6
CONTINUOUS
 10
30.7341653489
 20
20.6493614451
  0
VERTEX
  8
___SYMBOL
 62
7
  6
CONTINUOUS
 10
30.73391647
 20
20.6491817313
  0
VERTEX
  8
___SYMBOL
 62
7
  6
CONTINUOUS
 10
30.7336736602
 20
20.6489939147
  0
VERTEX
  8
___SYMBOL
 62
7
  6
CONTINUOUS
 10
30.7334372174
 20
20.6487981376
  0
SEQEND
  0
POLYLINE
  8
___SYMBOL
 62
7
  6
CONTINUOUS
 66
1
 70
0
  0
VERTEX
  8
___SYMBOL
 62
7
  6
CONTINUOUS
 10
30.6122559971
 20
20.6477769655
  0
VERTEX
  8
___SYMBOL
 62
7
  6
CONTINUOUS
 10
30.6120161604
 20
20.6481728559
  0
VERTEX
  8
___SYMBOL
 62
7
  6
CONTINUOUS
 10
30.611763313
 20
20.6485605524
  0
VERTEX
  8
___SYMBOL
 62
7
  6
CONTINUOUS
 10
30.6114978092
 20
20.6489397049
  0
VERTEX
  8
___SYMBOL
 62
7
  6
CONTINUOUS
 10
30.611220003
 20
20.6493099632
  0
VERTEX
  8
___SYMBOL
 62
7
  6
CONTINUOUS
 10
30.6109302485
 20
20.6496709771
  0
VERTEX
  8
___SYMBOL
 62
7
  6
CONTINUOUS
 10
30.6106288997
 20
20.6500223966
  0
VERTEX
  8
___SYMBOL
 62
7
  6
CONTINUOUS
 10
30.6103163107
 20
20.6503638714
  0
VERTEX
  8
___SYMBOL
 62
7
  6
CONTINUOUS
 10
30.6099928356
 20
20.6506950514
  0
VERTEX
  8
___SYMBOL
 62
7
  6
CONTINUOUS
 10
30.6096588285
 20
20.6510155865
  0
VERTEX
  8
___SYMBOL
 62
7
  6
CONTINUOUS
 10
30.6093146435
 20
20.6513251264
  0
VERTEX
  8
___SYMBOL
 62
7
  6
CONTINUOUS
 10
30.6089606346
 20
20.6516233212
  0
VERTEX
  8
___SYMBOL
 62
7
  6
CONTINUOUS
 10
30.6085971558
 20
20.6519098205
  0
VERTEX
  8
___SYMBOL
 62
7
  6
CONTINUOUS
 10
30.6082245614
 20
20.6521842742
  0
VERTEX
  8
___SYMBOL
 62
7
  6
CONTINUOUS
 10
30.6078432053
 20
20.6524463322
  0
VERTEX
  8
___SYMBOL
 62
7
  6
CONTINUOUS
 10
30.6074534416
 20
20.6526956444
  0
VERTEX
  8
___SYMBOL
 62
7
  6
CONTINUOUS
 10
30.6070556244
 20
20.6529318606
  0
VERTEX
  8
___SYMBOL
 62
7
  6
CONTINUOUS
 10
30.6066501298
 20
20.6531546676
  0
VERTEX
  8
___SYMBOL
 62
7
  6
CONTINUOUS
 10
30.6062374219
 20
20.6533639004
  0
VERTEX
  8
___SYMBOL
 62
7
  6
CONTINUOUS
 10
30.6058179869
 20
20.6535594311
  0
VERTEX
  8
___SYMBOL
 62
7
  6
CONTINUOUS
 10
30.6053923108
 20
20.6537411317
  0
VERTEX
  8
___SYMBOL
 62
7
  6
CONTINUOUS
 10
30.6049608799
 20
20.6539088741
  0
VERTEX
  8
___SYMBOL
 62
7
  6
CONTINUOUS
 10
30.6045241803
 20
20.6540625305
  0
VERTEX
  8
___SYMBOL
 62
7
  6
CONTINUOUS
 10
30.6040826981
 20
20.6542019727
  0
VERTEX
  8
___SYMBOL
 62
7
  6
CONTINUOUS
 10
30.6036369194
 20
20.6543270728
  0
VERTEX
  8
___SYMBOL
 62
7
  6
CONTINUOUS
 10
30.6031873305
 20
20.6544377028
  0
VERTEX
  8
___SYMBOL
 62
7
  6
CONTINUOUS
 10
30.6027344173
 20
20.6545337348
  0
VERTEX
  8
___SYMBOL
 62
7
  6
CONTINUOUS
 10
30.6022786662
 20
20.6546150407
  0
VERTEX
  8
___SYMBOL
 62
7
  6
CONTINUOUS
 10
30.6018205632
 20
20.6546814925
  0
VERTEX
  8
___SYMBOL
 62
7
  6
CONTINUOUS
 10
30.6013605944
 20
20.6547329623
  0
VERTEX
  8
___SYMBOL
 62
7
  6
CONTINUOUS
 10
30.600899246
 20
20.6547693221
  0
VERTEX
  8
___SYMBOL
 62
7
  6
CONTINUOUS
 10
30.6004370042
 20
20.6547904438
  0
VERTEX
  8
___SYMBOL
 62
7
  6
CONTINUOUS
 10
30.599974355
 20
20.6547961995
  0
VERTEX
  8
___SYMBOL
 62
7
  6
CONTINUOUS
 10
30.5995117837
 20
20.6547865043
  0
VERTEX
  8
___SYMBOL
 62
7
  6
CONTINUOUS
 10
30.5990497719
 20
20.6547614455
  0
VERTEX
  8
___SYMBOL
 62
7
  6
CONTINUOUS
 10
30.5985888001
 20
20.6547211534
  0
VERTEX
  8
___SYMBOL
 62
7
  6
CONTINUOUS
 10
30.5981293489
 20
20.6546657586
  0
VERTEX
  8
___SYMBOL
 62
7
  6
CONTINUOUS
 10
30.5976718991
 20
20.6545953913
  0
VERTEX
  8
___SYMBOL
 62
7
  6
CONTINUOUS
 10
30.5972169311
 20
20.654510182
  0
VERTEX
  8
___SYMBOL
 62
7
  6
CONTINUOUS
 10
30.5967649257
 20
20.6544102611
  0
VERTEX
  8
___SYMBOL
 62
7
  6
CONTINUOUS
 10
30.5963163633
 20
20.654295759
  0
VERTEX
  8
___SYMBOL
 62
7
  6
CONTINUOUS
 10
30.5958717247
 20
20.654166806
  0
VERTEX
  8
___SYMBOL
 62
7
  6
CONTINUOUS
 10
30.5954314905
 20
20.6540235326
  0
VERTEX
  8
___SYMBOL
 62
7
  6
CONTINUOUS
 10
30.5949961412
 20
20.6538660692
  0
VERTEX
  8
___SYMBOL
 62
7
  6
CONTINUOUS
 10
30.5945661575
 20
20.6536945462
  0
VERTEX
  8
___SYMBOL
 62
7
  6
CONTINUOUS
 10
30.5941420199
 20
20.6535090939
  0
VERTEX
  8
___SYMBOL
 62
7
  6
CONTINUOUS
 10
30.5937242092
 20
20.6533098427
  0
VERTEX
  8
___SYMBOL
 62
7
  6
CONTINUOUS
 10
30.593313206
 20
20.6530969232
  0
VERTEX
  8
___SYMBOL
 62
7
  6
CONTINUOUS
 10
30.5929094907
 20
20.6528704655
  0
SEQEND
  0
LINE
  8
___SYMBOL
 62
7
  6
CONTINUOUS
 10
30.7415849374
 20
20.6141770593
 11
30.7385249374
 21
20.6182470593
  0
LINE
  8
___SYMBOL
 62
7
  6
CONTINUOUS
 10
30.7385249374
 20
20.6182470593
 11
30.7344549374
 21
20.6192670593
  0
LINE
  8
___SYMBOL
 62
7
  6
CONTINUOUS
 10
30.7344549374
 20
20.6192670593
 11
30.7242649374
 21
20.6192670593
  0
POLYLINE
  8
___SYMBOL
 62
7
  6
CONTINUOUS
 66
1
 70
0
  0
VERTEX
  8
___SYMBOL
 62
7
  6
CONTINUOUS
 10
30.7815670757
 20
20.617229365
  0
VERTEX
  8
___SYMBOL
 62
7
  6
CONTINUOUS
 10
30.7817362938
 20
20.6170655632
  0
VERTEX
  8
___SYMBOL
 62
7
  6
CONTINUOUS
 10
30.7819108758
 20
20.6169074741
  0
VERTEX
  8
___SYMBOL
 62
7
  6
CONTINUOUS
 10
30.7820906013
 20
20.6167552249
  0
VERTEX
  8
___SYMBOL
 62
7
  6
CONTINUOUS
 10
30.7822752497
 20
20.6166089424
  0
VERTEX
  8
___SYMBOL
 62
7
  6
CONTINUOUS
 10
30.7824646006
 20
20.6164687536
  0
VERTEX
  8
___SYMBOL
 62
7
  6
CONTINUOUS
 10
30.7826584337
 20
20.6163347854
  0
VERTEX
  8
___SYMBOL
 62
7
  6
CONTINUOUS
 10
30.7828565283
 20
20.6162071649
  0
VERTEX
  8
___SYMBOL
 62
7
  6
CONTINUOUS
 10
30.7830586642
 20
20.616086019
  0
VERTEX
  8
___SYMBOL
 62
7
  6
CONTINUOUS
 10
30.7832646208
 20
20.6159714747
  0
VERTEX
  8
___SYMBOL
 62
7
  6
CONTINUOUS
 10
30.7834741778
 20
20.6158636589
  0
VERTEX
  8
___SYMBOL
 62
7
  6
CONTINUOUS
 10
30.7836871146
 20
20.6157626987
  0
VERTEX
  8
___SYMBOL
 62
7
  6
CONTINUOUS
 10
30.7839032109
 20
20.615668721
  0
VERTEX
  8
___SYMBOL
 62
7
  6
CONTINUOUS
 10
30.7841222462
 20
20.6155818527
  0
VERTEX
  8
___SYMBOL
 62
7
  6
CONTINUOUS
 10
30.784344
 20
20.6155022209
  0
VERTEX
  8
___SYMBOL
 62
7
  6
CONTINUOUS
 10
30.7845682519
 20
20.6154299524
  0
VERTEX
  8
___SYMBOL
 62
7
  6
CONTINUOUS
 10
30.7847947815
 20
20.6153651744
  0
VERTEX
  8
___SYMBOL
 62
7
  6
CONTINUOUS
 10
30.7850233622
 20
20.6153079925
  0
VERTEX
  8
___SYMBOL
 62
7
  6
CONTINUOUS
 10
30.7852537432
 20
20.615258428
  0
VERTEX
  8
___SYMBOL
 62
7
  6
CONTINUOUS
 10
30.7854856675
 20
20.615216481
  0
VERTEX
  8
___SYMBOL
 62
7
  6
CONTINUOUS
 10
30.7857188782
 20
20.6151821515
  0
VERTEX
  8
___SYMBOL
 62
7
  6
CONTINUOUS
 10
30.7859531183
 20
20.6151554396
  0
VERTEX
  8
___SYMBOL
 62
7
  6
CONTINUOUS
 10
30.7861881309
 20
20.6151363452
  0
VERTEX
  8
___SYMBOL
 62
7
  6
CONTINUOUS
 10
30.7864236589
 20
20.6151248686
  0
VERTEX
  8
___SYMBOL
 62
7
  6
CONTINUOUS
 10
30.7866594455
 20
20.6151210097
  0
VERTEX
  8
___SYMBOL
 62
7
  6
CONTINUOUS
 10
30.7868952338
 20
20.6151247685
  0
VERTEX
  8
___SYMBOL
 62
7
  6
CONTINUOUS
 10
30.7871307666
 20
20.6151361452
  0
VERTEX
  8
___SYMBOL
 62
7
  6
CONTINUOUS
 10
30.7873657872
 20
20.6151551398
  0
VERTEX
  8
___SYMBOL
 62
7
  6
CONTINUOUS
 10
30.7876000385
 20
20.6151817524
  0
VERTEX
  8
___SYMBOL
 62
7
  6
CONTINUOUS
 10
30.7878332636
 20
20.6152159829
  0
VERTEX
  8
___SYMBOL
 62
7
  6
CONTINUOUS
 10
30.7880652055
 20
20.6152578315
  0
VERTEX
  8
___SYMBOL
 62
7
  6
CONTINUOUS
 10
30.7882956073
 20
20.6153072982
  0
VERTEX
  8
___SYMBOL
 62
7
  6
CONTINUOUS
 10
30.788524212
 20
20.615364383
  0
VERTEX
  8
___SYMBOL
 62
7
  6
CONTINUOUS
 10
30.7887507688
 20
20.615429065
  0
VERTEX
  8
___SYMBOL
 62
7
  6
CONTINUOUS
 10
30.788975051
 20
20.6155012382
  0
VERTEX
  8
___SYMBOL
 62
7
  6
CONTINUOUS
 10
30.7891968383
 20
20.615580776
  0
VERTEX
  8
___SYMBOL
 62
7
  6
CONTINUOUS
 10
30.78941591
 20
20.6156675513
  0
VERTEX
  8
___SYMBOL
 62
7
  6
CONTINUOUS
 10
30.7896320457
 20
20.6157614373
  0
VERTEX
  8
___SYMBOL
 62
7
  6
CONTINUOUS
 10
30.789845025
 20
20.6158623072
  0
VERTEX
  8
___SYMBOL
 62
7
  6
CONTINUOUS
 10
30.7900546272
 20
20.615970034
  0
VERTEX
  8
___SYMBOL
 62
7
  6
CONTINUOUS
 10
30.7902606319
 20
20.6160844909
  0
VERTEX
  8
___SYMBOL
 62
7
  6
CONTINUOUS
 10
30.7904628186
 20
20.616205551
  0
VERTEX
  8
___SYMBOL
 62
7
  6
CONTINUOUS
 10
30.7906609669
 20
20.6163330874
  0
VERTEX
  8
___SYMBOL
 62
7
  6
CONTINUOUS
 10
30.7908548562
 20
20.6164669733
  0
VERTEX
  8
___SYMBOL
 62
7
  6
CONTINUOUS
 10
30.791044266
 20
20.6166070817
  0
VERTEX
  8
___SYMBOL
 62
7
  6
CONTINUOUS
 10
30.7912289758
 20
20.6167532859
  0
VERTEX
  8
___SYMBOL
 62
7
  6
CONTINUOUS
 10
30.7914087652
 20
20.6169054589
  0
VERTEX
  8
___SYMBOL
 62
7
  6
CONTINUOUS
 10
30.7915834136
 20
20.6170634738
  0
VERTEX
  8
___SYMBOL
 62
7
  6
CONTINUOUS
 10
30.7917527006
 20
20.6172272037
  0
SEQEND
  0
POLYLINE
  8
___SYMBOL
 62
7
  6
CONTINUOUS
 66
1
 70
0
  0
VERTEX
  8
___SYMBOL
 62
7
  6
CONTINUOUS
 10
30.5328265673
 20
20.6294480981
  0
VERTEX
  8
___SYMBOL
 62
7
  6
CONTINUOUS
 10
30.5327707423
 20
20.6297968663
  0
VERTEX
  8
___SYMBOL
 62
7
  6
CONTINUOUS
 10
30.532703348
 20
20.6301436018
  0
VERTEX
  8
___SYMBOL
 62
7
  6
CONTINUOUS
 10
30.5326245348
 20
20.6304879541
  0
VERTEX
  8
___SYMBOL
 62
7
  6
CONTINUOUS
 10
30.5325344529
 20
20.6308295729
  0
VERTEX
  8
___SYMBOL
 62
7
  6
CONTINUOUS
 10
30.5324332527
 20
20.6311681076
  0
VERTEX
  8
___SYMBOL
 62
7
  6
CONTINUOUS
 10
30.5323210845
 20
20.6315032078
  0
VERTEX
  8
___SYMBOL
 62
7
  6
CONTINUOUS
 10
30.5321980986
 20
20.6318345231
  0
VERTEX
  8
___SYMBOL
 62
7
  6
CONTINUOUS
 10
30.5320644452
 20
20.6321617029
  0
VERTEX
  8
___SYMBOL
 62
7
  6
CONTINUOUS
 10
30.5319202747
 20
20.6324843968
  0
VERTEX
  8
___SYMBOL
 62
7
  6
CONTINUOUS
 10
30.5317657374
 20
20.6328022544
  0
VERTEX
  8
___SYMBOL
 62
7
  6
CONTINUOUS
 10
30.5316009836
 20
20.6331149252
  0
VERTEX
  8
___SYMBOL
 62
7
  6
CONTINUOUS
 10
30.5314261636
 20
20.6334220588
  0
VERTEX
  8
___SYMBOL
 62
7
  6
CONTINUOUS
 10
30.5312414277
 20
20.6337233046
  0
VERTEX
  8
___SYMBOL
 62
7
  6
CONTINUOUS
 10
30.5310469262
 20
20.6340183123
  0
VERTEX
  8
___SYMBOL
 62
7
  6
CONTINUOUS
 10
30.5308428095
 20
20.6343067314
  0
VERTEX
  8
___SYMBOL
 62
7
  6
CONTINUOUS
 10
30.5306292278
 20
20.6345882114
  0
VERTEX
  8
___SYMBOL
 62
7
  6
CONTINUOUS
 10
30.5304063577
 20
20.6348624218
  0
VERTEX
  8
___SYMBOL
 62
7
  6
CONTINUOUS
 10
30.5301744811
 20
20.6351291115
  0
VERTEX
  8
___SYMBOL
 62
7
  6
CONTINUOUS
 10
30.529933906
 20
20.6353880497
  0
VERTEX
  8
___SYMBOL
 62
7
  6
CONTINUOUS
 10
30.5296849406
 20
20.635639005
  0
VERTEX
  8
___SYMBOL
 62
7
  6
CONTINUOUS
 10
30.5294278929
 20
20.6358817466
  0
VERTEX
  8
___SYMBOL
 62
7
  6
CONTINUOUS
 10
30.5291630711
 20
20.6361160433
  0
VERTEX
  8
___SYMBOL
 62
7
  6
CONTINUOUS
 10
30.5288907833
 20
20.636341664
  0
VERTEX
  8
___SYMBOL
 62
7
  6
CONTINUOUS
 10
30.5286113375
 20
20.6365583777
  0
VERTEX
  8
___SYMBOL
 62
7
  6
CONTINUOUS
 10
30.528325042
 20
20.6367659533
  0
VERTEX
  8
___SYMBOL
 62
7
  6
CONTINUOUS
 10
30.5280322047
 20
20.6369641598
  0
VERTEX
  8
___SYMBOL
 62
7
  6
CONTINUOUS
 10
30.5277331338
 20
20.637152766
  0
VERTEX
  8
___SYMBOL
 62
7
  6
CONTINUOUS
 10
30.5274281374
 20
20.6373315409
  0
VERTEX
  8
___SYMBOL
 62
7
  6
CONTINUOUS
 10
30.5271175236
 20
20.6375002535
  0
VERTEX
  8
___SYMBOL
 62
7
  6
CONTINUOUS
 10
30.5268016006
 20
20.6376586726
  0
VERTEX
  8
___SYMBOL
 62
7
  6
CONTINUOUS
 10
30.5264806763
 20
20.6378065673
  0
VERTEX
  8
___SYMBOL
 62
7
  6
CONTINUOUS
 10
30.5261550589
 20
20.6379437063
  0
VERTEX
  8
___SYMBOL
 62
7
  6
CONTINUOUS
 10
30.5258250683
 20
20.6380698895
  0
VERTEX
  8
___SYMBOL
 62
7
  6
CONTINUOUS
 10
30.5254910712
 20
20.63818504
  0
VERTEX
  8
___SYMBOL
 62
7
  6
CONTINUOUS
 10
30.525153446
 20
20.6382891116
  0
VERTEX
  8
___SYMBOL
 62
7
  6
CONTINUOUS
 10
30.5248125712
 20
20.6383820583
  0
VERTEX
  8
___SYMBOL
 62
7
  6
CONTINUOUS
 10
30.5244688252
 20
20.638463834
  0
VERTEX
  8
___SYMBOL
 62
7
  6
CONTINUOUS
 10
30.5241225865
 20
20.6385343925
  0
VERTEX
  8
___SYMBOL
 62
7
  6
CONTINUOUS
 10
30.5237742336
 20
20.6385936878
  0
VERTEX
  8
___SYMBOL
 62
7
  6
CONTINUOUS
 10
30.5234241448
 20
20.6386416738
  0
VERTEX
  8
___SYMBOL
 62
7
  6
CONTINUOUS
 10
30.5230726986
 20
20.6386783043
  0
VERTEX
  8
___SYMBOL
 62
7
  6
CONTINUOUS
 10
30.5227202736
 20
20.6387035334
  0
VERTEX
  8
___SYMBOL
 62
7
  6
CONTINUOUS
 10
30.5223672481
 20
20.6387173148
  0
VERTEX
  8
___SYMBOL
 62
7
  6
CONTINUOUS
 10
30.5220140005
 20
20.6387196025
  0
VERTEX
  8
___SYMBOL
 62
7
  6
CONTINUOUS
 10
30.5216609094
 20
20.6387103504
  0
VERTEX
  8
___SYMBOL
 62
7
  6
CONTINUOUS
 10
30.5213083532
 20
20.6386895124
  0
VERTEX
  8
___SYMBOL
 62
7
  6
CONTINUOUS
 10
30.5209567104
 20
20.6386570423
  0
VERTEX
  8
___SYMBOL
 62
7
  6
CONTINUOUS
 10
30.5206063593
 20
20.6386128942
  0
SEQEND
  0
POLYLINE
  8
___SYMBOL
 62
7
  6
CONTINUOUS
 66
1
 70
0
  0
VERTEX
  8
___SYMBOL
 62
7
  6
CONTINUOUS
 10
30.6529892085
 20
20.6457357161
  0
VERTEX
  8
___SYMBOL
 62
7
  6
CONTINUOUS
 10
30.6529368534
 20
20.6458849008
  0
VERTEX
  8
___SYMBOL
 62
7
  6
CONTINUOUS
 10
30.6528795746
 20
20.6460322606
  0
VERTEX
  8
___SYMBOL
 62
7
  6
CONTINUOUS
 10
30.6528174659
 20
20.6461776536
  0
VERTEX
  8
___SYMBOL
 62
7
  6
CONTINUOUS
 10
30.652750621
 20
20.6463209378
  0
VERTEX
  8
___SYMBOL
 62
7
  6
CONTINUOUS
 10
30.6526791336
 20
20.6464619712
  0
VERTEX
  8
___SYMBOL
 62
7
  6
CONTINUOUS
 10
30.6526030975
 20
20.6466006121
  0
VERTEX
  8
___SYMBOL
 62
7
  6
CONTINUOUS
 10
30.6525226066
 20
20.6467367183
  0
VERTEX
  8
___SYMBOL
 62
7
  6
CONTINUOUS
 10
30.6524377544
 20
20.6468701481
  0
VERTEX
  8
___SYMBOL
 62
7
  6
CONTINUOUS
 10
30.6523486349
 20
20.6470007594
  0
VERTEX
  8
___SYMBOL
 62
7
  6
CONTINUOUS
 10
30.6522553416
 20
20.6471284103
  0
VERTEX
  8
___SYMBOL
 62
7
  6
CONTINUOUS
 10
30.6521579685
 20
20.6472529589
  0
VERTEX
  8
___SYMBOL
 62
7
  6
CONTINUOUS
 10
30.6520566092
 20
20.6473742632
  0
VERTEX
  8
___SYMBOL
 62
7
  6
CONTINUOUS
 10
30.6519513576
 20
20.6474921814
  0
VERTEX
  8
___SYMBOL
 62
7
  6
CONTINUOUS
 10
30.6518423072
 20
20.6476065715
  0
VERTEX
  8
___SYMBOL
 62
7
  6
CONTINUOUS
 10
30.651729552
 20
20.6477172915
  0
VERTEX
  8
___SYMBOL
 62
7
  6
CONTINUOUS
 10
30.6516131857
 20
20.6478241996
  0
VERTEX
  8
___SYMBOL
 62
7
  6
CONTINUOUS
 10
30.6514933119
 20
20.6479271645
  0
VERTEX
  8
___SYMBOL
 62
7
  6
CONTINUOUS
 10
30.6513700743
 20
20.6480260986
  0
VERTEX
  8
___SYMBOL
 62
7
  6
CONTINUOUS
 10
30.6512436262
 20
20.6481209249
  0
VERTEX
  8
___SYMBOL
 62
7
  6
CONTINUOUS
 10
30.6511141213
 20
20.6482115665
  0
VERTEX
  8
___SYMBOL
 62
7
  6
CONTINUOUS
 10
30.650981713
 20
20.6482979464
  0
VERTEX
  8
___SYMBOL
 62
7
  6
CONTINUOUS
 10
30.6508465548
 20
20.6483799877
  0
VERTEX
  8
___SYMBOL
 62
7
  6
CONTINUOUS
 10
30.6507088002
 20
20.6484576134
  0
VERTEX
  8
___SYMBOL
 62
7
  6
CONTINUOUS
 10
30.6505686027
 20
20.6485307467
  0
VERTEX
  8
___SYMBOL
 62
7
  6
CONTINUOUS
 10
30.6504261158
 20
20.6485993104
  0
VERTEX
  8
___SYMBOL
 62
7
  6
CONTINUOUS
 10
30.650281493
 20
20.6486632278
  0
VERTEX
  8
___SYMBOL
 62
7
  6
CONTINUOUS
 10
30.6501348877
 20
20.6487224219
  0
VERTEX
  8
___SYMBOL
 62
7
  6
CONTINUOUS
 10
30.6499864536
 20
20.6487768157
  0
VERTEX
  8
___SYMBOL
 62
7
  6
CONTINUOUS
 10
30.649836344
 20
20.6488263323
  0
VERTEX
  8
___SYMBOL
 62
7
  6
CONTINUOUS
 10
30.6496847125
 20
20.6488708948
  0
VERTEX
  8
___SYMBOL
 62
7
  6
CONTINUOUS
 10
30.6495317126
 20
20.6489104262
  0
VERTEX
  8
___SYMBOL
 62
7
  6
CONTINUOUS
 10
30.6493774978
 20
20.6489448495
  0
VERTEX
  8
___SYMBOL
 62
7
  6
CONTINUOUS
 10
30.6492222242
 20
20.6489741024
  0
VERTEX
  8
___SYMBOL
 62
7
  6
CONTINUOUS
 10
30.649066059
 20
20.6489981801
  0
VERTEX
  8
___SYMBOL
 62
7
  6
CONTINUOUS
 10
30.648909172
 20
20.6490170925
  0
VERTEX
  8
___SYMBOL
 62
7
  6
CONTINUOUS
 10
30.6487517329
 20
20.6490308494
  0
VERTEX
  8
___SYMBOL
 62
7
  6
CONTINUOUS
 10
30.6485939115
 20
20.6490394606
  0
VERTEX
  8
___SYMBOL
 62
7
  6
CONTINUOUS
 10
30.6484358777
 20
20.6490429361
  0
VERTEX
  8
___SYMBOL
 62
7
  6
CONTINUOUS
 10
30.6482778012
 20
20.6490412855
  0
VERTEX
  8
___SYMBOL
 62
7
  6
CONTINUOUS
 10
30.6481198518
 20
20.6490345188
  0
VERTEX
  8
___SYMBOL
 62
7
  6
CONTINUOUS
 10
30.6479621993
 20
20.6490226458
  0
VERTEX
  8
___SYMBOL
 62
7
  6
CONTINUOUS
 10
30.6478050135
 20
20.6490056762
  0
VERTEX
  8
___SYMBOL
 62
7
  6
CONTINUOUS
 10
30.6476484641
 20
20.64898362
  0
VERTEX
  8
___SYMBOL
 62
7
  6
CONTINUOUS
 10
30.6474927211
 20
20.6489564869
  0
VERTEX
  8
___SYMBOL
 62
7
  6
CONTINUOUS
 10
30.6473379541
 20
20.6489242868
  0
VERTEX
  8
___SYMBOL
 62
7
  6
CONTINUOUS
 10
30.647184333
 20
20.6488870295
  0
VERTEX
  8
___SYMBOL
 62
7
  6
CONTINUOUS
 10
30.6470320275
 20
20.6488447249
  0
VERTEX
  8
___SYMBOL
 62
7
  6
CONTINUOUS
 10
30.6468812075
 20
20.6487973828
  0
SEQEND
  0
POLYLINE
  8
___SYMBOL
 62
7
  6
CONTINUOUS
 66
1
 70
0
  0
VERTEX
  8
___SYMBOL
 62
7
  6
CONTINUOUS
 10
30.876548057
 20
20.6442265754
  0
VERTEX
  8
___SYMBOL
 62
7
  6
CONTINUOUS
 10
30.8766282678
 20
20.6444111451
  0
VERTEX
  8
___SYMBOL
 62
7
  6
CONTINUOUS
 10
30.8767023026
 20
20.6445982736
  0
VERTEX
  8
___SYMBOL
 62
7
  6
CONTINUOUS
 10
30.8767701262
 20
20.6447877475
  0
VERTEX
  8
___SYMBOL
 62
7
  6
CONTINUOUS
 10
30.8768317033
 20
20.644979353
  0
VERTEX
  8
___SYMBOL
 62
7
  6
CONTINUOUS
 10
30.8768869986
 20
20.6451728767
  0
VERTEX
  8
___SYMBOL
 62
7
  6
CONTINUOUS
 10
30.8769359768
 20
20.6453681049
  0
VERTEX
  8
___SYMBOL
 62
7
  6
CONTINUOUS
 10
30.8769786027
 20
20.6455648242
  0
VERTEX
  8
___SYMBOL
 62
7
  6
CONTINUOUS
 10
30.877014841
 20
20.6457628208
  0
VERTEX
  8
___SYMBOL
 62
7
  6
CONTINUOUS
 10
30.8770446565
 20
20.6459618813
  0
VERTEX
  8
___SYMBOL
 62
7
  6
CONTINUOUS
 10
30.8770680137
 20
20.646161792
  0
VERTEX
  8
___SYMBOL
 62
7
  6
CONTINUOUS
 10
30.8770848776
 20
20.6463623395
  0
VERTEX
  8
___SYMBOL
 62
7
  6
CONTINUOUS
 10
30.8770952128
 20
20.64656331
  0
VERTEX
  8
___SYMBOL
 62
7
  6
CONTINUOUS
 10
30.877098984
 20
20.6467644901
  0
VERTEX
  8
___SYMBOL
 62
7
  6
CONTINUOUS
 10
30.8770961559
 20
20.6469656662
  0
VERTEX
  8
___SYMBOL
 62
7
  6
CONTINUOUS
 10
30.8770866933
 20
20.6471666246
  0
VERTEX
  8
___SYMBOL
 62
7
  6
CONTINUOUS
 10
30.8770705609
 20
20.6473671519
  0
VERTEX
  8
___SYMBOL
 62
7
  6
CONTINUOUS
 10
30.8770477421
 20
20.6475670359
  0
VERTEX
  8
___SYMBOL
 62
7
  6
CONTINUOUS
 10
30.877018295
 20
20.6477660705
  0
VERTEX
  8
___SYMBOL
 62
7
  6
CONTINUOUS
 10
30.8769822962
 20
20.647964051
  0
VERTEX
  8
___SYMBOL
 62
7
  6
CONTINUOUS
 10
30.8769398224
 20
20.6481607729
  0
VERTEX
  8
___SYMBOL
 62
7
  6
CONTINUOUS
 10
30.8768909504
 20
20.6483560314
  0
VERTEX
  8
___SYMBOL
 62
7
  6
CONTINUOUS
 10
30.8768357568
 20
20.648549622
  0
VERTEX
  8
___SYMBOL
 62
7
  6
CONTINUOUS
 10
30.8767743183
 20
20.6487413399
  0
VERTEX
  8
___SYMBOL
 62
7
  6
CONTINUOUS
 10
30.8767067118
 20
20.6489309805
  0
VERTEX
  8
___SYMBOL
 62
7
  6
CONTINUOUS
 10
30.8766330137
 20
20.6491183392
  0
VERTEX
  8
___SYMBOL
 62
7
  6
CONTINUOUS
 10
30.876553301
 20
20.6493032113
  0
VERTEX
  8
___SYMBOL
 62
7
  6
CONTINUOUS
 10
30.8764676502
 20
20.6494853923
  0
VERTEX
  8
___SYMBOL
 62
7
  6
CONTINUOUS
 10
30.8763761381
 20
20.6496646774
  0
VERTEX
  8
___SYMBOL
 62
7
  6
CONTINUOUS
 10
30.8762788414
 20
20.6498408619
  0
VERTEX
  8
___SYMBOL
 62
7
  6
CONTINUOUS
 10
30.8761758367
 20
20.6500137414
  0
VERTEX
  8
___SYMBOL
 62
7
  6
CONTINUOUS
 10
30.8760672009
 20
20.650183111
  0
VERTEX
  8
___SYMBOL
 62
7
  6
CONTINUOUS
 10
30.8759530105
 20
20.6503487662
  0
VERTEX
  8
___SYMBOL
 62
7
  6
CONTINUOUS
 10
30.8758333573
 20
20.6505105135
  0
VERTEX
  8
___SYMBOL
 62
7
  6
CONTINUOUS
 10
30.8757083934
 20
20.6506682038
  0
VERTEX
  8
___SYMBOL
 62
7
  6
CONTINUOUS
 10
30.8755782855
 20
20.6508216995
  0
VERTEX
  8
___SYMBOL
 62
7
  6
CONTINUOUS
 10
30.8754432008
 20
20.6509708627
  0
VERTEX
  8
___SYMBOL
 62
7
  6
CONTINUOUS
 10
30.8753033062
 20
20.6511155555
  0
VERTEX
  8
___SYMBOL
 62
7
  6
CONTINUOUS
 10
30.8751587687
 20
20.6512556402
  0
VERTEX
  8
___SYMBOL
 62
7
  6
CONTINUOUS
 10
30.8750097552
 20
20.651390979
  0
VERTEX
  8
___SYMBOL
 62
7
  6
CONTINUOUS
 10
30.8748564328
 20
20.6515214341
  0
VERTEX
  8
___SYMBOL
 62
7
  6
CONTINUOUS
 10
30.8746989684
 20
20.6516468675
  0
VERTEX
  8
___SYMBOL
 62
7
  6
CONTINUOUS
 10
30.874537529
 20
20.6517671417
  0
VERTEX
  8
___SYMBOL
 62
7
  6
CONTINUOUS
 10
30.8743722815
 20
20.6518821186
  0
VERTEX
  8
___SYMBOL
 62
7
  6
CONTINUOUS
 10
30.874203393
 20
20.6519916606
  0
VERTEX
  8
___SYMBOL
 62
7
  6
CONTINUOUS
 10
30.8740310304
 20
20.6520956298
  0
VERTEX
  8
___SYMBOL
 62
7
  6
CONTINUOUS
 10
30.8738553607
 20
20.6521938884
  0
VERTEX
  8
___SYMBOL
 62
7
  6
CONTINUOUS
 10
30.8736765509
 20
20.6522862986
  0
VERTEX
  8
___SYMBOL
 62
7
  6
CONTINUOUS
 10
30.8734947679
 20
20.6523727226
  0
SEQEND
  0
LINE
  8
___SYMBOL
 62
7
  6
CONTINUOUS
 10
30.8681823679
 20
20.6206133698
 11
30.8529123679
 21
20.6226533698
  0
LINE
  8
___SYMBOL
 62
7
  6
CONTINUOUS
 10
30.8529123679
 20
20.6226533698
 11
30.8468023679
 21
20.6246833698
  0
LINE
  8
___SYMBOL
 62
7
  6
CONTINUOUS
 10
30.8468023679
 20
20.6246833698
 11
30.8396723679
 21
20.6246833698
  0
LINE
  8
___SYMBOL
 62
2
  6
CONTINUOUS
 10
30.5664349374
 20
20.5632570593
 11
30.6127649374
 21
20.6060270593
  0
LINE
  8
___SYMBOL
 62
2
  6
CONTINUOUS
 10
30.6210849374
 20
20.5632570593
 11
30.6674149374
 21
20.6060270593
  0
LINE
  8
___SYMBOL
 62
2
  6
CONTINUOUS
 10
30.6887949374
 20
20.5632570593
 11
30.7351349374
 21
20.6060270593
  0
LINE
  8
___SYMBOL
 62
2
  6
CONTINUOUS
 10
30.7482049374
 20
20.5632570593
 11
30.7945349374
 21
20.6060270593
  0
LINE
  8
___SYMBOL
 62
2
  6
CONTINUOUS
 10
30.8064149374
 20
20.5632570593
 11
30.8527449374
 21
20.6060270593
  0
LINE
  8
___SYMBOL
 62
2
  6
CONTINUOUS
 10
30.8634349374
 20
20.5632570593
 11
30.9097749374
 21
20.6060270593
  0
LINE
  8
___SYMBOL
 62
2
  6
CONTINUOUS
 10
30.9275949374
 20
20.5632570593
 11
30.9709249876
 21
20.6032540287
  0
LINE
  8
___SYMBOL
 62
2
  6
CONTINUOUS
 10
31.0140966693
 20
20.5174451031
 11
31.0456243322
 21
20.5465571092
  0
LINE
  8
___SYMBOL
 62
2
  6
CONTINUOUS
 10
31.0226349374
 20
20.4525884343
 11
31.0630249374
 21
20.4898770593
  0
LINE
  8
___SYMBOL
 62
2
  6
CONTINUOUS
 10
31.0226349374
 20
20.3905370593
 11
31.0630249374
 21
20.4278170593
  0
LINE
  8
___SYMBOL
 62
2
  6
CONTINUOUS
 10
31.0226349374
 20
20.3204470593
 11
31.0630249374
 21
20.3577270593
  0
LINE
  8
___SYMBOL
 62
2
  6
CONTINUOUS
 10
31.0226349374
 20
20.2503470593
 11
31.0630249374
 21
20.2876370593
  0
LINE
  8
___SYMBOL
 62
2
  6
CONTINUOUS
 10
31.0226349374
 20
20.1743170593
 11
31.0630249374
 21
20.2115970593
  0
LINE
  8
___SYMBOL
 62
2
  6
CONTINUOUS
 10
31.0226349374
 20
20.1089770593
 11
31.0630249374
 21
20.1462570593
  0
LINE
  8
___SYMBOL
 62
2
  6
CONTINUOUS
 10
31.0226349374
 20
20.0424470593
 11
31.0630249374
 21
20.0797270593
  0
LINE
  8
___SYMBOL
 62
2
  6
CONTINUOUS
 10
31.0226349374
 20
19.9652270593
 11
31.0630249374
 21
20.0025070593
  0
LINE
  8
___SYMBOL
 62
2
  6
CONTINUOUS
 10
31.0226349374
 20
19.8963170593
 11
31.0630249374
 21
19.9335970593
  0
LINE
  8
___SYMBOL
 62
2
  6
CONTINUOUS
 10
31.0226349374
 20
19.8262270593
 11
31.0630249374
 21
19.8635070593
  0
LINE
  8
___SYMBOL
 62
2
  6
CONTINUOUS
 10
31.0226349374
 20
19.7680139824
 11
31.0630249374
 21
19.8052970593
  0
POLYLINE
  8
___SYMBOL
 62
7
  6
CONTINUOUS
 66
1
 70
0
  0
VERTEX
  8
___SYMBOL
 62
7
  6
CONTINUOUS
 10
30.8853239861
 20
20.6701770593
  0
VERTEX
  8
___SYMBOL
 62
7
  6
CONTINUOUS
 10
30.8853272002
 20
20.6690567137
  0
VERTEX
  8
___SYMBOL
 62
7
  6
CONTINUOUS
 10
30.885336323
 20
20.6679188138
  0
VERTEX
  8
___SYMBOL
 62
7
  6
CONTINUOUS
 10
30.8853505749
 20
20.6667643977
  0
VERTEX
  8
___SYMBOL
 62
7
  6
CONTINUOUS
 10
30.8853691766
 20
20.6655945037
  0
VERTEX
  8
___SYMBOL
 62
7
  6
CONTINUOUS
 10
30.8853913486
 20
20.6644101698
  0
VERTEX
  8
___SYMBOL
 62
7
  6
CONTINUOUS
 10
30.8854163115
 20
20.6632124342
  0
VERTEX
  8
___SYMBOL
 62
7
  6
CONTINUOUS
 10
30.8854432859
 20
20.6620023351
  0
VERTEX
  8
___SYMBOL
 62
7
  6
CONTINUOUS
 10
30.8854714924
 20
20.6607809106
  0
VERTEX
  8
___SYMBOL
 62
7
  6
CONTINUOUS
 10
30.8855001515
 20
20.6595491988
  0
VERTEX
  8
___SYMBOL
 62
7
  6
CONTINUOUS
 10
30.8855284838
 20
20.658308238
  0
VERTEX
  8
___SYMBOL
 62
7
  6
CONTINUOUS
 10
30.88555571
 20
20.6570590662
  0
VERTEX
  8
___SYMBOL
 62
7
  6
CONTINUOUS
 10
30.8855810504
 20
20.6558027217
  0
VERTEX
  8
___SYMBOL
 62
7
  6
CONTINUOUS
 10
30.8856037259
 20
20.6545402425
  0
VERTEX
  8
___SYMBOL
 62
7
  6
CONTINUOUS
 10
30.8856229568
 20
20.6532726668
  0
VERTEX
  8
___SYMBOL
 62
7
  6
CONTINUOUS
 10
30.8856379638
 20
20.6520010329
  0
VERTEX
  8
___SYMBOL
 62
7
  6
CONTINUOUS
 10
30.8856479675
 20
20.6507263787
  0
VERTEX
  8
___SYMBOL
 62
7
  6
CONTINUOUS
 10
30.8856521884
 20
20.6494497425
  0
VERTEX
  8
___SYMBOL
 62
7
  6
CONTINUOUS
 10
30.8856498471
 20
20.6481721625
  0
VERTEX
  8
___SYMBOL
 62
7
  6
CONTINUOUS
 10
30.8856401643
 20
20.6468946767
  0
VERTEX
  8
___SYMBOL
 62
7
  6
CONTINUOUS
 10
30.8856223603
 20
20.6456183233
  0
VERTEX
  8
___SYMBOL
 62
7
  6
CONTINUOUS
 10
30.885595656
 20
20.6443441406
  0
VERTEX
  8
___SYMBOL
 62
7
  6
CONTINUOUS
 10
30.8855592717
 20
20.6430731665
  0
VERTEX
  8
___SYMBOL
 62
7
  6
CONTINUOUS
 10
30.8855124281
 20
20.6418064394
  0
VERTEX
  8
___SYMBOL
 62
7
  6
CONTINUOUS
 10
30.8854543458
 20
20.6405449973
  0
VERTEX
  8
___SYMBOL
 62
7
  6
CONTINUOUS
 10
30.8853842453
 20
20.6392898784
  0
VERTEX
  8
___SYMBOL
 62
7
  6
CONTINUOUS
 10
30.8853013473
 20
20.6380421208
  0
VERTEX
  8
___SYMBOL
 62
7
  6
CONTINUOUS
 10
30.8852048722
 20
20.6368027627
  0
VERTEX
  8
___SYMBOL
 62
7
  6
CONTINUOUS
 10
30.8850940407
 20
20.6355728422
  0
VERTEX
  8
___SYMBOL
 62
7
  6
CONTINUOUS
 10
30.8849680733
 20
20.6343533976
  0
VERTEX
  8
___SYMBOL
 62
7
  6
CONTINUOUS
 10
30.8848261907
 20
20.6331454668
  0
VERTEX
  8
___SYMBOL
 62
7
  6
CONTINUOUS
 10
30.8846676133
 20
20.6319500882
  0
VERTEX
  8
___SYMBOL
 62
7
  6
CONTINUOUS
 10
30.8844915618
 20
20.6307682998
  0
VERTEX
  8
___SYMBOL
 62
7
  6
CONTINUOUS
 10
30.8842972567
 20
20.6296011399
  0
VERTEX
  8
___SYMBOL
 62
7
  6
CONTINUOUS
 10
30.8840839187
 20
20.6284496464
  0
VERTEX
  8
___SYMBOL
 62
7
  6
CONTINUOUS
 10
30.8838507682
 20
20.6273148577
  0
VERTEX
  8
___SYMBOL
 62
7
  6
CONTINUOUS
 10
30.8835970259
 20
20.6261978118
  0
VERTEX
  8
___SYMBOL
 62
7
  6
CONTINUOUS
 10
30.8833219123
 20
20.625099547
  0
VERTEX
  8
___SYMBOL
 62
7
  6
CONTINUOUS
 10
30.8830246481
 20
20.6240211012
  0
VERTEX
  8
___SYMBOL
 62
7
  6
CONTINUOUS
 10
30.8827044537
 20
20.6229635128
  0
VERTEX
  8
___SYMBOL
 62
7
  6
CONTINUOUS
 10
30.8823605498
 20
20.6219278199
  0
VERTEX
  8
___SYMBOL
 62
7
  6
CONTINUOUS
 10
30.8819921569
 20
20.6209150606
  0
VERTEX
  8
___SYMBOL
 62
7
  6
CONTINUOUS
 10
30.8815984957
 20
20.619926273
  0
VERTEX
  8
___SYMBOL
 62
7
  6
CONTINUOUS
 10
30.8811787866
 20
20.6189624953
  0
VERTEX
  8
___SYMBOL
 62
7
  6
CONTINUOUS
 10
30.8807322503
 20
20.6180247657
  0
VERTEX
  8
___SYMBOL
 62
7
  6
CONTINUOUS
 10
30.8802581074
 20
20.6171141223
  0
VERTEX
  8
___SYMBOL
 62
7
  6
CONTINUOUS
 10
30.8797555783
 20
20.6162316033
  0
VERTEX
  8
___SYMBOL
 62
7
  6
CONTINUOUS
 10
30.8792238837
 20
20.6153782468
  0
VERTEX
  8
___SYMBOL
 62
7
  6
CONTINUOUS
 10
30.8786622443
 20
20.614555091
  0
VERTEX
  8
___SYMBOL
 62
7
  6
CONTINUOUS
 10
30.8780698804
 20
20.613763174
  0
VERTEX
  8
___SYMBOL
 62
7
  6
CONTINUOUS
 10
30.8774460128
 20
20.613003534
  0
VERTEX
  8
___SYMBOL
 62
7
  6
CONTINUOUS
 10
30.8767898619
 20
20.6122772091
  0
VERTEX
  8
___SYMBOL
 62
7
  6
CONTINUOUS
 10
30.8761006484
 20
20.6115852375
  0
VERTEX
  8
___SYMBOL
 62
7
  6
CONTINUOUS
 10
30.8753775929
 20
20.6109286573
  0
VERTEX
  8
___SYMBOL
 62
7
  6
CONTINUOUS
 10
30.8746199158
 20
20.6103085066
  0
VERTEX
  8
___SYMBOL
 62
7
  6
CONTINUOUS
 10
30.8738268379
 20
20.6097258237
  0
VERTEX
  8
___SYMBOL
 62
7
  6
CONTINUOUS
 10
30.8729975796
 20
20.6091816467
  0
VERTEX
  8
___SYMBOL
 62
7
  6
CONTINUOUS
 10
30.8722907251
 20
20.6087652647
  0
VERTEX
  8
___SYMBOL
 62
7
  6
CONTINUOUS
 10
30.8715586374
 20
20.6083759926
  0
VERTEX
  8
___SYMBOL
 62
7
  6
CONTINUOUS
 10
30.870800888
 20
20.6080144011
  0
VERTEX
  8
___SYMBOL
 62
7
  6
CONTINUOUS
 10
30.8700170482
 20
20.6076810609
  0
VERTEX
  8
___SYMBOL
 62
7
  6
CONTINUOUS
 10
30.8692066896
 20
20.607376543
  0
VERTEX
  8
___SYMBOL
 62
7
  6
CONTINUOUS
 10
30.8683693837
 20
20.6071014181
  0
VERTEX
  8
___SYMBOL
 62
7
  6
CONTINUOUS
 10
30.8675047019
 20
20.6068562569
  0
VERTEX
  8
___SYMBOL
 62
7
  6
CONTINUOUS
 10
30.8666122156
 20
20.6066416303
  0
VERTEX
  8
___SYMBOL
 62
7
  6
CONTINUOUS
 10
30.8656914964
 20
20.606458109
  0
VERTEX
  8
___SYMBOL
 62
7
  6
CONTINUOUS
 10
30.8647421158
 20
20.6063062637
  0
VERTEX
  8
___SYMBOL
 62
7
  6
CONTINUOUS
 10
30.8637636451
 20
20.6061866654
  0
VERTEX
  8
___SYMBOL
 62
7
  6
CONTINUOUS
 10
30.8627556559
 20
20.6060998847
  0
VERTEX
  8
___SYMBOL
 62
7
  6
CONTINUOUS
 10
30.8617177196
 20
20.6060464924
  0
VERTEX
  8
___SYMBOL
 62
7
  6
CONTINUOUS
 10
30.8606494077
 20
20.6060270593
  0
SEQEND
  0
ENDBLK
  8
0
  6
BYBLOCK
 62
0
  0
BLOCK
  8
___SYMBOL
 62
2
  6
CONTINUOUS
  2
REVEAL-NOREVEAL_BL1
 70
64
 10
30.190571109
 20
18.803140483
  0
LINE
  8
___SYMBOL
 62
7
  6
CONTINUOUS
 10
31.0618697311
 20
18.130640483
 11
31.0618697311
 21
18.831580483
  0
POLYLINE
  8
___SYMBOL
 62
7
  6
CONTINUOUS
 66
1
 70
0
  0
VERTEX
  8
___SYMBOL
 62
7
  6
CONTINUOUS
 10
31.0618724868
 20
18.8315796155
  0
VERTEX
  8
___SYMBOL
 62
7
  6
CONTINUOUS
 10
31.0618091394
 20
18.8357194225
  0
VERTEX
  8
___SYMBOL
 62
7
  6
CONTINUOUS
 10
31.0616198155
 20
18.8398527457
  0
VERTEX
  8
___SYMBOL
 62
7
  6
CONTINUOUS
 10
31.0613055583
 20
18.8439753711
  0
VERTEX
  8
___SYMBOL
 62
7
  6
CONTINUOUS
 10
31.0608674108
 20
18.8480830848
  0
VERTEX
  8
___SYMBOL
 62
7
  6
CONTINUOUS
 10
31.0603064161
 20
18.8521716728
  0
VERTEX
  8
___SYMBOL
 62
7
  6
CONTINUOUS
 10
31.0596236173
 20
18.8562369213
  0
VERTEX
  8
___SYMBOL
 62
7
  6
CONTINUOUS
 10
31.0588200573
 20
18.8602746163
  0
VERTEX
  8
___SYMBOL
 62
7
  6
CONTINUOUS
 10
31.0578967792
 20
18.864280544
  0
VERTEX
  8
___SYMBOL
 62
7
  6
CONTINUOUS
 10
31.0568548261
 20
18.8682504904
  0
VERTEX
  8
___SYMBOL
 62
7
  6
CONTINUOUS
 10
31.055695241
 20
18.8721802416
  0
VERTEX
  8
___SYMBOL
 62
7
  6
CONTINUOUS
 10
31.054419067
 20
18.8760655836
  0
VERTEX
  8
___SYMBOL
 62
7
  6
CONTINUOUS
 10
31.0530273471
 20
18.8799023027
  0
VERTEX
  8
___SYMBOL
 62
7
  6
CONTINUOUS
 10
31.0515211245
 20
18.8836861849
  0
VERTEX
  8
___SYMBOL
 62
7
  6
CONTINUOUS
 10
31.049901442
 20
18.8874130162
  0
VERTEX
  8
___SYMBOL
 62
7
  6
CONTINUOUS
 10
31.0481693428
 20
18.8910785827
  0
VERTEX
  8
___SYMBOL
 62
7
  6
CONTINUOUS
 10
31.04632587
 20
18.8946786706
  0
VERTEX
  8
___SYMBOL
 62
7
  6
CONTINUOUS
 10
31.0443723708
 20
18.8982092511
  0
VERTEX
  8
___SYMBOL
 62
7
  6
CONTINUOUS
 10
31.0423114098
 20
18.9016670363
  0
VERTEX
  8
___SYMBOL
 62
7
  6
CONTINUOUS
 10
31.0401458555
 20
18.9050489234
  0
VERTEX
  8
___SYMBOL
 62
7
  6
CONTINUOUS
 10
31.0378785767
 20
18.9083518095
  0
VERTEX
  8
___SYMBOL
 62
7
  6
CONTINUOUS
 10
31.0355124422
 20
18.911572592
  0
VERTEX
  8
___SYMBOL
 62
7
  6
CONTINUOUS
 10
31.0330503206
 20
18.9147081681
  0
VERTEX
  8
___SYMBOL
 62
7
  6
CONTINUOUS
 10
31.0304950805
 20
18.917755435
  0
VERTEX
  8
___SYMBOL
 62
7
  6
CONTINUOUS
 10
31.0278495908
 20
18.9207112899
  0
VERTEX
  8
___SYMBOL
 62
7
  6
CONTINUOUS
 10
31.0251167202
 20
18.92357263
  0
VERTEX
  8
___SYMBOL
 62
7
  6
CONTINUOUS
 10
31.0222993373
 20
18.9263363527
  0
VERTEX
  8
___SYMBOL
 62
7
  6
CONTINUOUS
 10
31.0194003108
 20
18.928999355
  0
VERTEX
  8
___SYMBOL
 62
7
  6
CONTINUOUS
 10
31.0164225095
 20
18.9315585343
  0
VERTEX
  8
___SYMBOL
 62
7
  6
CONTINUOUS
 10
31.013368802
 20
18.9340107878
  0
VERTEX
  8
___SYMBOL
 62
7
  6
CONTINUOUS
 10
31.0102420571
 20
18.9363530127
  0
VERTEX
  8
___SYMBOL
 62
7
  6
CONTINUOUS
 10
31.0070451434
 20
18.9385821062
  0
VERTEX
  8
___SYMBOL
 62
7
  6
CONTINUOUS
 10
31.0037809297
 20
18.9406949656
  0
VERTEX
  8
___SYMBOL
 62
7
  6
CONTINUOUS
 10
31.0006499623
 20
18.9425748554
  0
VERTEX
  8
___SYMBOL
 62
7
  6
CONTINUOUS
 10
30.9974651688
 20
18.9443480946
  0
VERTEX
  8
___SYMBOL
 62
7
  6
CONTINUOUS
 10
30.9942297974
 20
18.9460137426
  0
VERTEX
  8
___SYMBOL
 62
7
  6
CONTINUOUS
 10
30.9909470962
 20
18.9475708588
  0
VERTEX
  8
___SYMBOL
 62
7
  6
CONTINUOUS
 10
30.9876203132
 20
18.9490185029
  0
VERTEX
  8
___SYMBOL
 62
7
  6
CONTINUOUS
 10
30.9842526965
 20
18.9503557343
  0
VERTEX
  8
___SYMBOL
 62
7
  6
CONTINUOUS
 10
30.9808474943
 20
18.9515816126
  0
VERTEX
  8
___SYMBOL
 62
7
  6
CONTINUOUS
 10
30.9774079545
 20
18.9526951971
  0
VERTEX
  8
___SYMBOL
 62
7
  6
CONTINUOUS
 10
30.9739373254
 20
18.9536955475
  0
VERTEX
  8
___SYMBOL
 62
7
  6
CONTINUOUS
 10
30.970438855
 20
18.9545817233
  0
VERTEX
  8
___SYMBOL
 62
7
  6
CONTINUOUS
 10
30.9669157913
 20
18.9553527839
  0
VERTEX
  8
___SYMBOL
 62
7
  6
CONTINUOUS
 10
30.9633713825
 20
18.9560077888
  0
VERTEX
  8
___SYMBOL
 62
7
  6
CONTINUOUS
 10
30.9598088767
 20
18.9565457976
  0
VERTEX
  8
___SYMBOL
 62
7
  6
CONTINUOUS
 10
30.9562315219
 20
18.9569658697
  0
VERTEX
  8
___SYMBOL
 62
7
  6
CONTINUOUS
 10
30.9526425663
 20
18.9572670647
  0
VERTEX
  8
___SYMBOL
 62
7
  6
CONTINUOUS
 10
30.9490452578
 20
18.9574484421
  0
VERTEX
  8
___SYMBOL
 62
7
  6
CONTINUOUS
 10
30.9454428447
 20
18.9575090613
  0
SEQEND
  0
POLYLINE
  8
___SYMBOL
 62
7
  6
CONTINUOUS
 66
1
 70
0
  0
VERTEX
  8
___SYMBOL
 62
7
  6
CONTINUOUS
 10
30.9454467963
 20
18.9575095011
  0
VERTEX
  8
___SYMBOL
 62
7
  6
CONTINUOUS
 10
30.9467724229
 20
18.9578718471
  0
VERTEX
  8
___SYMBOL
 62
7
  6
CONTINUOUS
 10
30.9481137664
 20
18.9582889219
  0
VERTEX
  8
___SYMBOL
 62
7
  6
CONTINUOUS
 10
30.9494685528
 20
18.9587596549
  0
VERTEX
  8
___SYMBOL
 62
7
  6
CONTINUOUS
 10
30.9508345084
 20
18.9592829752
  0
VERTEX
  8
___SYMBOL
 62
7
  6
CONTINUOUS
 10
30.9522093593
 20
18.959857812
  0
VERTEX
  8
___SYMBOL
 62
7
  6
CONTINUOUS
 10
30.9535908315
 20
18.9604830944
  0
VERTEX
  8
___SYMBOL
 62
7
  6
CONTINUOUS
 10
30.9549766513
 20
18.9611577517
  0
VERTEX
  8
___SYMBOL
 62
7
  6
CONTINUOUS
 10
30.9563645447
 20
18.961880713
  0
VERTEX
  8
___SYMBOL
 62
7
  6
CONTINUOUS
 10
30.9577522379
 20
18.9626509075
  0
VERTEX
  8
___SYMBOL
 62
7
  6
CONTINUOUS
 10
30.9591374571
 20
18.9634672645
  0
VERTEX
  8
___SYMBOL
 62
7
  6
CONTINUOUS
 10
30.9605179283
 20
18.964328713
  0
VERTEX
  8
___SYMBOL
 62
7
  6
CONTINUOUS
 10
30.9618913776
 20
18.9652341824
  0
VERTEX
  8
___SYMBOL
 62
7
  6
CONTINUOUS
 10
30.9633790412
 20
18.9662707345
  0
VERTEX
  8
___SYMBOL
 62
7
  6
CONTINUOUS
 10
30.9648529024
 20
18.9673559317
  0
VERTEX
  8
___SYMBOL
 62
7
  6
CONTINUOUS
 10
30.9663102216
 20
18.9684873048
  0
VERTEX
  8
___SYMBOL
 62
7
  6
CONTINUOUS
 10
30.967748259
 20
18.9696623849
  0
VERTEX
  8
___SYMBOL
 62
7
  6
CONTINUOUS
 10
30.969164275
 20
18.9708787029
  0
VERTEX
  8
___SYMBOL
 62
7
  6
CONTINUOUS
 10
30.9705555299
 20
18.9721337898
  0
VERTEX
  8
___SYMBOL
 62
7
  6
CONTINUOUS
 10
30.9719192838
 20
18.9734251765
  0
VERTEX
  8
___SYMBOL
 62
7
  6
CONTINUOUS
 10
30.9732527973
 20
18.9747503941
  0
VERTEX
  8
___SYMBOL
 62
7
  6
CONTINUOUS
 10
30.9745533304
 20
18.9761069735
  0
VERTEX
  8
___SYMBOL
 62
7
  6
CONTINUOUS
 10
30.9758181436
 20
18.9774924457
  0
VERTEX
  8
___SYMBOL
 62
7
  6
CONTINUOUS
 10
30.9770444971
 20
18.9789043416
  0
VERTEX
  8
___SYMBOL
 62
7
  6
CONTINUOUS
 10
30.9782297961
 20
18.9803401088
  0
VERTEX
  8
___SYMBOL
 62
7
  6
CONTINUOUS
 10
30.979372026
 20
18.9817968607
  0
VERTEX
  8
___SYMBOL
 62
7
  6
CONTINUOUS
 10
30.9804693169
 20
18.9832716272
  0
VERTEX
  8
___SYMBOL
 62
7
  6
CONTINUOUS
 10
30.9815197989
 20
18.9847614383
  0
VERTEX
  8
___SYMBOL
 62
7
  6
CONTINUOUS
 10
30.9825216023
 20
18.9862633239
  0
VERTEX
  8
___SYMBOL
 62
7
  6
CONTINUOUS
 10
30.9834728572
 20
18.9877743141
  0
VERTEX
  8
___SYMBOL
 62
7
  6
CONTINUOUS
 10
30.9843716938
 20
18.9892914388
  0
VERTEX
  8
___SYMBOL
 62
7
  6
CONTINUOUS
 10
30.9852162424
 20
18.9908117278
  0
VERTEX
  8
___SYMBOL
 62
7
  6
CONTINUOUS
 10
30.986004633
 20
18.9923322112
  0
VERTEX
  8
___SYMBOL
 62
7
  6
CONTINUOUS
 10
30.9867349959
 20
18.9938499189
  0
VERTEX
  8
___SYMBOL
 62
7
  6
CONTINUOUS
 10
30.9874054613
 20
18.9953618809
  0
VERTEX
  8
___SYMBOL
 62
7
  6
CONTINUOUS
 10
30.987966006
 20
18.9967402851
  0
VERTEX
  8
___SYMBOL
 62
7
  6
CONTINUOUS
 10
30.9884742091
 20
18.9981092167
  0
VERTEX
  8
___SYMBOL
 62
7
  6
CONTINUOUS
 10
30.9889296306
 20
18.9994665266
  0
VERTEX
  8
___SYMBOL
 62
7
  6
CONTINUOUS
 10
30.9893318306
 20
19.0008100658
  0
VERTEX
  8
___SYMBOL
 62
7
  6
CONTINUOUS
 10
30.9896803692
 20
19.0021376854
  0
VERTEX
  8
___SYMBOL
 62
7
  6
CONTINUOUS
 10
30.9899748065
 20
19.0034472364
  0
VERTEX
  8
___SYMBOL
 62
7
  6
CONTINUOUS
 10
30.9901837876
 20
19.0045536986
  0
VERTEX
  8
___SYMBOL
 62
7
  6
CONTINUOUS
 10
30.9903524206
 20
19.0056439538
  0
VERTEX
  8
___SYMBOL
 62
7
  6
CONTINUOUS
 10
30.9904804284
 20
19.0067166486
  0
VERTEX
  8
___SYMBOL
 62
7
  6
CONTINUOUS
 10
30.990567534
 20
19.0077704297
  0
VERTEX
  8
___SYMBOL
 62
7
  6
CONTINUOUS
 10
30.9906134603
 20
19.0088039439
  0
VERTEX
  8
___SYMBOL
 62
7
  6
CONTINUOUS
 10
30.9906179303
 20
19.0098158379
  0
VERTEX
  8
___SYMBOL
 62
7
  6
CONTINUOUS
 10
30.990580667
 20
19.0108047583
  0
VERTEX
  8
___SYMBOL
 62
7
  6
CONTINUOUS
 10
30.9904936907
 20
19.0118425895
  0
VERTEX
  8
___SYMBOL
 62
7
  6
CONTINUOUS
 10
30.9903585058
 20
19.0128510245
  0
VERTEX
  8
___SYMBOL
 62
7
  6
CONTINUOUS
 10
30.9901756258
 20
19.0138288802
  0
VERTEX
  8
___SYMBOL
 62
7
  6
CONTINUOUS
 10
30.9899455644
 20
19.0147749738
  0
VERTEX
  8
___SYMBOL
 62
7
  6
CONTINUOUS
 10
30.989668835
 20
19.0156881224
  0
VERTEX
  8
___SYMBOL
 62
7
  6
CONTINUOUS
 10
30.9893459511
 20
19.016567143
  0
VERTEX
  8
___SYMBOL
 62
7
  6
CONTINUOUS
 10
30.9889774262
 20
19.0174108528
  0
VERTEX
  8
___SYMBOL
 62
7
  6
CONTINUOUS
 10
30.9885637739
 20
19.0182180688
  0
VERTEX
  8
___SYMBOL
 62
7
  6
CONTINUOUS
 10
30.9881055077
 20
19.0189876081
  0
VERTEX
  8
___SYMBOL
 62
7
  6
CONTINUOUS
 10
30.9876031411
 20
19.0197182878
  0
VERTEX
  8
___SYMBOL
 62
7
  6
CONTINUOUS
 10
30.9870571876
 20
19.020408925
  0
VERTEX
  8
___SYMBOL
 62
7
  6
CONTINUOUS
 10
30.9864681608
 20
19.0210583368
  0
VERTEX
  8
___SYMBOL
 62
7
  6
CONTINUOUS
 10
30.9858365741
 20
19.0216653402
  0
SEQEND
  0
LINE
  8
___SYMBOL
 62
7
  6
CONTINUOUS
 10
31.0214797311
 20
18.117300483
 11
31.0214797311
 21
18.829200483
  0
POLYLINE
  8
___SYMBOL
 62
7
  6
CONTINUOUS
 66
1
 70
0
  0
VERTEX
  8
___SYMBOL
 62
7
  6
CONTINUOUS
 10
31.0214796112
 20
18.8292016427
  0
VERTEX
  8
___SYMBOL
 62
7
  6
CONTINUOUS
 10
31.0214384524
 20
18.8320301297
  0
VERTEX
  8
___SYMBOL
 62
7
  6
CONTINUOUS
 10
31.0213154409
 20
18.8348526716
  0
VERTEX
  8
___SYMBOL
 62
7
  6
CONTINUOUS
 10
31.0211112395
 20
18.8376664638
  0
VERTEX
  8
___SYMBOL
 62
7
  6
CONTINUOUS
 10
31.020826511
 20
18.8404687015
  0
VERTEX
  8
___SYMBOL
 62
7
  6
CONTINUOUS
 10
31.0204619182
 20
18.8432565801
  0
VERTEX
  8
___SYMBOL
 62
7
  6
CONTINUOUS
 10
31.020018124
 20
18.8460272948
  0
VERTEX
  8
___SYMBOL
 62
7
  6
CONTINUOUS
 10
31.0194957912
 20
18.8487780411
  0
VERTEX
  8
___SYMBOL
 62
7
  6
CONTINUOUS
 10
31.0188955826
 20
18.8515060142
  0
VERTEX
  8
___SYMBOL
 62
7
  6
CONTINUOUS
 10
31.018218161
 20
18.8542084094
  0
VERTEX
  8
___SYMBOL
 62
7
  6
CONTINUOUS
 10
31.0174641893
 20
18.8568824221
  0
VERTEX
  8
___SYMBOL
 62
7
  6
CONTINUOUS
 10
31.0166343302
 20
18.8595252476
  0
VERTEX
  8
___SYMBOL
 62
7
  6
CONTINUOUS
 10
31.0157292467
 20
18.8621340811
  0
VERTEX
  8
___SYMBOL
 62
7
  6
CONTINUOUS
 10
31.0147496016
 20
18.8647061181
  0
VERTEX
  8
___SYMBOL
 62
7
  6
CONTINUOUS
 10
31.0136960576
 20
18.8672385538
  0
VERTEX
  8
___SYMBOL
 62
7
  6
CONTINUOUS
 10
31.0125692776
 20
18.8697285836
  0
VERTEX
  8
___SYMBOL
 62
7
  6
CONTINUOUS
 10
31.0113699245
 20
18.8721734027
  0
VERTEX
  8
___SYMBOL
 62
7
  6
CONTINUOUS
 10
31.0100988549
 20
18.8745703314
  0
VERTEX
  8
___SYMBOL
 62
7
  6
CONTINUOUS
 10
31.0087577017
 20
18.8769171898
  0
VERTEX
  8
___SYMBOL
 62
7
  6
CONTINUOUS
 10
31.0073482915
 20
18.8792119225
  0
VERTEX
  8
___SYMBOL
 62
7
  6
CONTINUOUS
 10
31.0058724509
 20
18.8814524745
  0
VERTEX
  8
___SYMBOL
 62
7
  6
CONTINUOUS
 10
31.0043320067
 20
18.8836367908
  0
VERTEX
  8
___SYMBOL
 62
7
  6
CONTINUOUS
 10
31.0027287855
 20
18.8857628161
  0
VERTEX
  8
___SYMBOL
 62
7
  6
CONTINUOUS
 10
31.001064614
 20
18.8878284954
  0
VERTEX
  8
___SYMBOL
 62
7
  6
CONTINUOUS
 10
30.9993413189
 20
18.8898317734
  0
VERTEX
  8
___SYMBOL
 62
7
  6
CONTINUOUS
 10
30.9975607267
 20
18.8917705952
  0
VERTEX
  8
___SYMBOL
 62
7
  6
CONTINUOUS
 10
30.9957246643
 20
18.8936429055
  0
VERTEX
  8
___SYMBOL
 62
7
  6
CONTINUOUS
 10
30.9938349582
 20
18.8954466493
  0
VERTEX
  8
___SYMBOL
 62
7
  6
CONTINUOUS
 10
30.9918934352
 20
18.8971797714
  0
VERTEX
  8
___SYMBOL
 62
7
  6
CONTINUOUS
 10
30.9899019219
 20
18.8988402167
  0
VERTEX
  8
___SYMBOL
 62
7
  6
CONTINUOUS
 10
30.987862245
 20
18.90042593
  0
VERTEX
  8
___SYMBOL
 62
7
  6
CONTINUOUS
 10
30.9857762312
 20
18.9019348563
  0
VERTEX
  8
___SYMBOL
 62
7
  6
CONTINUOUS
 10
30.9836457071
 20
18.9033649405
  0
VERTEX
  8
___SYMBOL
 62
7
  6
CONTINUOUS
 10
30.9816015766
 20
18.9046372215
  0
VERTEX
  8
___SYMBOL
 62
7
  6
CONTINUOUS
 10
30.9795217148
 20
18.9058372208
  0
VERTEX
  8
___SYMBOL
 62
7
  6
CONTINUOUS
 10
30.9774082002
 20
18.9069643166
  0
VERTEX
  8
___SYMBOL
 62
7
  6
CONTINUOUS
 10
30.9752631112
 20
18.9080178871
  0
VERTEX
  8
___SYMBOL
 62
7
  6
CONTINUOUS
 10
30.9730885262
 20
18.9089973105
  0
VERTEX
  8
___SYMBOL
 62
7
  6
CONTINUOUS
 10
30.9708865237
 20
18.9099019651
  0
VERTEX
  8
___SYMBOL
 62
7
  6
CONTINUOUS
 10
30.968659182
 20
18.9107312289
  0
VERTEX
  8
___SYMBOL
 62
7
  6
CONTINUOUS
 10
30.9664085797
 20
18.9114844802
  0
VERTEX
  8
___SYMBOL
 62
7
  6
CONTINUOUS
 10
30.9641367951
 20
18.9121610972
  0
VERTEX
  8
___SYMBOL
 62
7
  6
CONTINUOUS
 10
30.9618459067
 20
18.9127604582
  0
VERTEX
  8
___SYMBOL
 62
7
  6
CONTINUOUS
 10
30.9595379929
 20
18.9132819412
  0
VERTEX
  8
___SYMBOL
 62
7
  6
CONTINUOUS
 10
30.9572151322
 20
18.9137249246
  0
VERTEX
  8
___SYMBOL
 62
7
  6
CONTINUOUS
 10
30.9548794029
 20
18.9140887864
  0
VERTEX
  8
___SYMBOL
 62
7
  6
CONTINUOUS
 10
30.9525328835
 20
18.914372905
  0
VERTEX
  8
___SYMBOL
 62
7
  6
CONTINUOUS
 10
30.9501776525
 20
18.9145766584
  0
VERTEX
  8
___SYMBOL
 62
7
  6
CONTINUOUS
 10
30.9478157882
 20
18.9146994249
  0
VERTEX
  8
___SYMBOL
 62
7
  6
CONTINUOUS
 10
30.945449369
 20
18.9147405828
  0
SEQEND
  0
LINE
  8
___SYMBOL
 62
7
  6
CONTINUOUS
 10
30.9454497311
 20
18.914740483
 11
30.5320097311
 21
18.914740483
  0
LINE
  8
___SYMBOL
 62
7
  6
CONTINUOUS
 10
30.5320097311
 20
18.914740483
 11
30.5320097311
 21
18.957510483
  0
LINE
  8
___SYMBOL
 62
7
  6
CONTINUOUS
 10
30.5320097311
 20
18.957510483
 11
30.9454497311
 21
18.957510483
  0
LINE
  8
___SYMBOL
 62
7
  6
CONTINUOUS
 10
31.0082682101
 20
18.8777327465
 11
30.9050497311
 21
18.806630483
  0
LINE
  8
___SYMBOL
 62
7
  6
CONTINUOUS
 10
30.9050497311
 20
18.806630483
 11
29.5922797311
 21
18.904050483
  0
LINE
  8
___SYMBOL
 62
7
  6
CONTINUOUS
 10
29.5922797311
 20
18.904050483
 11
29.5209997311
 21
19.002650483
  0
LINE
  8
___SYMBOL
 62
7
  6
CONTINUOUS
 10
29.5209997311
 20
19.002650483
 11
29.5601997311
 21
19.021660483
  0
LINE
  8
___SYMBOL
 62
7
  6
CONTINUOUS
 10
29.5601997311
 20
19.021660483
 11
29.6184197311
 21
18.936120483
  0
LINE
  8
___SYMBOL
 62
7
  6
CONTINUOUS
 10
29.6184197311
 20
18.936120483
 11
30.8884197311
 21
18.848210483
  0
LINE
  8
___SYMBOL
 62
7
  6
CONTINUOUS
 10
30.8884197311
 20
18.848210483
 11
30.9791864801
 21
18.9060220768
  0
LINE
  8
___SYMBOL
 62
2
  6
CONTINUOUS
 10
30.9788614948
 20
18.9061990657
 11
31.0109603167
 21
18.9358295039
  0
LINE
  8
___SYMBOL
 62
7
  6
CONTINUOUS
 10
30.5693497311
 20
18.964640483
 11
30.5662897311
 21
18.970750483
  0
LINE
  8
___SYMBOL
 62
7
  6
CONTINUOUS
 10
30.5662897311
 20
18.970750483
 11
30.5622197311
 21
18.971760483
  0
LINE
  8
___SYMBOL
 62
7
  6
CONTINUOUS
 10
30.5622197311
 20
18.971760483
 11
30.5581497311
 21
18.973800483
  0
LINE
  8
___SYMBOL
 62
7
  6
CONTINUOUS
 10
30.5581497311
 20
18.973800483
 11
30.5540697311
 21
18.977880483
  0
LINE
  8
___SYMBOL
 62
7
  6
CONTINUOUS
 10
30.5540697311
 20
18.977880483
 11
30.5489797311
 21
18.976860483
  0
LINE
  8
___SYMBOL
 62
7
  6
CONTINUOUS
 10
30.6742397311
 20
18.967690483
 11
30.6783097311
 21
18.969730483
  0
LINE
  8
___SYMBOL
 62
7
  6
CONTINUOUS
 10
30.6783097311
 20
18.969730483
 11
30.6823797311
 21
18.970750483
  0
LINE
  8
___SYMBOL
 62
7
  6
CONTINUOUS
 10
30.6823797311
 20
18.970750483
 11
30.6905297311
 21
18.966670483
  0
LINE
  8
___SYMBOL
 62
7
  6
CONTINUOUS
 10
30.6905297311
 20
18.966670483
 11
30.6945997311
 21
18.966670483
  0
LINE
  8
___SYMBOL
 62
7
  6
CONTINUOUS
 10
30.8300397311
 20
18.968710483
 11
30.8361497311
 21
18.971760483
  0
LINE
  8
___SYMBOL
 62
7
  6
CONTINUOUS
 10
30.8361497311
 20
18.971760483
 11
30.8463297311
 21
18.968710483
  0
LINE
  8
___SYMBOL
 62
7
  6
CONTINUOUS
 10
30.8330897311
 20
19.006390483
 11
30.8290197311
 21
19.006390483
  0
LINE
  8
___SYMBOL
 62
7
  6
CONTINUOUS
 10
30.8290197311
 20
19.006390483
 11
30.8178197311
 21
19.014540483
  0
LINE
  8
___SYMBOL
 62
7
  6
CONTINUOUS
 10
30.8178197311
 20
19.014540483
 11
30.8096697311
 21
19.014540483
  0
LINE
  8
___SYMBOL
 62
7
  6
CONTINUOUS
 10
30.8096697311
 20
19.014540483
 11
30.8096697311
 21
19.008420483
  0
LINE
  8
___SYMBOL
 62
7
  6
CONTINUOUS
 10
30.6772897311
 20
19.008420483
 11
30.6772897311
 21
19.013520483
  0
LINE
  8
___SYMBOL
 62
7
  6
CONTINUOUS
 10
30.6772897311
 20
19.013520483
 11
30.6813597311
 21
19.014540483
  0
LINE
  8
___SYMBOL
 62
7
  6
CONTINUOUS
 10
30.6813597311
 20
19.014540483
 11
30.6854397311
 21
19.013520483
  0
LINE
  8
___SYMBOL
 62
7
  6
CONTINUOUS
 10
30.6854397311
 20
19.013520483
 11
30.6905297311
 21
19.006390483
  0
LINE
  8
___SYMBOL
 62
7
  6
CONTINUOUS
 10
30.6905297311
 20
19.006390483
 11
30.6956197311
 21
19.004350483
  0
LINE
  8
___SYMBOL
 62
7
  6
CONTINUOUS
 10
30.6956197311
 20
19.004350483
 11
30.7007097311
 21
19.004350483
  0
POLYLINE
  8
___SYMBOL
 62
7
  6
CONTINUOUS
 66
1
 70
0
  0
VERTEX
  8
___SYMBOL
 62
7
  6
CONTINUOUS
 10
30.5408325847
 20
18.9585315528
  0
VERTEX
  8
___SYMBOL
 62
7
  6
CONTINUOUS
 10
30.539157301
 20
18.9600071925
  0
VERTEX
  8
___SYMBOL
 62
7
  6
CONTINUOUS
 10
30.5375278219
 20
18.9614646775
  0
VERTEX
  8
___SYMBOL
 62
7
  6
CONTINUOUS
 10
30.5359438772
 20
18.9629041728
  0
VERTEX
  8
___SYMBOL
 62
7
  6
CONTINUOUS
 10
30.5344051968
 20
18.9643258431
  0
VERTEX
  8
___SYMBOL
 62
7
  6
CONTINUOUS
 10
30.5329115105
 20
18.9657298532
  0
VERTEX
  8
___SYMBOL
 62
7
  6
CONTINUOUS
 10
30.5314625482
 20
18.9671163679
  0
VERTEX
  8
___SYMBOL
 62
7
  6
CONTINUOUS
 10
30.5300580398
 20
18.968485552
  0
VERTEX
  8
___SYMBOL
 62
7
  6
CONTINUOUS
 10
30.5286977151
 20
18.9698375704
  0
VERTEX
  8
___SYMBOL
 62
7
  6
CONTINUOUS
 10
30.5273813039
 20
18.9711725877
  0
VERTEX
  8
___SYMBOL
 62
7
  6
CONTINUOUS
 10
30.5261085362
 20
18.9724907689
  0
VERTEX
  8
___SYMBOL
 62
7
  6
CONTINUOUS
 10
30.5248791417
 20
18.9737922788
  0
VERTEX
  8
___SYMBOL
 62
7
  6
CONTINUOUS
 10
30.5236928504
 20
18.975077282
  0
VERTEX
  8
___SYMBOL
 62
7
  6
CONTINUOUS
 10
30.5225493921
 20
18.9763459435
  0
VERTEX
  8
___SYMBOL
 62
7
  6
CONTINUOUS
 10
30.5214484967
 20
18.9775984281
  0
VERTEX
  8
___SYMBOL
 62
7
  6
CONTINUOUS
 10
30.520389894
 20
18.9788349004
  0
VERTEX
  8
___SYMBOL
 62
7
  6
CONTINUOUS
 10
30.5193733138
 20
18.9800555254
  0
VERTEX
  8
___SYMBOL
 62
7
  6
CONTINUOUS
 10
30.5183984861
 20
18.9812604679
  0
VERTEX
  8
___SYMBOL
 62
7
  6
CONTINUOUS
 10
30.5174651407
 20
18.9824498926
  0
VERTEX
  8
___SYMBOL
 62
7
  6
CONTINUOUS
 10
30.5165730075
 20
18.9836239643
  0
VERTEX
  8
___SYMBOL
 62
7
  6
CONTINUOUS
 10
30.5157218163
 20
18.9847828479
  0
VERTEX
  8
___SYMBOL
 62
7
  6
CONTINUOUS
 10
30.5149112969
 20
18.9859267082
  0
VERTEX
  8
___SYMBOL
 62
7
  6
CONTINUOUS
 10
30.5141412083
 20
18.9870556985
  0
VERTEX
  8
___SYMBOL
 62
7
  6
CONTINUOUS
 10
30.5134114251
 20
18.9881699268
  0
VERTEX
  8
___SYMBOL
 62
7
  6
CONTINUOUS
 10
30.5127218512
 20
18.9892694896
  0
VERTEX
  8
___SYMBOL
 62
7
  6
CONTINUOUS
 10
30.5120723902
 20
18.9903544832
  0
VERTEX
  8
___SYMBOL
 62
7
  6
CONTINUOUS
 10
30.5114629459
 20
18.9914250043
  0
VERTEX
  8
___SYMBOL
 62
7
  6
CONTINUOUS
 10
30.510893422
 20
18.9924811493
  0
VERTEX
  8
___SYMBOL
 62
7
  6
CONTINUOUS
 10
30.5103637223
 20
18.9935230148
  0
VERTEX
  8
___SYMBOL
 62
7
  6
CONTINUOUS
 10
30.5098737505
 20
18.9945506971
  0
VERTEX
  8
___SYMBOL
 62
7
  6
CONTINUOUS
 10
30.5094234104
 20
18.9955642929
  0
VERTEX
  8
___SYMBOL
 62
7
  6
CONTINUOUS
 10
30.5090126056
 20
18.9965638985
  0
VERTEX
  8
___SYMBOL
 62
7
  6
CONTINUOUS
 10
30.50864124
 20
18.9975496106
  0
VERTEX
  8
___SYMBOL
 62
7
  6
CONTINUOUS
 10
30.5083092173
 20
18.9985215255
  0
VERTEX
  8
___SYMBOL
 62
7
  6
CONTINUOUS
 10
30.5080164411
 20
18.9994797398
  0
VERTEX
  8
___SYMBOL
 62
7
  6
CONTINUOUS
 10
30.5077628153
 20
19.0004243499
  0
VERTEX
  8
___SYMBOL
 62
7
  6
CONTINUOUS
 10
30.5075162718
 20
19.0015093297
  0
VERTEX
  8
___SYMBOL
 62
7
  6
CONTINUOUS
 10
30.5073227324
 20
19.0025760774
  0
VERTEX
  8
___SYMBOL
 62
7
  6
CONTINUOUS
 10
30.5071820443
 20
19.0036247461
  0
VERTEX
  8
___SYMBOL
 62
7
  6
CONTINUOUS
 10
30.5070940545
 20
19.0046554891
  0
VERTEX
  8
___SYMBOL
 62
7
  6
CONTINUOUS
 10
30.5070586102
 20
19.0056684596
  0
VERTEX
  8
___SYMBOL
 62
7
  6
CONTINUOUS
 10
30.5070755586
 20
19.0066638108
  0
VERTEX
  8
___SYMBOL
 62
7
  6
CONTINUOUS
 10
30.5071447866
 20
19.0076416826
  0
VERTEX
  8
___SYMBOL
 62
7
  6
CONTINUOUS
 10
30.50726634
 20
19.0086021612
  0
VERTEX
  8
___SYMBOL
 62
7
  6
CONTINUOUS
 10
30.5074403045
 20
19.0095453194
  0
VERTEX
  8
___SYMBOL
 62
7
  6
CONTINUOUS
 10
30.5076667658
 20
19.01047123
  0
VERTEX
  8
___SYMBOL
 62
7
  6
CONTINUOUS
 10
30.5079458094
 20
19.0113799658
  0
VERTEX
  8
___SYMBOL
 62
7
  6
CONTINUOUS
 10
30.5082775211
 20
19.0122715996
  0
VERTEX
  8
___SYMBOL
 62
7
  6
CONTINUOUS
 10
30.5086619865
 20
19.0131462043
  0
VERTEX
  8
___SYMBOL
 62
7
  6
CONTINUOUS
 10
30.5090992912
 20
19.0140038527
  0
VERTEX
  8
___SYMBOL
 62
7
  6
CONTINUOUS
 10
30.5095895209
 20
19.0148446175
  0
VERTEX
  8
___SYMBOL
 62
7
  6
CONTINUOUS
 10
30.5101327612
 20
19.0156685716
  0
VERTEX
  8
___SYMBOL
 62
7
  6
CONTINUOUS
 10
30.5107290979
 20
19.0164757878
  0
VERTEX
  8
___SYMBOL
 62
7
  6
CONTINUOUS
 10
30.5113786164
 20
19.0172663389
  0
VERTEX
  8
___SYMBOL
 62
7
  6
CONTINUOUS
 10
30.5120814025
 20
19.0180402977
  0
VERTEX
  8
___SYMBOL
 62
7
  6
CONTINUOUS
 10
30.5128375419
 20
19.0187977371
  0
VERTEX
  8
___SYMBOL
 62
7
  6
CONTINUOUS
 10
30.5136471201
 20
19.0195387299
  0
VERTEX
  8
___SYMBOL
 62
7
  6
CONTINUOUS
 10
30.5145102228
 20
19.0202633487
  0
VERTEX
  8
___SYMBOL
 62
7
  6
CONTINUOUS
 10
30.5154269357
 20
19.0209716666
  0
VERTEX
  8
___SYMBOL
 62
7
  6
CONTINUOUS
 10
30.5163973444
 20
19.0216637563
  0
SEQEND
  0
LINE
  8
___SYMBOL
 62
7
  6
CONTINUOUS
 10
30.4191497311
 20
19.021660483
 11
30.4191497311
 21
19.281840483
  0
LINE
  8
___SYMBOL
 62
7
  6
CONTINUOUS
 10
30.4191497311
 20
19.281840483
 11
30.2195597311
 21
19.281840483
  0
LINE
  8
___SYMBOL
 62
7
  6
CONTINUOUS
 10
30.2765897311
 20
18.8905616446
 11
30.2765897311
 21
19.244060483
  0
LINE
  8
___SYMBOL
 62
7
  6
CONTINUOUS
 10
30.2765897311
 20
19.244060483
 11
30.3200697311
 21
19.281840483
  0
LINE
  8
___SYMBOL
 62
7
  6
CONTINUOUS
 10
30.3200697311
 20
19.281840483
 11
30.3671097311
 21
19.244060483
  0
LINE
  8
___SYMBOL
 62
7
  6
CONTINUOUS
 10
30.3671097311
 20
18.8842958075
 11
30.3671097311
 21
19.244060483
  0
LINE
  8
___SYMBOL
 62
7
  6
CONTINUOUS
 10
30.3671097311
 20
19.244060483
 11
30.2765897311
 21
19.244060483
  0
LINE
  8
___SYMBOL
 62
7
  6
CONTINUOUS
 10
30.2765897311
 20
19.145690483
 11
30.3671097311
 21
19.145690483
  0
LINE
  8
___SYMBOL
 62
7
  6
CONTINUOUS
 10
30.3671197311
 20
19.145690483
 11
30.3200697311
 21
19.183470483
  0
LINE
  8
___SYMBOL
 62
7
  6
CONTINUOUS
 10
30.3200697311
 20
19.183470483
 11
30.2765897311
 21
19.145690483
  0
LINE
  8
___SYMBOL
 62
2
  6
CONTINUOUS
 10
31.0571197311
 20
19.151400483
 11
30.9125629451
 21
19.021660483
  0
LINE
  8
___SYMBOL
 62
7
  6
CONTINUOUS
 10
30.9176330535
 20
19.021660483
 11
30.9338997311
 21
19.013520483
  0
LINE
  8
___SYMBOL
 62
7
  6
CONTINUOUS
 10
30.9338997311
 20
19.013520483
 11
30.9369597311
 21
19.009440483
  0
LINE
  8
___SYMBOL
 62
7
  6
CONTINUOUS
 10
30.9369597311
 20
19.009440483
 11
30.9389997311
 21
19.001300483
  0
LINE
  8
___SYMBOL
 62
7
  6
CONTINUOUS
 10
30.9389997311
 20
19.001300483
 11
30.9389997311
 21
18.995190483
  0
LINE
  8
___SYMBOL
 62
7
  6
CONTINUOUS
 10
30.9389997311
 20
18.995190483
 11
30.9379797311
 21
18.990100483
  0
LINE
  8
___SYMBOL
 62
7
  6
CONTINUOUS
 10
30.9379797311
 20
18.990100483
 11
30.9298297311
 21
18.985000483
  0
LINE
  8
___SYMBOL
 62
7
  6
CONTINUOUS
 10
30.9298297311
 20
18.985000483
 11
30.9176097311
 21
18.983980483
  0
LINE
  8
___SYMBOL
 62
7
  6
CONTINUOUS
 10
30.9176097311
 20
18.983980483
 11
30.9053897311
 21
18.980930483
  0
LINE
  8
___SYMBOL
 62
7
  6
CONTINUOUS
 10
30.9053897311
 20
18.980930483
 11
30.8982597311
 21
18.980930483
  0
LINE
  8
___SYMBOL
 62
7
  6
CONTINUOUS
 10
30.8982597311
 20
18.980930483
 11
30.8901197311
 21
18.978890483
  0
LINE
  8
___SYMBOL
 62
7
  6
CONTINUOUS
 10
30.8901197311
 20
18.978890483
 11
30.8626197311
 21
18.978890483
  0
LINE
  8
___SYMBOL
 62
7
  6
CONTINUOUS
 10
30.8626197311
 20
18.978890483
 11
30.8534597311
 21
18.981950483
  0
LINE
  8
___SYMBOL
 62
7
  6
CONTINUOUS
 10
30.8534597311
 20
18.981950483
 11
30.8503997311
 21
18.985000483
  0
LINE
  8
___SYMBOL
 62
7
  6
CONTINUOUS
 10
30.8503997311
 20
18.985000483
 11
30.8463297311
 21
18.986020483
  0
LINE
  8
___SYMBOL
 62
7
  6
CONTINUOUS
 10
30.8463297311
 20
18.986020483
 11
30.8402197311
 21
18.986020483
  0
LINE
  8
___SYMBOL
 62
7
  6
CONTINUOUS
 10
30.8402197311
 20
18.986020483
 11
30.8290197311
 21
18.988060483
  0
LINE
  8
___SYMBOL
 62
7
  6
CONTINUOUS
 10
30.8290197311
 20
18.988060483
 11
30.8208697311
 21
18.988060483
  0
LINE
  8
___SYMBOL
 62
7
  6
CONTINUOUS
 10
30.8208697311
 20
18.988060483
 11
30.8117097311
 21
18.986020483
  0
LINE
  8
___SYMBOL
 62
7
  6
CONTINUOUS
 10
30.8117097311
 20
18.986020483
 11
30.8066197311
 21
18.981950483
  0
LINE
  8
___SYMBOL
 62
7
  6
CONTINUOUS
 10
30.8066197311
 20
18.981950483
 11
30.8025397311
 21
18.980930483
  0
LINE
  8
___SYMBOL
 62
7
  6
CONTINUOUS
 10
30.8025397311
 20
18.980930483
 11
30.7383897311
 21
18.978890483
  0
LINE
  8
___SYMBOL
 62
7
  6
CONTINUOUS
 10
30.7383897311
 20
18.978890483
 11
30.7292197311
 21
18.980930483
  0
LINE
  8
___SYMBOL
 62
7
  6
CONTINUOUS
 10
30.7292197311
 20
18.980930483
 11
30.6905297311
 21
18.985000483
  0
LINE
  8
___SYMBOL
 62
7
  6
CONTINUOUS
 10
30.6905297311
 20
18.985000483
 11
30.6813597311
 21
18.978890483
  0
LINE
  8
___SYMBOL
 62
7
  6
CONTINUOUS
 10
30.6813597311
 20
18.978890483
 11
30.6762697311
 21
18.976860483
  0
LINE
  8
___SYMBOL
 62
7
  6
CONTINUOUS
 10
30.6762697311
 20
18.976860483
 11
30.6426697311
 21
18.973800483
  0
LINE
  8
___SYMBOL
 62
7
  6
CONTINUOUS
 10
30.6426697311
 20
18.973800483
 11
30.5948097311
 21
18.975840483
  0
LINE
  8
___SYMBOL
 62
7
  6
CONTINUOUS
 10
30.5948097311
 20
18.975840483
 11
30.5846297311
 21
18.975840483
  0
LINE
  8
___SYMBOL
 62
7
  6
CONTINUOUS
 10
30.5846297311
 20
18.975840483
 11
30.5744397311
 21
18.977880483
  0
LINE
  8
___SYMBOL
 62
7
  6
CONTINUOUS
 10
30.5744397311
 20
18.977880483
 11
30.5601797311
 21
18.986020483
  0
LINE
  8
___SYMBOL
 62
7
  6
CONTINUOUS
 10
30.5601797311
 20
18.986020483
 11
30.5591697311
 21
18.990100483
  0
LINE
  8
___SYMBOL
 62
7
  6
CONTINUOUS
 10
30.5591697311
 20
18.990100483
 11
30.5489797311
 21
18.993150483
  0
LINE
  8
___SYMBOL
 62
7
  6
CONTINUOUS
 10
30.5489797311
 20
18.993150483
 11
30.5367597311
 21
19.003330483
  0
LINE
  8
___SYMBOL
 62
7
  6
CONTINUOUS
 10
30.5367597311
 20
19.003330483
 11
30.5337097311
 21
19.007410483
  0
LINE
  8
___SYMBOL
 62
7
  6
CONTINUOUS
 10
30.5337097311
 20
19.007410483
 11
30.5337097311
 21
19.013520483
  0
LINE
  8
___SYMBOL
 62
7
  6
CONTINUOUS
 10
30.5337097311
 20
19.013520483
 11
30.5357397311
 21
19.017590483
  0
LINE
  8
___SYMBOL
 62
7
  6
CONTINUOUS
 10
30.5357397311
 20
19.017590483
 11
30.5408397311
 21
19.021660483
  0
LINE
  8
___SYMBOL
 62
7
  6
CONTINUOUS
 10
30.3671097311
 20
18.8465507392
 11
30.3671097311
 21
18.769800483
  0
LINE
  8
___SYMBOL
 62
7
  6
CONTINUOUS
 10
30.3671097311
 20
18.769800483
 11
30.4120197311
 21
18.710400483
  0
LINE
  8
___SYMBOL
 62
7
  6
CONTINUOUS
 10
30.4120197311
 20
18.710400483
 11
30.2302497311
 21
18.710400483
  0
LINE
  8
___SYMBOL
 62
7
  6
CONTINUOUS
 10
30.2302497311
 20
18.710400483
 11
30.2765897311
 21
18.769800483
  0
LINE
  8
___SYMBOL
 62
7
  6
CONTINUOUS
 10
30.2765897311
 20
18.769800483
 11
30.2765897311
 21
18.8532681828
  0
POLYLINE
  8
___SYMBOL
 62
7
  6
CONTINUOUS
 66
1
 70
0
  0
VERTEX
  8
___SYMBOL
 62
7
  6
CONTINUOUS
 10
30.7455135147
 20
18.9992652091
  0
VERTEX
  8
___SYMBOL
 62
7
  6
CONTINUOUS
 10
30.7453097599
 20
18.9994947991
  0
VERTEX
  8
___SYMBOL
 62
7
  6
CONTINUOUS
 10
30.7450984966
 20
18.9997174944
  0
VERTEX
  8
___SYMBOL
 62
7
  6
CONTINUOUS
 10
30.7448799974
 20
18.999933109
  0
VERTEX
  8
___SYMBOL
 62
7
  6
CONTINUOUS
 10
30.744654535
 20
19.0001414567
  0
VERTEX
  8
___SYMBOL
 62
7
  6
CONTINUOUS
 10
30.744422382
 20
19.0003423516
  0
VERTEX
  8
___SYMBOL
 62
7
  6
CONTINUOUS
 10
30.7441838113
 20
19.0005356076
  0
VERTEX
  8
___SYMBOL
 62
7
  6
CONTINUOUS
 10
30.7439390953
 20
19.0007210387
  0
VERTEX
  8
___SYMBOL
 62
7
  6
CONTINUOUS
 10
30.7436885069
 20
19.0008984587
  0
VERTEX
  8
___SYMBOL
 62
7
  6
CONTINUOUS
 10
30.7434323187
 20
19.0010676817
  0
VERTEX
  8
___SYMBOL
 62
7
  6
CONTINUOUS
 10
30.7431708033
 20
19.0012285215
  0
VERTEX
  8
___SYMBOL
 62
7
  6
CONTINUOUS
 10
30.7429042335
 20
19.0013807922
  0
VERTEX
  8
___SYMBOL
 62
7
  6
CONTINUOUS
 10
30.742632882
 20
19.0015243076
  0
VERTEX
  8
___SYMBOL
 62
7
  6
CONTINUOUS
 10
30.7423570213
 20
19.0016588818
  0
VERTEX
  8
___SYMBOL
 62
7
  6
CONTINUOUS
 10
30.7420769243
 20
19.0017843287
  0
VERTEX
  8
___SYMBOL
 62
7
  6
CONTINUOUS
 10
30.7417928635
 20
19.0019004622
  0
VERTEX
  8
___SYMBOL
 62
7
  6
CONTINUOUS
 10
30.7415051118
 20
19.0020070962
  0
VERTEX
  8
___SYMBOL
 62
7
  6
CONTINUOUS
 10
30.7412139515
 20
19.0021040716
  0
VERTEX
  8
___SYMBOL
 62
7
  6
CONTINUOUS
 10
30.7409197053
 20
19.0021913359
  0
VERTEX
  8
___SYMBOL
 62
7
  6
CONTINUOUS
 10
30.7406227052
 20
19.0022688637
  0
VERTEX
  8
___SYMBOL
 62
7
  6
CONTINUOUS
 10
30.7403232837
 20
19.0023366294
  0
VERTEX
  8
___SYMBOL
 62
7
  6
CONTINUOUS
 10
30.740021773
 20
19.0023946075
  0
VERTEX
  8
___SYMBOL
 62
7
  6
CONTINUOUS
 10
30.7397185055
 20
19.0024427726
  0
VERTEX
  8
___SYMBOL
 62
7
  6
CONTINUOUS
 10
30.7394138133
 20
19.002481099
  0
VERTEX
  8
___SYMBOL
 62
7
  6
CONTINUOUS
 10
30.7391080289
 20
19.0025095613
  0
VERTEX
  8
___SYMBOL
 62
7
  6
CONTINUOUS
 10
30.7388014845
 20
19.0025281339
  0
VERTEX
  8
___SYMBOL
 62
7
  6
CONTINUOUS
 10
30.7384945124
 20
19.0025367912
  0
VERTEX
  8
___SYMBOL
 62
7
  6
CONTINUOUS
 10
30.7381874449
 20
19.0025355079
  0
VERTEX
  8
___SYMBOL
 62
7
  6
CONTINUOUS
 10
30.7378806143
 20
19.0025242583
  0
VERTEX
  8
___SYMBOL
 62
7
  6
CONTINUOUS
 10
30.7375743529
 20
19.0025030169
  0
VERTEX
  8
___SYMBOL
 62
7
  6
CONTINUOUS
 10
30.737268993
 20
19.0024717582
  0
VERTEX
  8
___SYMBOL
 62
7
  6
CONTINUOUS
 10
30.7369648668
 20
19.0024304567
  0
VERTEX
  8
___SYMBOL
 62
7
  6
CONTINUOUS
 10
30.7366623068
 20
19.0023790869
  0
VERTEX
  8
___SYMBOL
 62
7
  6
CONTINUOUS
 10
30.7363616394
 20
19.0023176511
  0
VERTEX
  8
___SYMBOL
 62
7
  6
CONTINUOUS
 10
30.7360631683
 20
19.0022462637
  0
VERTEX
  8
___SYMBOL
 62
7
  6
CONTINUOUS
 10
30.7357671914
 20
19.0021650668
  0
VERTEX
  8
___SYMBOL
 62
7
  6
CONTINUOUS
 10
30.7354740066
 20
19.0020742027
  0
VERTEX
  8
___SYMBOL
 62
7
  6
CONTINUOUS
 10
30.7351839117
 20
19.0019738137
  0
VERTEX
  8
___SYMBOL
 62
7
  6
CONTINUOUS
 10
30.7348972049
 20
19.0018640419
  0
VERTEX
  8
___SYMBOL
 62
7
  6
CONTINUOUS
 10
30.7346141838
 20
19.0017450295
  0
VERTEX
  8
___SYMBOL
 62
7
  6
CONTINUOUS
 10
30.7343351465
 20
19.0016169189
  0
VERTEX
  8
___SYMBOL
 62
7
  6
CONTINUOUS
 10
30.7340603908
 20
19.0014798521
  0
VERTEX
  8
___SYMBOL
 62
7
  6
CONTINUOUS
 10
30.7337902146
 20
19.0013339715
  0
VERTEX
  8
___SYMBOL
 62
7
  6
CONTINUOUS
 10
30.7335249159
 20
19.0011794193
  0
VERTEX
  8
___SYMBOL
 62
7
  6
CONTINUOUS
 10
30.7332647926
 20
19.0010163376
  0
VERTEX
  8
___SYMBOL
 62
7
  6
CONTINUOUS
 10
30.7330101426
 20
19.0008448688
  0
VERTEX
  8
___SYMBOL
 62
7
  6
CONTINUOUS
 10
30.7327612637
 20
19.000665155
  0
VERTEX
  8
___SYMBOL
 62
7
  6
CONTINUOUS
 10
30.7325184539
 20
19.0004773384
  0
VERTEX
  8
___SYMBOL
 62
7
  6
CONTINUOUS
 10
30.7322820111
 20
19.0002815613
  0
SEQEND
  0
POLYLINE
  8
___SYMBOL
 62
7
  6
CONTINUOUS
 66
1
 70
0
  0
VERTEX
  8
___SYMBOL
 62
7
  6
CONTINUOUS
 10
30.6111007908
 20
18.9992603892
  0
VERTEX
  8
___SYMBOL
 62
7
  6
CONTINUOUS
 10
30.610860954
 20
18.9996562796
  0
VERTEX
  8
___SYMBOL
 62
7
  6
CONTINUOUS
 10
30.6106081067
 20
19.0000439761
  0
VERTEX
  8
___SYMBOL
 62
7
  6
CONTINUOUS
 10
30.6103426029
 20
19.0004231286
  0
VERTEX
  8
___SYMBOL
 62
7
  6
CONTINUOUS
 10
30.6100647967
 20
19.0007933869
  0
VERTEX
  8
___SYMBOL
 62
7
  6
CONTINUOUS
 10
30.6097750421
 20
19.0011544008
  0
VERTEX
  8
___SYMBOL
 62
7
  6
CONTINUOUS
 10
30.6094736933
 20
19.0015058203
  0
VERTEX
  8
___SYMBOL
 62
7
  6
CONTINUOUS
 10
30.6091611044
 20
19.0018472951
  0
VERTEX
  8
___SYMBOL
 62
7
  6
CONTINUOUS
 10
30.6088376293
 20
19.0021784751
  0
VERTEX
  8
___SYMBOL
 62
7
  6
CONTINUOUS
 10
30.6085036222
 20
19.0024990102
  0
VERTEX
  8
___SYMBOL
 62
7
  6
CONTINUOUS
 10
30.6081594372
 20
19.0028085501
  0
VERTEX
  8
___SYMBOL
 62
7
  6
CONTINUOUS
 10
30.6078054282
 20
19.0031067448
  0
VERTEX
  8
___SYMBOL
 62
7
  6
CONTINUOUS
 10
30.6074419495
 20
19.0033932441
  0
VERTEX
  8
___SYMBOL
 62
7
  6
CONTINUOUS
 10
30.607069355
 20
19.0036676979
  0
VERTEX
  8
___SYMBOL
 62
7
  6
CONTINUOUS
 10
30.6066879989
 20
19.0039297559
  0
VERTEX
  8
___SYMBOL
 62
7
  6
CONTINUOUS
 10
30.6062982353
 20
19.0041790681
  0
VERTEX
  8
___SYMBOL
 62
7
  6
CONTINUOUS
 10
30.6059004181
 20
19.0044152842
  0
VERTEX
  8
___SYMBOL
 62
7
  6
CONTINUOUS
 10
30.6054949235
 20
19.0046380913
  0
VERTEX
  8
___SYMBOL
 62
7
  6
CONTINUOUS
 10
30.6050822156
 20
19.0048473241
  0
VERTEX
  8
___SYMBOL
 62
7
  6
CONTINUOUS
 10
30.6046627806
 20
19.0050428548
  0
VERTEX
  8
___SYMBOL
 62
7
  6
CONTINUOUS
 10
30.6042371045
 20
19.0052245554
  0
VERTEX
  8
___SYMBOL
 62
7
  6
CONTINUOUS
 10
30.6038056736
 20
19.0053922978
  0
VERTEX
  8
___SYMBOL
 62
7
  6
CONTINUOUS
 10
30.603368974
 20
19.0055459542
  0
VERTEX
  8
___SYMBOL
 62
7
  6
CONTINUOUS
 10
30.6029274918
 20
19.0056853964
  0
VERTEX
  8
___SYMBOL
 62
7
  6
CONTINUOUS
 10
30.6024817131
 20
19.0058104965
  0
VERTEX
  8
___SYMBOL
 62
7
  6
CONTINUOUS
 10
30.6020321242
 20
19.0059211265
  0
VERTEX
  8
___SYMBOL
 62
7
  6
CONTINUOUS
 10
30.601579211
 20
19.0060171585
  0
VERTEX
  8
___SYMBOL
 62
7
  6
CONTINUOUS
 10
30.6011234599
 20
19.0060984644
  0
VERTEX
  8
___SYMBOL
 62
7
  6
CONTINUOUS
 10
30.6006653568
 20
19.0061649162
  0
VERTEX
  8
___SYMBOL
 62
7
  6
CONTINUOUS
 10
30.6002053881
 20
19.006216386
  0
VERTEX
  8
___SYMBOL
 62
7
  6
CONTINUOUS
 10
30.5997440397
 20
19.0062527458
  0
VERTEX
  8
___SYMBOL
 62
7
  6
CONTINUOUS
 10
30.5992817978
 20
19.0062738675
  0
VERTEX
  8
___SYMBOL
 62
7
  6
CONTINUOUS
 10
30.5988191487
 20
19.0062796232
  0
VERTEX
  8
___SYMBOL
 62
7
  6
CONTINUOUS
 10
30.5983565774
 20
19.006269928
  0
VERTEX
  8
___SYMBOL
 62
7
  6
CONTINUOUS
 10
30.5978945655
 20
19.0062448692
  0
VERTEX
  8
___SYMBOL
 62
7
  6
CONTINUOUS
 10
30.5974335938
 20
19.0062045771
  0
VERTEX
  8
___SYMBOL
 62
7
  6
CONTINUOUS
 10
30.5969741426
 20
19.0061491823
  0
VERTEX
  8
___SYMBOL
 62
7
  6
CONTINUOUS
 10
30.5965166928
 20
19.006078815
  0
VERTEX
  8
___SYMBOL
 62
7
  6
CONTINUOUS
 10
30.5960617248
 20
19.0059936057
  0
VERTEX
  8
___SYMBOL
 62
7
  6
CONTINUOUS
 10
30.5956097193
 20
19.0058936848
  0
VERTEX
  8
___SYMBOL
 62
7
  6
CONTINUOUS
 10
30.595161157
 20
19.0057791827
  0
VERTEX
  8
___SYMBOL
 62
7
  6
CONTINUOUS
 10
30.5947165184
 20
19.0056502297
  0
VERTEX
  8
___SYMBOL
 62
7
  6
CONTINUOUS
 10
30.5942762841
 20
19.0055069563
  0
VERTEX
  8
___SYMBOL
 62
7
  6
CONTINUOUS
 10
30.5938409349
 20
19.0053494929
  0
VERTEX
  8
___SYMBOL
 62
7
  6
CONTINUOUS
 10
30.5934109511
 20
19.0051779698
  0
VERTEX
  8
___SYMBOL
 62
7
  6
CONTINUOUS
 10
30.5929868136
 20
19.0049925175
  0
VERTEX
  8
___SYMBOL
 62
7
  6
CONTINUOUS
 10
30.5925690029
 20
19.0047932664
  0
VERTEX
  8
___SYMBOL
 62
7
  6
CONTINUOUS
 10
30.5921579996
 20
19.0045803468
  0
VERTEX
  8
___SYMBOL
 62
7
  6
CONTINUOUS
 10
30.5917542844
 20
19.0043538892
  0
SEQEND
  0
LINE
  8
___SYMBOL
 62
7
  6
CONTINUOUS
 10
30.7404297311
 20
18.965660483
 11
30.7373697311
 21
18.969730483
  0
LINE
  8
___SYMBOL
 62
7
  6
CONTINUOUS
 10
30.7373697311
 20
18.969730483
 11
30.7332997311
 21
18.970750483
  0
LINE
  8
___SYMBOL
 62
7
  6
CONTINUOUS
 10
30.7332997311
 20
18.970750483
 11
30.7231097311
 21
18.970750483
  0
POLYLINE
  8
___SYMBOL
 62
7
  6
CONTINUOUS
 66
1
 70
0
  0
VERTEX
  8
___SYMBOL
 62
7
  6
CONTINUOUS
 10
30.7954118693
 20
18.9687127886
  0
VERTEX
  8
___SYMBOL
 62
7
  6
CONTINUOUS
 10
30.7955810875
 20
18.9685489868
  0
VERTEX
  8
___SYMBOL
 62
7
  6
CONTINUOUS
 10
30.7957556695
 20
18.9683908978
  0
VERTEX
  8
___SYMBOL
 62
7
  6
CONTINUOUS
 10
30.795935395
 20
18.9682386486
  0
VERTEX
  8
___SYMBOL
 62
7
  6
CONTINUOUS
 10
30.7961200434
 20
18.9680923661
  0
VERTEX
  8
___SYMBOL
 62
7
  6
CONTINUOUS
 10
30.7963093943
 20
18.9679521772
  0
VERTEX
  8
___SYMBOL
 62
7
  6
CONTINUOUS
 10
30.7965032273
 20
18.9678182091
  0
VERTEX
  8
___SYMBOL
 62
7
  6
CONTINUOUS
 10
30.796701322
 20
18.9676905886
  0
VERTEX
  8
___SYMBOL
 62
7
  6
CONTINUOUS
 10
30.7969034579
 20
18.9675694427
  0
VERTEX
  8
___SYMBOL
 62
7
  6
CONTINUOUS
 10
30.7971094145
 20
18.9674548984
  0
VERTEX
  8
___SYMBOL
 62
7
  6
CONTINUOUS
 10
30.7973189715
 20
18.9673470826
  0
VERTEX
  8
___SYMBOL
 62
7
  6
CONTINUOUS
 10
30.7975319083
 20
18.9672461224
  0
VERTEX
  8
___SYMBOL
 62
7
  6
CONTINUOUS
 10
30.7977480046
 20
18.9671521447
  0
VERTEX
  8
___SYMBOL
 62
7
  6
CONTINUOUS
 10
30.7979670398
 20
18.9670652764
  0
VERTEX
  8
___SYMBOL
 62
7
  6
CONTINUOUS
 10
30.7981887936
 20
18.9669856445
  0
VERTEX
  8
___SYMBOL
 62
7
  6
CONTINUOUS
 10
30.7984130456
 20
18.9669133761
  0
VERTEX
  8
___SYMBOL
 62
7
  6
CONTINUOUS
 10
30.7986395752
 20
18.966848598
  0
VERTEX
  8
___SYMBOL
 62
7
  6
CONTINUOUS
 10
30.7988681559
 20
18.9667914162
  0
VERTEX
  8
___SYMBOL
 62
7
  6
CONTINUOUS
 10
30.7990985369
 20
18.9667418517
  0
VERTEX
  8
___SYMBOL
 62
7
  6
CONTINUOUS
 10
30.7993304612
 20
18.9666999047
  0
VERTEX
  8
___SYMBOL
 62
7
  6
CONTINUOUS
 10
30.7995636719
 20
18.9666655752
  0
VERTEX
  8
___SYMBOL
 62
7
  6
CONTINUOUS
 10
30.799797912
 20
18.9666388632
  0
VERTEX
  8
___SYMBOL
 62
7
  6
CONTINUOUS
 10
30.8000329245
 20
18.9666197689
  0
VERTEX
  8
___SYMBOL
 62
7
  6
CONTINUOUS
 10
30.8002684526
 20
18.9666082923
  0
VERTEX
  8
___SYMBOL
 62
7
  6
CONTINUOUS
 10
30.8005042392
 20
18.9666044334
  0
VERTEX
  8
___SYMBOL
 62
7
  6
CONTINUOUS
 10
30.8007400274
 20
18.9666081922
  0
VERTEX
  8
___SYMBOL
 62
7
  6
CONTINUOUS
 10
30.8009755603
 20
18.9666195689
  0
VERTEX
  8
___SYMBOL
 62
7
  6
CONTINUOUS
 10
30.8012105809
 20
18.9666385635
  0
VERTEX
  8
___SYMBOL
 62
7
  6
CONTINUOUS
 10
30.8014448322
 20
18.966665176
  0
VERTEX
  8
___SYMBOL
 62
7
  6
CONTINUOUS
 10
30.8016780572
 20
18.9666994066
  0
VERTEX
  8
___SYMBOL
 62
7
  6
CONTINUOUS
 10
30.8019099992
 20
18.9667412552
  0
VERTEX
  8
___SYMBOL
 62
7
  6
CONTINUOUS
 10
30.802140401
 20
18.9667907219
  0
VERTEX
  8
___SYMBOL
 62
7
  6
CONTINUOUS
 10
30.8023690057
 20
18.9668478067
  0
VERTEX
  8
___SYMBOL
 62
7
  6
CONTINUOUS
 10
30.8025955625
 20
18.9669124886
  0
VERTEX
  8
___SYMBOL
 62
7
  6
CONTINUOUS
 10
30.8028198447
 20
18.9669846619
  0
VERTEX
  8
___SYMBOL
 62
7
  6
CONTINUOUS
 10
30.803041632
 20
18.9670641996
  0
VERTEX
  8
___SYMBOL
 62
7
  6
CONTINUOUS
 10
30.8032607037
 20
18.967150975
  0
VERTEX
  8
___SYMBOL
 62
7
  6
CONTINUOUS
 10
30.8034768394
 20
18.967244861
  0
VERTEX
  8
___SYMBOL
 62
7
  6
CONTINUOUS
 10
30.8036898186
 20
18.9673457308
  0
VERTEX
  8
___SYMBOL
 62
7
  6
CONTINUOUS
 10
30.8038994208
 20
18.9674534577
  0
VERTEX
  8
___SYMBOL
 62
7
  6
CONTINUOUS
 10
30.8041054256
 20
18.9675679146
  0
VERTEX
  8
___SYMBOL
 62
7
  6
CONTINUOUS
 10
30.8043076123
 20
18.9676889747
  0
VERTEX
  8
___SYMBOL
 62
7
  6
CONTINUOUS
 10
30.8045057606
 20
18.9678165111
  0
VERTEX
  8
___SYMBOL
 62
7
  6
CONTINUOUS
 10
30.8046996499
 20
18.967950397
  0
VERTEX
  8
___SYMBOL
 62
7
  6
CONTINUOUS
 10
30.8048890597
 20
18.9680905054
  0
VERTEX
  8
___SYMBOL
 62
7
  6
CONTINUOUS
 10
30.8050737695
 20
18.9682367096
  0
VERTEX
  8
___SYMBOL
 62
7
  6
CONTINUOUS
 10
30.8052535589
 20
18.9683888825
  0
VERTEX
  8
___SYMBOL
 62
7
  6
CONTINUOUS
 10
30.8054282073
 20
18.9685468974
  0
VERTEX
  8
___SYMBOL
 62
7
  6
CONTINUOUS
 10
30.8055974942
 20
18.9687106274
  0
SEQEND
  0
POLYLINE
  8
___SYMBOL
 62
7
  6
CONTINUOUS
 66
1
 70
0
  0
VERTEX
  8
___SYMBOL
 62
7
  6
CONTINUOUS
 10
30.531671361
 20
18.9809315218
  0
VERTEX
  8
___SYMBOL
 62
7
  6
CONTINUOUS
 10
30.531615536
 20
18.98128029
  0
VERTEX
  8
___SYMBOL
 62
7
  6
CONTINUOUS
 10
30.5315481417
 20
18.9816270255
  0
VERTEX
  8
___SYMBOL
 62
7
  6
CONTINUOUS
 10
30.5314693285
 20
18.9819713778
  0
VERTEX
  8
___SYMBOL
 62
7
  6
CONTINUOUS
 10
30.5313792466
 20
18.9823129966
  0
VERTEX
  8
___SYMBOL
 62
7
  6
CONTINUOUS
 10
30.5312780464
 20
18.9826515313
  0
VERTEX
  8
___SYMBOL
 62
7
  6
CONTINUOUS
 10
30.5311658782
 20
18.9829866315
  0
VERTEX
  8
___SYMBOL
 62
7
  6
CONTINUOUS
 10
30.5310428922
 20
18.9833179467
  0
VERTEX
  8
___SYMBOL
 62
7
  6
CONTINUOUS
 10
30.5309092388
 20
18.9836451266
  0
VERTEX
  8
___SYMBOL
 62
7
  6
CONTINUOUS
 10
30.5307650684
 20
18.9839678205
  0
VERTEX
  8
___SYMBOL
 62
7
  6
CONTINUOUS
 10
30.530610531
 20
18.9842856781
  0
VERTEX
  8
___SYMBOL
 62
7
  6
CONTINUOUS
 10
30.5304457772
 20
18.9845983489
  0
VERTEX
  8
___SYMBOL
 62
7
  6
CONTINUOUS
 10
30.5302709572
 20
18.9849054825
  0
VERTEX
  8
___SYMBOL
 62
7
  6
CONTINUOUS
 10
30.5300862214
 20
18.9852067283
  0
VERTEX
  8
___SYMBOL
 62
7
  6
CONTINUOUS
 10
30.5298917199
 20
18.985501736
  0
VERTEX
  8
___SYMBOL
 62
7
  6
CONTINUOUS
 10
30.5296876032
 20
18.9857901551
  0
VERTEX
  8
___SYMBOL
 62
7
  6
CONTINUOUS
 10
30.5294740214
 20
18.9860716351
  0
VERTEX
  8
___SYMBOL
 62
7
  6
CONTINUOUS
 10
30.5292511514
 20
18.9863458455
  0
VERTEX
  8
___SYMBOL
 62
7
  6
CONTINUOUS
 10
30.5290192747
 20
18.9866125352
  0
VERTEX
  8
___SYMBOL
 62
7
  6
CONTINUOUS
 10
30.5287786997
 20
18.9868714733
  0
VERTEX
  8
___SYMBOL
 62
7
  6
CONTINUOUS
 10
30.5285297342
 20
18.9871224287
  0
VERTEX
  8
___SYMBOL
 62
7
  6
CONTINUOUS
 10
30.5282726866
 20
18.9873651703
  0
VERTEX
  8
___SYMBOL
 62
7
  6
CONTINUOUS
 10
30.5280078648
 20
18.9875994669
  0
VERTEX
  8
___SYMBOL
 62
7
  6
CONTINUOUS
 10
30.527735577
 20
18.9878250877
  0
VERTEX
  8
___SYMBOL
 62
7
  6
CONTINUOUS
 10
30.5274561312
 20
18.9880418014
  0
VERTEX
  8
___SYMBOL
 62
7
  6
CONTINUOUS
 10
30.5271698356
 20
18.988249377
  0
VERTEX
  8
___SYMBOL
 62
7
  6
CONTINUOUS
 10
30.5268769984
 20
18.9884475835
  0
VERTEX
  8
___SYMBOL
 62
7
  6
CONTINUOUS
 10
30.5265779275
 20
18.9886361897
  0
VERTEX
  8
___SYMBOL
 62
7
  6
CONTINUOUS
 10
30.5262729311
 20
18.9888149646
  0
VERTEX
  8
___SYMBOL
 62
7
  6
CONTINUOUS
 10
30.5259623173
 20
18.9889836772
  0
VERTEX
  8
___SYMBOL
 62
7
  6
CONTINUOUS
 10
30.5256463942
 20
18.9891420963
  0
VERTEX
  8
___SYMBOL
 62
7
  6
CONTINUOUS
 10
30.52532547
 20
18.9892899909
  0
VERTEX
  8
___SYMBOL
 62
7
  6
CONTINUOUS
 10
30.5249998526
 20
18.98942713
  0
VERTEX
  8
___SYMBOL
 62
7
  6
CONTINUOUS
 10
30.524669862
 20
18.9895533132
  0
VERTEX
  8
___SYMBOL
 62
7
  6
CONTINUOUS
 10
30.5243358649
 20
18.9896684637
  0
VERTEX
  8
___SYMBOL
 62
7
  6
CONTINUOUS
 10
30.5239982397
 20
18.9897725353
  0
VERTEX
  8
___SYMBOL
 62
7
  6
CONTINUOUS
 10
30.5236573649
 20
18.989865482
  0
VERTEX
  8
___SYMBOL
 62
7
  6
CONTINUOUS
 10
30.5233136189
 20
18.9899472577
  0
VERTEX
  8
___SYMBOL
 62
7
  6
CONTINUOUS
 10
30.5229673802
 20
18.9900178162
  0
VERTEX
  8
___SYMBOL
 62
7
  6
CONTINUOUS
 10
30.5226190272
 20
18.9900771115
  0
VERTEX
  8
___SYMBOL
 62
7
  6
CONTINUOUS
 10
30.5222689385
 20
18.9901250975
  0
VERTEX
  8
___SYMBOL
 62
7
  6
CONTINUOUS
 10
30.5219174923
 20
18.990161728
  0
VERTEX
  8
___SYMBOL
 62
7
  6
CONTINUOUS
 10
30.5215650673
 20
18.990186957
  0
VERTEX
  8
___SYMBOL
 62
7
  6
CONTINUOUS
 10
30.5212120417
 20
18.9902007385
  0
VERTEX
  8
___SYMBOL
 62
7
  6
CONTINUOUS
 10
30.5208587942
 20
18.9902030262
  0
VERTEX
  8
___SYMBOL
 62
7
  6
CONTINUOUS
 10
30.5205057031
 20
18.9901937741
  0
VERTEX
  8
___SYMBOL
 62
7
  6
CONTINUOUS
 10
30.5201531469
 20
18.990172936
  0
VERTEX
  8
___SYMBOL
 62
7
  6
CONTINUOUS
 10
30.5198015041
 20
18.990140466
  0
VERTEX
  8
___SYMBOL
 62
7
  6
CONTINUOUS
 10
30.519451153
 20
18.9900963179
  0
SEQEND
  0
POLYLINE
  8
___SYMBOL
 62
7
  6
CONTINUOUS
 66
1
 70
0
  0
VERTEX
  8
___SYMBOL
 62
7
  6
CONTINUOUS
 10
30.6518340022
 20
18.9972191397
  0
VERTEX
  8
___SYMBOL
 62
7
  6
CONTINUOUS
 10
30.6517816471
 20
18.9973683245
  0
VERTEX
  8
___SYMBOL
 62
7
  6
CONTINUOUS
 10
30.6517243683
 20
18.9975156843
  0
VERTEX
  8
___SYMBOL
 62
7
  6
CONTINUOUS
 10
30.6516622596
 20
18.9976610773
  0
VERTEX
  8
___SYMBOL
 62
7
  6
CONTINUOUS
 10
30.6515954146
 20
18.9978043614
  0
VERTEX
  8
___SYMBOL
 62
7
  6
CONTINUOUS
 10
30.6515239273
 20
18.9979453949
  0
VERTEX
  8
___SYMBOL
 62
7
  6
CONTINUOUS
 10
30.6514478912
 20
18.9980840358
  0
VERTEX
  8
___SYMBOL
 62
7
  6
CONTINUOUS
 10
30.6513674002
 20
18.998220142
  0
VERTEX
  8
___SYMBOL
 62
7
  6
CONTINUOUS
 10
30.6512825481
 20
18.9983535717
  0
VERTEX
  8
___SYMBOL
 62
7
  6
CONTINUOUS
 10
30.6511934285
 20
18.998484183
  0
VERTEX
  8
___SYMBOL
 62
7
  6
CONTINUOUS
 10
30.6511001353
 20
18.998611834
  0
VERTEX
  8
___SYMBOL
 62
7
  6
CONTINUOUS
 10
30.6510027622
 20
18.9987363826
  0
VERTEX
  8
___SYMBOL
 62
7
  6
CONTINUOUS
 10
30.6509014029
 20
18.9988576869
  0
VERTEX
  8
___SYMBOL
 62
7
  6
CONTINUOUS
 10
30.6507961512
 20
18.9989756051
  0
VERTEX
  8
___SYMBOL
 62
7
  6
CONTINUOUS
 10
30.6506871009
 20
18.9990899952
  0
VERTEX
  8
___SYMBOL
 62
7
  6
CONTINUOUS
 10
30.6505743457
 20
18.9992007152
  0
VERTEX
  8
___SYMBOL
 62
7
  6
CONTINUOUS
 10
30.6504579794
 20
18.9993076232
  0
VERTEX
  8
___SYMBOL
 62
7
  6
CONTINUOUS
 10
30.6503381056
 20
18.9994105882
  0
VERTEX
  8
___SYMBOL
 62
7
  6
CONTINUOUS
 10
30.6502148679
 20
18.9995095223
  0
VERTEX
  8
___SYMBOL
 62
7
  6
CONTINUOUS
 10
30.6500884199
 20
18.9996043486
  0
VERTEX
  8
___SYMBOL
 62
7
  6
CONTINUOUS
 10
30.649958915
 20
18.9996949902
  0
VERTEX
  8
___SYMBOL
 62
7
  6
CONTINUOUS
 10
30.6498265067
 20
18.9997813701
  0
VERTEX
  8
___SYMBOL
 62
7
  6
CONTINUOUS
 10
30.6496913485
 20
18.9998634114
  0
VERTEX
  8
___SYMBOL
 62
7
  6
CONTINUOUS
 10
30.6495535939
 20
18.9999410371
  0
VERTEX
  8
___SYMBOL
 62
7
  6
CONTINUOUS
 10
30.6494133964
 20
19.0000141703
  0
VERTEX
  8
___SYMBOL
 62
7
  6
CONTINUOUS
 10
30.6492709094
 20
19.0000827341
  0
VERTEX
  8
___SYMBOL
 62
7
  6
CONTINUOUS
 10
30.6491262866
 20
19.0001466515
  0
VERTEX
  8
___SYMBOL
 62
7
  6
CONTINUOUS
 10
30.6489796814
 20
19.0002058456
  0
VERTEX
  8
___SYMBOL
 62
7
  6
CONTINUOUS
 10
30.6488312472
 20
19.0002602394
  0
VERTEX
  8
___SYMBOL
 62
7
  6
CONTINUOUS
 10
30.6486811377
 20
19.000309756
  0
VERTEX
  8
___SYMBOL
 62
7
  6
CONTINUOUS
 10
30.6485295062
 20
19.0003543185
  0
VERTEX
  8
___SYMBOL
 62
7
  6
CONTINUOUS
 10
30.6483765063
 20
19.0003938499
  0
VERTEX
  8
___SYMBOL
 62
7
  6
CONTINUOUS
 10
30.6482222914
 20
19.0004282732
  0
VERTEX
  8
___SYMBOL
 62
7
  6
CONTINUOUS
 10
30.6480670179
 20
19.0004575261
  0
VERTEX
  8
___SYMBOL
 62
7
  6
CONTINUOUS
 10
30.6479108527
 20
19.0004816038
  0
VERTEX
  8
___SYMBOL
 62
7
  6
CONTINUOUS
 10
30.6477539657
 20
19.0005005162
  0
VERTEX
  8
___SYMBOL
 62
7
  6
CONTINUOUS
 10
30.6475965266
 20
19.0005142731
  0
VERTEX
  8
___SYMBOL
 62
7
  6
CONTINUOUS
 10
30.6474387052
 20
19.0005228843
  0
VERTEX
  8
___SYMBOL
 62
7
  6
CONTINUOUS
 10
30.6472806714
 20
19.0005263598
  0
VERTEX
  8
___SYMBOL
 62
7
  6
CONTINUOUS
 10
30.6471225948
 20
19.0005247092
  0
VERTEX
  8
___SYMBOL
 62
7
  6
CONTINUOUS
 10
30.6469646454
 20
19.0005179425
  0
VERTEX
  8
___SYMBOL
 62
7
  6
CONTINUOUS
 10
30.6468069929
 20
19.0005060694
  0
VERTEX
  8
___SYMBOL
 62
7
  6
CONTINUOUS
 10
30.6466498071
 20
19.0004890999
  0
VERTEX
  8
___SYMBOL
 62
7
  6
CONTINUOUS
 10
30.6464932578
 20
19.0004670437
  0
VERTEX
  8
___SYMBOL
 62
7
  6
CONTINUOUS
 10
30.6463375148
 20
19.0004399106
  0
VERTEX
  8
___SYMBOL
 62
7
  6
CONTINUOUS
 10
30.6461827478
 20
19.0004077105
  0
VERTEX
  8
___SYMBOL
 62
7
  6
CONTINUOUS
 10
30.6460291267
 20
19.0003704532
  0
VERTEX
  8
___SYMBOL
 62
7
  6
CONTINUOUS
 10
30.6458768212
 20
19.0003281486
  0
VERTEX
  8
___SYMBOL
 62
7
  6
CONTINUOUS
 10
30.6457260012
 20
19.0002808064
  0
SEQEND
  0
POLYLINE
  8
___SYMBOL
 62
7
  6
CONTINUOUS
 66
1
 70
0
  0
VERTEX
  8
___SYMBOL
 62
7
  6
CONTINUOUS
 10
30.9573258785
 20
18.9962052153
  0
VERTEX
  8
___SYMBOL
 62
7
  6
CONTINUOUS
 10
30.9574060893
 20
18.996389785
  0
VERTEX
  8
___SYMBOL
 62
7
  6
CONTINUOUS
 10
30.9574801241
 20
18.9965769136
  0
VERTEX
  8
___SYMBOL
 62
7
  6
CONTINUOUS
 10
30.9575479477
 20
18.9967663874
  0
VERTEX
  8
___SYMBOL
 62
7
  6
CONTINUOUS
 10
30.9576095247
 20
18.996957993
  0
VERTEX
  8
___SYMBOL
 62
7
  6
CONTINUOUS
 10
30.95766482
 20
18.9971515166
  0
VERTEX
  8
___SYMBOL
 62
7
  6
CONTINUOUS
 10
30.9577137983
 20
18.9973467449
  0
VERTEX
  8
___SYMBOL
 62
7
  6
CONTINUOUS
 10
30.9577564242
 20
18.9975434641
  0
VERTEX
  8
___SYMBOL
 62
7
  6
CONTINUOUS
 10
30.9577926625
 20
18.9977414608
  0
VERTEX
  8
___SYMBOL
 62
7
  6
CONTINUOUS
 10
30.9578224779
 20
18.9979405213
  0
VERTEX
  8
___SYMBOL
 62
7
  6
CONTINUOUS
 10
30.9578458352
 20
18.998140432
  0
VERTEX
  8
___SYMBOL
 62
7
  6
CONTINUOUS
 10
30.9578626991
 20
18.9983409794
  0
VERTEX
  8
___SYMBOL
 62
7
  6
CONTINUOUS
 10
30.9578730342
 20
18.99854195
  0
VERTEX
  8
___SYMBOL
 62
7
  6
CONTINUOUS
 10
30.9578768054
 20
18.9987431301
  0
VERTEX
  8
___SYMBOL
 62
7
  6
CONTINUOUS
 10
30.9578739774
 20
18.9989443061
  0
VERTEX
  8
___SYMBOL
 62
7
  6
CONTINUOUS
 10
30.9578645148
 20
18.9991452646
  0
VERTEX
  8
___SYMBOL
 62
7
  6
CONTINUOUS
 10
30.9578483824
 20
18.9993457919
  0
VERTEX
  8
___SYMBOL
 62
7
  6
CONTINUOUS
 10
30.9578255636
 20
18.9995456759
  0
VERTEX
  8
___SYMBOL
 62
7
  6
CONTINUOUS
 10
30.9577961165
 20
18.9997447105
  0
VERTEX
  8
___SYMBOL
 62
7
  6
CONTINUOUS
 10
30.9577601176
 20
18.999942691
  0
VERTEX
  8
___SYMBOL
 62
7
  6
CONTINUOUS
 10
30.9577176439
 20
19.0001394129
  0
VERTEX
  8
___SYMBOL
 62
7
  6
CONTINUOUS
 10
30.9576687718
 20
19.0003346714
  0
VERTEX
  8
___SYMBOL
 62
7
  6
CONTINUOUS
 10
30.9576135782
 20
19.0005282619
  0
VERTEX
  8
___SYMBOL
 62
7
  6
CONTINUOUS
 10
30.9575521398
 20
19.0007199798
  0
VERTEX
  8
___SYMBOL
 62
7
  6
CONTINUOUS
 10
30.9574845332
 20
19.0009096204
  0
VERTEX
  8
___SYMBOL
 62
7
  6
CONTINUOUS
 10
30.9574108352
 20
19.0010969792
  0
VERTEX
  8
___SYMBOL
 62
7
  6
CONTINUOUS
 10
30.9573311225
 20
19.0012818513
  0
VERTEX
  8
___SYMBOL
 62
7
  6
CONTINUOUS
 10
30.9572454717
 20
19.0014640322
  0
VERTEX
  8
___SYMBOL
 62
7
  6
CONTINUOUS
 10
30.9571539596
 20
19.0016433173
  0
VERTEX
  8
___SYMBOL
 62
7
  6
CONTINUOUS
 10
30.9570566629
 20
19.0018195019
  0
VERTEX
  8
___SYMBOL
 62
7
  6
CONTINUOUS
 10
30.9569536582
 20
19.0019923813
  0
VERTEX
  8
___SYMBOL
 62
7
  6
CONTINUOUS
 10
30.9568450223
 20
19.002161751
  0
VERTEX
  8
___SYMBOL
 62
7
  6
CONTINUOUS
 10
30.956730832
 20
19.0023274062
  0
VERTEX
  8
___SYMBOL
 62
7
  6
CONTINUOUS
 10
30.9566111788
 20
19.0024891534
  0
VERTEX
  8
___SYMBOL
 62
7
  6
CONTINUOUS
 10
30.9564862148
 20
19.0026468438
  0
VERTEX
  8
___SYMBOL
 62
7
  6
CONTINUOUS
 10
30.956356107
 20
19.0028003395
  0
VERTEX
  8
___SYMBOL
 62
7
  6
CONTINUOUS
 10
30.9562210223
 20
19.0029495026
  0
VERTEX
  8
___SYMBOL
 62
7
  6
CONTINUOUS
 10
30.9560811277
 20
19.0030941955
  0
VERTEX
  8
___SYMBOL
 62
7
  6
CONTINUOUS
 10
30.9559365902
 20
19.0032342802
  0
VERTEX
  8
___SYMBOL
 62
7
  6
CONTINUOUS
 10
30.9557875767
 20
19.003369619
  0
VERTEX
  8
___SYMBOL
 62
7
  6
CONTINUOUS
 10
30.9556342543
 20
19.003500074
  0
VERTEX
  8
___SYMBOL
 62
7
  6
CONTINUOUS
 10
30.9554767899
 20
19.0036255075
  0
VERTEX
  8
___SYMBOL
 62
7
  6
CONTINUOUS
 10
30.9553153504
 20
19.0037457816
  0
VERTEX
  8
___SYMBOL
 62
7
  6
CONTINUOUS
 10
30.955150103
 20
19.0038607586
  0
VERTEX
  8
___SYMBOL
 62
7
  6
CONTINUOUS
 10
30.9549812145
 20
19.0039703006
  0
VERTEX
  8
___SYMBOL
 62
7
  6
CONTINUOUS
 10
30.9548088519
 20
19.0040742698
  0
VERTEX
  8
___SYMBOL
 62
7
  6
CONTINUOUS
 10
30.9546331822
 20
19.0041725284
  0
VERTEX
  8
___SYMBOL
 62
7
  6
CONTINUOUS
 10
30.9544543724
 20
19.0042649386
  0
VERTEX
  8
___SYMBOL
 62
7
  6
CONTINUOUS
 10
30.9542725894
 20
19.0043513625
  0
SEQEND
  0
LINE
  8
___SYMBOL
 62
7
  6
CONTINUOUS
 10
30.9593597311
 20
18.974820483
 11
30.9440897311
 21
18.976860483
  0
LINE
  8
___SYMBOL
 62
7
  6
CONTINUOUS
 10
30.9440897311
 20
18.976860483
 11
30.9379797311
 21
18.978890483
  0
LINE
  8
___SYMBOL
 62
7
  6
CONTINUOUS
 10
30.9379797311
 20
18.978890483
 11
30.9308497311
 21
18.978890483
  0
POLYLINE
  8
___SYMBOL
 62
7
  6
CONTINUOUS
 66
1
 70
0
  0
VERTEX
  8
___SYMBOL
 62
7
  6
CONTINUOUS
 10
31.0571197311
 20
19.428560483
  0
VERTEX
  8
___SYMBOL
 62
7
  6
CONTINUOUS
 10
31.0571885683
 20
19.4303301417
  0
VERTEX
  8
___SYMBOL
 62
7
  6
CONTINUOUS
 10
31.0571897565
 20
19.4321006489
  0
VERTEX
  8
___SYMBOL
 62
7
  6
CONTINUOUS
 10
31.0571237364
 20
19.4338703558
  0
VERTEX
  8
___SYMBOL
 62
7
  6
CONTINUOUS
 10
31.0569909487
 20
19.4356376141
  0
VERTEX
  8
___SYMBOL
 62
7
  6
CONTINUOUS
 10
31.0567918343
 20
19.4374007752
  0
VERTEX
  8
___SYMBOL
 62
7
  6
CONTINUOUS
 10
31.0565268338
 20
19.4391581906
  0
VERTEX
  8
___SYMBOL
 62
7
  6
CONTINUOUS
 10
31.0561963881
 20
19.4409082117
  0
VERTEX
  8
___SYMBOL
 62
7
  6
CONTINUOUS
 10
31.0558009377
 20
19.44264919
  0
VERTEX
  8
___SYMBOL
 62
7
  6
CONTINUOUS
 10
31.0553409235
 20
19.4443794769
  0
VERTEX
  8
___SYMBOL
 62
7
  6
CONTINUOUS
 10
31.0548167861
 20
19.446097424
  0
VERTEX
  8
___SYMBOL
 62
7
  6
CONTINUOUS
 10
31.0542289664
 20
19.4478013827
  0
VERTEX
  8
___SYMBOL
 62
7
  6
CONTINUOUS
 10
31.0535779051
 20
19.4494897044
  0
VERTEX
  8
___SYMBOL
 62
7
  6
CONTINUOUS
 10
31.0528640429
 20
19.4511607407
  0
VERTEX
  8
___SYMBOL
 62
7
  6
CONTINUOUS
 10
31.0520878205
 20
19.452812843
  0
VERTEX
  8
___SYMBOL
 62
7
  6
CONTINUOUS
 10
31.0512496787
 20
19.4544443627
  0
VERTEX
  8
___SYMBOL
 62
7
  6
CONTINUOUS
 10
31.0503500582
 20
19.4560536514
  0
VERTEX
  8
___SYMBOL
 62
7
  6
CONTINUOUS
 10
31.0493893998
 20
19.4576390605
  0
VERTEX
  8
___SYMBOL
 62
7
  6
CONTINUOUS
 10
31.048368304
 20
19.4591990062
  0
VERTEX
  8
___SYMBOL
 62
7
  6
CONTINUOUS
 10
31.0472880111
 20
19.4607321633
  0
VERTEX
  8
___SYMBOL
 62
7
  6
CONTINUOUS
 10
31.0461499211
 20
19.4622372713
  0
VERTEX
  8
___SYMBOL
 62
7
  6
CONTINUOUS
 10
31.0449554341
 20
19.4637130699
  0
VERTEX
  8
___SYMBOL
 62
7
  6
CONTINUOUS
 10
31.04370595
 20
19.4651582986
  0
VERTEX
  8
___SYMBOL
 62
7
  6
CONTINUOUS
 10
31.042402869
 20
19.4665716969
  0
VERTEX
  8
___SYMBOL
 62
7
  6
CONTINUOUS
 10
31.041047591
 20
19.4679520044
  0
VERTEX
  8
___SYMBOL
 62
7
  6
CONTINUOUS
 10
31.0396415162
 20
19.4692979606
  0
VERTEX
  8
___SYMBOL
 62
7
  6
CONTINUOUS
 10
31.0381860446
 20
19.4706083051
  0
VERTEX
  8
___SYMBOL
 62
7
  6
CONTINUOUS
 10
31.0366825762
 20
19.4718817775
  0
VERTEX
  8
___SYMBOL
 62
7
  6
CONTINUOUS
 10
31.0351325111
 20
19.4731171172
  0
VERTEX
  8
___SYMBOL
 62
7
  6
CONTINUOUS
 10
31.0335372493
 20
19.4743130639
  0
VERTEX
  8
___SYMBOL
 62
7
  6
CONTINUOUS
 10
31.0318981909
 20
19.4754683571
  0
VERTEX
  8
___SYMBOL
 62
7
  6
CONTINUOUS
 10
31.030216736
 20
19.4765817363
  0
VERTEX
  8
___SYMBOL
 62
7
  6
CONTINUOUS
 10
31.0284942845
 20
19.4776519412
  0
VERTEX
  8
___SYMBOL
 62
7
  6
CONTINUOUS
 10
31.0267322366
 20
19.4786777111
  0
VERTEX
  8
___SYMBOL
 62
7
  6
CONTINUOUS
 10
31.0249319922
 20
19.4796577858
  0
VERTEX
  8
___SYMBOL
 62
7
  6
CONTINUOUS
 10
31.0229761229
 20
19.4806492194
  0
VERTEX
  8
___SYMBOL
 62
7
  6
CONTINUOUS
 10
31.0209809552
 20
19.4815868652
  0
VERTEX
  8
___SYMBOL
 62
7
  6
CONTINUOUS
 10
31.0189488545
 20
19.4824701021
  0
VERTEX
  8
___SYMBOL
 62
7
  6
CONTINUOUS
 10
31.0168821858
 20
19.483298309
  0
VERTEX
  8
___SYMBOL
 62
7
  6
CONTINUOUS
 10
31.0147833142
 20
19.4840708646
  0
VERTEX
  8
___SYMBOL
 62
7
  6
CONTINUOUS
 10
31.0126546049
 20
19.4847871479
  0
VERTEX
  8
___SYMBOL
 62
7
  6
CONTINUOUS
 10
31.010498423
 20
19.4854465375
  0
VERTEX
  8
___SYMBOL
 62
7
  6
CONTINUOUS
 10
31.0083171337
 20
19.4860484125
  0
VERTEX
  8
___SYMBOL
 62
7
  6
CONTINUOUS
 10
31.0061131021
 20
19.4865921514
  0
VERTEX
  8
___SYMBOL
 62
7
  6
CONTINUOUS
 10
31.0038886933
 20
19.4870771333
  0
VERTEX
  8
___SYMBOL
 62
7
  6
CONTINUOUS
 10
31.0016462724
 20
19.4875027369
  0
VERTEX
  8
___SYMBOL
 62
7
  6
CONTINUOUS
 10
30.9993882047
 20
19.4878683411
  0
VERTEX
  8
___SYMBOL
 62
7
  6
CONTINUOUS
 10
30.9971168551
 20
19.4881733246
  0
VERTEX
  8
___SYMBOL
 62
7
  6
CONTINUOUS
 10
30.994834589
 20
19.4884170664
  0
VERTEX
  8
___SYMBOL
 62
7
  6
CONTINUOUS
 10
30.9931009467
 20
19.488560483
  0
SEQEND
  0
LINE
  8
___SYMBOL
 62
7
  6
CONTINUOUS
 10
30.2765897311
 20
19.021660483
 11
29.3435097311
 21
19.021660483
  0
LINE
  8
___SYMBOL
 62
7
  6
CONTINUOUS
 10
29.3435097311
 20
19.021660483
 11
29.3192697311
 21
19.130010483
  0
LINE
  8
___SYMBOL
 62
7
  6
CONTINUOUS
 10
29.3192697311
 20
19.130010483
 11
29.3720197311
 21
19.187040483
  0
LINE
  8
___SYMBOL
 62
7
  6
CONTINUOUS
 10
29.3720197311
 20
19.187040483
 11
29.3435097311
 21
19.303940483
  0
LINE
  8
___SYMBOL
 62
7
  6
CONTINUOUS
 10
29.3435097311
 20
19.303940483
 11
29.4162097311
 21
19.349560483
  0
LINE
  8
___SYMBOL
 62
7
  6
CONTINUOUS
 10
29.4162097311
 20
19.349560483
 11
29.4190597311
 21
19.442230483
  0
LINE
  8
___SYMBOL
 62
7
  6
CONTINUOUS
 10
29.4190597311
 20
19.442230483
 11
29.5103097311
 21
19.488560483
  0
LINE
  8
___SYMBOL
 62
7
  6
CONTINUOUS
 10
29.5103097311
 20
19.488560483
 11
30.9931009467
 21
19.488560483
  0
LINE
  8
___SYMBOL
 62
7
  6
CONTINUOUS
 10
30.3671097311
 20
19.021660483
 11
31.0571197311
 21
19.021660483
  0
LINE
  8
___SYMBOL
 62
7
  6
CONTINUOUS
 10
31.0571197311
 20
19.021660483
 11
31.0571197311
 21
19.428560483
  0
LINE
  8
___SYMBOL
 62
2
  6
CONTINUOUS
 10
31.0015197311
 20
19.021660483
 11
31.0571197311
 21
19.071560483
  0
LINE
  8
___SYMBOL
 62
2
  6
CONTINUOUS
 10
30.8140637896
 20
19.021660483
 11
31.0571197311
 21
19.239790483
  0
LINE
  8
___SYMBOL
 62
2
  6
CONTINUOUS
 10
30.7060417311
 20
19.021660483
 11
31.0571197311
 21
19.336730483
  0
LINE
  8
___SYMBOL
 62
2
  6
CONTINUOUS
 10
30.6059680174
 20
19.021660483
 11
31.0571197311
 21
19.426540483
  0
LINE
  8
___SYMBOL
 62
2
  6
CONTINUOUS
 10
30.4962699128
 20
19.021660483
 11
31.020626928
 21
19.4817458267
  0
LINE
  8
___SYMBOL
 62
2
  6
CONTINUOUS
 10
30.4191497311
 20
19.054910483
 11
30.9023648807
 21
19.488560483
  0
LINE
  8
___SYMBOL
 62
2
  6
CONTINUOUS
 10
30.4191497311
 20
19.161690483
 11
30.7833800459
 21
19.488560483
  0
LINE
  8
___SYMBOL
 62
2
  6
CONTINUOUS
 10
30.4191497311
 20
19.261880483
 11
30.671731739
 21
19.488560483
  0
LINE
  8
___SYMBOL
 62
2
  6
CONTINUOUS
 10
29.9323677314
 20
19.021660483
 11
30.2195597311
 21
19.2793957546
  0
LINE
  8
___SYMBOL
 62
2
  6
CONTINUOUS
 10
29.8207251911
 20
19.021660483
 11
30.3409817342
 21
19.488560483
  0
LINE
  8
___SYMBOL
 62
2
  6
CONTINUOUS
 10
29.7123794382
 20
19.021660483
 11
30.2326405967
 21
19.488560483
  0
LINE
  8
___SYMBOL
 62
2
  6
CONTINUOUS
 10
30.3331797311
 20
19.281970483
 11
30.5633780084
 21
19.488560483
  0
LINE
  8
___SYMBOL
 62
2
  6
CONTINUOUS
 10
30.1514645571
 20
19.021660483
 11
30.2195597311
 21
19.082770483
  0
LINE
  8
___SYMBOL
 62
2
  6
CONTINUOUS
 10
29.6030477314
 20
19.021660483
 11
30.1233100293
 21
19.488560483
  0
LINE
  8
___SYMBOL
 62
2
  6
CONTINUOUS
 10
29.4913887987
 20
19.021660483
 11
30.0121297311
 21
19.488980483
  0
LINE
  8
___SYMBOL
 62
2
  6
CONTINUOUS
 10
29.3830494382
 20
19.021660483
 11
29.9033105967
 21
19.488560483
  0
LINE
  8
___SYMBOL
 62
2
  6
CONTINUOUS
 10
29.3308866547
 20
19.0780841763
 11
29.7882800509
 21
19.488560483
  0
LINE
  8
___SYMBOL
 62
2
  6
CONTINUOUS
 10
29.3663869923
 20
19.21013649
 11
29.6766317298
 21
19.488560483
  0
LINE
  8
___SYMBOL
 62
2
  6
CONTINUOUS
 10
29.4162894316
 20
19.3521520075
 11
29.568290669
 21
19.488560483
  0
LINE
  8
___SYMBOL
 62
2
  6
CONTINUOUS
 10
30.5652797311
 20
18.914740483
 11
30.6116097311
 21
18.957510483
  0
LINE
  8
___SYMBOL
 62
2
  6
CONTINUOUS
 10
30.6199297311
 20
18.914740483
 11
30.6662597311
 21
18.957510483
  0
LINE
  8
___SYMBOL
 62
2
  6
CONTINUOUS
 10
30.6876397311
 20
18.914740483
 11
30.7339797311
 21
18.957510483
  0
LINE
  8
___SYMBOL
 62
2
  6
CONTINUOUS
 10
30.7470497311
 20
18.914740483
 11
30.7933797311
 21
18.957510483
  0
LINE
  8
___SYMBOL
 62
2
  6
CONTINUOUS
 10
30.8052597311
 20
18.914740483
 11
30.8515897311
 21
18.957510483
  0
LINE
  8
___SYMBOL
 62
2
  6
CONTINUOUS
 10
30.8622797311
 20
18.914740483
 11
30.9086197311
 21
18.957510483
  0
LINE
  8
___SYMBOL
 62
2
  6
CONTINUOUS
 10
30.9264397311
 20
18.914740483
 11
30.9697697813
 21
18.9547374524
  0
LINE
  8
___SYMBOL
 62
2
  6
CONTINUOUS
 10
31.012941463
 20
18.8689285267
 11
31.0444691258
 21
18.8980405328
  0
LINE
  8
___SYMBOL
 62
2
  6
CONTINUOUS
 10
31.0214797311
 20
18.804071858
 11
31.0618697311
 21
18.841360483
  0
LINE
  8
___SYMBOL
 62
2
  6
CONTINUOUS
 10
31.0214797311
 20
18.742020483
 11
31.0618697311
 21
18.779300483
  0
LINE
  8
___SYMBOL
 62
2
  6
CONTINUOUS
 10
31.0214797311
 20
18.671930483
 11
31.0618697311
 21
18.709210483
  0
LINE
  8
___SYMBOL
 62
2
  6
CONTINUOUS
 10
31.0214797311
 20
18.601830483
 11
31.0618697311
 21
18.639120483
  0
LINE
  8
___SYMBOL
 62
2
  6
CONTINUOUS
 10
31.0214797311
 20
18.525800483
 11
31.0618697311
 21
18.563080483
  0
LINE
  8
___SYMBOL
 62
2
  6
CONTINUOUS
 10
31.0214797311
 20
18.460460483
 11
31.0618697311
 21
18.497740483
  0
LINE
  8
___SYMBOL
 62
2
  6
CONTINUOUS
 10
31.0214797311
 20
18.393930483
 11
31.0618697311
 21
18.431210483
  0
LINE
  8
___SYMBOL
 62
2
  6
CONTINUOUS
 10
31.0214797311
 20
18.316710483
 11
31.0618697311
 21
18.353990483
  0
LINE
  8
___SYMBOL
 62
2
  6
CONTINUOUS
 10
31.0214797311
 20
18.247800483
 11
31.0618697311
 21
18.285080483
  0
LINE
  8
___SYMBOL
 62
2
  6
CONTINUOUS
 10
31.0214797311
 20
18.177710483
 11
31.0618697311
 21
18.214990483
  0
LINE
  8
___SYMBOL
 62
2
  6
CONTINUOUS
 10
31.0214797311
 20
18.1194974061
 11
31.0618697311
 21
18.156780483
  0
LINE
  8
___SYMBOL
 62
7
  6
CONTINUOUS
 10
30.2765897311
 20
18.769800483
 11
30.3671097311
 21
18.769800483
  0
LINE
  8
___SYMBOL
 62
2
  6
CONTINUOUS
 10
30.0432885728
 20
19.021660483
 11
30.2195597311
 21
19.179850483
  0
LINE
  8
___SYMBOL
 62
2
  6
CONTINUOUS
 10
30.2222838691
 20
19.281840483
 11
30.4526300293
 21
19.488560483
  0
LINE
  8
___SYMBOL
 62
7
  6
CONTINUOUS
 10
30.2195597311
 20
19.281840483
 11
30.2195597311
 21
19.021660483
  0
ENDBLK
  8
0
  6
BYBLOCK
 62
0
  0
BLOCK
  8
___SYMBOL
 62
2
  6
CONTINUOUS
  2
CUT-OUT_TEMPLATE_SKU_SIN_BL2
 70
64
 10
13.0365204319
 20
22.3547485408
  0
TEXT
  8
___SYMBOL
 62
2
  6
CONTINUOUS
 10
10.6365203466
 20
23.56929867
  7
STANDARD
 40
0.2500000089
  1
CUT-OUT TEMPLATE
 41
0.8
 72
0
  0
TEXT
  8
___SYMBOL
 62
2
  6
CONTINUOUS
 10
10.6365203466
 20
23.1942986567
  7
STANDARD
 40
0.2500000089
  1
UNDERCOUNTER SINK
 41
0.8
 72
0
  0
TEXT
  8
___SYMBOL
 62
2
  6
CONTINUOUS
 10
10.6365203466
 20
22.8192986433
  7
STANDARD
 40
0.2500000089
  1
PLANTILLA DE RECORTE
 41
0.8
 72
0
  0
TEXT
  8
___SYMBOL
 62
2
  6
CONTINUOUS
 10
10.6365203466
 20
22.44429863
  7
STANDARD
 40
0.2500000089
  1
FREGADERO MONTADO DEBAJO
 41
0.8
 72
0
  0
TEXT
  8
___SYMBOL
 62
2
  6
CONTINUOUS
 10
10.6365203466
 20
22.0692986167
  7
STANDARD
 40
0.2500000089
  1
  DEL MOSTRADOR
 41
0.8
 72
0
  0
TEXT
  8
___SYMBOL
 62
2
  6
CONTINUOUS
 10
10.6365203466
 20
21.6942986033
  7
STANDARD
 40
0.2500000089
  1
PLAN DE DÉCOUPE
 41
0.8
 72
0
  0
TEXT
  8
___SYMBOL
 62
2
  6
CONTINUOUS
 10
10.6365203466
 20
21.31929859
  7
STANDARD
 40
0.2500000089
  1
ÉVIER SOUS-COMPTOIR
 41
0.8
 72
0
  0
TEXT
  8
___SYMBOL
 62
2
  6
CONTINUOUS
 10
10.6365203466
 20
20.9442985767
  7
STANDARD
 40
0.2500000089
  1
UNDERTONE
 41
0.8
 72
0
  0
TEXT
  8
___SYMBOL
 62
2
  6
CONTINUOUS
 10
12.4365204106
 20
20.9442985767
  7
STANDARD
 40
0.2500000089
  1
   
 41
0.8
 72
0
  0
TEXT
  8
___SYMBOL
 62
2
  6
CONTINUOUS
 10
13.0365204319
 20
20.9442985767
  7
STANDARD
 40
0.2500000089
  1
3177
 41
0.8
 72
0
  0
TEXT
  8
___SYMBOL
 62
2
  6
CONTINUOUS
 10
13.8365204603
 20
20.9442985767
  7
STANDARD
 40
0.2500000089
  1
-**-
 41
0.8
 72
0
  0
TEXT
  8
___SYMBOL
 62
2
  6
CONTINUOUS
 10
14.6365204888
 20
20.9442985767
  7
STANDARD
 40
0.2500000089
  1
AA
 41
0.8
 72
0
  0
LINE
  8
___SYMBOL
 62
2
  6
CONTINUOUS
 10
11.1630921415
 20
24.6212119452
 11
10.949788682
 21
24.3675636633
  0
LINE
  8
___SYMBOL
 62
2
  6
CONTINUOUS
 10
10.9710303226
 20
24.6212119452
 11
11.1630921415
 21
24.6212119452
  0
LINE
  8
___SYMBOL
 62
2
  6
CONTINUOUS
 10
10.9710303226
 20
24.6212119452
 11
10.833266151
 21
24.4573907497
  0
LINE
  8
___SYMBOL
 62
2
  6
CONTINUOUS
 10
10.833266151
 20
24.6212119452
 11
10.833266151
 21
24.4573907497
  0
LINE
  8
___SYMBOL
 62
2
  6
CONTINUOUS
 10
10.6587659178
 20
24.6212119452
 11
10.833266151
 21
24.6212119452
  0
LINE
  8
___SYMBOL
 62
2
  6
CONTINUOUS
 10
10.6587659178
 20
24.6212119452
 11
10.6587659178
 21
24.0352742716
  0
LINE
  8
___SYMBOL
 62
2
  6
CONTINUOUS
 10
10.833266151
 20
24.035298275
 11
10.6587659178
 21
24.0352742716
  0
LINE
  8
___SYMBOL
 62
2
  6
CONTINUOUS
 10
10.833266151
 20
24.2367981162
 11
10.833266151
 21
24.035298275
  0
LINE
  8
___SYMBOL
 62
2
  6
CONTINUOUS
 10
10.9870040965
 20
24.035298275
 11
10.833266151
 21
24.2367981162
  0
LINE
  8
___SYMBOL
 62
2
  6
CONTINUOUS
 10
10.9870040965
 20
24.035298275
 11
11.2032965257
 21
24.035298275
  0
LINE
  8
___SYMBOL
 62
2
  6
CONTINUOUS
 10
11.2032965257
 20
24.035298275
 11
10.949788682
 21
24.3675636633
  0
SOLID
  8
___SYMBOL
 62
2
  6
CONTINUOUS
 10
10.833266151
 20
24.4573907497
 11
10.9710303226
 21
24.6212119452
 12
11.1630921415
 22
24.6212119452
 13
11.1630921415
 23
24.6212119452
  0
SOLID
  8
___SYMBOL
 62
2
  6
CONTINUOUS
 10
11.1630921415
 20
24.6212119452
 11
10.949788682
 21
24.3675636633
 12
10.833266151
 22
24.4573907497
 13
10.833266151
 23
24.4573907497
  0
SOLID
  8
___SYMBOL
 62
2
  6
CONTINUOUS
 10
10.833266151
 20
24.2367981162
 11
10.949788682
 21
24.3675636633
 12
10.9870040965
 22
24.035298275
 13
10.9870040965
 23
24.035298275
  0
SOLID
  8
___SYMBOL
 62
2
  6
CONTINUOUS
 10
10.949788682
 20
24.3675636633
 11
11.2032965257
 21
24.035298275
 12
10.9870040965
 22
24.035298275
 13
10.9870040965
 23
24.035298275
  0
SOLID
  8
___SYMBOL
 62
2
  6
CONTINUOUS
 10
10.833266151
 20
24.035298275
 11
10.6587659178
 21
24.0352742716
 12
10.833266151
 22
24.2367981162
 13
10.833266151
 23
24.2367981162
  0
SOLID
  8
___SYMBOL
 62
2
  6
CONTINUOUS
 10
10.949788682
 20
24.3675636633
 11
10.833266151
 21
24.2367981162
 12
10.833266151
 22
24.4573907497
 13
10.833266151
 23
24.4573907497
  0
SOLID
  8
___SYMBOL
 62
2
  6
CONTINUOUS
 10
10.833266151
 20
24.2367981162
 11
10.6587659178
 21
24.0352742716
 12
10.833266151
 22
24.4573907497
 13
10.833266151
 23
24.4573907497
  0
SOLID
  8
___SYMBOL
 62
2
  6
CONTINUOUS
 10
10.833266151
 20
24.4573907497
 11
10.6587659178
 21
24.0352742716
 12
10.833266151
 22
24.6212119452
 13
10.833266151
 23
24.6212119452
  0
SOLID
  8
___SYMBOL
 62
2
  6
CONTINUOUS
 10
10.6587659178
 20
24.0352742716
 11
10.6587659178
 21
24.6212119452
 12
10.833266151
 22
24.6212119452
 13
10.833266151
 23
24.6212119452
  0
CIRCLE
  8
___SYMBOL
 62
2
  6
CONTINUOUS
 10
11.3798053687
 20
24.3271338582
 40
0.2980566016
  0
CIRCLE
  8
___SYMBOL
 62
2
  6
CONTINUOUS
 10
11.3798053687
 20
24.3271338582
 40
0.1247694195
  0
SOLID
  8
___SYMBOL
 62
2
  6
CONTINUOUS
 10
11.2877008135
 20
24.6106025314
 11
11.3486499701
 21
24.6235576746
 12
11.4109607672
 22
24.6235576746
 13
11.4109607672
 23
24.6235576746
  0
SOLID
  8
___SYMBOL
 62
2
  6
CONTINUOUS
 10
11.4109607672
 20
24.6235576746
 11
11.4719099238
 21
24.6106025314
 12
11.2877008135
 22
24.6106025314
 13
11.2877008135
 23
24.6106025314
  0
SOLID
  8
___SYMBOL
 62
2
  6
CONTINUOUS
 10
11.2307770679
 20
24.585258447
 11
11.2877008135
 21
24.6106025314
 12
11.4719099238
 22
24.6106025314
 13
11.4719099238
 23
24.6106025314
  0
SOLID
  8
___SYMBOL
 62
2
  6
CONTINUOUS
 10
11.4719099238
 20
24.6106025314
 11
11.5288336694
 21
24.585258447
 12
11.2307770679
 22
24.585258447
 13
11.2307770679
 23
24.585258447
  0
SOLID
  8
___SYMBOL
 62
2
  6
CONTINUOUS
 10
11.1803665741
 20
24.5486330794
 11
11.2307770679
 21
24.585258447
 12
11.5288336694
 22
24.585258447
 13
11.5288336694
 23
24.585258447
  0
SOLID
  8
___SYMBOL
 62
2
  6
CONTINUOUS
 10
11.5288336694
 20
24.585258447
 11
11.5792441632
 21
24.5486330794
 12
11.1803665741
 22
24.5486330794
 13
11.1803665741
 23
24.5486330794
  0
SOLID
  8
___SYMBOL
 62
2
  6
CONTINUOUS
 10
11.1386725127
 20
24.502327133
 11
11.1803665741
 21
24.5486330794
 12
11.5792441632
 22
24.5486330794
 13
11.5792441632
 23
24.5486330794
  0
SOLID
  8
___SYMBOL
 62
2
  6
CONTINUOUS
 10
11.5792441632
 20
24.5486330794
 11
11.6209382246
 21
24.502327133
 12
11.1386725127
 22
24.502327133
 13
11.1386725127
 23
24.502327133
  0
SOLID
  8
___SYMBOL
 62
2
  6
CONTINUOUS
 10
11.3798053687
 20
24.4519032777
 11
11.1075171142
 21
24.4483643998
 12
11.6209382246
 22
24.502327133
 13
11.6209382246
 23
24.502327133
  0
SOLID
  8
___SYMBOL
 62
2
  6
CONTINUOUS
 10
11.1075171142
 20
24.4483643998
 11
11.1386725127
 21
24.502327133
 12
11.6209382246
 22
24.502327133
 13
11.6209382246
 23
24.502327133
  0
SOLID
  8
___SYMBOL
 62
2
  6
CONTINUOUS
 10
11.6209382246
 20
24.502327133
 11
11.6520936232
 21
24.4483643998
 12
11.3798053687
 22
24.4519032777
 13
11.3798053687
 23
24.4519032777
  0
SOLID
  8
___SYMBOL
 62
2
  6
CONTINUOUS
 10
11.3798053687
 20
24.4519032777
 11
11.3412494976
 21
24.4457966277
 12
11.1075171142
 22
24.4483643998
 13
11.1075171142
 23
24.4483643998
  0
SOLID
  8
___SYMBOL
 62
2
  6
CONTINUOUS
 10
11.4183612397
 20
24.4457966277
 11
11.3798053687
 21
24.4519032777
 12
11.6520936232
 22
24.4483643998
 13
11.6520936232
 23
24.4483643998
  0
SOLID
  8
___SYMBOL
 62
2
  6
CONTINUOUS
 10
11.2788647879
 20
24.4004714829
 11
11.0882620189
 21
24.3891033102
 12
11.3064677439
 22
24.428074439
 13
11.3064677439
 23
24.428074439
  0
SOLID
  8
___SYMBOL
 62
2
  6
CONTINUOUS
 10
11.3064677439
 20
24.428074439
 11
11.0882620189
 21
24.3891033102
 12
11.3412494976
 22
24.4457966277
 13
11.3412494976
 23
24.4457966277
  0
SOLID
  8
___SYMBOL
 62
2
  6
CONTINUOUS
 10
11.0882620189
 20
24.3891033102
 11
11.1075171142
 21
24.4483643998
 12
11.3412494976
 22
24.4457966277
 13
11.3412494976
 23
24.4457966277
  0
SOLID
  8
___SYMBOL
 62
2
  6
CONTINUOUS
 10
11.4183612397
 20
24.4457966277
 11
11.6520936232
 21
24.4483643998
 12
11.4531429934
 22
24.428074439
 13
11.4531429934
 23
24.428074439
  0
SOLID
  8
___SYMBOL
 62
2
  6
CONTINUOUS
 10
11.4531429934
 20
24.428074439
 11
11.6520936232
 21
24.4483643998
 12
11.4807459494
 22
24.4004714829
 13
11.4807459494
 23
24.4004714829
  0
SOLID
  8
___SYMBOL
 62
2
  6
CONTINUOUS
 10
11.6520936232
 20
24.4483643998
 11
11.6713487184
 21
24.3891033102
 12
11.4807459494
 22
24.4004714829
 13
11.4807459494
 23
24.4004714829
  0
SOLID
  8
___SYMBOL
 62
2
  6
CONTINUOUS
 10
11.2788647879
 20
24.4004714829
 11
11.2611425992
 21
24.3656897292
 12
11.0882620189
 22
24.3891033102
 13
11.0882620189
 23
24.3891033102
  0
SOLID
  8
___SYMBOL
 62
2
  6
CONTINUOUS
 10
11.4984681381
 20
24.3656897292
 11
11.4807459494
 21
24.4004714829
 12
11.6713487184
 22
24.3891033102
 13
11.6713487184
 23
24.3891033102
  0
SOLID
  8
___SYMBOL
 62
2
  6
CONTINUOUS
 10
11.0817487671
 20
24.3271338582
 11
11.0882620189
 21
24.3891033102
 12
11.2611425992
 22
24.3656897292
 13
11.2611425992
 23
24.3656897292
  0
SOLID
  8
___SYMBOL
 62
2
  6
CONTINUOUS
 10
11.2611425992
 20
24.3656897292
 11
11.2550359491
 21
24.3271338582
 12
11.0817487671
 22
24.3271338582
 13
11.0817487671
 23
24.3271338582
  0
SOLID
  8
___SYMBOL
 62
2
  6
CONTINUOUS
 10
11.4984681381
 20
24.3656897292
 11
11.6713487184
 21
24.3891033102
 12
11.5045747882
 22
24.3271338582
 13
11.5045747882
 23
24.3271338582
  0
SOLID
  8
___SYMBOL
 62
2
  6
CONTINUOUS
 10
11.6713487184
 20
24.3891033102
 11
11.6778619702
 21
24.3271338582
 12
11.5045747882
 22
24.3271338582
 13
11.5045747882
 23
24.3271338582
  0
SOLID
  8
___SYMBOL
 62
2
  6
CONTINUOUS
 10
11.4984681381
 20
24.2885779872
 11
11.5045747882
 21
24.3271338582
 12
11.6778619702
 22
24.3271338582
 13
11.6778619702
 23
24.3271338582
  0
SOLID
  8
___SYMBOL
 62
2
  6
CONTINUOUS
 10
11.2611425992
 20
24.2885779872
 11
11.0882620189
 21
24.2651644062
 12
11.2550359491
 22
24.3271338582
 13
11.2550359491
 23
24.3271338582
  0
SOLID
  8
___SYMBOL
 62
2
  6
CONTINUOUS
 10
11.0882620189
 20
24.2651644062
 11
11.0817487671
 21
24.3271338582
 12
11.2550359491
 22
24.3271338582
 13
11.2550359491
 23
24.3271338582
  0
SOLID
  8
___SYMBOL
 62
2
  6
CONTINUOUS
 10
11.6778619702
 20
24.3271338582
 11
11.6713487184
 21
24.2651644062
 12
11.4984681381
 22
24.2885779872
 13
11.4984681381
 23
24.2885779872
  0
SOLID
  8
___SYMBOL
 62
2
  6
CONTINUOUS
 10
11.2611425992
 20
24.2885779872
 11
11.2788647879
 21
24.2537962335
 12
11.0882620189
 22
24.2651644062
 13
11.0882620189
 23
24.2651644062
  0
SOLID
  8
___SYMBOL
 62
2
  6
CONTINUOUS
 10
11.4807459494
 20
24.2537962335
 11
11.4984681381
 21
24.2885779872
 12
11.6713487184
 22
24.2651644062
 13
11.6713487184
 23
24.2651644062
  0
SOLID
  8
___SYMBOL
 62
2
  6
CONTINUOUS
 10
11.3412494976
 20
24.2084710888
 11
11.1075171142
 21
24.2059033166
 12
11.3064677439
 22
24.2261932775
 13
11.3064677439
 23
24.2261932775
  0
SOLID
  8
___SYMBOL
 62
2
  6
CONTINUOUS
 10
11.3064677439
 20
24.2261932775
 11
11.1075171142
 21
24.2059033166
 12
11.2788647879
 22
24.2537962335
 13
11.2788647879
 23
24.2537962335
  0
SOLID
  8
___SYMBOL
 62
2
  6
CONTINUOUS
 10
11.1075171142
 20
24.2059033166
 11
11.0882620189
 21
24.2651644062
 12
11.2788647879
 22
24.2537962335
 13
11.2788647879
 23
24.2537962335
  0
SOLID
  8
___SYMBOL
 62
2
  6
CONTINUOUS
 10
11.4807459494
 20
24.2537962335
 11
11.6713487184
 21
24.2651644062
 12
11.4531429934
 22
24.2261932775
 13
11.4531429934
 23
24.2261932775
  0
SOLID
  8
___SYMBOL
 62
2
  6
CONTINUOUS
 10
11.4531429934
 20
24.2261932775
 11
11.6713487184
 21
24.2651644062
 12
11.4183612397
 22
24.2084710888
 13
11.4183612397
 23
24.2084710888
  0
SOLID
  8
___SYMBOL
 62
2
  6
CONTINUOUS
 10
11.6713487184
 20
24.2651644062
 11
11.6520936232
 21
24.2059033166
 12
11.4183612397
 22
24.2084710888
 13
11.4183612397
 23
24.2084710888
  0
SOLID
  8
___SYMBOL
 62
2
  6
CONTINUOUS
 10
11.3412494976
 20
24.2084710888
 11
11.3798053687
 21
24.2023644387
 12
11.1075171142
 22
24.2059033166
 13
11.1075171142
 23
24.2059033166
  0
SOLID
  8
___SYMBOL
 62
2
  6
CONTINUOUS
 10
11.3798053687
 20
24.2023644387
 11
11.4183612397
 21
24.2084710888
 12
11.6520936232
 22
24.2059033166
 13
11.6520936232
 23
24.2059033166
  0
SOLID
  8
___SYMBOL
 62
2
  6
CONTINUOUS
 10
11.1386725127
 20
24.1519405835
 11
11.1075171142
 21
24.2059033166
 12
11.3798053687
 22
24.2023644387
 13
11.3798053687
 23
24.2023644387
  0
SOLID
  8
___SYMBOL
 62
2
  6
CONTINUOUS
 10
11.3798053687
 20
24.2023644387
 11
11.6520936232
 21
24.2059033166
 12
11.1386725127
 22
24.1519405835
 13
11.1386725127
 23
24.1519405835
  0
SOLID
  8
___SYMBOL
 62
2
  6
CONTINUOUS
 10
11.6520936232
 20
24.2059033166
 11
11.6209382246
 21
24.1519405835
 12
11.1386725127
 22
24.1519405835
 13
11.1386725127
 23
24.1519405835
  0
SOLID
  8
___SYMBOL
 62
2
  6
CONTINUOUS
 10
11.1803665741
 20
24.1056346371
 11
11.1386725127
 21
24.1519405835
 12
11.6209382246
 22
24.1519405835
 13
11.6209382246
 23
24.1519405835
  0
SOLID
  8
___SYMBOL
 62
2
  6
CONTINUOUS
 10
11.6209382246
 20
24.1519405835
 11
11.5792441632
 21
24.1056346371
 12
11.1803665741
 22
24.1056346371
 13
11.1803665741
 23
24.1056346371
  0
SOLID
  8
___SYMBOL
 62
2
  6
CONTINUOUS
 10
11.2307770679
 20
24.0690092695
 11
11.1803665741
 21
24.1056346371
 12
11.5792441632
 22
24.1056346371
 13
11.5792441632
 23
24.1056346371
  0
SOLID
  8
___SYMBOL
 62
2
  6
CONTINUOUS
 10
11.5792441632
 20
24.1056346371
 11
11.5288336694
 21
24.0690092695
 12
11.2307770679
 22
24.0690092695
 13
11.2307770679
 23
24.0690092695
  0
SOLID
  8
___SYMBOL
 62
2
  6
CONTINUOUS
 10
11.2877008135
 20
24.0436651851
 11
11.2307770679
 21
24.0690092695
 12
11.5288336694
 22
24.0690092695
 13
11.5288336694
 23
24.0690092695
  0
SOLID
  8
___SYMBOL
 62
2
  6
CONTINUOUS
 10
11.5288336694
 20
24.0690092695
 11
11.4719099238
 21
24.0436651851
 12
11.2877008135
 22
24.0436651851
 13
11.2877008135
 23
24.0436651851
  0
SOLID
  8
___SYMBOL
 62
2
  6
CONTINUOUS
 10
11.3486499701
 20
24.0307100419
 11
11.2877008135
 21
24.0436651851
 12
11.4719099238
 22
24.0436651851
 13
11.4719099238
 23
24.0436651851
  0
SOLID
  8
___SYMBOL
 62
2
  6
CONTINUOUS
 10
11.4719099238
 20
24.0436651851
 11
11.4109607672
 21
24.0307100419
 12
11.3486499701
 22
24.0307100419
 13
11.3486499701
 23
24.0307100419
  0
LINE
  8
___SYMBOL
 62
2
  6
CONTINUOUS
 10
12.172441406
 20
24.6212119452
 11
12.172441406
 21
24.035298275
  0
LINE
  8
___SYMBOL
 62
2
  6
CONTINUOUS
 10
12.172441406
 20
24.035298275
 11
12.0077077203
 21
24.035298275
  0
LINE
  8
___SYMBOL
 62
2
  6
CONTINUOUS
 10
12.0077077203
 20
24.2636228929
 11
12.0077077203
 21
24.035298275
  0
LINE
  8
___SYMBOL
 62
2
  6
CONTINUOUS
 10
11.859710904
 20
24.2636228929
 11
12.0077077203
 21
24.2636228929
  0
LINE
  8
___SYMBOL
 62
2
  6
CONTINUOUS
 10
11.859710904
 20
24.2636228929
 11
11.859710904
 21
24.035298275
  0
LINE
  8
___SYMBOL
 62
2
  6
CONTINUOUS
 10
11.859710904
 20
24.035298275
 11
11.6949772182
 21
24.035298275
  0
LINE
  8
___SYMBOL
 62
2
  6
CONTINUOUS
 10
11.6949772182
 20
24.6212119452
 11
11.6949772182
 21
24.035298275
  0
LINE
  8
___SYMBOL
 62
2
  6
CONTINUOUS
 10
11.6949772182
 20
24.6212119452
 11
11.859710904
 21
24.6212119452
  0
LINE
  8
___SYMBOL
 62
2
  6
CONTINUOUS
 10
11.859710904
 20
24.6212119452
 11
11.859710904
 21
24.4008281777
  0
LINE
  8
___SYMBOL
 62
2
  6
CONTINUOUS
 10
11.859710904
 20
24.4008281777
 11
12.0077077203
 21
24.4008281777
  0
LINE
  8
___SYMBOL
 62
2
  6
CONTINUOUS
 10
12.0077077203
 20
24.6212119452
 11
12.0077077203
 21
24.4008281777
  0
LINE
  8
___SYMBOL
 62
2
  6
CONTINUOUS
 10
12.0077077203
 20
24.6212119452
 11
12.172441406
 21
24.6212119452
  0
SOLID
  8
___SYMBOL
 62
2
  6
CONTINUOUS
 10
12.0077077203
 20
24.4008281777
 11
12.0077077203
 21
24.6212119452
 12
12.172441406
 22
24.6212119452
 13
12.172441406
 23
24.6212119452
  0
SOLID
  8
___SYMBOL
 62
2
  6
CONTINUOUS
 10
12.0077077203
 20
24.4008281777
 11
11.859710904
 21
24.2636228929
 12
11.859710904
 22
24.4008281777
 13
11.859710904
 23
24.4008281777
  0
SOLID
  8
___SYMBOL
 62
2
  6
CONTINUOUS
 10
11.859710904
 20
24.2636228929
 11
11.6949772182
 21
24.035298275
 12
11.859710904
 22
24.4008281777
 13
11.859710904
 23
24.4008281777
  0
SOLID
  8
___SYMBOL
 62
2
  6
CONTINUOUS
 10
11.859710904
 20
24.4008281777
 11
11.6949772182
 21
24.035298275
 12
11.859710904
 22
24.6212119452
 13
11.859710904
 23
24.6212119452
  0
SOLID
  8
___SYMBOL
 62
2
  6
CONTINUOUS
 10
11.6949772182
 20
24.035298275
 11
11.6949772182
 21
24.6212119452
 12
11.859710904
 22
24.6212119452
 13
11.859710904
 23
24.6212119452
  0
SOLID
  8
___SYMBOL
 62
2
  6
CONTINUOUS
 10
11.859710904
 20
24.2636228929
 11
11.859710904
 21
24.035298275
 12
11.6949772182
 22
24.035298275
 13
11.6949772182
 23
24.035298275
  0
SOLID
  8
___SYMBOL
 62
2
  6
CONTINUOUS
 10
11.859710904
 20
24.2636228929
 11
12.0077077203
 21
24.4008281777
 12
12.0077077203
 22
24.2636228929
 13
12.0077077203
 23
24.2636228929
  0
SOLID
  8
___SYMBOL
 62
2
  6
CONTINUOUS
 10
12.0077077203
 20
24.4008281777
 11
12.172441406
 21
24.6212119452
 12
12.0077077203
 22
24.2636228929
 13
12.0077077203
 23
24.2636228929
  0
SOLID
  8
___SYMBOL
 62
2
  6
CONTINUOUS
 10
12.0077077203
 20
24.2636228929
 11
12.172441406
 21
24.6212119452
 12
12.0077077203
 22
24.035298275
 13
12.0077077203
 23
24.035298275
  0
SOLID
  8
___SYMBOL
 62
2
  6
CONTINUOUS
 10
12.172441406
 20
24.6212119452
 11
12.172441406
 21
24.035298275
 12
12.0077077203
 22
24.035298275
 13
12.0077077203
 23
24.035298275
  0
LINE
  8
___SYMBOL
 62
2
  6
CONTINUOUS
 10
12.3675323199
 20
24.035298275
 11
12.5302163957
 21
24.035298275
  0
LINE
  8
___SYMBOL
 62
2
  6
CONTINUOUS
 10
12.3675323199
 20
24.035298275
 11
12.2174862518
 21
24.035298275
  0
LINE
  8
___SYMBOL
 62
2
  6
CONTINUOUS
 10
12.2174862518
 20
24.035298275
 11
12.2174862518
 21
24.6212119452
  0
LINE
  8
___SYMBOL
 62
2
  6
CONTINUOUS
 10
12.2174862518
 20
24.6212119452
 11
12.3675323199
 21
24.6212119452
  0
LINE
  8
___SYMBOL
 62
2
  6
CONTINUOUS
 10
12.3675323199
 20
24.6212119452
 11
12.3675323199
 21
24.1765250372
  0
LINE
  8
___SYMBOL
 62
2
  6
CONTINUOUS
 10
12.3675323199
 20
24.1765250372
 11
12.5302163957
 21
24.1765250372
  0
LINE
  8
___SYMBOL
 62
2
  6
CONTINUOUS
 10
12.5302163957
 20
24.1765250372
 11
12.5302163957
 21
24.035298275
  0
SOLID
  8
___SYMBOL
 62
2
  6
CONTINUOUS
 10
12.5302163957
 20
24.1765250372
 11
12.2174862518
 21
24.035298275
 12
12.3675323199
 22
24.1765250372
 13
12.3675323199
 23
24.1765250372
  0
SOLID
  8
___SYMBOL
 62
2
  6
CONTINUOUS
 10
12.3675323199
 20
24.1765250372
 11
12.2174862518
 21
24.035298275
 12
12.3675323199
 22
24.6212119452
 13
12.3675323199
 23
24.6212119452
  0
SOLID
  8
___SYMBOL
 62
2
  6
CONTINUOUS
 10
12.2174862518
 20
24.035298275
 11
12.2174862518
 21
24.6212119452
 12
12.3675323199
 22
24.6212119452
 13
12.3675323199
 23
24.6212119452
  0
SOLID
  8
___SYMBOL
 62
2
  6
CONTINUOUS
 10
12.2174862518
 20
24.035298275
 11
12.5302163957
 21
24.1765250372
 12
12.3675323199
 22
24.035298275
 13
12.3675323199
 23
24.035298275
  0
SOLID
  8
___SYMBOL
 62
2
  6
CONTINUOUS
 10
12.5302163957
 20
24.1765250372
 11
12.5302163957
 21
24.035298275
 12
12.3675323199
 22
24.035298275
 13
12.3675323199
 23
24.035298275
  0
LINE
  8
___SYMBOL
 62
2
  6
CONTINUOUS
 10
12.8684683217
 20
24.256446571
 11
12.8684683217
 21
24.4008281777
  0
LINE
  8
___SYMBOL
 62
2
  6
CONTINUOUS
 10
12.7176107929
 20
24.4008281777
 11
12.8684683217
 21
24.4008281777
  0
LINE
  8
___SYMBOL
 62
2
  6
CONTINUOUS
 10
12.7176107929
 20
24.4784525434
 11
12.7176107929
 21
24.4008281777
  0
LINE
  8
___SYMBOL
 62
2
  6
CONTINUOUS
 10
12.7176107929
 20
24.4784525434
 11
12.8684683217
 21
24.4784525434
  0
LINE
  8
___SYMBOL
 62
2
  6
CONTINUOUS
 10
12.8684683217
 20
24.4784525434
 11
12.8684683217
 21
24.6212119452
  0
LINE
  8
___SYMBOL
 62
2
  6
CONTINUOUS
 10
12.7318151168
 20
24.6212119452
 11
12.8684683217
 21
24.6212119452
  0
LINE
  8
___SYMBOL
 62
2
  6
CONTINUOUS
 10
12.5593641354
 20
24.6212119452
 11
12.7318151168
 21
24.6212119452
  0
LINE
  8
___SYMBOL
 62
2
  6
CONTINUOUS
 10
12.5593641354
 20
24.035298275
 11
12.5593641354
 21
24.6212119452
  0
LINE
  8
___SYMBOL
 62
2
  6
CONTINUOUS
 10
12.5593641354
 20
24.035298275
 11
12.8684683217
 21
24.035298275
  0
LINE
  8
___SYMBOL
 62
2
  6
CONTINUOUS
 10
12.8684683217
 20
24.035298275
 11
12.8684683217
 21
24.1765250372
  0
LINE
  8
___SYMBOL
 62
2
  6
CONTINUOUS
 10
12.7176107929
 20
24.1765250372
 11
12.8684683217
 21
24.1765250372
  0
LINE
  8
___SYMBOL
 62
2
  6
CONTINUOUS
 10
12.7176107929
 20
24.256446571
 11
12.7176107929
 21
24.1765250372
  0
LINE
  8
___SYMBOL
 62
2
  6
CONTINUOUS
 10
12.7176107929
 20
24.256446571
 11
12.8684683217
 21
24.256446571
  0
SOLID
  8
___SYMBOL
 62
2
  6
CONTINUOUS
 10
12.8684683217
 20
24.6212119452
 11
12.8684683217
 21
24.4784525434
 12
12.7176107929
 22
24.4784525434
 13
12.7176107929
 23
24.4784525434
  0
SOLID
  8
___SYMBOL
 62
2
  6
CONTINUOUS
 10
12.8684683217
 20
24.4008281777
 11
12.8684683217
 21
24.256446571
 12
12.7176107929
 22
24.256446571
 13
12.7176107929
 23
24.256446571
  0
SOLID
  8
___SYMBOL
 62
2
  6
CONTINUOUS
 10
12.8684683217
 20
24.1765250372
 11
12.5593641354
 21
24.035298275
 12
12.7176107929
 22
24.1765250372
 13
12.7176107929
 23
24.1765250372
  0
SOLID
  8
___SYMBOL
 62
2
  6
CONTINUOUS
 10
12.7176107929
 20
24.1765250372
 11
12.5593641354
 21
24.035298275
 12
12.7176107929
 22
24.256446571
 13
12.7176107929
 23
24.256446571
  0
SOLID
  8
___SYMBOL
 62
2
  6
CONTINUOUS
 10
12.8684683217
 20
24.4008281777
 11
12.7176107929
 21
24.256446571
 12
12.7176107929
 22
24.4008281777
 13
12.7176107929
 23
24.4008281777
  0
SOLID
  8
___SYMBOL
 62
2
  6
CONTINUOUS
 10
12.7176107929
 20
24.256446571
 11
12.5593641354
 21
24.035298275
 12
12.7176107929
 22
24.4008281777
 13
12.7176107929
 23
24.4008281777
  0
SOLID
  8
___SYMBOL
 62
2
  6
CONTINUOUS
 10
12.7176107929
 20
24.4008281777
 11
12.5593641354
 21
24.035298275
 12
12.7176107929
 22
24.4784525434
 13
12.7176107929
 23
24.4784525434
  0
SOLID
  8
___SYMBOL
 62
2
  6
CONTINUOUS
 10
12.8684683217
 20
24.6212119452
 11
12.7176107929
 21
24.4784525434
 12
12.7318151168
 22
24.6212119452
 13
12.7318151168
 23
24.6212119452
  0
SOLID
  8
___SYMBOL
 62
2
  6
CONTINUOUS
 10
12.7176107929
 20
24.4784525434
 11
12.5593641354
 21
24.035298275
 12
12.7318151168
 22
24.6212119452
 13
12.7318151168
 23
24.6212119452
  0
SOLID
  8
___SYMBOL
 62
2
  6
CONTINUOUS
 10
12.5593641354
 20
24.035298275
 11
12.5593641354
 21
24.6212119452
 12
12.7318151168
 22
24.6212119452
 13
12.7318151168
 23
24.6212119452
  0
SOLID
  8
___SYMBOL
 62
2
  6
CONTINUOUS
 10
12.8684683217
 20
24.1765250372
 11
12.8684683217
 21
24.035298275
 12
12.5593641354
 22
24.035298275
 13
12.5593641354
 23
24.035298275
  0
LINE
  8
___SYMBOL
 62
2
  6
CONTINUOUS
 10
13.3787187458
 20
24.035298275
 11
13.2192754972
 21
24.2868808252
  0
ARC
  8
___SYMBOL
 62
2
  6
CONTINUOUS
 10
13.146836247
 20
24.4462024283
 40
0.1750166225
 50
294.4500166359
 51
90.0
  0
LINE
  8
___SYMBOL
 62
2
  6
CONTINUOUS
 10
12.913288538
 20
24.6212119452
 11
13.146836247
 21
24.6212119452
  0
LINE
  8
___SYMBOL
 62
2
  6
CONTINUOUS
 10
12.913288538
 20
24.035298275
 11
12.913288538
 21
24.6212119452
  0
LINE
  8
___SYMBOL
 62
2
  6
CONTINUOUS
 10
12.913288538
 20
24.035298275
 11
13.0639443659
 21
24.035298275
  0
LINE
  8
___SYMBOL
 62
2
  6
CONTINUOUS
 10
13.0639443659
 20
24.2322546528
 11
13.0639443659
 21
24.035298275
  0
LINE
  8
___SYMBOL
 62
2
  6
CONTINUOUS
 10
13.1887677995
 20
24.035298275
 11
13.0639443659
 21
24.2322546528
  0
LINE
  8
___SYMBOL
 62
2
  6
CONTINUOUS
 10
13.1887677995
 20
24.035298275
 11
13.3787187458
 21
24.035298275
  0
LINE
  8
___SYMBOL
 62
2
  6
CONTINUOUS
 10
13.0639443659
 20
24.3715299685
 11
13.116284118
 21
24.3715299685
  0
ARC
  8
___SYMBOL
 62
2
  6
CONTINUOUS
 10
13.1198741474
 20
24.4250213699
 40
0.0536117369
 50
266.1604009902
 51
89.9998910512
  0
LINE
  8
___SYMBOL
 62
2
  6
CONTINUOUS
 10
13.1198742494
 20
24.4786331068
 11
13.0639443659
 21
24.4786331068
  0
LINE
  8
___SYMBOL
 62
2
  6
CONTINUOUS
 10
13.0639443659
 20
24.4786331068
 11
13.0639443659
 21
24.3715299685
  0
SOLID
  8
___SYMBOL
 62
2
  6
CONTINUOUS
 10
13.146836247
 20
24.6212190508
 11
13.1937692722
 21
24.6148088022
 12
12.913288538
 22
24.6212119452
 13
12.913288538
 23
24.6212119452
  0
SOLID
  8
___SYMBOL
 62
2
  6
CONTINUOUS
 10
13.0639443659
 20
24.4786331068
 11
13.317884116
 21
24.4832624425
 12
13.1198742494
 22
24.4786331068
 13
13.1198742494
 23
24.4786331068
  0
SOLID
  8
___SYMBOL
 62
2
  6
CONTINUOUS
 10
13.1198742494
 20
24.4786331068
 11
13.317884116
 21
24.4832624425
 12
13.1435968318
 22
24.4730989383
 13
13.1435968318
 23
24.4730989383
  0
SOLID
  8
___SYMBOL
 62
2
  6
CONTINUOUS
 10
13.1435968318
 20
24.4730989383
 11
13.317884116
 21
24.4832624425
 12
13.1624218201
 22
24.4576390627
 13
13.1624218201
 23
24.4576390627
  0
SOLID
  8
___SYMBOL
 62
2
  6
CONTINUOUS
 10
13.317884116
 20
24.4832624425
 11
13.3215573626
 21
24.436036312
 12
13.1624218201
 22
24.4576390627
 13
13.1624218201
 23
24.4576390627
  0
SOLID
  8
___SYMBOL
 62
2
  6
CONTINUOUS
 10
13.1724627591
 20
24.4354452013
 11
13.1624218201
 21
24.4576390627
 12
13.3215573626
 22
24.436036312
 13
13.3215573626
 23
24.436036312
  0
SOLID
  8
___SYMBOL
 62
2
  6
CONTINUOUS
 10
13.1724627591
 20
24.4354452013
 11
13.3215573626
 21
24.436036312
 12
13.1716466773
 22
24.4110993197
 13
13.1716466773
 23
24.4110993197
  0
SOLID
  8
___SYMBOL
 62
2
  6
CONTINUOUS
 10
13.1716466773
 20
24.4110993197
 11
13.3215573626
 21
24.436036312
 12
13.1601420566
 22
24.3896276724
 13
13.1601420566
 23
24.3896276724
  0
SOLID
  8
___SYMBOL
 62
2
  6
CONTINUOUS
 10
13.3215573626
 20
24.436036312
 11
13.3124317586
 21
24.3895548803
 12
13.1601420566
 22
24.3896276724
 13
13.1601420566
 23
24.3896276724
  0
SOLID
  8
___SYMBOL
 62
2
  6
CONTINUOUS
 10
13.1403240481
 20
24.3754631224
 11
13.1601420566
 21
24.3896276724
 12
13.3124317586
 22
24.3895548803
 13
13.3124317586
 23
24.3895548803
  0
SOLID
  8
___SYMBOL
 62
2
  6
CONTINUOUS
 10
13.1403240481
 20
24.3754631224
 11
13.3124317586
 21
24.3895548803
 12
13.116284118
 22
24.3715299685
 13
13.116284118
 23
24.3715299685
  0
SOLID
  8
___SYMBOL
 62
2
  6
CONTINUOUS
 10
13.3124317586
 20
24.3895548803
 11
13.2911757822
 21
24.3472230529
 12
13.116284118
 22
24.3715299685
 13
13.116284118
 23
24.3715299685
  0
SOLID
  8
___SYMBOL
 62
2
  6
CONTINUOUS
 10
13.2192754972
 20
24.2868808252
 11
13.0639443659
 21
24.2322546528
 12
13.2593464979
 22
24.3121417644
 13
13.2593464979
 23
24.3121417644
  0
SOLID
  8
___SYMBOL
 62
2
  6
CONTINUOUS
 10
13.2593464979
 20
24.3121417644
 11
13.0639443659
 21
24.2322546528
 12
13.2911757822
 22
24.3472230529
 13
13.2911757822
 23
24.3472230529
  0
SOLID
  8
___SYMBOL
 62
2
  6
CONTINUOUS
 10
13.2911757822
 20
24.3472230529
 11
13.0639443659
 21
24.2322546528
 12
13.116284118
 22
24.3715299685
 13
13.116284118
 23
24.3715299685
  0
SOLID
  8
___SYMBOL
 62
2
  6
CONTINUOUS
 10
13.0639443659
 20
24.2322546528
 11
12.913288538
 21
24.035298275
 12
13.116284118
 22
24.3715299685
 13
13.116284118
 23
24.3715299685
  0
SOLID
  8
___SYMBOL
 62
2
  6
CONTINUOUS
 10
13.116284118
 20
24.3715299685
 11
12.913288538
 21
24.035298275
 12
13.0639443659
 22
24.3715299685
 13
13.0639443659
 23
24.3715299685
  0
SOLID
  8
___SYMBOL
 62
2
  6
CONTINUOUS
 10
13.0639443659
 20
24.3715299685
 11
12.913288538
 21
24.035298275
 12
13.0639443659
 22
24.4786331068
 13
13.0639443659
 23
24.4786331068
  0
SOLID
  8
___SYMBOL
 62
2
  6
CONTINUOUS
 10
13.317884116
 20
24.4832624425
 11
13.0639443659
 21
24.4786331068
 12
13.3016810953
 22
24.5277738148
 13
13.3016810953
 23
24.5277738148
  0
SOLID
  8
___SYMBOL
 62
2
  6
CONTINUOUS
 10
13.3016810953
 20
24.5277738148
 11
13.0639443659
 21
24.4786331068
 12
13.2741352208
 22
24.5663098361
 13
13.2741352208
 23
24.5663098361
  0
SOLID
  8
___SYMBOL
 62
2
  6
CONTINUOUS
 10
13.2741352208
 20
24.5663098361
 11
13.0639443659
 21
24.4786331068
 12
13.2372643112
 22
24.5960476263
 13
13.2372643112
 23
24.5960476263
  0
SOLID
  8
___SYMBOL
 62
2
  6
CONTINUOUS
 10
13.2372643112
 20
24.5960476263
 11
13.0639443659
 21
24.4786331068
 12
13.1937692722
 22
24.6148088022
 13
13.1937692722
 23
24.6148088022
  0
SOLID
  8
___SYMBOL
 62
2
  6
CONTINUOUS
 10
13.1937692722
 20
24.6148088022
 11
13.0639443659
 21
24.4786331068
 12
12.913288538
 22
24.6212119452
 13
12.913288538
 23
24.6212119452
  0
SOLID
  8
___SYMBOL
 62
2
  6
CONTINUOUS
 10
12.913288538
 20
24.035298275
 11
12.913288538
 21
24.6212119452
 12
13.0639443659
 22
24.4786331068
 13
13.0639443659
 23
24.4786331068
  0
SOLID
  8
___SYMBOL
 62
2
  6
CONTINUOUS
 10
13.0639443659
 20
24.2322546528
 11
13.0639443659
 21
24.035298275
 12
12.913288538
 22
24.035298275
 13
12.913288538
 23
24.035298275
  0
SOLID
  8
___SYMBOL
 62
2
  6
CONTINUOUS
 10
13.0639443659
 20
24.2322546528
 11
13.2192754972
 21
24.2868808252
 12
13.1887677995
 22
24.035298275
 13
13.1887677995
 23
24.035298275
  0
SOLID
  8
___SYMBOL
 62
2
  6
CONTINUOUS
 10
13.2192754972
 20
24.2868808252
 11
13.3787187458
 21
24.035298275
 12
13.1887677995
 22
24.035298275
 13
13.1887677995
 23
24.035298275
  0
CIRCLE
  8
___SYMBOL
 62
2
  6
CONTINUOUS
 10
13.5194887255
 20
24.035298275
 40
0.0653578744
  0
LINE
  8
___SYMBOL
 62
2
  6
CONTINUOUS
 10
13.5152007021
 20
24.0347605256
 11
13.547068716
 21
24.0024575831
  0
LINE
  8
___SYMBOL
 62
2
  6
CONTINUOUS
 10
13.5036027255
 20
24.0024575831
 11
13.5036027255
 21
24.0684237843
  0
LINE
  8
___SYMBOL
 62
2
  6
CONTINUOUS
 10
13.5036027255
 20
24.0684237843
 11
13.5278820593
 21
24.0684237843
  0
ARC
  8
___SYMBOL
 62
2
  6
CONTINUOUS
 10
13.5278820593
 20
24.0515923341
 40
0.0168314502
 50
270.0
 51
90.0
  0
LINE
  8
___SYMBOL
 62
2
  6
CONTINUOUS
 10
13.5278820593
 20
24.0347605256
 11
13.5036027255
 21
24.0347605256
  0
TEXT
  8
___SYMBOL
 62
2
  6
CONTINUOUS
 10
10.6442596622
 20
20.0843066218
  7
STANDARD
 40
0.2500000089
  1
UNDERTONE
 41
0.8
 72
0
  0
TEXT
  8
___SYMBOL
 62
2
  6
CONTINUOUS
 10
12.4442597262
 20
20.0843066218
  7
STANDARD
 40
0.2500000089
  1
   
 41
0.8
 72
0
  0
TEXT
  8
___SYMBOL
 62
2
  6
CONTINUOUS
 10
13.0442597475
 20
20.0843066218
  7
STANDARD
 40
0.2500000089
  1
3353
 41
0.8
 72
0
  0
TEXT
  8
___SYMBOL
 62
2
  6
CONTINUOUS
 10
13.844259776
 20
20.0843066218
  7
STANDARD
 40
0.2500000089
  1
-**-
 41
0.8
 72
0
  0
TEXT
  8
___SYMBOL
 62
2
  6
CONTINUOUS
 10
14.6442598044
 20
20.0843066218
  7
STANDARD
 40
0.2500000089
  1
AB
 41
0.8
 72
0
  0
ENDBLK
  8
0
  6
BYBLOCK
 62
0
  0
BLOCK
  8
___SYMBOL
 62
2
  6
CONTINUOUS
  2
COPYRIGHT_YEAR_BL3
 70
64
 10
34.8145323518
 20
8.7182596449
  0
TEXT
  8
___SYMBOL
 62
2
  6
CONTINUOUS
 10
34.4408420483
 20
8.6829861449
  7
STANDARD
 40
0.0704997506
  1
2004
 41
0.8
 72
0
  0
TEXT
  8
___SYMBOL
 62
2
  6
CONTINUOUS
 10
34.6664412502
 20
8.6829861449
  7
STANDARD
 40
0.0704997506
  1
 KOHLER CO.
 41
0.8
 72
0
  0
TEXT
  8
___SYMBOL
 62
7
  6
CONTINUOUS
 10
34.3608165824
 20
8.6994710868
  7
TEXTSTYLE_1
 40
0.0421873503
  1
C
 41
1.0
 72
0
  0
CIRCLE
  8
___SYMBOL
 62
7
  6
CONTINUOUS
 10
34.3750515318
 20
8.7207072614
 40
0.0328258835
  0
ENDBLK
  8
0
  6
BYBLOCK
 62
0
  0
BLOCK
  8
___SYMBOL
 62
2
  6
CONTINUOUS
  2
PACKAGING_UPC_BL4
 70
64
 10
13.4095600242
 20
12.5609053839
  0
TEXT
  8
___SYMBOL
 62
7
  6
CONTINUOUS
 10
11.8755591359
 20
13.0879086852
  7
TEXTSTYLE_2
 40
0.0593587494
  1
XXXXX-XX-X-XX
 41
0.8258950223
 72
0
  0
TEXT
  8
___SYMBOL
 62
7
  6
CONTINUOUS
 10
13.5095391199
 20
12.9587436865
  7
TEXTSTYLE_3
 40
0.0445192496
  1
xxxxxx-xx
 41
0.6740211631
 72
0
  0
TEXT
  8
___SYMBOL
 62
2
  6
CONTINUOUS
 10
10.7452148383
 20
14.63153735
  7
STANDARD
 40
0.1562500055
  1
PACKAGING/UPC LABEL ON BOX
 41
0.8
 72
0
  0
TEXT
  8
___SYMBOL
 62
2
  6
CONTINUOUS
 10
10.7452148383
 20
14.3971623417
  7
STANDARD
 40
0.1562500055
  1
ETIQUETA DE EMBALAJE/UPC EN LA CAJA
 41
0.8
 72
0
  0
TEXT
  8
___SYMBOL
 62
2
  6
CONTINUOUS
 10
10.7452148383
 20
14.1627873403
  7
STANDARD
 40
0.1562500003
  1
ETIQUETTE D'EMBALLAGE/UPC SUR LA BOÎTE
 41
0.7999999985
 72
0
  0
TEXT
  8
___SYMBOL
 62
2
  6
CONTINUOUS
 10
10.7220599291
 20
12.4433984301
  7
STANDARD
 40
0.1562500055
  1
The template and the label suffixes circled
 41
0.8
 72
0
  0
TEXT
  8
___SYMBOL
 62
2
  6
CONTINUOUS
 10
10.7220599291
 20
12.2090234218
  7
STANDARD
 40
0.1562500055
  1
must match for proper cut-out.
 41
0.8
 72
0
  0
TEXT
  8
___SYMBOL
 62
2
  6
CONTINUOUS
 10
10.7220599291
 20
11.9746484205
  7
STANDARD
 40
0.1562500003
  1
 
 41
0.7999999985
 72
0
  0
TEXT
  8
___SYMBOL
 62
2
  6
CONTINUOUS
 10
10.7220599291
 20
11.7402734136
  7
STANDARD
 40
0.1562500055
  1
A fin de realizar el corte apropiado, la
 41
0.8
 72
0
  0
TEXT
  8
___SYMBOL
 62
2
  6
CONTINUOUS
 10
10.7220599291
 20
11.5058984122
  7
STANDARD
 40
0.1562500003
  1
plantilla y los sufijos de la etiqueta
 41
0.7999999985
 72
0
  0
TEXT
  8
___SYMBOL
 62
2
  6
CONTINUOUS
 10
10.7220599291
 20
11.2715234122
  7
STANDARD
 40
0.1562500003
  1
demarcados deben concordar.
 41
0.7999999985
 72
0
  0
TEXT
  8
___SYMBOL
 62
2
  6
CONTINUOUS
 10
10.7220599291
 20
11.0371484122
  7
STANDARD
 40
0.1562500003
  1
 
 41
0.7999999985
 72
0
  0
TEXT
  8
___SYMBOL
 62
2
  6
CONTINUOUS
 10
10.7220599291
 20
10.8027734122
  7
STANDARD
 40
0.1562500003
  1
Afin de découper l'ouverture correctement,
 41
0.7999999985
 72
0
  0
TEXT
  8
___SYMBOL
 62
2
  6
CONTINUOUS
 10
10.7220599291
 20
10.5683984122
  7
STANDARD
 40
0.1562500003
  1
le gabarit et les suffixes encerclés
 41
0.7999999985
 72
0
  0
TEXT
  8
___SYMBOL
 62
2
  6
CONTINUOUS
 10
10.7220599291
 20
10.3340234122
  7
STANDARD
 40
0.1562500003
  1
doivent correspondre
 41
0.7999999985
 72
0
  0
LINE
  8
___SYMBOL
 62
7
  6
CONTINUOUS
 10
13.8643641164
 20
12.9320136867
 11
11.6793216378
 21
12.9320136867
  0
LINE
  8
___SYMBOL
 62
7
  6
CONTINUOUS
 10
11.6793216378
 20
12.9320136867
 11
11.6793216378
 21
13.9250436771
  0
LINE
  8
___SYMBOL
 62
7
  6
CONTINUOUS
 10
11.6793216378
 20
13.9250436771
 11
13.8643641164
 21
13.9250436771
  0
LINE
  8
___SYMBOL
 62
7
  6
CONTINUOUS
 10
13.8643641164
 20
13.9250436771
 11
13.8643641164
 21
12.9320136867
  0
LINE
  8
___SYMBOL
 62
7
  6
CONTINUOUS
 10
11.6459541381
 20
13.9575036767
 11
13.8985191161
 21
13.9575036767
  0
LINE
  8
___SYMBOL
 62
7
  6
CONTINUOUS
 10
13.8985191161
 20
13.9575036767
 11
13.8985191161
 21
12.8645961874
  0
LINE
  8
___SYMBOL
 62
7
  6
CONTINUOUS
 10
13.8985191161
 20
12.8645961874
 11
11.6459541381
 21
12.8645961874
  0
LINE
  8
___SYMBOL
 62
7
  6
CONTINUOUS
 10
11.6459541381
 20
12.8645961874
 11
11.6459541381
 21
13.9575036767
  0
LINE
  8
___SYMBOL
 62
7
  6
CONTINUOUS
 10
13.6591791184
 20
13.3636836825
 11
13.6591791184
 21
13.2420486837
  0
LINE
  8
___SYMBOL
 62
7
  6
CONTINUOUS
 10
13.6591791184
 20
13.2420486837
 11
13.3162266218
 21
13.2420486837
  0
LINE
  8
___SYMBOL
 62
7
  6
CONTINUOUS
 10
13.3162266218
 20
13.2420486837
 11
13.3162266218
 21
13.3636836825
  0
LINE
  8
___SYMBOL
 62
7
  6
CONTINUOUS
 10
13.3162266218
 20
13.3636836825
 11
13.6591791184
 21
13.3636836825
  0
SOLID
  8
___SYMBOL
 62
7
  6
CONTINUOUS
 10
13.3162266218
 20
13.2420486746
 11
13.3162266218
 21
13.3636836749
 12
13.6591791184
 22
13.3636836749
 13
13.6591791184
 23
13.3636836749
  0
SOLID
  8
___SYMBOL
 62
7
  6
CONTINUOUS
 10
13.6591791184
 20
13.3636836749
 11
13.6591791184
 21
13.2420486746
 12
13.3162266218
 22
13.2420486746
 13
13.3162266218
 23
13.2420486746
  0
LINE
  8
___SYMBOL
 62
7
  6
CONTINUOUS
 10
12.5837241289
 20
13.3636836825
 11
12.5837241289
 21
13.2420486837
  0
LINE
  8
___SYMBOL
 62
7
  6
CONTINUOUS
 10
12.5837241289
 20
13.2420486837
 11
11.7280191373
 21
13.2420486837
  0
LINE
  8
___SYMBOL
 62
7
  6
CONTINUOUS
 10
11.7280191373
 20
13.2420486837
 11
11.7280191373
 21
13.3636836825
  0
LINE
  8
___SYMBOL
 62
7
  6
CONTINUOUS
 10
11.7280191373
 20
13.3636836825
 11
12.5837241289
 21
13.3636836825
  0
SOLID
  8
___SYMBOL
 62
7
  6
CONTINUOUS
 10
11.7280191373
 20
13.2420486746
 11
11.7280191373
 21
13.3636836749
 12
12.5837241289
 22
13.3636836749
 13
12.5837241289
 23
13.3636836749
  0
SOLID
  8
___SYMBOL
 62
7
  6
CONTINUOUS
 10
12.5837241289
 20
13.3636836749
 11
12.5837241289
 21
13.2420486746
 12
11.7280191373
 22
13.2420486746
 13
11.7280191373
 23
13.2420486746
  0
LINE
  8
___SYMBOL
 62
7
  6
CONTINUOUS
 10
12.5837241289
 20
12.9904161862
 11
12.5837241289
 21
12.9554361865
  0
LINE
  8
___SYMBOL
 62
7
  6
CONTINUOUS
 10
12.5837241289
 20
12.9554361865
 11
11.7280191373
 21
12.9554361865
  0
LINE
  8
___SYMBOL
 62
7
  6
CONTINUOUS
 10
11.7280191373
 20
12.9554361865
 11
11.7280191373
 21
12.9904161862
  0
LINE
  8
___SYMBOL
 62
7
  6
CONTINUOUS
 10
11.7280191373
 20
12.9904161862
 11
12.5837241289
 21
12.9904161862
  0
SOLID
  8
___SYMBOL
 62
7
  6
CONTINUOUS
 10
11.7280191373
 20
12.9554361881
 11
11.7280191373
 21
12.9904161702
 12
12.5837241289
 22
12.9904161702
 13
12.5837241289
 23
12.9904161702
  0
SOLID
  8
___SYMBOL
 62
7
  6
CONTINUOUS
 10
12.5837241289
 20
12.9904161702
 11
12.5837241289
 21
12.9554361881
 12
11.7280191373
 22
12.9554361881
 13
11.7280191373
 23
12.9554361881
  0
POLYLINE
  8
___SYMBOL
 62
7
  6
CONTINUOUS
 66
1
 70
0
  0
VERTEX
  8
___SYMBOL
 62
7
  6
CONTINUOUS
 10
12.4497290823
 20
13.2021938044
  0
VERTEX
  8
___SYMBOL
 62
7
  6
CONTINUOUS
 10
12.4392425368
 20
13.1989757239
  0
VERTEX
  8
___SYMBOL
 62
7
  6
CONTINUOUS
 10
12.429277119
 20
13.1943915596
  0
VERTEX
  8
___SYMBOL
 62
7
  6
CONTINUOUS
 10
12.4200098897
 20
13.1885227608
  0
VERTEX
  8
___SYMBOL
 62
7
  6
CONTINUOUS
 10
12.4116055048
 20
13.1814736016
  0
VERTEX
  8
___SYMBOL
 62
7
  6
CONTINUOUS
 10
12.4042132893
 20
13.1733693281
  0
VERTEX
  8
___SYMBOL
 62
7
  6
CONTINUOUS
 10
12.3979645847
 20
13.1643539331
  0
VERTEX
  8
___SYMBOL
 62
7
  6
CONTINUOUS
 10
12.392970415
 20
13.1545875981
  0
VERTEX
  8
___SYMBOL
 62
7
  6
CONTINUOUS
 10
12.3893195142
 20
13.1442438465
  0
VERTEX
  8
___SYMBOL
 62
7
  6
CONTINUOUS
 10
12.3870767499
 20
13.1335064614
  0
VERTEX
  8
___SYMBOL
 62
7
  6
CONTINUOUS
 10
12.3862819704
 20
13.1225662195
  0
VERTEX
  8
___SYMBOL
 62
7
  6
CONTINUOUS
 10
12.386949297
 20
13.1116175018
  0
VERTEX
  8
___SYMBOL
 62
7
  6
CONTINUOUS
 10
12.3890668729
 20
13.1008548401
  0
VERTEX
  8
___SYMBOL
 62
7
  6
CONTINUOUS
 10
12.392597074
 20
13.0904694603
  0
VERTEX
  8
___SYMBOL
 62
7
  6
CONTINUOUS
 10
12.3974771775
 20
13.0806458847
  0
VERTEX
  8
___SYMBOL
 62
7
  6
CONTINUOUS
 10
12.4036204759
 20
13.0715586542
  0
VERTEX
  8
___SYMBOL
 62
7
  6
CONTINUOUS
 10
12.410917818
 20
13.0633692263
  0
VERTEX
  8
___SYMBOL
 62
7
  6
CONTINUOUS
 10
12.419239548
 20
13.056223107
  0
VERTEX
  8
___SYMBOL
 62
7
  6
CONTINUOUS
 10
12.4284378094
 20
13.0502472651
  0
VERTEX
  8
___SYMBOL
 62
7
  6
CONTINUOUS
 10
12.4383491719
 20
13.0455478765
  0
VERTEX
  8
___SYMBOL
 62
7
  6
CONTINUOUS
 10
12.4487975349
 20
13.0422084379
  0
VERTEX
  8
___SYMBOL
 62
7
  6
CONTINUOUS
 10
12.4595972569
 20
13.0402882826
  0
VERTEX
  8
___SYMBOL
 62
7
  6
CONTINUOUS
 10
12.4705564536
 20
13.0398215273
  0
VERTEX
  8
___SYMBOL
 62
7
  6
CONTINUOUS
 10
12.4814804071
 20
13.0408164649
  0
VERTEX
  8
___SYMBOL
 62
7
  6
CONTINUOUS
 10
12.4921750257
 20
13.0432554178
  0
VERTEX
  8
___SYMBOL
 62
7
  6
CONTINUOUS
 10
12.5024502925
 20
13.047095052
  0
VERTEX
  8
___SYMBOL
 62
7
  6
CONTINUOUS
 10
12.5121236415
 20
13.0522671465
  0
VERTEX
  8
___SYMBOL
 62
7
  6
CONTINUOUS
 10
12.521023201
 20
13.0586798061
  0
VERTEX
  8
___SYMBOL
 62
7
  6
CONTINUOUS
 10
12.528990848
 20
13.0662190937
  0
VERTEX
  8
___SYMBOL
 62
7
  6
CONTINUOUS
 10
12.535885017
 20
13.0747510547
  0
VERTEX
  8
___SYMBOL
 62
7
  6
CONTINUOUS
 10
12.5415832157
 20
13.0841240972
  0
VERTEX
  8
___SYMBOL
 62
7
  6
CONTINUOUS
 10
12.5459842011
 20
13.0941716856
  0
VERTEX
  8
___SYMBOL
 62
7
  6
CONTINUOUS
 10
12.5490097788
 20
13.1047152989
  0
VERTEX
  8
___SYMBOL
 62
7
  6
CONTINUOUS
 10
12.5506061915
 20
13.1155676032
  0
VERTEX
  8
___SYMBOL
 62
7
  6
CONTINUOUS
 10
12.550745075
 20
13.1265357799
  0
VERTEX
  8
___SYMBOL
 62
7
  6
CONTINUOUS
 10
12.5494239617
 20
13.1374249516
  0
VERTEX
  8
___SYMBOL
 62
7
  6
CONTINUOUS
 10
12.5466663246
 20
13.1480416447
  0
VERTEX
  8
___SYMBOL
 62
7
  6
CONTINUOUS
 10
12.5425211599
 20
13.1581972266
  0
VERTEX
  8
___SYMBOL
 62
7
  6
CONTINUOUS
 10
12.537062117
 20
13.1677112579
  0
VERTEX
  8
___SYMBOL
 62
7
  6
CONTINUOUS
 10
12.5303861897
 20
13.1764146978
  0
VERTEX
  8
___SYMBOL
 62
7
  6
CONTINUOUS
 10
12.5226119926
 20
13.1841529075
  0
VERTEX
  8
___SYMBOL
 62
7
  6
CONTINUOUS
 10
12.5138776541
 20
13.1907883983
  0
VERTEX
  8
___SYMBOL
 62
7
  6
CONTINUOUS
 10
12.5043383617
 20
13.1962032738
  0
VERTEX
  8
___SYMBOL
 62
7
  6
CONTINUOUS
 10
12.4941636051
 20
13.2003013251
  0
VERTEX
  8
___SYMBOL
 62
7
  6
CONTINUOUS
 10
12.4835341645
 20
13.2030097401
  0
VERTEX
  8
___SYMBOL
 62
7
  6
CONTINUOUS
 10
12.4726388989
 20
13.2042803967
  0
VERTEX
  8
___SYMBOL
 62
7
  6
CONTINUOUS
 10
12.4616713902
 20
13.2040907186
  0
VERTEX
  8
___SYMBOL
 62
7
  6
CONTINUOUS
 10
12.450826504
 20
13.202444076
  0
SEQEND
  0
LINE
  8
___SYMBOL
 62
7
  6
CONTINUOUS
 10
12.6303741285
 20
13.8969186773
 11
12.6303741285
 21
13.8352686779
  0
LINE
  8
___SYMBOL
 62
7
  6
CONTINUOUS
 10
12.6303741285
 20
13.8352686779
 11
11.7746691368
 21
13.8352686779
  0
LINE
  8
___SYMBOL
 62
7
  6
CONTINUOUS
 10
11.7746691368
 20
13.8352686779
 11
11.7746691368
 21
13.8969186773
  0
LINE
  8
___SYMBOL
 62
7
  6
CONTINUOUS
 10
11.7746691368
 20
13.8969186773
 11
12.6303741285
 21
13.8969186773
  0
SOLID
  8
___SYMBOL
 62
7
  6
CONTINUOUS
 10
11.7746691368
 20
13.8352686738
 11
11.7746691368
 21
13.8969186639
 12
12.6303741285
 22
13.8969186639
 13
12.6303741285
 23
13.8969186639
  0
SOLID
  8
___SYMBOL
 62
7
  6
CONTINUOUS
 10
12.6303741285
 20
13.8969186639
 11
12.6303741285
 21
13.8352686738
 12
11.7746691368
 22
13.8352686738
 13
11.7746691368
 23
13.8352686738
  0
LINE
  8
___SYMBOL
 62
7
  6
CONTINUOUS
 10
12.6303741285
 20
13.7969361783
 11
12.6303741285
 21
13.7352861789
  0
LINE
  8
___SYMBOL
 62
7
  6
CONTINUOUS
 10
12.6303741285
 20
13.7352861789
 11
11.7746691368
 21
13.7352861789
  0
LINE
  8
___SYMBOL
 62
7
  6
CONTINUOUS
 10
11.7746691368
 20
13.7352861789
 11
11.7746691368
 21
13.7969361783
  0
LINE
  8
___SYMBOL
 62
7
  6
CONTINUOUS
 10
11.7746691368
 20
13.7969361783
 11
12.6303741285
 21
13.7969361783
  0
SOLID
  8
___SYMBOL
 62
7
  6
CONTINUOUS
 10
11.7746691368
 20
13.7352861656
 11
11.7746691368
 21
13.7969361897
 12
12.6303741285
 22
13.7969361897
 13
12.6303741285
 23
13.7969361897
  0
SOLID
  8
___SYMBOL
 62
7
  6
CONTINUOUS
 10
12.6303741285
 20
13.7969361897
 11
12.6303741285
 21
13.7352861656
 12
11.7746691368
 22
13.7352861656
 13
11.7746691368
 23
13.7352861656
  0
LINE
  8
___SYMBOL
 62
7
  6
CONTINUOUS
 10
12.6303741285
 20
13.6969536793
 11
12.6303741285
 21
13.6353111799
  0
LINE
  8
___SYMBOL
 62
7
  6
CONTINUOUS
 10
12.6303741285
 20
13.6353111799
 11
11.7746691368
 21
13.6353111799
  0
LINE
  8
___SYMBOL
 62
7
  6
CONTINUOUS
 10
11.7746691368
 20
13.6353111799
 11
11.7746691368
 21
13.6969536793
  0
LINE
  8
___SYMBOL
 62
7
  6
CONTINUOUS
 10
11.7746691368
 20
13.6969536793
 11
12.6303741285
 21
13.6969536793
  0
SOLID
  8
___SYMBOL
 62
7
  6
CONTINUOUS
 10
11.7746691368
 20
13.6353111714
 11
11.7746691368
 21
13.6969536815
 12
12.6303741285
 22
13.6969536815
 13
12.6303741285
 23
13.6969536815
  0
SOLID
  8
___SYMBOL
 62
7
  6
CONTINUOUS
 10
12.6303741285
 20
13.6969536815
 11
12.6303741285
 21
13.6353111714
 12
11.7746691368
 22
13.6353111714
 13
11.7746691368
 23
13.6353111714
  0
LINE
  8
___SYMBOL
 62
7
  6
CONTINUOUS
 10
12.6303741285
 20
13.5969711803
 11
12.6303741285
 21
13.5353286809
  0
LINE
  8
___SYMBOL
 62
7
  6
CONTINUOUS
 10
12.6303741285
 20
13.5353286809
 11
11.7746691368
 21
13.5353286809
  0
LINE
  8
___SYMBOL
 62
7
  6
CONTINUOUS
 10
11.7746691368
 20
13.5353286809
 11
11.7746691368
 21
13.5969711803
  0
LINE
  8
___SYMBOL
 62
7
  6
CONTINUOUS
 10
11.7746691368
 20
13.5969711803
 11
12.6303741285
 21
13.5969711803
  0
SOLID
  8
___SYMBOL
 62
7
  6
CONTINUOUS
 10
11.7746691368
 20
13.5353286972
 11
11.7746691368
 21
13.5969711733
 12
12.6303741285
 22
13.5969711733
 13
12.6303741285
 23
13.5969711733
  0
SOLID
  8
___SYMBOL
 62
7
  6
CONTINUOUS
 10
12.6303741285
 20
13.5969711733
 11
12.6303741285
 21
13.5353286972
 12
11.7746691368
 22
13.5353286972
 13
11.7746691368
 23
13.5353286972
  0
LINE
  8
___SYMBOL
 62
7
  6
CONTINUOUS
 10
12.6303741285
 20
13.4703336815
 11
12.6303741285
 21
13.4086836821
  0
LINE
  8
___SYMBOL
 62
7
  6
CONTINUOUS
 10
12.6303741285
 20
13.4086836821
 11
11.7746691368
 21
13.4086836821
  0
LINE
  8
___SYMBOL
 62
7
  6
CONTINUOUS
 10
11.7746691368
 20
13.4086836821
 11
11.7746691368
 21
13.4703336815
  0
LINE
  8
___SYMBOL
 62
7
  6
CONTINUOUS
 10
11.7746691368
 20
13.4703336815
 11
12.6303741285
 21
13.4703336815
  0
SOLID
  8
___SYMBOL
 62
7
  6
CONTINUOUS
 10
11.7746691368
 20
13.408683695
 11
11.7746691368
 21
13.4703336851
 12
12.6303741285
 22
13.4703336851
 13
12.6303741285
 23
13.4703336851
  0
SOLID
  8
___SYMBOL
 62
7
  6
CONTINUOUS
 10
12.6303741285
 20
13.4703336851
 11
12.6303741285
 21
13.408683695
 12
11.7746691368
 22
13.408683695
 13
11.7746691368
 23
13.408683695
  0
ENDBLK
  8
0
  6
BYBLOCK
 62
0
  0
BLOCK
  8
___SYMBOL
 62
2
  6
CONTINUOUS
  2
TEMPLATE_NUMBER_BL5
 70
64
 10
10.1307163894
 20
8.6737140954
  0
TEXT
  8
___SYMBOL
 62
2
  6
CONTINUOUS
 10
9.8205164869
 20
8.6384641065
  7
STANDARD
 40
0.0704999778
  1
1040557-7
 41
0.8
 72
0
  0
TEXT
  8
___SYMBOL
 62
2
  6
CONTINUOUS
 10
10.3281163273
 20
8.6384641065
  7
STANDARD
 40
0.0704999778
  1
-
 41
0.8
 72
0
  0
TEXT
  8
___SYMBOL
 62
2
  6
CONTINUOUS
 10
10.3845163096
 20
8.6384641065
  7
STANDARD
 40
0.0704999778
  1
B
 41
0.8
 72
0
  0
ENDBLK
  8
0
  6
BYBLOCK
 62
0
  0
BLOCK
  8
___SYMBOL
 62
2
  6
CONTINUOUS
  2
TEMPLATE_NUMBER_BL6
 70
64
 10
10.1633960183
 20
6.7581048428
  0
TEXT
  8
___SYMBOL
 62
2
  6
CONTINUOUS
 10
9.8531961158
 20
6.7228548539
  7
STANDARD
 40
0.0704999778
  1
1040557-7
 41
0.8
 72
0
  0
TEXT
  8
___SYMBOL
 62
2
  6
CONTINUOUS
 10
10.3607959563
 20
6.7228548539
  7
STANDARD
 40
0.0704999778
  1
-
 41
0.8
 72
0
  0
TEXT
  8
___SYMBOL
 62
2
  6
CONTINUOUS
 10
10.4171959385
 20
6.7228548539
  7
STANDARD
 40
0.0704999778
  1
B
 41
0.8
 72
0
  0
ENDBLK
  8
0
  6
BYBLOCK
 62
0
  0
BLOCK
  8
___SYMBOL
 62
2
  6
CONTINUOUS
  2
WHEN_PLOTTING_TEMPLATE_N_BL7
 70
64
 10
33.0839284229
 20
12.9544177389
  0
TEXT
  8
___SYMBOL
 62
2
  6
CONTINUOUS
 10
29.7714281905
 20
14.1653553238
  7
STANDARD
 40
0.156250011
  1
WHEN PLOTTING TEMPLATE FULL SIZE:
 41
0.8
 72
0
  0
TEXT
  8
___SYMBOL
 62
2
  6
CONTINUOUS
 10
29.7714281905
 20
13.9309803074
  7
STANDARD
 40
0.156250011
  1
Make sure horizontal and vertical dimensions
 41
0.8
 72
0
  0
TEXT
  8
___SYMBOL
 62
2
  6
CONTINUOUS
 10
29.7714281905
 20
13.6966052909
  7
STANDARD
 40
0.156250011
  1
match the dimensions labeled on the template.
 41
0.8
 72
0
  0
TEXT
  8
___SYMBOL
 62
2
  6
CONTINUOUS
 10
29.7714281905
 20
13.4622302745
  7
STANDARD
 40
0.156250011
  1
 
 41
0.8
 72
0
  0
TEXT
  8
___SYMBOL
 62
2
  6
CONTINUOUS
 10
29.7714281905
 20
13.2278552581
  7
STANDARD
 40
0.156250011
  1
AL TRAZAR LA PLANTILLA A ESCALA,
 41
0.8
 72
0
  0
TEXT
  8
___SYMBOL
 62
2
  6
CONTINUOUS
 10
29.7714281905
 20
12.9934802416
  7
STANDARD
 40
0.156250011
  1
asegúrese de que las dimensiones horizontales
 41
0.8
 72
0
  0
TEXT
  8
___SYMBOL
 62
2
  6
CONTINUOUS
 10
29.7714281905
 20
12.7591052252
  7
STANDARD
 40
0.156250011
  1
y verticales concuerden con las dimensiones marcadas
 41
0.8
 72
0
  0
TEXT
  8
___SYMBOL
 62
2
  6
CONTINUOUS
 10
29.7714281905
 20
12.5247302087
  7
STANDARD
 40
0.156250011
  1
en la plantilla.
 41
0.8
 72
0
  0
TEXT
  8
___SYMBOL
 62
2
  6
CONTINUOUS
 10
29.7714281905
 20
12.2903551923
  7
STANDARD
 40
0.156250011
  1
 
 41
0.8
 72
0
  0
TEXT
  8
___SYMBOL
 62
2
  6
CONTINUOUS
 10
29.7714281905
 20
12.0559801758
  7
STANDARD
 40
0.156250011
  1
AU MOMENT DE TRACER LA DÉCOUPE À L'ÉCHELLE,
 41
0.8
 72
0
  0
TEXT
  8
___SYMBOL
 62
2
  6
CONTINUOUS
 10
29.7714281905
 20
11.8216051594
  7
STANDARD
 40
0.156250011
  1
Assurez vos que les dimensions horizotales et
 41
0.8
 72
0
  0
TEXT
  8
___SYMBOL
 62
2
  6
CONTINUOUS
 10
29.7714281905
 20
11.5872301429
  7
STANDARD
 40
0.156250011
  1
verticales correspondent avec les dimensions du plan.
 41
0.8
 72
0
  0
ENDBLK
  8
0
  6
BYBLOCK
 62
0
  0
BLOCK
  8
0
  2
_FILLED
 70
64
 10
0.0
 20
0.0
  0
SOLID
  8
0
  6
BYBLOCK
 62
0
 10
0.0
 20
0.0
 11
-1.0
 21
0.1666666667
 12
-1.0
 22
-0.1666666667
 13
-1.0
 23
-0.1666666667
  0
ENDBLK
  8
0
  6
BYBLOCK
 62
0
  0
ENDSEC
  0
SECTION
  2
ENTITIES
  0
DIMENSION
  8
0
 62
2
  6
CONTINUOUS
  2
*D0
 10
18.7905374964
 20
8.2777871809
 11
18.9155374964
 21
16.0430440901
 70
128
 13
20.0330490618
 23
26.9077871809
 14
9.6580490618
 24
8.2777871809
 50
270.0
  0
DIMENSION
  8
0
 62
2
  6
CONTINUOUS
  2
*D1
 10
17.8108226471
 20
7.5277871809
 11
17.9358226471
 21
18.892104364
 70
128
 13
20.0330490618
 23
27.6577871809
 14
9.6580490618
 24
7.5277871809
 50
270.0
  0
DIMENSION
  8
0
 62
2
  6
CONTINUOUS
  2
*D2
 10
27.5219939347
 20
8.2777871809
 11
27.5219939347
 21
16.2309192682
 70
128
 13
24.7984567019
 23
24.0277871809
 14
35.2830490618
 24
8.2777871809
 50
270.0
  0
DIMENSION
  8
0
 62
2
  6
CONTINUOUS
  2
*D3
 10
26.5899895512
 20
7.5277871809
 11
26.7149895512
 21
18.4530988846
 70
128
 13
24.7984567019
 23
24.7777871809
 14
35.2830490618
 24
7.5277871809
 50
270.0
  0
DIMENSION
  8
0
 62
2
  6
CONTINUOUS
  2
*D4
 10
7.8455490618
 20
16.956752138
 11
23.3619870306
 21
16.839564638
 70
128
 13
37.0955490618
 23
22.2152871809
 14
7.8455490618
 24
10.0902871809
 50
180.0
  0
TEXT
  8
___NOTE
 62
2
  6
CONTINUOUS
 10
31.7987854627
 20
19.3174338466
  7
STANDARD
 40
0.15625
  1
CUT OUT LINE FOR NO REVEAL
 41
0.8307692308
 72
0
  0
TEXT
  8
___NOTE
 62
2
  6
CONTINUOUS
 10
31.6737854627
 20
19.0830588466
  7
STANDARD
 40
0.15625
  1
LÍNEA DE CORTE SIN BATIENTE
 41
0.8296296296
 72
0
  0
TEXT
  8
___NOTE
 62
2
  6
CONTINUOUS
 10
31.1737854627
 20
18.8486838466
  7
STANDARD
 40
0.15625
  1
LINGE DE COUPE SANS ÉBRASEMENTS
 41
0.8258064516
 72
0
  0
LINE
  8
___NOTE
 62
2
  6
CONTINUOUS
 10
37.0955490618
 20
18.5524767123
 11
35.4237854627
 21
19.3955588466
  0
LINE
  8
___NOTE
 62
2
  6
CONTINUOUS
 10
35.4237854627
 20
19.3955588466
 11
35.1737854627
 21
19.3955588466
  0
SOLID
  8
___NOTE
 62
2
  6
CONTINUOUS
 10
36.9140618972
 20
18.6090030034
 11
37.0955490618
 21
18.5524767123
 12
36.9422048654
 22
18.6648082302
 13
36.9422048654
 23
18.6648082302
  0
DIMENSION
  8
0
 62
2
  6
CONTINUOUS
  2
*D5
 10
7.0955490618
 20
17.775272686
 11
22.4955486744
 21
17.658085186
 70
128
 13
37.8455490618
 23
22.2152871809
 14
7.0955490618
 24
10.0902871809
 50
180.0
  0
TEXT
  8
___NOTE
 62
2
  6
CONTINUOUS
 10
31.9105128017
 20
20.9521304419
  7
STANDARD
 40
0.15625
  1
CUT OUT LINE FOR A REVEAL
 41
0.832
 72
0
  0
TEXT
  8
___NOTE
 62
2
  6
CONTINUOUS
 10
31.6605128017
 20
20.7177554419
  7
STANDARD
 40
0.15625
  1
LÍNEA DE CORTE CON BATIENTE
 41
0.8296296296
 72
0
  0
TEXT
  8
___NOTE
 62
2
  6
CONTINUOUS
 10
31.1605128017
 20
20.4833804419
  7
STANDARD
 40
0.15625
  1
LINGE DE COUPE AVEC EBRASEMENTS
 41
0.8258064516
 72
0
  0
LINE
  8
___NOTE
 62
2
  6
CONTINUOUS
 10
37.8455490618
 20
19.7251671233
 11
35.4105128017
 21
21.0302554419
  0
LINE
  8
___NOTE
 62
2
  6
CONTINUOUS
 10
35.4105128017
 20
21.0302554419
 11
35.1605128017
 21
21.0302554419
  0
SOLID
  8
___NOTE
 62
2
  6
CONTINUOUS
 10
37.6655264181
 20
19.7861971179
 11
37.8455490618
 21
19.7251671233
 12
37.6950508835
 22
19.8412839215
 13
37.6950508835
 23
19.8412839215
  0
TEXT
  8
___NOTE
 62
2
  6
CONTINUOUS
 10
12.410586199
 20
20.2823724064
  7
TEXTSTYLE_1
 40
0.094
  1
TM
 41
1.0
 72
0
  0
TEXT
  8
___NOTE
 62
2
  6
CONTINUOUS
 10
12.4114699714
 20
21.1496250369
  7
TEXTSTYLE_1
 40
0.094
  1
TM
 41
1.0
 72
0
  0
TEXT
  8
___NOTE
 62
2
  6
CONTINUOUS
 10
32.573718751
 20
22.9377101675
  7
STANDARD
 40
0.15625
  1
RIM OF SINK
 41
0.8
 72
0
  0
TEXT
  8
___NOTE
 62
2
  6
CONTINUOUS
 10
31.448718751
 20
22.7033351675
  7
STANDARD
 40
0.15625
  1
REBORDE DE FREGADERO
 41
0.8
 72
0
  0
TEXT
  8
___NOTE
 62
2
  6
CONTINUOUS
 10
32.198718751
 20
22.4689601675
  7
STANDARD
 40
0.15625
  1
REBORD D'ÉVIER
 41
0.8
 72
0
  0
LINE
  8
___NOTE
 62
2
  6
CONTINUOUS
 10
38.2205490618
 20
20.9801912935
 11
34.198718751
 21
23.0158351675
  0
LINE
  8
___NOTE
 62
2
  6
CONTINUOUS
 10
34.198718751
 20
23.0158351675
 11
33.948718751
 21
23.0158351675
  0
SOLID
  8
___NOTE
 62
2
  6
CONTINUOUS
 10
38.0391450226
 20
21.0369837847
 11
38.2205490618
 21
20.9801912935
 12
38.0673698327
 22
21.0927476628
 13
38.0673698327
 23
21.0927476628
  0
INSERT
  8
___SYMBOL
 62
2
  6
CONTINUOUS
  2
REVEAL-NOREVEAL_BL0
 10
30.1052508396
 20
20.4516570593
  0
INSERT
  8
___SYMBOL
 62
2
  6
CONTINUOUS
  2
REVEAL-NOREVEAL_BL1
 10
30.190571109
 20
18.803140483
  0
INSERT
  8
___SYMBOL
 62
2
  6
CONTINUOUS
  2
CUT-OUT_TEMPLATE_SKU_SIN_BL2
 10
13.0365204319
 20
22.3547485408
  0
INSERT
  8
___SYMBOL
 62
2
  6
CONTINUOUS
  2
COPYRIGHT_YEAR_BL3
 10
34.8145323518
 20
8.7182596449
  0
INSERT
  8
___SYMBOL
 62
2
  6
CONTINUOUS
  2
PACKAGING_UPC_BL4
 10
13.4095600242
 20
12.5609053839
  0
INSERT
  8
___SYMBOL
 62
2
  6
CONTINUOUS
  2
TEMPLATE_NUMBER_BL5
 10
10.1307163894
 20
8.6737140954
  0
INSERT
  8
___SYMBOL
 62
2
  6
CONTINUOUS
  2
TEMPLATE_NUMBER_BL6
 10
10.1633960183
 20
6.7581048428
  0
INSERT
  8
___SYMBOL
 62
2
  6
CONTINUOUS
  2
WHEN_PLOTTING_TEMPLATE_N_BL7
 10
33.0839284229
 20
12.9544177389
  0
LINE
  8
_CURVE
 62
8
  6
HIDDEN
 10
8.1205490618
 20
28.0327871809
 11
6.7205490618
 21
26.6327871809
  0
LINE
  8
_CURVE
 62
8
  6
HIDDEN
 10
6.7205490618
 20
8.5527871809
 11
8.1205490618
 21
7.1527871809
  0
LINE
  8
_CURVE
 62
8
  6
HIDDEN
 10
6.7205490618
 20
8.5527871809
 11
6.7205490618
 21
26.6327871809
  0
LINE
  8
_CURVE
 62
7
  6
CONTINUOUS
 10
7.0955490618
 20
25.1577871809
 11
7.0955490618
 21
10.0277871809
  0
LINE
  8
_CURVE
 62
7
  6
CONTINUOUS
 10
7.8455490618
 20
25.1577871809
 11
7.8455490618
 21
10.0277871809
  0
LINE
  8
_CURVE
 62
8
  6
HIDDEN
 10
36.8205490618
 20
7.1527871809
 11
8.1205490618
 21
7.1527871809
  0
LINE
  8
_CURVE
 62
7
  6
CONTINUOUS
 10
9.5955490618
 20
7.5277871809
 11
35.3455490618
 21
7.5277871809
  0
LINE
  8
_CURVE
 62
7
  6
CONTINUOUS
 10
9.5955490618
 20
8.2777871809
 11
35.3455490618
 21
8.2777871809
  0
LINE
  8
_CURVE
 62
7
  6
CONTINUOUS
 10
35.3455490618
 20
24.0277871809
 11
24.7359567019
 21
24.0277871809
  0
LINE
  8
_CURVE
 62
7
  6
CONTINUOUS
 10
21.3329859289
 20
26.3952240479
 11
22.9681897489
 21
24.7600202279
  0
LINE
  8
_CURVE
 62
7
  6
CONTINUOUS
 10
21.8633160148
 20
26.9255541338
 11
23.4985198348
 21
25.2903503138
  0
LINE
  8
_CURVE
 62
7
  6
CONTINUOUS
 10
35.3455490618
 20
24.7777871809
 11
24.7359567019
 21
24.7777871809
  0
LINE
  8
_CURVE
 62
8
  6
HIDDEN
 10
36.8205490618
 20
25.1527871809
 11
24.5147626242
 21
25.1527871809
  0
LINE
  8
_CURVE
 62
8
  6
HIDDEN
 10
21.2205490618
 20
28.0327871809
 11
23.807655843
 21
25.4456803997
  0
LINE
  8
_CURVE
 62
7
  6
CONTINUOUS
 10
20.0955490618
 20
26.9077871809
 11
9.5955490618
 21
26.9077871809
  0
LINE
  8
_CURVE
 62
7
  6
CONTINUOUS
 10
20.0955490618
 20
27.6577871809
 11
9.5955490618
 21
27.6577871809
  0
LINE
  8
_CURVE
 62
8
  6
HIDDEN
 10
8.1205490618
 20
28.0327871809
 11
21.2205490618
 21
28.0327871809
  0
LINE
  8
_CURVE
 62
7
  6
CONTINUOUS
 10
37.0955490618
 20
10.0277871809
 11
37.0955490618
 21
22.2777871809
  0
LINE
  8
_CURVE
 62
7
  6
CONTINUOUS
 10
37.8455490618
 20
10.0277871809
 11
37.8455490618
 21
22.2777871809
  0
LINE
  8
_CURVE
 62
8
  6
HIDDEN
 10
38.2205490618
 20
23.7527871809
 11
38.2205490618
 21
8.5527871809
  0
LINE
  8
_CURVE
 62
8
  6
HIDDEN
 10
38.2205490618
 20
23.7527871809
 11
36.8205490618
 21
25.1527871809
  0
LINE
  8
_CURVE
 62
8
  6
HIDDEN
 10
36.8205490618
 20
7.1527871809
 11
38.2205490618
 21
8.5527871809
  0
CIRCLE
  8
0
 62
2
  6
CONTINUOUS
 10
14.8426552548
 20
21.0648159562
 40
0.2513022906
  0
CIRCLE
  8
0
 62
2
  6
CONTINUOUS
 10
14.8433359386
 20
20.1988244875
 40
0.2513022906
  0
ARC
  8
_CURVE
 62
7
  6
CONTINUOUS
 10
24.7359567019
 20
26.5277871809
 40
2.5
 50
225.0
 51
270.0
  0
ARC
  8
_CURVE
 62
7
  6
CONTINUOUS
 10
9.5955490618
 20
25.1577871809
 40
2.5
 50
90.0
 51
180.0
  0
ARC
  8
_CURVE
 62
7
  6
CONTINUOUS
 10
9.5955490618
 20
10.0277871809
 40
2.5
 50
180.0
 51
270.0
  0
ARC
  8
_CURVE
 62
7
  6
CONTINUOUS
 10
35.3455490618
 20
10.0277871809
 40
2.5
 50
270.0
 51
360.0
  0
ARC
  8
_CURVE
 62
7
  6
CONTINUOUS
 10
35.3455490618
 20
22.2777871809
 40
2.5
 50
0.0
 51
90.0
  0
ARC
  8
_CURVE
 62
7
  6
CONTINUOUS
 10
20.0955490618
 20
25.1577871809
 40
2.5
 50
45.0
 51
90.0
  0
ARC
  8
_CURVE
 62
7
  6
CONTINUOUS
 10
9.5955490618
 20
25.1577871809
 40
1.75
 50
90.0
 51
180.0
  0
ARC
  8
_CURVE
 62
7
  6
CONTINUOUS
 10
9.5955490618
 20
10.0277871809
 40
1.75
 50
180.0
 51
270.0
  0
ARC
  8
_CURVE
 62
7
  6
CONTINUOUS
 10
35.3455490618
 20
10.0277871809
 40
1.75
 50
270.0
 51
360.0
  0
ARC
  8
_CURVE
 62
7
  6
CONTINUOUS
 10
35.3455490618
 20
22.2777871809
 40
1.75
 50
0.0
 51
90.0
  0
ARC
  8
_CURVE
 62
7
  6
CONTINUOUS
 10
20.0955490618
 20
25.1577871809
 40
1.75
 50
45.0
 51
90.0
  0
ARC
  8
_CURVE
 62
7
  6
CONTINUOUS
 10
24.7359567019
 20
26.5277871809
 40
1.75
 50
225.0
 51
270.0
  0
ARC
  8
_CURVE
 62
8
  6
HIDDEN
 10
24.5147626242
 20
26.1527871809
 40
1.0
 50
225.0
 51
270.0
  0
ENDSEC
  0
EOF
