  0
SECTION
  2
HEADER
  9
$ACADVER
  1
AC1009
  9
$INSBASE
 10
0.0
 20
0.0
 30
0.0
  9
$EXTMIN
 10
1.1595090688
 20
1.1059291136
 30
0.0
  9
$EXTMAX
 10
25.0917990688
 20
21.328854644700002
 30
0.0
  9
$LIMMIN
 10
0.0
 20
0.0
  9
$LIMMAX
 10
34.0
 20
22.0
  9
$ORTHOMODE
 70
     0
  9
$REGENMODE
 70
     1
  9
$FILLMODE
 70
     1
  9
$QTEXTMODE
 70
     0
  9
$MIRRTEXT
 70
     0
  9
$DRAGMODE
 70
     2
  9
$LTSCALE
 40
0.75
  9
$OSMODE
 70
  2711
  9
$ATTMODE
 70
     1
  9
$TEXTSIZE
 40
0.2
  9
$TRACEWID
 40
0.05
  9
$TEXTSTYLE
  7
STANDARD
  9
$CLAYER
  8
0
  9
$CELTYPE
  6
BYLAYER
  9
$CECOLOR
 62
   256
  9
$DIMSCALE
 40
1.0
  9
$DIMASZ
 40
0.1875
  9
$DIMEXO
 40
0.2125
  9
$DIMDLI
 40
1.292
  9
$DIMRND
 40
0.0
  9
$DIMDLE
 40
0.0
  9
$DIMEXE
 40
0.612
  9
$DIMTP
 40
0.005
  9
$DIMTM
 40
0.005
  9
$DIMTXT
 40
0.15625
  9
$DIMCEN
 40
0.306
  9
$DIMTSZ
 40
0.0
  9
$DIMTOL
 70
     1
  9
$DIMLIM
 70
     0
  9
$DIMTIH
 70
     1
  9
$DIMTOH
 70
     1
  9
$DIMSE1
 70
     0
  9
$DIMSE2
 70
     0
  9
$DIMTAD
 70
     0
  9
$DIMZIN
 70
     0
  9
$DIMBLK
  1
_ARROW_FILLED
  9
$DIMASO
 70
     1
  9
$DIMSHO
 70
     1
  9
$DIMPOST
  1

  9
$DIMAPOST
  1

  9
$DIMALT
 70
     0
  9
$DIMALTD
 70
     2
  9
$DIMALTF
 40
25.399999999999999
  9
$DIMLFAC
 40
1.0
  9
$DIMTOFL
 70
     0
  9
$DIMTVP
 40
0.0
  9
$DIMTIX
 70
     0
  9
$DIMSOXD
 70
     0
  9
$DIMSAH
 70
     0
  9
$DIMBLK1
  1

  9
$DIMBLK2
  1

  9
$DIMSTYLE
  2
STANDARD
  9
$DIMCLRD
 70
     0
  9
$DIMCLRE
 70
     0
  9
$DIMCLRT
 70
     0
  9
$DIMTFAC
 40
1.0
  9
$DIMGAP
 40
0.09
  9
$LUNITS
 70
     2
  9
$LUPREC
 70
     4
  9
$SKETCHINC
 40
0.1
  9
$FILLETRAD
 40
0.0
  9
$AUNITS
 70
     0
  9
$AUPREC
 70
     0
  9
$MENU
  1
.
  9
$ELEVATION
 40
0.0
  9
$PELEVATION
 40
0.0
  9
$THICKNESS
 40
0.0
  9
$LIMCHECK
 70
     0
  9
$BLIPMODE
 70
     0
  9
$CHAMFERA
 40
0.0
  9
$CHAMFERB
 40
0.0
  9
$SKPOLY
 70
     0
  9
$TDCREATE
 40
2454130.387296713
  9
$TDUPDATE
 40
2454130.3928577658
  9
$TDINDWG
 40
0.005561956
  9
$TDUSRTIMER
 40
0.005561956
  9
$USRTIMER
 70
     1
  9
$ANGBASE
 50
0.0
  9
$ANGDIR
 70
     0
  9
$PDMODE
 70
     3
  9
$PDSIZE
 40
0.3125
  9
$PLINEWID
 40
0.0
  9
$COORDS
 70
     1
  9
$SPLFRAME
 70
     0
  9
$SPLINETYPE
 70
     6
  9
$SPLINESEGS
 70
     8
  9
$ATTDIA
 70
     0
  9
$ATTREQ
 70
     1
  9
$HANDLING
 70
     1
  9
$HANDSEED
  5
BFF
  9
$SURFTAB1
 70
     6
  9
$SURFTAB2
 70
     6
  9
$SURFTYPE
 70
     6
  9
$SURFU
 70
     6
  9
$SURFV
 70
     6
  9
$UCSNAME
  2

  9
$UCSORG
 10
0.0
 20
0.0
 30
0.0
  9
$UCSXDIR
 10
1.0
 20
0.0
 30
0.0
  9
$UCSYDIR
 10
0.0
 20
1.0
 30
0.0
  9
$PUCSNAME
  2

  9
$PUCSORG
 10
0.0
 20
0.0
 30
0.0
  9
$PUCSXDIR
 10
1.0
 20
0.0
 30
0.0
  9
$PUCSYDIR
 10
0.0
 20
1.0
 30
0.0
  9
$USERI1
 70
     0
  9
$USERI2
 70
     0
  9
$USERI3
 70
     0
  9
$USERI4
 70
     0
  9
$USERI5
 70
     0
  9
$USERR1
 40
0.0
  9
$USERR2
 40
0.0
  9
$USERR3
 40
0.0
  9
$USERR4
 40
0.0
  9
$USERR5
 40
0.0
  9
$WORLDVIEW
 70
     1
  9
$SHADEDGE
 70
     3
  9
$SHADEDIF
 70
    70
  9
$TILEMODE
 70
     1
  9
$MAXACTVP
 70
    64
  9
$PLIMCHECK
 70
     0
  9
$PEXTMIN
 10
1.0000000000000000E+020
 20
1.0000000000000000E+020
 30
1.0000000000000000E+020
  9
$PEXTMAX
 10
-1.0000000000000000E+020
 20
-1.0000000000000000E+020
 30
-1.0000000000000000E+020
  9
$PLIMMIN
 10
0.0
 20
0.0
  9
$PLIMMAX
 10
12.0
 20
9.0
  9
$UNITMODE
 70
     0
  9
$VISRETAIN
 70
     1
  9
$PLINEGEN
 70
     0
  9
$PSLTSCALE
 70
     1
  0
ENDSEC
  0
SECTION
  2
TABLES
  0
TABLE
  2
VPORT
 70
     2
  0
VPORT
  2
*ACTIVE
 70
     0
 10
0.0
 20
0.0
 11
1.0
 21
1.0
 12
18.975979829934861
 22
16.085267693104509
 13
0.0
 23
0.0
 14
1.0
 24
1.0
 15
0.0
 25
0.0
 16
0.0
 26
0.0
 36
1.0
 17
0.0
 27
0.0
 37
0.0
 40
39.265254198796811
 41
1.6190476190476191
 42
50.0
 43
0.0
 44
0.0
 50
0.0
 51
0.0
 71
     0
 72
   100
 73
     1
 74
     1
 75
     0
 76
     0
 77
     0
 78
     0
  0
ENDTAB
  0
TABLE
  2
LTYPE
 70
     6
  0
LTYPE
  2
CONTINUOUS
 70
     0
  3
Solid line
 72
    65
 73
     0
 40
0.0
  0
LTYPE
  2
CENTER
 70
     0
  3
____ _ ____ _ ____ _ ____ _ ____ _ ____ _ ____
 72
    65
 73
     4
 40
0.6
 49
0.375
 49
-0.075
 49
0.075
 49
-0.075
  0
LTYPE
  2
HIDDEN
 70
     0
  3
- - - - - - - - - - - - - - - - - - - -
 72
    65
 73
     2
 40
0.2
 49
0.1
 49
-0.1
  0
LTYPE
  2
PHANTOM
 70
     0
  3
_____ _ _ _____ _ _ _____ _ _ _____
 72
    65
 73
     6
 40
0.8
 49
0.45
 49
-0.05
 49
0.1
 49
-0.05
 49
0.1
 49
-0.05
  0
LTYPE
  2
DOT
 70
     0
  3
. . . . . . . . . . . . . . . . . . . .
 72
    65
 73
     2
 40
0.2
 49
0.1
 49
-0.1
  0
LTYPE
  2
DASHED
 70
     0
  3
- - - - - - - - - - - - - - - - - - - -
 72
    65
 73
     2
 40
0.2
 49
0.1
 49
-0.1
  0
ENDTAB
  0
TABLE
  2
LAYER
 70
    12
  0
LAYER
  2
0
 70
     0
 62
     7
  6
CONTINUOUS
  0
LAYER
  2
DEFAULT_1
 70
     0
 62
     7
  6
CENTER
  0
LAYER
  2
DEFAULT_2
 70
     0
 62
     8
  6
HIDDEN
  0
LAYER
  2
DEFAULT_3
 70
     0
 62
     7
  6
PHANTOM
  0
LAYER
  2
DEFPOINTS
 70
     0
 62
     7
  6
CONTINUOUS
  0
LAYER
  2
DRAFT_ENT
 70
     0
 62
     7
  6
CONTINUOUS
  0
LAYER
  2
NOTE
 70
     0
 62
     7
  6
CONTINUOUS
  0
LAYER
  2
PSPTBK
 70
     0
 62
     7
  6
CONTINUOUS
  0
LAYER
  2
SYMBOL
 70
     0
 62
     7
  6
CONTINUOUS
  0
LAYER
  2
___NOTE
 70
     0
 62
     7
  6
CONTINUOUS
  0
LAYER
  2
TABLE_BL6
 70
     0
 62
     7
  6
CONTINUOUS
  0
LAYER
  2
TABLE_BL7
 70
     0
 62
     7
  6
CONTINUOUS
  0
ENDTAB
  0
TABLE
  2
STYLE
 70
     4
  0
STYLE
  2
STANDARD
 70
     0
 40
0.0
 41
0.8
 50
0.0
 71
     0
 42
0.2
  3
txt
  4

  0
STYLE
  2
TEXTSTYLE_1
 70
     0
 40
0.0
 41
1.0299999783
 50
0.0
 71
     0
 42
0.2
  3
txt
  4

  0
STYLE
  2
TEXTSTYLE_2
 70
     0
 40
0.0
 41
1.0
 50
0.0
 71
     0
 42
0.2
  3
txt
  4

  0
ENDTAB
  0
TABLE
  2
VIEW
 70
     0
  0
ENDTAB
  0
TABLE
  2
UCS
 70
     0
  0
ENDTAB
  0
TABLE
  2
APPID
 70
     2
  0
APPID
  2
ACAD
 70
     0
  0
APPID
  2
ACAD_PSEXT
 70
     0
  0
ENDTAB
  0
TABLE
  2
DIMSTYLE
 70
     3
  0
DIMSTYLE
  2
STANDARD
 70
     0
  3

  4

  5
_ARROW_FILLED
  6
_ARROW_FILLED
  7
_ARROW_FILLED
 40
1.0
 41
0.1875
 42
0.0625
 43
0.38
 44
0.18
 45
0.0
 46
0.0
 47
0.005
 48
0.005
140
0.15625
141
0.09
142
0.0
143
25.399999999999999
144
1.0
145
0.0
146
1.0
147
0.09
 71
     1
 72
     0
 73
     1
 74
     1
 75
     0
 76
     0
 77
     0
 78
     4
170
     0
171
     2
172
     0
173
     0
174
     0
175
     0
176
     0
177
     0
178
     0
  0
DIMSTYLE
  2
DIMSTYLE_1
 70
     0
  3

  4

  5
_ARROW_FILLED
  6
_ARROW_FILLED
  7
_ARROW_FILLED
 40
1.0
 41
0.1875
 42
0.0625
 43
0.38
 44
0.18
 45
0.0
 46
0.0
 47
0.03125
 48
0.03125
140
0.15625
141
0.09
142
0.0
143
25.399999999999999
144
1.0
145
0.0
146
1.0
147
0.09
 71
     0
 72
     0
 73
     1
 74
     1
 75
     0
 76
     0
 77
     0
 78
     4
170
     0
171
     2
172
     0
173
     0
174
     0
175
     0
176
     0
177
     0
178
     0
  0
ENDTAB
  0
ENDSEC
  0
SECTION
  2
BLOCKS
  0
BLOCK
  8
0
  2
$MODEL_SPACE
 70
     0
 10
0.0
 20
0.0
 30
0.0
  3
$MODEL_SPACE
  1

  0
ENDBLK
  5
21
  8
0
  0
BLOCK
 67
     1
  8
0
  2
$PAPER_SPACE
 70
     0
 10
0.0
 20
0.0
 30
0.0
  3
$PAPER_SPACE
  1

  0
ENDBLK
  5
1D
 67
     1
  8
0
  0
BLOCK
  8
0
  2
_ARROW_FILLED
 70
     0
 10
0.0
 20
0.0
 30
0.0
  3
_ARROW_FILLED
  1

  0
SOLID
  5
2EF
  8
0
  6
BYBLOCK
 62
     0
 10
0.0
 20
0.0
 30
0.0
 11
-1.0
 21
0.1666666667
 31
0.0
 12
-1.0
 22
-0.1666666667
 32
0.0
 13
-1.0
 23
-0.1666666667
 33
0.0
  0
ENDBLK
  5
2F0
  8
0
  6
BYBLOCK
 62
     0
  0
BLOCK
  8
SYMBOL
  6
CONTINUOUS
 62
     2
  2
KOHLER_BL0
 70
     0
 10
30.2123715
 20
2.2616459999999989
 30
0.0
  3
KOHLER_BL0
  1

  0
ARC
  5
217
  8
SYMBOL
  6
CONTINUOUS
 62
     2
 10
30.778184
 20
2.31711475
 30
0.0
 40
0.03065625
 50
270.0
 51
90.0
  0
LINE
  5
218
  8
SYMBOL
  6
CONTINUOUS
 62
     2
 10
29.528184
 20
2.1210209999999989
 30
0.0
 11
29.528184
 21
2.4022709999999989
 31
0.0
  0
LINE
  5
219
  8
SYMBOL
  6
CONTINUOUS
 62
     2
 10
29.528184
 20
2.4022709999999989
 30
0.0
 11
29.595184
 21
2.4022709999999989
 31
0.0
  0
LINE
  5
21A
  8
SYMBOL
  6
CONTINUOUS
 62
     2
 10
29.528184
 20
2.1210209999999989
 30
0.0
 11
29.595184
 21
2.1210209999999989
 31
0.0
  0
LINE
  5
21B
  8
SYMBOL
  6
CONTINUOUS
 62
     2
 10
29.778184
 20
2.4022709999999989
 30
0.0
 11
29.653184
 21
2.2772709999999989
 31
0.0
  0
LINE
  5
21C
  8
SYMBOL
  6
CONTINUOUS
 62
     2
 10
29.653184
 20
2.2772709999999989
 30
0.0
 11
29.778184
 21
2.1210209999999989
 31
0.0
  0
CIRCLE
  5
21D
  8
SYMBOL
  6
CONTINUOUS
 62
     2
 10
29.887559
 20
2.2616459999999989
 30
0.0
 40
0.073625
  0
LINE
  5
21E
  8
SYMBOL
  6
CONTINUOUS
 62
     2
 10
29.692382135199999
 20
2.1210209999999989
 30
0.0
 11
29.778184
 21
2.1210209999999989
 31
0.0
  0
CIRCLE
  5
21F
  8
SYMBOL
  6
CONTINUOUS
 62
     2
 10
29.887559
 20
2.2616459999999989
 30
0.0
 40
0.140625
  0
LINE
  5
220
  8
SYMBOL
  6
CONTINUOUS
 62
     2
 10
29.595184
 20
2.1210209999999989
 30
0.0
 11
29.595184
 21
2.242518668999999
 31
0.0
  0
LINE
  5
221
  8
SYMBOL
  6
CONTINUOUS
 62
     2
 10
29.683431691300001
 20
2.4022709999999989
 30
0.0
 11
29.595184
 21
2.3140233086999991
 31
0.0
  0
LINE
  5
222
  8
SYMBOL
  6
CONTINUOUS
 62
     2
 10
29.595184
 20
2.242518668999999
 30
0.0
 11
29.692382135199999
 21
2.1210209999999989
 31
0.0
  0
LINE
  5
223
  8
SYMBOL
  6
CONTINUOUS
 62
     2
 10
29.683431691300001
 20
2.4022709999999989
 30
0.0
 11
29.778184
 21
2.4022709999999989
 31
0.0
  0
LINE
  5
224
  8
SYMBOL
  6
CONTINUOUS
 62
     2
 10
29.595184
 20
2.4022709999999989
 30
0.0
 11
29.595184
 21
2.3140233086999991
 31
0.0
  0
LINE
  5
225
  8
SYMBOL
  6
CONTINUOUS
 62
     2
 10
30.059434
 20
2.4022709999999989
 30
0.0
 11
30.059434
 21
2.1210209999999989
 31
0.0
  0
LINE
  5
226
  8
SYMBOL
  6
CONTINUOUS
 62
     2
 10
30.126434
 20
2.1210209999999989
 30
0.0
 11
30.126434
 21
2.2437710000000002
 31
0.0
  0
LINE
  5
227
  8
SYMBOL
  6
CONTINUOUS
 62
     2
 10
30.126434
 20
2.310770999999999
 30
0.0
 11
30.126434
 21
2.4022709999999989
 31
0.0
  0
LINE
  5
228
  8
SYMBOL
  6
CONTINUOUS
 62
     2
 10
30.204559
 20
2.1210209999999989
 30
0.0
 11
30.204559
 21
2.2437710000000002
 31
0.0
  0
LINE
  5
229
  8
SYMBOL
  6
CONTINUOUS
 62
     2
 10
30.204559
 20
2.310770999999999
 30
0.0
 11
30.204559
 21
2.4022709999999989
 31
0.0
  0
LINE
  5
22A
  8
SYMBOL
  6
CONTINUOUS
 62
     2
 10
30.271559
 20
2.4022709999999989
 30
0.0
 11
30.271559
 21
2.1210209999999989
 31
0.0
  0
LINE
  5
22B
  8
SYMBOL
  6
CONTINUOUS
 62
     2
 10
30.126434
 20
2.310770999999999
 30
0.0
 11
30.204559
 21
2.310770999999999
 31
0.0
  0
LINE
  5
22C
  8
SYMBOL
  6
CONTINUOUS
 62
     2
 10
30.126434
 20
2.2437710000000002
 30
0.0
 11
30.204559
 21
2.2437710000000002
 31
0.0
  0
LINE
  5
22D
  8
SYMBOL
  6
CONTINUOUS
 62
     2
 10
30.204559
 20
2.1210209999999989
 30
0.0
 11
30.271559
 21
2.1210209999999989
 31
0.0
  0
LINE
  5
22E
  8
SYMBOL
  6
CONTINUOUS
 62
     2
 10
30.059434
 20
2.1210209999999989
 30
0.0
 11
30.126434
 21
2.1210209999999989
 31
0.0
  0
LINE
  5
22F
  8
SYMBOL
  6
CONTINUOUS
 62
     2
 10
30.204559
 20
2.4022709999999989
 30
0.0
 11
30.271559
 21
2.4022709999999989
 31
0.0
  0
LINE
  5
230
  8
SYMBOL
  6
CONTINUOUS
 62
     2
 10
30.059434
 20
2.4022709999999989
 30
0.0
 11
30.126434
 21
2.4022709999999989
 31
0.0
  0
LINE
  5
231
  8
SYMBOL
  6
CONTINUOUS
 62
     2
 10
30.302809
 20
2.4022709999999989
 30
0.0
 11
30.302809
 21
2.1210209999999989
 31
0.0
  0
LINE
  5
232
  8
SYMBOL
  6
CONTINUOUS
 62
     2
 10
30.459059
 20
2.1880209999999991
 30
0.0
 11
30.459059
 21
2.1210209999999989
 31
0.0
  0
LINE
  5
233
  8
SYMBOL
  6
CONTINUOUS
 62
     2
 10
30.302809
 20
2.1210209999999989
 30
0.0
 11
30.459059
 21
2.1210209999999989
 31
0.0
  0
LINE
  5
234
  8
SYMBOL
  6
CONTINUOUS
 62
     2
 10
30.369809
 20
2.1880209999999991
 30
0.0
 11
30.369809
 21
2.4022709999999989
 31
0.0
  0
LINE
  5
235
  8
SYMBOL
  6
CONTINUOUS
 62
     2
 10
30.369809
 20
2.1880209999999991
 30
0.0
 11
30.459059
 21
2.1880209999999991
 31
0.0
  0
LINE
  5
236
  8
SYMBOL
  6
CONTINUOUS
 62
     2
 10
30.302809
 20
2.4022709999999989
 30
0.0
 11
30.369809
 21
2.4022709999999989
 31
0.0
  0
LINE
  5
237
  8
SYMBOL
  6
CONTINUOUS
 62
     2
 10
30.490309
 20
2.1210209999999989
 30
0.0
 11
30.646559
 21
2.1210209999999989
 31
0.0
  0
LINE
  5
238
  8
SYMBOL
  6
CONTINUOUS
 62
     2
 10
30.646559
 20
2.1880209999999991
 30
0.0
 11
30.646559
 21
2.1210209999999989
 31
0.0
  0
LINE
  5
239
  8
SYMBOL
  6
CONTINUOUS
 62
     2
 10
30.557309
 20
2.1880209999999991
 30
0.0
 11
30.646559
 21
2.1880209999999991
 31
0.0
  0
LINE
  5
23A
  8
SYMBOL
  6
CONTINUOUS
 62
     2
 10
30.557309
 20
2.2359585000000002
 30
0.0
 11
30.557309
 21
2.1880209999999991
 31
0.0
  0
LINE
  5
23B
  8
SYMBOL
  6
CONTINUOUS
 62
     2
 10
30.557309
 20
2.3352710000000001
 30
0.0
 11
30.646559
 21
2.3352710000000001
 31
0.0
  0
LINE
  5
23C
  8
SYMBOL
  6
CONTINUOUS
 62
     2
 10
30.490309
 20
2.4022709999999989
 30
0.0
 11
30.490309
 21
2.1210209999999989
 31
0.0
  0
LINE
  5
23D
  8
SYMBOL
  6
CONTINUOUS
 62
     2
 10
30.646559
 20
2.3352710000000001
 30
0.0
 11
30.646559
 21
2.4022709999999989
 31
0.0
  0
LINE
  5
23E
  8
SYMBOL
  6
CONTINUOUS
 62
     2
 10
30.490309
 20
2.4022709999999989
 30
0.0
 11
30.646559
 21
2.4022709999999989
 31
0.0
  0
LINE
  5
23F
  8
SYMBOL
  6
CONTINUOUS
 62
     2
 10
30.557309
 20
2.287333499999999
 30
0.0
 11
30.646559
 21
2.287333499999999
 31
0.0
  0
LINE
  5
240
  8
SYMBOL
  6
CONTINUOUS
 62
     2
 10
30.646559
 20
2.287333499999999
 30
0.0
 11
30.646559
 21
2.2359585000000002
 31
0.0
  0
LINE
  5
241
  8
SYMBOL
  6
CONTINUOUS
 62
     2
 10
30.557309
 20
2.2359585000000002
 30
0.0
 11
30.646559
 21
2.2359585000000002
 31
0.0
  0
LINE
  5
242
  8
SYMBOL
  6
CONTINUOUS
 62
     2
 10
30.557309
 20
2.287333499999999
 30
0.0
 11
30.557309
 21
2.3352710000000001
 31
0.0
  0
LINE
  5
243
  8
SYMBOL
  6
CONTINUOUS
 62
     2
 10
30.677809
 20
2.1210209999999989
 30
0.0
 11
30.677809
 21
2.4022709999999989
 31
0.0
  0
LINE
  5
244
  8
SYMBOL
  6
CONTINUOUS
 62
     2
 10
30.744809
 20
2.2303959999999989
 30
0.0
 11
30.744809
 21
2.1210209999999989
 31
0.0
  0
ARC
  5
245
  8
SYMBOL
  6
CONTINUOUS
 62
     2
 10
30.7793715
 20
2.3163334999999989
 30
0.0
 40
0.0859375
 50
304.16794025310003
 51
90.0
  0
LINE
  5
246
  8
SYMBOL
  6
CONTINUOUS
 62
     2
 10
30.7793715
 20
2.4022709999999989
 30
0.0
 11
30.677809
 21
2.4022709999999989
 31
0.0
  0
LINE
  5
247
  8
SYMBOL
  6
CONTINUOUS
 62
     2
 10
30.778184
 20
2.3477709999999989
 30
0.0
 11
30.744809
 21
2.3477709999999989
 31
0.0
  0
LINE
  5
248
  8
SYMBOL
  6
CONTINUOUS
 62
     2
 10
30.8276357616
 20
2.2452292458000001
 30
0.0
 11
30.896559
 21
2.1210209999999989
 31
0.0
  0
LINE
  5
249
  8
SYMBOL
  6
CONTINUOUS
 62
     2
 10
30.819935052600002
 20
2.1210209999999989
 30
0.0
 11
30.759242792199998
 21
2.2303959999999989
 31
0.0
  0
LINE
  5
24A
  8
SYMBOL
  6
CONTINUOUS
 62
     2
 10
30.677809
 20
2.1210209999999989
 30
0.0
 11
30.744809
 21
2.1210209999999989
 31
0.0
  0
LINE
  5
24B
  8
SYMBOL
  6
CONTINUOUS
 62
     2
 10
30.819935052600002
 20
2.1210209999999989
 30
0.0
 11
30.896559
 21
2.1210209999999989
 31
0.0
  0
LINE
  5
24C
  8
SYMBOL
  6
CONTINUOUS
 62
     2
 10
30.778184
 20
2.2864585000000002
 30
0.0
 11
30.744809
 21
2.2864585000000002
 31
0.0
  0
LINE
  5
24D
  8
SYMBOL
  6
CONTINUOUS
 62
     2
 10
30.744809
 20
2.3477709999999989
 30
0.0
 11
30.744809
 21
2.2864585000000002
 31
0.0
  0
LINE
  5
24E
  8
SYMBOL
  6
CONTINUOUS
 62
     2
 10
30.744809
 20
2.2303959999999989
 30
0.0
 11
30.759242792199998
 21
2.2303959999999989
 31
0.0
  0
POLYLINE
  5
24F
  8
SYMBOL
  6
CONTINUOUS
 62
     2
 66
     1
 10
0.0
 20
0.0
 30
0.0
  0
VERTEX
  5
4F1
  8
SYMBOL
  6
CONTINUOUS
 62
     2
 10
30.896559
 20
2.1210209999999989
 30
0.0
  0
VERTEX
  5
4F2
  8
SYMBOL
  6
CONTINUOUS
 62
     2
 10
30.819935052600002
 20
2.1210209999999989
 30
0.0
  0
VERTEX
  5
4F3
  8
SYMBOL
  6
CONTINUOUS
 62
     2
 10
30.759242792199998
 20
2.2303959999999989
 30
0.0
  0
VERTEX
  5
4F4
  8
SYMBOL
  6
CONTINUOUS
 62
     2
 10
30.744809
 20
2.2303959999999989
 30
0.0
  0
VERTEX
  5
4F5
  8
SYMBOL
  6
CONTINUOUS
 62
     2
 10
30.744809
 20
2.1210209999999989
 30
0.0
  0
VERTEX
  5
4F6
  8
SYMBOL
  6
CONTINUOUS
 62
     2
 10
30.677809
 20
2.1210209999999989
 30
0.0
  0
VERTEX
  5
4F7
  8
SYMBOL
  6
CONTINUOUS
 62
     2
 10
30.677809
 20
2.3477709999999989
 30
0.0
  0
VERTEX
  5
4F8
  8
SYMBOL
  6
CONTINUOUS
 62
     2
 10
30.744809
 20
2.3477709999999989
 30
0.0
  0
VERTEX
  5
4F9
  8
SYMBOL
  6
CONTINUOUS
 62
     2
 10
30.744809
 20
2.2864585000000002
 30
0.0
  0
VERTEX
  5
4FA
  8
SYMBOL
  6
CONTINUOUS
 62
     2
 10
30.778184
 20
2.2864585000000002
 30
0.0
  0
VERTEX
  5
4FB
  8
SYMBOL
  6
CONTINUOUS
 62
     2
 10
30.858650134000001
 20
2.2864585000000002
 30
0.0
  0
VERTEX
  5
4FC
  8
SYMBOL
  6
CONTINUOUS
 62
     2
 10
30.849768317900001
 20
2.2670431161999991
 30
0.0
  0
VERTEX
  5
4FD
  8
SYMBOL
  6
CONTINUOUS
 62
     2
 10
30.8276357616
 20
2.2452292458000001
 30
0.0
  0
VERTEX
  5
4FE
  8
SYMBOL
  6
CONTINUOUS
 62
     2
 10
30.896559
 20
2.1210209999999989
 30
0.0
  0
SEQEND
  5
4FF
  8
SYMBOL
  6
CONTINUOUS
 62
     2
  0
INSERT
  5
250
  8
SYMBOL
  6
CONTINUOUS
 62
     2
  2
*U12
 10
0.0
 20
0.0
 30
0.0
1001
ACAD
1002
{
1000
R14_HATCH_DATA
1000
250
1011
1.0
1021
5.2624723063701921E+199
1031
3.0921377841288875E+175
1021
0.0
1031
0.0
1011
0.0
1021
5.2624723063701921E+199
1031
3.0921377841288875E+175
1021
1.0
1031
0.0
1011
0.0
1021
5.2624723063701921E+199
1031
3.0921377841288875E+175
1021
0.0
1031
1.0
1040
0.0
1010
0.0
1020
0.0
1030
1.0
1000
SOLID
1070
     1
1070
     1
1071
        1
1071
        1
1071
       13
1070
     1
1040
30.896559
1040
2.1210209999999989
1040
30.819935052600002
1040
2.1210209999999989
1070
     1
1040
30.819935052600002
1040
2.1210209999999989
1040
30.759242792199998
1040
2.2303959999999989
1070
     1
1040
30.759242792199998
1040
2.2303959999999989
1040
30.744809
1040
2.2303959999999989
1070
     1
1040
30.744809
1040
2.2303959999999989
1040
30.744809
1040
2.1210209999999989
1070
     1
1040
30.744809
1040
2.1210209999999989
1040
30.677809
1040
2.1210209999999989
1070
     1
1040
30.677809
1040
2.1210209999999989
1040
30.677809
1040
2.3477709999999989
1070
     1
1040
30.677809
1040
2.3477709999999989
1040
30.744809
1040
2.3477709999999989
1070
     1
1040
30.744809
1040
2.3477709999999989
1040
30.744809
1040
2.2864585000000002
1070
     1
1040
30.744809
1040
2.2864585000000002
1040
30.778184
1040
2.2864585000000002
1070
     1
1040
30.778184
1040
2.2864585000000002
1040
30.858650134000001
1040
2.2864585000000002
1070
     1
1040
30.858650134000001
1040
2.2864585000000002
1040
30.849768317900001
1040
2.2670431161999991
1070
     1
1040
30.849768317900001
1040
2.2670431161999991
1040
30.8276357616
1040
2.2452292458000001
1070
     1
1040
30.8276357616
1040
2.2452292458000001
1040
30.896559
1040
2.1210209999999989
1071
        1
1005
24F
1070
     0
1070
     1
1071
        1
1040
0.0
1040
0.0
1040
0.0
1002
}
  0
POLYLINE
  5
251
  8
SYMBOL
  6
CONTINUOUS
 62
     2
 66
     1
 10
0.0
 20
0.0
 30
0.0
  0
VERTEX
  5
527
  8
SYMBOL
  6
CONTINUOUS
 62
     2
 10
30.677809
 20
2.3477709999999989
 30
0.0
  0
VERTEX
  5
528
  8
SYMBOL
  6
CONTINUOUS
 62
     2
 10
30.677809
 20
2.4022709999999989
 30
0.0
  0
VERTEX
  5
529
  8
SYMBOL
  6
CONTINUOUS
 62
     2
 10
30.7793715
 20
2.4022709999999989
 30
0.0
  0
VERTEX
  5
52A
  8
SYMBOL
  6
CONTINUOUS
 62
     2
 10
30.8099349823
 20
2.3966524109999989
 30
0.0
  0
VERTEX
  5
52B
  8
SYMBOL
  6
CONTINUOUS
 62
     2
 10
30.836501986999998
 20
2.3805313299000002
 30
0.0
  0
VERTEX
  5
52C
  8
SYMBOL
  6
CONTINUOUS
 62
     2
 10
30.855598615500011
 20
2.356015747599999
 30
0.0
  0
VERTEX
  5
52D
  8
SYMBOL
  6
CONTINUOUS
 62
     2
 10
30.8647277946
 20
2.3263113190000002
 30
0.0
  0
VERTEX
  5
52E
  8
SYMBOL
  6
CONTINUOUS
 62
     2
 10
30.862695794099999
 20
2.2953021917999998
 30
0.0
  0
VERTEX
  5
52F
  8
SYMBOL
  6
CONTINUOUS
 62
     2
 10
30.858650134000001
 20
2.2864585000000002
 30
0.0
  0
VERTEX
  5
530
  8
SYMBOL
  6
CONTINUOUS
 62
     2
 10
30.778184
 20
2.2864585000000002
 30
0.0
  0
VERTEX
  5
531
  8
SYMBOL
  6
CONTINUOUS
 62
     2
 10
30.793512124999999
 20
2.290565658699999
 30
0.0
  0
VERTEX
  5
532
  8
SYMBOL
  6
CONTINUOUS
 62
     2
 10
30.804733091300001
 20
2.3017866250000001
 30
0.0
  0
VERTEX
  5
533
  8
SYMBOL
  6
CONTINUOUS
 62
     2
 10
30.808840249999999
 20
2.31711475
 30
0.0
  0
VERTEX
  5
534
  8
SYMBOL
  6
CONTINUOUS
 62
     2
 10
30.804733091300001
 20
2.332442874999999
 30
0.0
  0
VERTEX
  5
535
  8
SYMBOL
  6
CONTINUOUS
 62
     2
 10
30.793512124999999
 20
2.3436638413000002
 30
0.0
  0
VERTEX
  5
536
  8
SYMBOL
  6
CONTINUOUS
 62
     2
 10
30.778184
 20
2.3477709999999989
 30
0.0
  0
VERTEX
  5
537
  8
SYMBOL
  6
CONTINUOUS
 62
     2
 10
30.744809
 20
2.3477709999999989
 30
0.0
  0
VERTEX
  5
538
  8
SYMBOL
  6
CONTINUOUS
 62
     2
 10
30.677809
 20
2.3477709999999989
 30
0.0
  0
SEQEND
  5
539
  8
SYMBOL
  6
CONTINUOUS
 62
     2
  0
INSERT
  5
252
  8
SYMBOL
  6
CONTINUOUS
 62
     2
  2
*U13
 10
0.0
 20
0.0
 30
0.0
1001
ACAD
1002
{
1000
R14_HATCH_DATA
1000
252
1011
1.0
1021
5.2624723063701921E+199
1031
3.0921377841288875E+175
1021
0.0
1031
0.0
1011
0.0
1021
5.2624723063701921E+199
1031
3.0921377841288875E+175
1021
1.0
1031
0.0
1011
0.0
1021
5.2624723063701921E+199
1031
3.0921377841288875E+175
1021
0.0
1031
1.0
1040
0.0
1010
0.0
1020
0.0
1030
1.0
1000
SOLID
1070
     1
1070
     1
1071
        1
1071
        1
1071
       17
1070
     1
1040
30.677809
1040
2.3477709999999989
1040
30.677809
1040
2.4022709999999989
1070
     1
1040
30.677809
1040
2.4022709999999989
1040
30.7793715
1040
2.4022709999999989
1070
     1
1040
30.7793715
1040
2.4022709999999989
1040
30.8099349823
1040
2.3966524109999989
1070
     1
1040
30.8099349823
1040
2.3966524109999989
1040
30.836501986999998
1040
2.3805313299000002
1070
     1
1040
30.836501986999998
1040
2.3805313299000002
1040
30.855598615500011
1040
2.356015747599999
1070
     1
1040
30.855598615500011
1040
2.356015747599999
1040
30.8647277946
1040
2.3263113190000002
1070
     1
1040
30.8647277946
1040
2.3263113190000002
1040
30.862695794099999
1040
2.2953021917999998
1070
     1
1040
30.862695794099999
1040
2.2953021917999998
1040
30.858650134000001
1040
2.2864585000000002
1070
     1
1040
30.858650134000001
1040
2.2864585000000002
1040
30.778184
1040
2.2864585000000002
1070
     1
1040
30.778184
1040
2.2864585000000002
1040
30.793512124999999
1040
2.290565658699999
1070
     1
1040
30.793512124999999
1040
2.290565658699999
1040
30.804733091300001
1040
2.3017866250000001
1070
     1
1040
30.804733091300001
1040
2.3017866250000001
1040
30.808840249999999
1040
2.31711475
1070
     1
1040
30.808840249999999
1040
2.31711475
1040
30.804733091300001
1040
2.332442874999999
1070
     1
1040
30.804733091300001
1040
2.332442874999999
1040
30.793512124999999
1040
2.3436638413000002
1070
     1
1040
30.793512124999999
1040
2.3436638413000002
1040
30.778184
1040
2.3477709999999989
1070
     1
1040
30.778184
1040
2.3477709999999989
1040
30.744809
1040
2.3477709999999989
1070
     1
1040
30.744809
1040
2.3477709999999989
1040
30.677809
1040
2.3477709999999989
1071
        1
1005
251
1070
     0
1070
     1
1071
        1
1040
0.0
1040
0.0
1040
0.0
1002
}
  0
POLYLINE
  5
253
  8
SYMBOL
  6
CONTINUOUS
 62
     2
 66
     1
 10
0.0
 20
0.0
 30
0.0
  0
VERTEX
  5
575
  8
SYMBOL
  6
CONTINUOUS
 62
     2
 10
29.595184
 20
2.1210209999999989
 30
0.0
  0
VERTEX
  5
576
  8
SYMBOL
  6
CONTINUOUS
 62
     2
 10
29.528184
 20
2.1210209999999989
 30
0.0
  0
VERTEX
  5
577
  8
SYMBOL
  6
CONTINUOUS
 62
     2
 10
29.528184
 20
2.4022709999999989
 30
0.0
  0
VERTEX
  5
578
  8
SYMBOL
  6
CONTINUOUS
 62
     2
 10
29.595184
 20
2.4022709999999989
 30
0.0
  0
VERTEX
  5
579
  8
SYMBOL
  6
CONTINUOUS
 62
     2
 10
29.595184
 20
2.3140233086999991
 30
0.0
  0
VERTEX
  5
57A
  8
SYMBOL
  6
CONTINUOUS
 62
     2
 10
29.683431691300001
 20
2.4022709999999989
 30
0.0
  0
VERTEX
  5
57B
  8
SYMBOL
  6
CONTINUOUS
 62
     2
 10
29.778184
 20
2.4022709999999989
 30
0.0
  0
VERTEX
  5
57C
  8
SYMBOL
  6
CONTINUOUS
 62
     2
 10
29.653184
 20
2.2772709999999989
 30
0.0
  0
VERTEX
  5
57D
  8
SYMBOL
  6
CONTINUOUS
 62
     2
 10
29.778184
 20
2.1210209999999989
 30
0.0
  0
VERTEX
  5
57E
  8
SYMBOL
  6
CONTINUOUS
 62
     2
 10
29.692382135199999
 20
2.1210209999999989
 30
0.0
  0
VERTEX
  5
57F
  8
SYMBOL
  6
CONTINUOUS
 62
     2
 10
29.595184
 20
2.242518668999999
 30
0.0
  0
VERTEX
  5
580
  8
SYMBOL
  6
CONTINUOUS
 62
     2
 10
29.595184
 20
2.1210209999999989
 30
0.0
  0
SEQEND
  5
581
  8
SYMBOL
  6
CONTINUOUS
 62
     2
  0
INSERT
  5
254
  8
SYMBOL
  6
CONTINUOUS
 62
     2
  2
*U14
 10
0.0
 20
0.0
 30
0.0
1001
ACAD
1002
{
1000
R14_HATCH_DATA
1000
254
1011
1.0
1021
5.2624723063701921E+199
1031
3.0921377841288875E+175
1021
0.0
1031
0.0
1011
0.0
1021
5.2624723063701921E+199
1031
3.0921377841288875E+175
1021
1.0
1031
0.0
1011
0.0
1021
5.2624723063701921E+199
1031
3.0921377841288875E+175
1021
0.0
1031
1.0
1040
0.0
1010
0.0
1020
0.0
1030
1.0
1000
SOLID
1070
     1
1070
     1
1071
        1
1071
        1
1071
       11
1070
     1
1040
29.595184
1040
2.1210209999999989
1040
29.528184
1040
2.1210209999999989
1070
     1
1040
29.528184
1040
2.1210209999999989
1040
29.528184
1040
2.4022709999999989
1070
     1
1040
29.528184
1040
2.4022709999999989
1040
29.595184
1040
2.4022709999999989
1070
     1
1040
29.595184
1040
2.4022709999999989
1040
29.595184
1040
2.3140233086999991
1070
     1
1040
29.595184
1040
2.3140233086999991
1040
29.683431691300001
1040
2.4022709999999989
1070
     1
1040
29.683431691300001
1040
2.4022709999999989
1040
29.778184
1040
2.4022709999999989
1070
     1
1040
29.778184
1040
2.4022709999999989
1040
29.653184
1040
2.2772709999999989
1070
     1
1040
29.653184
1040
2.2772709999999989
1040
29.778184
1040
2.1210209999999989
1070
     1
1040
29.778184
1040
2.1210209999999989
1040
29.692382135199999
1040
2.1210209999999989
1070
     1
1040
29.692382135199999
1040
2.1210209999999989
1040
29.595184
1040
2.242518668999999
1070
     1
1040
29.595184
1040
2.242518668999999
1040
29.595184
1040
2.1210209999999989
1071
        1
1005
253
1070
     0
1070
     1
1071
        1
1040
0.0
1040
0.0
1040
0.0
1002
}
  0
POLYLINE
  5
255
  8
SYMBOL
  6
CONTINUOUS
 62
     2
 66
     1
 10
0.0
 20
0.0
 30
0.0
  0
VERTEX
  5
5A3
  8
SYMBOL
  6
CONTINUOUS
 62
     2
 10
29.887559
 20
2.1210209999999989
 30
0.0
  0
VERTEX
  5
5A4
  8
SYMBOL
  6
CONTINUOUS
 62
     2
 10
29.844103485200002
 20
2.1279036773999991
 30
0.0
  0
VERTEX
  5
5A5
  8
SYMBOL
  6
CONTINUOUS
 62
     2
 10
29.8049016989
 20
2.1478779852000001
 30
0.0
  0
VERTEX
  5
5A6
  8
SYMBOL
  6
CONTINUOUS
 62
     2
 10
29.773790985200002
 20
2.1789886989
 30
0.0
  0
VERTEX
  5
5A7
  8
SYMBOL
  6
CONTINUOUS
 62
     2
 10
29.7538166774
 20
2.2181904852000001
 30
0.0
  0
VERTEX
  5
5A8
  8
SYMBOL
  6
CONTINUOUS
 62
     2
 10
29.746934
 20
2.2616459999999989
 30
0.0
  0
VERTEX
  5
5A9
  8
SYMBOL
  6
CONTINUOUS
 62
     2
 10
29.7538166774
 20
2.3051015148
 30
0.0
  0
VERTEX
  5
5AA
  8
SYMBOL
  6
CONTINUOUS
 62
     2
 10
29.769028770599999
 20
2.3349569287
 30
0.0
  0
VERTEX
  5
5AB
  8
SYMBOL
  6
CONTINUOUS
 62
     2
 10
29.894352258000001
 20
2.3349569287
 30
0.0
  0
VERTEX
  5
5AC
  8
SYMBOL
  6
CONTINUOUS
 62
     2
 10
29.867410562399989
 20
2.3324604130000002
 30
0.0
  0
VERTEX
  5
5AD
  8
SYMBOL
  6
CONTINUOUS
 62
     2
 10
29.8431900249
 20
2.3204000183999991
 30
0.0
  0
VERTEX
  5
5AE
  8
SYMBOL
  6
CONTINUOUS
 62
     2
 10
29.824961763400001
 20
2.3004045679999998
 30
0.0
  0
VERTEX
  5
5AF
  8
SYMBOL
  6
CONTINUOUS
 62
     2
 10
29.8151876055
 20
2.2751745581999989
 30
0.0
  0
VERTEX
  5
5B0
  8
SYMBOL
  6
CONTINUOUS
 62
     2
 10
29.8151876055
 20
2.2481174417999998
 30
0.0
  0
VERTEX
  5
5B1
  8
SYMBOL
  6
CONTINUOUS
 62
     2
 10
29.824961763400001
 20
2.2228874319999989
 30
0.0
  0
VERTEX
  5
5B2
  8
SYMBOL
  6
CONTINUOUS
 62
     2
 10
29.8431900249
 20
2.2028919816000001
 30
0.0
  0
VERTEX
  5
5B3
  8
SYMBOL
  6
CONTINUOUS
 62
     2
 10
29.867410562399989
 20
2.190831586999999
 30
0.0
  0
VERTEX
  5
5B4
  8
SYMBOL
  6
CONTINUOUS
 62
     2
 10
29.894352258000001
 20
2.1883350713
 30
0.0
  0
VERTEX
  5
5B5
  8
SYMBOL
  6
CONTINUOUS
 62
     2
 10
30.006089229400001
 20
2.1883350713
 30
0.0
  0
VERTEX
  5
5B6
  8
SYMBOL
  6
CONTINUOUS
 62
     2
 10
30.001327014800001
 20
2.1789886989
 30
0.0
  0
VERTEX
  5
5B7
  8
SYMBOL
  6
CONTINUOUS
 62
     2
 10
29.970216301099999
 20
2.1478779852000001
 30
0.0
  0
VERTEX
  5
5B8
  8
SYMBOL
  6
CONTINUOUS
 62
     2
 10
29.931014514800001
 20
2.1279036773999991
 30
0.0
  0
VERTEX
  5
5B9
  8
SYMBOL
  6
CONTINUOUS
 62
     2
 10
29.887559
 20
2.1210209999999989
 30
0.0
  0
SEQEND
  5
5BA
  8
SYMBOL
  6
CONTINUOUS
 62
     2
  0
INSERT
  5
256
  8
SYMBOL
  6
CONTINUOUS
 62
     2
  2
*U15
 10
0.0
 20
0.0
 30
0.0
1001
ACAD
1002
{
1000
R14_HATCH_DATA
1000
256
1011
1.0
1021
5.2624723063701921E+199
1031
3.0921377841288875E+175
1021
0.0
1031
0.0
1011
0.0
1021
5.2624723063701921E+199
1031
3.0921377841288875E+175
1021
1.0
1031
0.0
1011
0.0
1021
5.2624723063701921E+199
1031
3.0921377841288875E+175
1021
0.0
1031
1.0
1040
0.0
1010
0.0
1020
0.0
1030
1.0
1000
SOLID
1070
     1
1070
     1
1071
        1
1071
        1
1071
       22
1070
     1
1040
29.887559
1040
2.1210209999999989
1040
29.844103485200002
1040
2.1279036773999991
1070
     1
1040
29.844103485200002
1040
2.1279036773999991
1040
29.8049016989
1040
2.1478779852000001
1070
     1
1040
29.8049016989
1040
2.1478779852000001
1040
29.773790985200002
1040
2.1789886989
1070
     1
1040
29.773790985200002
1040
2.1789886989
1040
29.7538166774
1040
2.2181904852000001
1070
     1
1040
29.7538166774
1040
2.2181904852000001
1040
29.746934
1040
2.2616459999999989
1070
     1
1040
29.746934
1040
2.2616459999999989
1040
29.7538166774
1040
2.3051015148
1070
     1
1040
29.7538166774
1040
2.3051015148
1040
29.769028770599999
1040
2.3349569287
1070
     1
1040
29.769028770599999
1040
2.3349569287
1040
29.894352258000001
1040
2.3349569287
1070
     1
1040
29.894352258000001
1040
2.3349569287
1040
29.867410562399989
1040
2.3324604130000002
1070
     1
1040
29.867410562399989
1040
2.3324604130000002
1040
29.8431900249
1040
2.3204000183999991
1070
     1
1040
29.8431900249
1040
2.3204000183999991
1040
29.824961763400001
1040
2.3004045679999998
1070
     1
1040
29.824961763400001
1040
2.3004045679999998
1040
29.8151876055
1040
2.2751745581999989
1070
     1
1040
29.8151876055
1040
2.2751745581999989
1040
29.8151876055
1040
2.2481174417999998
1070
     1
1040
29.8151876055
1040
2.2481174417999998
1040
29.824961763400001
1040
2.2228874319999989
1070
     1
1040
29.824961763400001
1040
2.2228874319999989
1040
29.8431900249
1040
2.2028919816000001
1070
     1
1040
29.8431900249
1040
2.2028919816000001
1040
29.867410562399989
1040
2.190831586999999
1070
     1
1040
29.867410562399989
1040
2.190831586999999
1040
29.894352258000001
1040
2.1883350713
1070
     1
1040
29.894352258000001
1040
2.1883350713
1040
30.006089229400001
1040
2.1883350713
1070
     1
1040
30.006089229400001
1040
2.1883350713
1040
30.001327014800001
1040
2.1789886989
1070
     1
1040
30.001327014800001
1040
2.1789886989
1040
29.970216301099999
1040
2.1478779852000001
1070
     1
1040
29.970216301099999
1040
2.1478779852000001
1040
29.931014514800001
1040
2.1279036773999991
1070
     1
1040
29.931014514800001
1040
2.1279036773999991
1040
29.887559
1040
2.1210209999999989
1071
        1
1005
255
1070
     0
1070
     1
1071
        1
1040
0.0
1040
0.0
1040
0.0
1002
}
  0
POLYLINE
  5
257
  8
SYMBOL
  6
CONTINUOUS
 62
     2
 66
     1
 10
0.0
 20
0.0
 30
0.0
  0
VERTEX
  5
601
  8
SYMBOL
  6
CONTINUOUS
 62
     2
 10
29.769028770599999
 20
2.3349569287
 30
0.0
  0
VERTEX
  5
602
  8
SYMBOL
  6
CONTINUOUS
 62
     2
 10
29.773790985200002
 20
2.3443033011000001
 30
0.0
  0
VERTEX
  5
603
  8
SYMBOL
  6
CONTINUOUS
 62
     2
 10
29.8049016989
 20
2.3754140148
 30
0.0
  0
VERTEX
  5
604
  8
SYMBOL
  6
CONTINUOUS
 62
     2
 10
29.844103485200002
 20
2.3953883226000001
 30
0.0
  0
VERTEX
  5
605
  8
SYMBOL
  6
CONTINUOUS
 62
     2
 10
29.887559
 20
2.4022709999999989
 30
0.0
  0
VERTEX
  5
606
  8
SYMBOL
  6
CONTINUOUS
 62
     2
 10
29.931014514800001
 20
2.3953883226000001
 30
0.0
  0
VERTEX
  5
607
  8
SYMBOL
  6
CONTINUOUS
 62
     2
 10
29.970216301099999
 20
2.3754140148
 30
0.0
  0
VERTEX
  5
608
  8
SYMBOL
  6
CONTINUOUS
 62
     2
 10
30.001327014800001
 20
2.3443033011000001
 30
0.0
  0
VERTEX
  5
609
  8
SYMBOL
  6
CONTINUOUS
 62
     2
 10
30.021301322599999
 20
2.3051015148
 30
0.0
  0
VERTEX
  5
60A
  8
SYMBOL
  6
CONTINUOUS
 62
     2
 10
30.028184
 20
2.2616459999999989
 30
0.0
  0
VERTEX
  5
60B
  8
SYMBOL
  6
CONTINUOUS
 62
     2
 10
30.021301322599999
 20
2.2181904852000001
 30
0.0
  0
VERTEX
  5
60C
  8
SYMBOL
  6
CONTINUOUS
 62
     2
 10
30.006089229400001
 20
2.1883350713
 30
0.0
  0
VERTEX
  5
60D
  8
SYMBOL
  6
CONTINUOUS
 62
     2
 10
29.894352258000001
 20
2.1883350713
 30
0.0
  0
VERTEX
  5
60E
  8
SYMBOL
  6
CONTINUOUS
 62
     2
 10
29.920376486399999
 20
2.1957396026999998
 30
0.0
  0
VERTEX
  5
60F
  8
SYMBOL
  6
CONTINUOUS
 62
     2
 10
29.941968531499999
 20
2.2120451582
 30
0.0
  0
VERTEX
  5
610
  8
SYMBOL
  6
CONTINUOUS
 62
     2
 10
29.9562122679
 20
2.2350495822999989
 30
0.0
  0
VERTEX
  5
611
  8
SYMBOL
  6
CONTINUOUS
 62
     2
 10
29.961183999999999
 20
2.2616459999999989
 30
0.0
  0
VERTEX
  5
612
  8
SYMBOL
  6
CONTINUOUS
 62
     2
 10
29.9562122679
 20
2.2882424176999998
 30
0.0
  0
VERTEX
  5
613
  8
SYMBOL
  6
CONTINUOUS
 62
     2
 10
29.941968531499999
 20
2.3112468418000001
 30
0.0
  0
VERTEX
  5
614
  8
SYMBOL
  6
CONTINUOUS
 62
     2
 10
29.920376486399999
 20
2.327552397299999
 30
0.0
  0
VERTEX
  5
615
  8
SYMBOL
  6
CONTINUOUS
 62
     2
 10
29.894352258000001
 20
2.3349569287
 30
0.0
  0
VERTEX
  5
616
  8
SYMBOL
  6
CONTINUOUS
 62
     2
 10
29.769028770599999
 20
2.3349569287
 30
0.0
  0
SEQEND
  5
617
  8
SYMBOL
  6
CONTINUOUS
 62
     2
  0
INSERT
  5
258
  8
SYMBOL
  6
CONTINUOUS
 62
     2
  2
*U16
 10
0.0
 20
0.0
 30
0.0
1001
ACAD
1002
{
1000
R14_HATCH_DATA
1000
258
1011
1.0
1021
5.2624723063701921E+199
1031
3.0921377841288875E+175
1021
0.0
1031
0.0
1011
0.0
1021
5.2624723063701921E+199
1031
3.0921377841288875E+175
1021
1.0
1031
0.0
1011
0.0
1021
5.2624723063701921E+199
1031
3.0921377841288875E+175
1021
0.0
1031
1.0
1040
0.0
1010
0.0
1020
0.0
1030
1.0
1000
SOLID
1070
     1
1070
     1
1071
        1
1071
        1
1071
       21
1070
     1
1040
29.769028770599999
1040
2.3349569287
1040
29.773790985200002
1040
2.3443033011000001
1070
     1
1040
29.773790985200002
1040
2.3443033011000001
1040
29.8049016989
1040
2.3754140148
1070
     1
1040
29.8049016989
1040
2.3754140148
1040
29.844103485200002
1040
2.3953883226000001
1070
     1
1040
29.844103485200002
1040
2.3953883226000001
1040
29.887559
1040
2.4022709999999989
1070
     1
1040
29.887559
1040
2.4022709999999989
1040
29.931014514800001
1040
2.3953883226000001
1070
     1
1040
29.931014514800001
1040
2.3953883226000001
1040
29.970216301099999
1040
2.3754140148
1070
     1
1040
29.970216301099999
1040
2.3754140148
1040
30.001327014800001
1040
2.3443033011000001
1070
     1
1040
30.001327014800001
1040
2.3443033011000001
1040
30.021301322599999
1040
2.3051015148
1070
     1
1040
30.021301322599999
1040
2.3051015148
1040
30.028184
1040
2.2616459999999989
1070
     1
1040
30.028184
1040
2.2616459999999989
1040
30.021301322599999
1040
2.2181904852000001
1070
     1
1040
30.021301322599999
1040
2.2181904852000001
1040
30.006089229400001
1040
2.1883350713
1070
     1
1040
30.006089229400001
1040
2.1883350713
1040
29.894352258000001
1040
2.1883350713
1070
     1
1040
29.894352258000001
1040
2.1883350713
1040
29.920376486399999
1040
2.1957396026999998
1070
     1
1040
29.920376486399999
1040
2.1957396026999998
1040
29.941968531499999
1040
2.2120451582
1070
     1
1040
29.941968531499999
1040
2.2120451582
1040
29.9562122679
1040
2.2350495822999989
1070
     1
1040
29.9562122679
1040
2.2350495822999989
1040
29.961183999999999
1040
2.2616459999999989
1070
     1
1040
29.961183999999999
1040
2.2616459999999989
1040
29.9562122679
1040
2.2882424176999998
1070
     1
1040
29.9562122679
1040
2.2882424176999998
1040
29.941968531499999
1040
2.3112468418000001
1070
     1
1040
29.941968531499999
1040
2.3112468418000001
1040
29.920376486399999
1040
2.327552397299999
1070
     1
1040
29.920376486399999
1040
2.327552397299999
1040
29.894352258000001
1040
2.3349569287
1070
     1
1040
29.894352258000001
1040
2.3349569287
1040
29.769028770599999
1040
2.3349569287
1071
        1
1005
257
1070
     0
1070
     1
1071
        1
1040
0.0
1040
0.0
1040
0.0
1002
}
  0
POLYLINE
  5
259
  8
SYMBOL
  6
CONTINUOUS
 62
     2
 66
     1
 10
0.0
 20
0.0
 30
0.0
  0
VERTEX
  5
656
  8
SYMBOL
  6
CONTINUOUS
 62
     2
 10
30.126434
 20
2.1210209999999989
 30
0.0
  0
VERTEX
  5
657
  8
SYMBOL
  6
CONTINUOUS
 62
     2
 10
30.059434
 20
2.1210209999999989
 30
0.0
  0
VERTEX
  5
658
  8
SYMBOL
  6
CONTINUOUS
 62
     2
 10
30.059434
 20
2.4022709999999989
 30
0.0
  0
VERTEX
  5
659
  8
SYMBOL
  6
CONTINUOUS
 62
     2
 10
30.126434
 20
2.4022709999999989
 30
0.0
  0
VERTEX
  5
65A
  8
SYMBOL
  6
CONTINUOUS
 62
     2
 10
30.126434
 20
2.310770999999999
 30
0.0
  0
VERTEX
  5
65B
  8
SYMBOL
  6
CONTINUOUS
 62
     2
 10
30.204559
 20
2.310770999999999
 30
0.0
  0
VERTEX
  5
65C
  8
SYMBOL
  6
CONTINUOUS
 62
     2
 10
30.204559
 20
2.4022709999999989
 30
0.0
  0
VERTEX
  5
65D
  8
SYMBOL
  6
CONTINUOUS
 62
     2
 10
30.271559
 20
2.4022709999999989
 30
0.0
  0
VERTEX
  5
65E
  8
SYMBOL
  6
CONTINUOUS
 62
     2
 10
30.271559
 20
2.1210209999999989
 30
0.0
  0
VERTEX
  5
65F
  8
SYMBOL
  6
CONTINUOUS
 62
     2
 10
30.204559
 20
2.1210209999999989
 30
0.0
  0
VERTEX
  5
660
  8
SYMBOL
  6
CONTINUOUS
 62
     2
 10
30.204559
 20
2.2437710000000002
 30
0.0
  0
VERTEX
  5
661
  8
SYMBOL
  6
CONTINUOUS
 62
     2
 10
30.126434
 20
2.2437710000000002
 30
0.0
  0
VERTEX
  5
662
  8
SYMBOL
  6
CONTINUOUS
 62
     2
 10
30.126434
 20
2.1210209999999989
 30
0.0
  0
SEQEND
  5
663
  8
SYMBOL
  6
CONTINUOUS
 62
     2
  0
INSERT
  5
25A
  8
SYMBOL
  6
CONTINUOUS
 62
     2
  2
*U17
 10
0.0
 20
0.0
 30
0.0
1001
ACAD
1002
{
1000
R14_HATCH_DATA
1000
25A
1011
1.0
1021
5.2624723063701921E+199
1031
3.0921377841288875E+175
1021
0.0
1031
0.0
1011
0.0
1021
5.2624723063701921E+199
1031
3.0921377841288875E+175
1021
1.0
1031
0.0
1011
0.0
1021
5.2624723063701921E+199
1031
3.0921377841288875E+175
1021
0.0
1031
1.0
1040
0.0
1010
0.0
1020
0.0
1030
1.0
1000
SOLID
1070
     1
1070
     1
1071
        1
1071
        1
1071
       12
1070
     1
1040
30.126434
1040
2.1210209999999989
1040
30.059434
1040
2.1210209999999989
1070
     1
1040
30.059434
1040
2.1210209999999989
1040
30.059434
1040
2.4022709999999989
1070
     1
1040
30.059434
1040
2.4022709999999989
1040
30.126434
1040
2.4022709999999989
1070
     1
1040
30.126434
1040
2.4022709999999989
1040
30.126434
1040
2.310770999999999
1070
     1
1040
30.126434
1040
2.310770999999999
1040
30.204559
1040
2.310770999999999
1070
     1
1040
30.204559
1040
2.310770999999999
1040
30.204559
1040
2.4022709999999989
1070
     1
1040
30.204559
1040
2.4022709999999989
1040
30.271559
1040
2.4022709999999989
1070
     1
1040
30.271559
1040
2.4022709999999989
1040
30.271559
1040
2.1210209999999989
1070
     1
1040
30.271559
1040
2.1210209999999989
1040
30.204559
1040
2.1210209999999989
1070
     1
1040
30.204559
1040
2.1210209999999989
1040
30.204559
1040
2.2437710000000002
1070
     1
1040
30.204559
1040
2.2437710000000002
1040
30.126434
1040
2.2437710000000002
1070
     1
1040
30.126434
1040
2.2437710000000002
1040
30.126434
1040
2.1210209999999989
1071
        1
1005
259
1070
     0
1070
     1
1071
        1
1040
0.0
1040
0.0
1040
0.0
1002
}
  0
POLYLINE
  5
25B
  8
SYMBOL
  6
CONTINUOUS
 62
     2
 66
     1
 10
0.0
 20
0.0
 30
0.0
  0
VERTEX
  5
687
  8
SYMBOL
  6
CONTINUOUS
 62
     2
 10
30.459059
 20
2.1210209999999989
 30
0.0
  0
VERTEX
  5
688
  8
SYMBOL
  6
CONTINUOUS
 62
     2
 10
30.302809
 20
2.1210209999999989
 30
0.0
  0
VERTEX
  5
689
  8
SYMBOL
  6
CONTINUOUS
 62
     2
 10
30.302809
 20
2.4022709999999989
 30
0.0
  0
VERTEX
  5
68A
  8
SYMBOL
  6
CONTINUOUS
 62
     2
 10
30.369809
 20
2.4022709999999989
 30
0.0
  0
VERTEX
  5
68B
  8
SYMBOL
  6
CONTINUOUS
 62
     2
 10
30.369809
 20
2.1880209999999991
 30
0.0
  0
VERTEX
  5
68C
  8
SYMBOL
  6
CONTINUOUS
 62
     2
 10
30.459059
 20
2.1880209999999991
 30
0.0
  0
VERTEX
  5
68D
  8
SYMBOL
  6
CONTINUOUS
 62
     2
 10
30.459059
 20
2.1210209999999989
 30
0.0
  0
SEQEND
  5
68E
  8
SYMBOL
  6
CONTINUOUS
 62
     2
  0
INSERT
  5
25C
  8
SYMBOL
  6
CONTINUOUS
 62
     2
  2
*U18
 10
0.0
 20
0.0
 30
0.0
1001
ACAD
1002
{
1000
R14_HATCH_DATA
1000
25C
1011
1.0
1021
5.2624723063701921E+199
1031
3.0921377841288875E+175
1021
0.0
1031
0.0
1011
0.0
1021
5.2624723063701921E+199
1031
3.0921377841288875E+175
1021
1.0
1031
0.0
1011
0.0
1021
5.2624723063701921E+199
1031
3.0921377841288875E+175
1021
0.0
1031
1.0
1040
0.0
1010
0.0
1020
0.0
1030
1.0
1000
SOLID
1070
     1
1070
     1
1071
        1
1071
        1
1071
        6
1070
     1
1040
30.459059
1040
2.1210209999999989
1040
30.302809
1040
2.1210209999999989
1070
     1
1040
30.302809
1040
2.1210209999999989
1040
30.302809
1040
2.4022709999999989
1070
     1
1040
30.302809
1040
2.4022709999999989
1040
30.369809
1040
2.4022709999999989
1070
     1
1040
30.369809
1040
2.4022709999999989
1040
30.369809
1040
2.1880209999999991
1070
     1
1040
30.369809
1040
2.1880209999999991
1040
30.459059
1040
2.1880209999999991
1070
     1
1040
30.459059
1040
2.1880209999999991
1040
30.459059
1040
2.1210209999999989
1071
        1
1005
25B
1070
     0
1070
     1
1071
        1
1040
0.0
1040
0.0
1040
0.0
1002
}
  0
POLYLINE
  5
25D
  8
SYMBOL
  6
CONTINUOUS
 62
     2
 66
     1
 10
0.0
 20
0.0
 30
0.0
  0
VERTEX
  5
6A0
  8
SYMBOL
  6
CONTINUOUS
 62
     2
 10
30.646559
 20
2.1210209999999989
 30
0.0
  0
VERTEX
  5
6A1
  8
SYMBOL
  6
CONTINUOUS
 62
     2
 10
30.490309
 20
2.1210209999999989
 30
0.0
  0
VERTEX
  5
6A2
  8
SYMBOL
  6
CONTINUOUS
 62
     2
 10
30.490309
 20
2.4022709999999989
 30
0.0
  0
VERTEX
  5
6A3
  8
SYMBOL
  6
CONTINUOUS
 62
     2
 10
30.646559
 20
2.4022709999999989
 30
0.0
  0
VERTEX
  5
6A4
  8
SYMBOL
  6
CONTINUOUS
 62
     2
 10
30.646559
 20
2.3352710000000001
 30
0.0
  0
VERTEX
  5
6A5
  8
SYMBOL
  6
CONTINUOUS
 62
     2
 10
30.557309
 20
2.3352710000000001
 30
0.0
  0
VERTEX
  5
6A6
  8
SYMBOL
  6
CONTINUOUS
 62
     2
 10
30.557309
 20
2.287333499999999
 30
0.0
  0
VERTEX
  5
6A7
  8
SYMBOL
  6
CONTINUOUS
 62
     2
 10
30.646559
 20
2.287333499999999
 30
0.0
  0
VERTEX
  5
6A8
  8
SYMBOL
  6
CONTINUOUS
 62
     2
 10
30.646559
 20
2.2359585000000002
 30
0.0
  0
VERTEX
  5
6A9
  8
SYMBOL
  6
CONTINUOUS
 62
     2
 10
30.557309
 20
2.2359585000000002
 30
0.0
  0
VERTEX
  5
6AA
  8
SYMBOL
  6
CONTINUOUS
 62
     2
 10
30.557309
 20
2.1880209999999991
 30
0.0
  0
VERTEX
  5
6AB
  8
SYMBOL
  6
CONTINUOUS
 62
     2
 10
30.646559
 20
2.1880209999999991
 30
0.0
  0
VERTEX
  5
6AC
  8
SYMBOL
  6
CONTINUOUS
 62
     2
 10
30.646559
 20
2.1210209999999989
 30
0.0
  0
SEQEND
  5
6AD
  8
SYMBOL
  6
CONTINUOUS
 62
     2
  0
INSERT
  5
25E
  8
SYMBOL
  6
CONTINUOUS
 62
     2
  2
*U19
 10
0.0
 20
0.0
 30
0.0
1001
ACAD
1002
{
1000
R14_HATCH_DATA
1000
25E
1011
1.0
1021
5.2624723063701921E+199
1031
3.0921377841288875E+175
1021
0.0
1031
0.0
1011
0.0
1021
5.2624723063701921E+199
1031
3.0921377841288875E+175
1021
1.0
1031
0.0
1011
0.0
1021
5.2624723063701921E+199
1031
3.0921377841288875E+175
1021
0.0
1031
1.0
1040
0.0
1010
0.0
1020
0.0
1030
1.0
1000
SOLID
1070
     1
1070
     1
1071
        1
1071
        1
1071
       12
1070
     1
1040
30.646559
1040
2.1210209999999989
1040
30.490309
1040
2.1210209999999989
1070
     1
1040
30.490309
1040
2.1210209999999989
1040
30.490309
1040
2.4022709999999989
1070
     1
1040
30.490309
1040
2.4022709999999989
1040
30.646559
1040
2.4022709999999989
1070
     1
1040
30.646559
1040
2.4022709999999989
1040
30.646559
1040
2.3352710000000001
1070
     1
1040
30.646559
1040
2.3352710000000001
1040
30.557309
1040
2.3352710000000001
1070
     1
1040
30.557309
1040
2.3352710000000001
1040
30.557309
1040
2.287333499999999
1070
     1
1040
30.557309
1040
2.287333499999999
1040
30.646559
1040
2.287333499999999
1070
     1
1040
30.646559
1040
2.287333499999999
1040
30.646559
1040
2.2359585000000002
1070
     1
1040
30.646559
1040
2.2359585000000002
1040
30.557309
1040
2.2359585000000002
1070
     1
1040
30.557309
1040
2.2359585000000002
1040
30.557309
1040
2.1880209999999991
1070
     1
1040
30.557309
1040
2.1880209999999991
1040
30.646559
1040
2.1880209999999991
1070
     1
1040
30.646559
1040
2.1880209999999991
1040
30.646559
1040
2.1210209999999989
1071
        1
1005
25D
1070
     0
1070
     1
1071
        1
1040
0.0
1040
0.0
1040
0.0
1002
}
  0
ENDBLK
  5
25F
  8
0
  6
BYBLOCK
 62
     0
  0
BLOCK
  8
SYMBOL
  6
HIDDEN
 62
     8
  2
C_ARROW_BL1
 70
     0
 10
17.0
 20
21.774999999999999
 30
0.0
  3
C_ARROW_BL1
  1

  0
LINE
  5
261
  8
SYMBOL
  6
HIDDEN
 62
     8
 10
17.0
 20
21.587499999999999
 30
0.0
 11
17.09375
 21
21.774999999999999
 31
0.0
  0
LINE
  5
262
  8
SYMBOL
  6
HIDDEN
 62
     8
 10
17.0
 20
21.587499999999999
 30
0.0
 11
16.90625
 21
21.774999999999999
 31
0.0
  0
LINE
  5
263
  8
SYMBOL
  6
HIDDEN
 62
     8
 10
16.9765625
 20
21.774999999999999
 30
0.0
 11
16.90625
 21
21.774999999999999
 31
0.0
  0
LINE
  5
264
  8
SYMBOL
  6
HIDDEN
 62
     8
 10
16.9765625
 20
21.962499999999999
 30
0.0
 11
16.9765625
 21
21.774999999999999
 31
0.0
  0
LINE
  5
265
  8
SYMBOL
  6
HIDDEN
 62
     8
 10
16.9765625
 20
21.962499999999999
 30
0.0
 11
17.0234375
 21
21.962499999999999
 31
0.0
  0
LINE
  5
266
  8
SYMBOL
  6
HIDDEN
 62
     8
 10
17.0234375
 20
21.774999999999999
 30
0.0
 11
17.0234375
 21
21.962499999999999
 31
0.0
  0
LINE
  5
267
  8
SYMBOL
  6
HIDDEN
 62
     8
 10
17.09375
 20
21.774999999999999
 30
0.0
 11
17.0234375
 21
21.774999999999999
 31
0.0
  0
POLYLINE
  5
268
  8
SYMBOL
  6
HIDDEN
 62
     8
 66
     1
 10
0.0
 20
0.0
 30
0.0
  0
VERTEX
  5
6D1
  8
SYMBOL
  6
HIDDEN
 62
     8
 10
17.0
 20
21.587499999999999
 30
0.0
  0
VERTEX
  5
6D2
  8
SYMBOL
  6
HIDDEN
 62
     8
 10
16.90625
 20
21.774999999999999
 30
0.0
  0
VERTEX
  5
6D3
  8
SYMBOL
  6
HIDDEN
 62
     8
 10
16.9765625
 20
21.774999999999999
 30
0.0
  0
VERTEX
  5
6D4
  8
SYMBOL
  6
HIDDEN
 62
     8
 10
16.9765625
 20
21.962499999999999
 30
0.0
  0
VERTEX
  5
6D5
  8
SYMBOL
  6
HIDDEN
 62
     8
 10
17.0234375
 20
21.962499999999999
 30
0.0
  0
VERTEX
  5
6D6
  8
SYMBOL
  6
HIDDEN
 62
     8
 10
17.0234375
 20
21.774999999999999
 30
0.0
  0
VERTEX
  5
6D7
  8
SYMBOL
  6
HIDDEN
 62
     8
 10
17.09375
 20
21.774999999999999
 30
0.0
  0
VERTEX
  5
6D8
  8
SYMBOL
  6
HIDDEN
 62
     8
 10
17.0
 20
21.587499999999999
 30
0.0
  0
SEQEND
  5
6D9
  8
SYMBOL
  6
HIDDEN
 62
     8
  0
INSERT
  5
269
  8
SYMBOL
  6
CONTINUOUS
 62
     8
  2
*U20
 10
0.0
 20
0.0
 30
0.0
1001
ACAD
1002
{
1000
R14_HATCH_DATA
1000
269
1011
1.0
1021
5.2624723063701921E+199
1031
3.0921377841288875E+175
1021
0.0
1031
0.0
1011
0.0
1021
5.2624723063701921E+199
1031
3.0921377841288875E+175
1021
1.0
1031
0.0
1011
0.0
1021
5.2624723063701921E+199
1031
3.0921377841288875E+175
1021
0.0
1031
1.0
1040
0.0
1010
0.0
1020
0.0
1030
1.0
1000
SOLID
1070
     1
1070
     1
1071
        1
1071
        1
1071
        7
1070
     1
1040
17.0
1040
21.587499999999999
1040
16.90625
1040
21.774999999999999
1070
     1
1040
16.90625
1040
21.774999999999999
1040
16.9765625
1040
21.774999999999999
1070
     1
1040
16.9765625
1040
21.774999999999999
1040
16.9765625
1040
21.962499999999999
1070
     1
1040
16.9765625
1040
21.962499999999999
1040
17.0234375
1040
21.962499999999999
1070
     1
1040
17.0234375
1040
21.962499999999999
1040
17.0234375
1040
21.774999999999999
1070
     1
1040
17.0234375
1040
21.774999999999999
1040
17.09375
1040
21.774999999999999
1070
     1
1040
17.09375
1040
21.774999999999999
1040
17.0
1040
21.587499999999999
1071
        1
1005
268
1070
     0
1070
     1
1071
        1
1040
0.0
1040
0.0
1040
0.0
1002
}
  0
ENDBLK
  5
26A
  8
0
  6
BYBLOCK
 62
     0
  0
BLOCK
  8
SYMBOL
  6
HIDDEN
 62
     8
  2
C_ARROW_BL2
 70
     0
 10
0.3375
 20
11.0
 30
0.0
  3
C_ARROW_BL2
  1

  0
LINE
  5
26C
  8
SYMBOL
  6
HIDDEN
 62
     8
 10
0.525
 20
11.0
 30
0.0
 11
0.3375
 21
11.09375
 31
0.0
  0
LINE
  5
26D
  8
SYMBOL
  6
HIDDEN
 62
     8
 10
0.525
 20
11.0
 30
0.0
 11
0.3375
 21
10.90625
 31
0.0
  0
LINE
  5
26E
  8
SYMBOL
  6
HIDDEN
 62
     8
 10
0.3375
 20
10.9765625
 30
0.0
 11
0.3375
 21
10.90625
 31
0.0
  0
LINE
  5
26F
  8
SYMBOL
  6
HIDDEN
 62
     8
 10
0.15
 20
10.9765625
 30
0.0
 11
0.3375
 21
10.9765625
 31
0.0
  0
LINE
  5
270
  8
SYMBOL
  6
HIDDEN
 62
     8
 10
0.15
 20
10.9765625
 30
0.0
 11
0.15
 21
11.0234375
 31
0.0
  0
LINE
  5
271
  8
SYMBOL
  6
HIDDEN
 62
     8
 10
0.3375
 20
11.0234375
 30
0.0
 11
0.15
 21
11.0234375
 31
0.0
  0
LINE
  5
272
  8
SYMBOL
  6
HIDDEN
 62
     8
 10
0.3375
 20
11.09375
 30
0.0
 11
0.3375
 21
11.0234375
 31
0.0
  0
POLYLINE
  5
273
  8
SYMBOL
  6
HIDDEN
 62
     8
 66
     1
 10
0.0
 20
0.0
 30
0.0
  0
VERTEX
  5
6EA
  8
SYMBOL
  6
HIDDEN
 62
     8
 10
0.525
 20
11.0
 30
0.0
  0
VERTEX
  5
6EB
  8
SYMBOL
  6
HIDDEN
 62
     8
 10
0.3375
 20
10.90625
 30
0.0
  0
VERTEX
  5
6EC
  8
SYMBOL
  6
HIDDEN
 62
     8
 10
0.3375
 20
10.9765625
 30
0.0
  0
VERTEX
  5
6ED
  8
SYMBOL
  6
HIDDEN
 62
     8
 10
0.15
 20
10.9765625
 30
0.0
  0
VERTEX
  5
6EE
  8
SYMBOL
  6
HIDDEN
 62
     8
 10
0.15
 20
11.0234375
 30
0.0
  0
VERTEX
  5
6EF
  8
SYMBOL
  6
HIDDEN
 62
     8
 10
0.3375
 20
11.0234375
 30
0.0
  0
VERTEX
  5
6F0
  8
SYMBOL
  6
HIDDEN
 62
     8
 10
0.3375
 20
11.09375
 30
0.0
  0
VERTEX
  5
6F1
  8
SYMBOL
  6
HIDDEN
 62
     8
 10
0.525
 20
11.0
 30
0.0
  0
SEQEND
  5
6F2
  8
SYMBOL
  6
HIDDEN
 62
     8
  0
INSERT
  5
274
  8
SYMBOL
  6
CONTINUOUS
 62
     8
  2
*U21
 10
0.0
 20
0.0
 30
0.0
1001
ACAD
1002
{
1000
R14_HATCH_DATA
1000
274
1011
1.0
1021
5.2624723063701921E+199
1031
3.0921377841288875E+175
1021
0.0
1031
0.0
1011
0.0
1021
5.2624723063701921E+199
1031
3.0921377841288875E+175
1021
1.0
1031
0.0
1011
0.0
1021
5.2624723063701921E+199
1031
3.0921377841288875E+175
1021
0.0
1031
1.0
1040
0.0
1010
0.0
1020
0.0
1030
1.0
1000
SOLID
1070
     1
1070
     1
1071
        1
1071
        1
1071
        7
1070
     1
1040
0.525
1040
11.0
1040
0.3375
1040
10.90625
1070
     1
1040
0.3375
1040
10.90625
1040
0.3375
1040
10.9765625
1070
     1
1040
0.3375
1040
10.9765625
1040
0.15
1040
10.9765625
1070
     1
1040
0.15
1040
10.9765625
1040
0.15
1040
11.0234375
1070
     1
1040
0.15
1040
11.0234375
1040
0.3375
1040
11.0234375
1070
     1
1040
0.3375
1040
11.0234375
1040
0.3375
1040
11.09375
1070
     1
1040
0.3375
1040
11.09375
1040
0.525
1040
11.0
1071
        1
1005
273
1070
     0
1070
     1
1071
        1
1040
0.0
1040
0.0
1040
0.0
1002
}
  0
ENDBLK
  5
275
  8
0
  6
BYBLOCK
 62
     0
  0
BLOCK
  8
SYMBOL
  6
HIDDEN
 62
     8
  2
C_ARROW_BL3
 70
     0
 10
17.0
 20
0.4
 30
0.0
  3
C_ARROW_BL3
  1

  0
LINE
  5
277
  8
SYMBOL
  6
HIDDEN
 62
     8
 10
17.0
 20
0.5875
 30
0.0
 11
16.90625
 21
0.4
 31
0.0
  0
LINE
  5
278
  8
SYMBOL
  6
HIDDEN
 62
     8
 10
17.0
 20
0.5875
 30
0.0
 11
17.09375
 21
0.4
 31
0.0
  0
LINE
  5
279
  8
SYMBOL
  6
HIDDEN
 62
     8
 10
17.0234375
 20
0.4
 30
0.0
 11
17.09375
 21
0.4
 31
0.0
  0
LINE
  5
27A
  8
SYMBOL
  6
HIDDEN
 62
     8
 10
17.0234375
 20
0.2125
 30
0.0
 11
17.0234375
 21
0.4
 31
0.0
  0
LINE
  5
27B
  8
SYMBOL
  6
HIDDEN
 62
     8
 10
17.0234375
 20
0.2125
 30
0.0
 11
16.9765625
 21
0.2125
 31
0.0
  0
LINE
  5
27C
  8
SYMBOL
  6
HIDDEN
 62
     8
 10
16.9765625
 20
0.4
 30
0.0
 11
16.9765625
 21
0.2125
 31
0.0
  0
LINE
  5
27D
  8
SYMBOL
  6
HIDDEN
 62
     8
 10
16.90625
 20
0.4
 30
0.0
 11
16.9765625
 21
0.4
 31
0.0
  0
POLYLINE
  5
27E
  8
SYMBOL
  6
HIDDEN
 62
     8
 66
     1
 10
0.0
 20
0.0
 30
0.0
  0
VERTEX
  5
708
  8
SYMBOL
  6
HIDDEN
 62
     8
 10
17.0
 20
0.5875
 30
0.0
  0
VERTEX
  5
709
  8
SYMBOL
  6
HIDDEN
 62
     8
 10
17.09375
 20
0.4
 30
0.0
  0
VERTEX
  5
70A
  8
SYMBOL
  6
HIDDEN
 62
     8
 10
17.0234375
 20
0.4
 30
0.0
  0
VERTEX
  5
70B
  8
SYMBOL
  6
HIDDEN
 62
     8
 10
17.0234375
 20
0.2125
 30
0.0
  0
VERTEX
  5
70C
  8
SYMBOL
  6
HIDDEN
 62
     8
 10
16.9765625
 20
0.2125
 30
0.0
  0
VERTEX
  5
70D
  8
SYMBOL
  6
HIDDEN
 62
     8
 10
16.9765625
 20
0.4
 30
0.0
  0
VERTEX
  5
70E
  8
SYMBOL
  6
HIDDEN
 62
     8
 10
16.90625
 20
0.4
 30
0.0
  0
VERTEX
  5
70F
  8
SYMBOL
  6
HIDDEN
 62
     8
 10
17.0
 20
0.5875
 30
0.0
  0
SEQEND
  5
710
  8
SYMBOL
  6
HIDDEN
 62
     8
  0
INSERT
  5
27F
  8
SYMBOL
  6
CONTINUOUS
 62
     8
  2
*U22
 10
0.0
 20
0.0
 30
0.0
1001
ACAD
1002
{
1000
R14_HATCH_DATA
1000
27F
1011
1.0
1021
5.2624723063701921E+199
1031
3.0921377841288875E+175
1021
0.0
1031
0.0
1011
0.0
1021
5.2624723063701921E+199
1031
3.0921377841288875E+175
1021
1.0
1031
0.0
1011
0.0
1021
5.2624723063701921E+199
1031
3.0921377841288875E+175
1021
0.0
1031
1.0
1040
0.0
1010
0.0
1020
0.0
1030
1.0
1000
SOLID
1070
     1
1070
     1
1071
        1
1071
        1
1071
        7
1070
     1
1040
17.0
1040
0.5875
1040
17.09375
1040
0.4
1070
     1
1040
17.09375
1040
0.4
1040
17.0234375
1040
0.4
1070
     1
1040
17.0234375
1040
0.4
1040
17.0234375
1040
0.2125
1070
     1
1040
17.0234375
1040
0.2125
1040
16.9765625
1040
0.2125
1070
     1
1040
16.9765625
1040
0.2125
1040
16.9765625
1040
0.4
1070
     1
1040
16.9765625
1040
0.4
1040
16.90625
1040
0.4
1070
     1
1040
16.90625
1040
0.4
1040
17.0
1040
0.5875
1071
        1
1005
27E
1070
     0
1070
     1
1071
        1
1040
0.0
1040
0.0
1040
0.0
1002
}
  0
ENDBLK
  5
280
  8
0
  6
BYBLOCK
 62
     0
  0
BLOCK
  8
SYMBOL
  6
HIDDEN
 62
     8
  2
C_ARROW_BL4
 70
     0
 10
33.712499999999999
 20
11.0
 30
0.0
  3
C_ARROW_BL4
  1

  0
LINE
  5
282
  8
SYMBOL
  6
HIDDEN
 62
     8
 10
33.524999999999999
 20
11.0
 30
0.0
 11
33.712499999999999
 21
10.90625
 31
0.0
  0
LINE
  5
283
  8
SYMBOL
  6
HIDDEN
 62
     8
 10
33.524999999999999
 20
11.0
 30
0.0
 11
33.712499999999999
 21
11.09375
 31
0.0
  0
LINE
  5
284
  8
SYMBOL
  6
HIDDEN
 62
     8
 10
33.712499999999999
 20
11.0234375
 30
0.0
 11
33.712499999999999
 21
11.09375
 31
0.0
  0
LINE
  5
285
  8
SYMBOL
  6
HIDDEN
 62
     8
 10
33.899999999999999
 20
11.0234375
 30
0.0
 11
33.712499999999999
 21
11.0234375
 31
0.0
  0
LINE
  5
286
  8
SYMBOL
  6
HIDDEN
 62
     8
 10
33.899999999999999
 20
11.0234375
 30
0.0
 11
33.899999999999999
 21
10.9765625
 31
0.0
  0
LINE
  5
287
  8
SYMBOL
  6
HIDDEN
 62
     8
 10
33.712499999999999
 20
10.9765625
 30
0.0
 11
33.899999999999999
 21
10.9765625
 31
0.0
  0
LINE
  5
288
  8
SYMBOL
  6
HIDDEN
 62
     8
 10
33.712499999999999
 20
10.90625
 30
0.0
 11
33.712499999999999
 21
10.9765625
 31
0.0
  0
POLYLINE
  5
289
  8
SYMBOL
  6
HIDDEN
 62
     8
 66
     1
 10
0.0
 20
0.0
 30
0.0
  0
VERTEX
  5
721
  8
SYMBOL
  6
HIDDEN
 62
     8
 10
33.524999999999999
 20
11.0
 30
0.0
  0
VERTEX
  5
722
  8
SYMBOL
  6
HIDDEN
 62
     8
 10
33.712499999999999
 20
11.09375
 30
0.0
  0
VERTEX
  5
723
  8
SYMBOL
  6
HIDDEN
 62
     8
 10
33.712499999999999
 20
11.0234375
 30
0.0
  0
VERTEX
  5
724
  8
SYMBOL
  6
HIDDEN
 62
     8
 10
33.899999999999999
 20
11.0234375
 30
0.0
  0
VERTEX
  5
725
  8
SYMBOL
  6
HIDDEN
 62
     8
 10
33.899999999999999
 20
10.9765625
 30
0.0
  0
VERTEX
  5
726
  8
SYMBOL
  6
HIDDEN
 62
     8
 10
33.712499999999999
 20
10.9765625
 30
0.0
  0
VERTEX
  5
727
  8
SYMBOL
  6
HIDDEN
 62
     8
 10
33.712499999999999
 20
10.90625
 30
0.0
  0
VERTEX
  5
728
  8
SYMBOL
  6
HIDDEN
 62
     8
 10
33.524999999999999
 20
11.0
 30
0.0
  0
SEQEND
  5
729
  8
SYMBOL
  6
HIDDEN
 62
     8
  0
INSERT
  5
28A
  8
SYMBOL
  6
CONTINUOUS
 62
     8
  2
*U23
 10
0.0
 20
0.0
 30
0.0
1001
ACAD
1002
{
1000
R14_HATCH_DATA
1000
28A
1011
1.0
1021
5.2624723063701921E+199
1031
3.0921377841288875E+175
1021
0.0
1031
0.0
1011
0.0
1021
5.2624723063701921E+199
1031
3.0921377841288875E+175
1021
1.0
1031
0.0
1011
0.0
1021
5.2624723063701921E+199
1031
3.0921377841288875E+175
1021
0.0
1031
1.0
1040
0.0
1010
0.0
1020
0.0
1030
1.0
1000
SOLID
1070
     1
1070
     1
1071
        1
1071
        1
1071
        7
1070
     1
1040
33.524999999999999
1040
11.0
1040
33.712499999999999
1040
11.09375
1070
     1
1040
33.712499999999999
1040
11.09375
1040
33.712499999999999
1040
11.0234375
1070
     1
1040
33.712499999999999
1040
11.0234375
1040
33.899999999999999
1040
11.0234375
1070
     1
1040
33.899999999999999
1040
11.0234375
1040
33.899999999999999
1040
10.9765625
1070
     1
1040
33.899999999999999
1040
10.9765625
1040
33.712499999999999
1040
10.9765625
1070
     1
1040
33.712499999999999
1040
10.9765625
1040
33.712499999999999
1040
10.90625
1070
     1
1040
33.712499999999999
1040
10.90625
1040
33.524999999999999
1040
11.0
1071
        1
1005
289
1070
     0
1070
     1
1071
        1
1040
0.0
1040
0.0
1040
0.0
1002
}
  0
ENDBLK
  5
28B
  8
0
  6
BYBLOCK
 62
     0
  0
BLOCK
  8
0
  6
CONTINUOUS
 62
     2
  2
*D6
 70
     1
 10
0.0
 20
0.0
 30
0.0
  3
*D6
  1

  0
TEXT
  5
28D
  8
0
  6
CONTINUOUS
 62
     2
 10
11.5725134213
 20
11.3288653567
 30
0.0
 40
0.15625
  1
"
 41
0.8
  0
TEXT
  5
28E
  8
0
  6
CONTINUOUS
 62
     2
 10
10.6975134213
 20
11.0944903567
 30
0.0
 40
0.15625
  1
(54,3 cm)
 41
0.8
  0
TEXT
  5
28F
  8
0
  6
CONTINUOUS
 62
     2
 10
10.8225134213
 20
11.3288653567
 30
0.0
 40
0.15625
  1
21-3/8
 41
0.8
  0
LINE
  5
290
  8
0
  6
CONTINUOUS
 62
     2
 10
2.2547075509000001
 20
11.345789656599999
 30
0.0
 11
2.2547075509000001
 21
11.2819903567
 31
0.0
  0
LINE
  5
291
  8
0
  6
CONTINUOUS
 62
     2
 10
23.6209341048
 20
11.345789656599999
 30
0.0
 11
23.6209341048
 21
11.2819903567
 31
0.0
  0
LINE
  5
292
  8
0
  6
CONTINUOUS
 62
     2
 10
2.2547075509000001
 20
11.4069903567
 30
0.0
 11
10.6193884213
 21
11.4069903567
 31
0.0
  0
LINE
  5
293
  8
0
  6
CONTINUOUS
 62
     2
 10
23.6209341048
 20
11.4069903567
 30
0.0
 11
11.9006384213
 21
11.4069903567
 31
0.0
  0
INSERT
  5
294
  8
0
  6
CONTINUOUS
 62
     2
  2
_ARROW_FILLED
 10
2.2547075509000001
 20
11.4069903567
 30
0.0
 41
0.1875
 42
0.1875
 43
0.1875
 50
180.0
  0
INSERT
  5
295
  8
0
  6
CONTINUOUS
 62
     2
  2
_ARROW_FILLED
 10
23.6209341048
 20
11.4069903567
 30
0.0
 41
0.1875
 42
0.1875
 43
0.1875
  0
ENDBLK
  5
296
  8
0
  6
BYBLOCK
 62
     0
  0
BLOCK
  8
0
  6
CONTINUOUS
 62
     2
  2
*D7
 70
     1
 10
0.0
 20
0.0
 30
0.0
  3
*D7
  1

  0
TEXT
  5
298
  8
0
  6
CONTINUOUS
 62
     2
 10
13.2537198719
 20
12.940829214500001
 30
0.0
 40
0.15625
  1
"
 41
0.8
  0
TEXT
  5
299
  8
0
  6
CONTINUOUS
 62
     2
 10
12.3787198719
 20
12.706454214500001
 30
0.0
 40
0.15625
  1
(44,8 cm)
 41
0.8
  0
TEXT
  5
29A
  8
0
  6
CONTINUOUS
 62
     2
 10
12.5037198719
 20
12.940829214500001
 30
0.0
 40
0.15625
  1
17-5/8
 41
0.8
  0
LINE
  5
29B
  8
0
  6
CONTINUOUS
 62
     2
 10
13.0003190688
 20
2.5994279241
 30
0.0
 11
13.0662198719
 21
2.5994279241
 31
0.0
  0
LINE
  5
29C
  8
0
  6
CONTINUOUS
 62
     2
 10
13.0003190688
 20
20.217145667099999
 30
0.0
 11
13.0662198719
 21
20.217145667099999
 31
0.0
  0
LINE
  5
29D
  8
0
  6
CONTINUOUS
 62
     2
 10
12.9412198719
 20
2.5994279241
 30
0.0
 11
12.9412198719
 21
12.628329214500001
 31
0.0
  0
LINE
  5
29E
  8
0
  6
CONTINUOUS
 62
     2
 10
12.9412198719
 20
20.217145667099999
 30
0.0
 11
12.9412198719
 21
13.175204214500001
 31
0.0
  0
INSERT
  5
29F
  8
0
  6
CONTINUOUS
 62
     2
  2
_ARROW_FILLED
 10
12.9412198719
 20
2.5994279241
 30
0.0
 41
0.1875
 42
0.1875
 43
0.1875
 50
270.0
  0
INSERT
  5
2A0
  8
0
  6
CONTINUOUS
 62
     2
  2
_ARROW_FILLED
 10
12.9412198719
 20
20.217145667099999
 30
0.0
 41
0.1875
 42
0.1875
 43
0.1875
 50
90.0
  0
ENDBLK
  5
2A1
  8
0
  6
BYBLOCK
 62
     0
  0
BLOCK
  8
SYMBOL
  6
CONTINUOUS
 62
     2
  2
TOL_BLK_X_BL5
 70
     0
 10
28.2120829154
 20
2.631642676899999
 30
0.0
  3
TOL_BLK_X_BL5
  1

  0
LINE
  5
2A3
  8
SYMBOL
  6
CONTINUOUS
 62
     7
 10
27.532458121400001
 20
3.542833176899999
 30
0.0
 11
28.891707709399999
 21
1.7204521769000001
 31
0.0
  0
LINE
  5
2A4
  8
SYMBOL
  6
CONTINUOUS
 62
     7
 10
27.535198544
 20
1.7204521769000001
 30
0.0
 11
28.891707709399999
 21
3.5400927542999998
 31
0.0
  0
ENDBLK
  5
2A5
  8
0
  6
BYBLOCK
 62
     0
  0
BLOCK
  8
TABLE_BL6
  2
TABLE_BL6
 70
     0
 10
30.530000000000001
 20
2.1875
 30
0.0
  3
TABLE_BL6
  1

  0
LINE
  5
2A7
  8
TABLE_BL6
  6
CONTINUOUS
 62
     2
 10
27.535
 20
3.7875000000000001
 30
0.0
 11
33.524999999999999
 21
3.7875000000000001
 31
0.0
  0
LINE
  5
2A8
  8
TABLE_BL6
  6
CONTINUOUS
 62
     2
 10
27.535
 20
3.7875000000000001
 30
0.0
 11
27.535
 21
0.5875
 31
0.0
  0
LINE
  5
2A9
  8
TABLE_BL6
  6
CONTINUOUS
 62
     2
 10
27.535
 20
3.5375000000000001
 30
0.0
 11
33.524999999999999
 21
3.5375000000000001
 31
0.0
  0
LINE
  5
2AA
  8
TABLE_BL6
  6
CONTINUOUS
 62
     2
 10
28.895
 20
3.2075
 30
0.0
 11
33.524999999999999
 21
3.2075
 31
0.0
  0
LINE
  5
2AB
  8
TABLE_BL6
  6
CONTINUOUS
 62
     2
 10
28.895
 20
2.7374999999999989
 30
0.0
 11
32.685000000000002
 21
2.7374999999999989
 31
0.0
  0
LINE
  5
2AC
  8
TABLE_BL6
  6
CONTINUOUS
 62
     2
 10
28.895
 20
2.5175000000000001
 30
0.0
 11
33.524999999999999
 21
2.5175000000000001
 31
0.0
  0
LINE
  5
2AD
  8
TABLE_BL6
  6
CONTINUOUS
 62
     2
 10
28.895
 20
1.857499999999999
 30
0.0
 11
33.524999999999999
 21
1.857499999999999
 31
0.0
  0
LINE
  5
2AE
  8
TABLE_BL6
  6
CONTINUOUS
 62
     2
 10
27.535
 20
1.7175
 30
0.0
 11
28.895
 21
1.7175
 31
0.0
  0
LINE
  5
2AF
  8
TABLE_BL6
  6
CONTINUOUS
 62
     2
 10
31.675000000000001
 20
1.7175
 30
0.0
 11
33.524999999999999
 21
1.7175
 31
0.0
  0
LINE
  5
2B0
  8
TABLE_BL6
  6
CONTINUOUS
 62
     2
 10
28.895
 20
1.0175000000000001
 30
0.0
 11
33.524999999999999
 21
1.0175000000000001
 31
0.0
  0
LINE
  5
2B1
  8
TABLE_BL6
  6
CONTINUOUS
 62
     2
 10
27.535
 20
0.5875
 30
0.0
 11
33.524999999999999
 21
0.5875
 31
0.0
  0
LINE
  5
2B2
  8
TABLE_BL6
  6
CONTINUOUS
 62
     2
 10
28.895
 20
3.5375000000000001
 30
0.0
 11
28.895
 21
0.5875
 31
0.0
  0
LINE
  5
2B3
  8
TABLE_BL6
  6
CONTINUOUS
 62
     2
 10
29.914999999999999
 20
3.2075
 30
0.0
 11
29.914999999999999
 21
2.7374999999999989
 31
0.0
  0
LINE
  5
2B4
  8
TABLE_BL6
  6
CONTINUOUS
 62
     2
 10
30.995000000000001
 20
3.5375000000000001
 30
0.0
 11
30.995000000000001
 21
2.7374999999999989
 31
0.0
  0
LINE
  5
2B5
  8
TABLE_BL6
  6
CONTINUOUS
 62
     2
 10
31.675000000000001
 20
2.7374999999999989
 30
0.0
 11
31.675000000000001
 21
1.7175
 31
0.0
  0
LINE
  5
2B6
  8
TABLE_BL6
  6
CONTINUOUS
 62
     2
 10
31.965
 20
3.5375000000000001
 30
0.0
 11
31.965
 21
2.7374999999999989
 31
0.0
  0
LINE
  5
2B7
  8
TABLE_BL6
  6
CONTINUOUS
 62
     2
 10
32.685000000000002
 20
3.5375000000000001
 30
0.0
 11
32.685000000000002
 21
2.5175000000000001
 31
0.0
  0
LINE
  5
2B8
  8
TABLE_BL6
  6
CONTINUOUS
 62
     2
 10
33.015000000000001
 20
1.0175000000000001
 30
0.0
 11
33.015000000000001
 21
0.5875
 31
0.0
  0
LINE
  5
2B9
  8
TABLE_BL6
  6
CONTINUOUS
 62
     2
 10
33.524999999999999
 20
3.7875000000000001
 30
0.0
 11
33.524999999999999
 21
0.5875
 31
0.0
  0
TEXT
  5
2BA
  8
TABLE_BL6
  6
CONTINUOUS
 62
     2
 10
29.251666666666669
 20
3.285625
 30
0.0
 40
0.1
  1
STEVEN J. HOFFMANN
 41
0.8
 72
     1
 11
29.945
 21
3.285625
 31
0.0
  0
TEXT
  5
2BB
  8
TABLE_BL6
  6
CONTINUOUS
 62
     2
 10
31.293333333333329
 20
3.285625
 30
0.0
 40
0.1
  1
6.14.00
 41
0.8
 72
     1
 11
31.48
 21
3.285625
 31
0.0
  0
TEXT
  5
2BC
  8
TABLE_BL6
  6
CONTINUOUS
 62
     2
 10
32.091666666666669
 20
3.285625
 30
0.0
 40
0.1
  1
07.30.03
 41
0.8
 72
     1
 11
32.325000000000003
 21
3.285625
 31
0.0
  0
TEXT
  5
2BD
  8
TABLE_BL6
  6
CONTINUOUS
 62
     2
 10
32.978333333333332
 20
3.285625
 30
0.0
 40
0.1
  1
1.000
 41
0.8
 72
     1
 11
33.104999999999997
 21
3.285625
 31
0.0
  0
TEXT
  5
2BE
  8
TABLE_BL6
  6
CONTINUOUS
 62
     2
 10
29.298333333333339
 20
2.8156249999999989
 30
0.0
 40
0.1
  1
AEM
 41
0.8
 72
     1
 11
29.405000000000001
 21
2.8156249999999989
 31
0.0
  0
TEXT
  5
2BF
  8
TABLE_BL6
  6
CONTINUOUS
 62
     2
 10
30.268333333333331
 20
2.8156249999999989
 30
0.0
 40
0.1
  1
6.14.00
 41
0.8
 72
     1
 11
30.454999999999998
 21
2.8156249999999989
 31
0.0
  0
TEXT
  5
2C0
  8
TABLE_BL6
  6
CONTINUOUS
 62
     2
 10
27.5975
 20
2.5775000000000001
 30
0.0
 40
0.1
  1
   .XXX %%p 
 41
0.8366666667
  0
TEXT
  5
2C1
  8
TABLE_BL6
  6
CONTINUOUS
 62
     2
 10
28.434166666700001
 20
2.5775000000000001
 30
0.0
 40
0.1
  1
0.010
 41
0.8
  0
TEXT
  5
2C2
  8
TABLE_BL6
  6
CONTINUOUS
 62
     2
 10
27.5975
 20
2.357499999999999
 30
0.0
 40
0.1
  1
    .XX %%p 
 41
0.8366666667
  0
TEXT
  5
2C3
  8
TABLE_BL6
  6
CONTINUOUS
 62
     2
 10
28.434166666700001
 20
2.357499999999999
 30
0.0
 40
0.1
  1
0.20
 41
0.8
  0
TEXT
  5
2C4
  8
TABLE_BL6
  6
CONTINUOUS
 62
     2
 10
27.5975
 20
2.1375000000000002
 30
0.0
 40
0.1
  1
     .X %%p
 41
0.8407407406999999
  0
TEXT
  5
2C5
  8
TABLE_BL6
  6
CONTINUOUS
 62
     2
 10
28.354166666699999
 20
2.1375000000000002
 30
0.0
 40
0.1
  1
 
 41
0.8
  0
TEXT
  5
2C6
  8
TABLE_BL6
  6
CONTINUOUS
 62
     2
 10
28.434166666700001
 20
2.1375000000000002
 30
0.0
 40
0.1
  1
0.1
 41
0.8
  0
TEXT
  5
2C7
  8
TABLE_BL6
  6
CONTINUOUS
 62
     2
 10
27.5975
 20
1.9175
 30
0.0
 40
0.1
  1
    ANG %%p 
 41
0.8366666667
  0
TEXT
  5
2C8
  8
TABLE_BL6
  6
CONTINUOUS
 62
     2
 10
28.434166666700001
 20
1.9175
 30
0.0
 40
0.1
  1
3.0
 41
0.8
  0
TEXT
  5
2C9
  8
TABLE_BL6
  6
CONTINUOUS
 62
     2
 10
32.689166666666672
 20
1.7375
 30
0.0
 40
0.1
  1
MODEL NAME
 41
0.8
 72
     2
 11
33.462499999999999
 21
1.7375
 31
0.0
  0
TEXT
  5
2CA
  8
TABLE_BL6
  6
CONTINUOUS
 62
     2
 10
29.754000000000001
 20
1.2475000000000001
 30
0.0
 40
0.24
  1
TEMPLATE, CUTOUT
 41
0.8
 72
     1
 11
31.210000000000001
 21
1.2475000000000001
 31
0.0
  0
TEXT
  5
2CB
  8
TABLE_BL6
  6
CONTINUOUS
 62
     2
 10
30.187000000000001
 20
0.6825000000000001
 30
0.0
 40
0.24
  1
1004223-7
 41
0.8
 72
     1
 11
30.954999999999998
 21
0.6825000000000001
 31
0.0
  0
INSERT
  5
2CC
  8
0
  2
*U24
 10
0.0
 20
0.0
 30
0.0
  0
ENDBLK
  5
2CD
  8
0
  6
BYBLOCK
 62
     0
  0
BLOCK
  8
TABLE_BL7
  2
TABLE_BL7
 70
     0
 10
25.280000000000001
 20
2.1869999999999989
 30
0.0
  3
TABLE_BL7
  1

  0
LINE
  5
2CF
  8
TABLE_BL7
  6
CONTINUOUS
 62
     2
 10
23.024999999999999
 20
0.5875
 30
0.0
 11
27.535
 21
0.5875
 31
0.0
  0
LINE
  5
2D0
  8
TABLE_BL7
  6
CONTINUOUS
 62
     2
 10
23.024999999999999
 20
0.5875
 30
0.0
 11
23.024999999999999
 21
3.7865000000000002
 31
0.0
  0
LINE
  5
2D1
  8
TABLE_BL7
  6
CONTINUOUS
 62
     2
 10
23.024999999999999
 20
0.8474999999999999
 30
0.0
 11
27.535
 21
0.8474999999999999
 31
0.0
  0
LINE
  5
2D2
  8
TABLE_BL7
  6
CONTINUOUS
 62
     2
 10
23.024999999999999
 20
1.107499999999999
 30
0.0
 11
27.535
 21
1.107499999999999
 31
0.0
  0
LINE
  5
2D3
  8
TABLE_BL7
  6
CONTINUOUS
 62
     2
 10
23.024999999999999
 20
1.3505
 30
0.0
 11
27.535
 21
1.3505
 31
0.0
  0
LINE
  5
2D4
  8
TABLE_BL7
  6
CONTINUOUS
 62
     2
 10
23.024999999999999
 20
1.593499999999999
 30
0.0
 11
27.535
 21
1.593499999999999
 31
0.0
  0
LINE
  5
2D5
  8
TABLE_BL7
  6
CONTINUOUS
 62
     2
 10
23.024999999999999
 20
1.8365
 30
0.0
 11
27.535
 21
1.8365
 31
0.0
  0
LINE
  5
2D6
  8
TABLE_BL7
  6
CONTINUOUS
 62
     2
 10
23.024999999999999
 20
2.079499999999999
 30
0.0
 11
27.535
 21
2.079499999999999
 31
0.0
  0
LINE
  5
2D7
  8
TABLE_BL7
  6
CONTINUOUS
 62
     2
 10
23.024999999999999
 20
2.3224999999999989
 30
0.0
 11
27.535
 21
2.3224999999999989
 31
0.0
  0
LINE
  5
2D8
  8
TABLE_BL7
  6
CONTINUOUS
 62
     2
 10
23.024999999999999
 20
2.5655000000000001
 30
0.0
 11
27.535
 21
2.5655000000000001
 31
0.0
  0
LINE
  5
2D9
  8
TABLE_BL7
  6
CONTINUOUS
 62
     2
 10
23.024999999999999
 20
2.8085
 30
0.0
 11
27.535
 21
2.8085
 31
0.0
  0
LINE
  5
2DA
  8
TABLE_BL7
  6
CONTINUOUS
 62
     2
 10
23.024999999999999
 20
3.051499999999999
 30
0.0
 11
27.535
 21
3.051499999999999
 31
0.0
  0
LINE
  5
2DB
  8
TABLE_BL7
  6
CONTINUOUS
 62
     2
 10
23.024999999999999
 20
3.2945000000000002
 30
0.0
 11
27.535
 21
3.2945000000000002
 31
0.0
  0
LINE
  5
2DC
  8
TABLE_BL7
  6
CONTINUOUS
 62
     2
 10
23.024999999999999
 20
3.5375000000000001
 30
0.0
 11
27.535
 21
3.5375000000000001
 31
0.0
  0
LINE
  5
2DD
  8
TABLE_BL7
  6
CONTINUOUS
 62
     2
 10
23.024999999999999
 20
3.7865000000000002
 30
0.0
 11
27.535
 21
3.7865000000000002
 31
0.0
  0
LINE
  5
2DE
  8
TABLE_BL7
  6
CONTINUOUS
 62
     2
 10
23.614999999999998
 20
0.8474999999999999
 30
0.0
 11
23.614999999999998
 21
3.5375000000000001
 31
0.0
  0
LINE
  5
2DF
  8
TABLE_BL7
  6
CONTINUOUS
 62
     2
 10
24.254999999999999
 20
0.8474999999999999
 30
0.0
 11
24.254999999999999
 21
3.5375000000000001
 31
0.0
  0
LINE
  5
2E0
  8
TABLE_BL7
  6
CONTINUOUS
 62
     2
 10
24.815000000000001
 20
0.8474999999999999
 30
0.0
 11
24.815000000000001
 21
3.5375000000000001
 31
0.0
  0
LINE
  5
2E1
  8
TABLE_BL7
  6
CONTINUOUS
 62
     2
 10
26.885000000000002
 20
0.8474999999999999
 30
0.0
 11
26.885000000000002
 21
3.5375000000000001
 31
0.0
  0
LINE
  5
2E2
  8
TABLE_BL7
  6
CONTINUOUS
 62
     2
 10
27.535
 20
0.5875
 30
0.0
 11
27.535
 21
3.7865000000000002
 31
0.0
  0
TEXT
  5
2E3
  8
TABLE_BL7
  6
CONTINUOUS
 62
     2
 10
23.306666666666668
 20
1.179
 30
0.0
 40
0.1
  1
1
 41
0.8
 72
     1
 11
23.32
 21
1.179
 31
0.0
  0
TEXT
  5
2E4
  8
TABLE_BL7
  6
CONTINUOUS
 62
     2
 10
23.908333333333331
 20
1.179
 30
0.0
 40
0.1
  1
B
 41
0.8
 72
     1
 11
23.934999999999999
 21
1.179
 31
0.0
  0
TEXT
  5
2E5
  8
TABLE_BL7
  6
CONTINUOUS
 62
     2
 10
24.428333333333342
 20
1.179
 30
0.0
 40
0.1
  1
DEL
 41
0.8
 72
     1
 11
24.535
 21
1.179
 31
0.0
  0
TEXT
  5
2E6
  8
TABLE_BL7
  6
CONTINUOUS
 62
     2
 10
25.210000000000001
 20
1.179
 30
0.0
 40
0.1
  1
SEE PCI #P0303475
 41
0.8
 72
     1
 11
25.850000000000001
 21
1.179
 31
0.0
  0
TEXT
  5
2E7
  8
TABLE_BL7
  6
CONTINUOUS
 62
     2
 10
26.983333333333341
 20
1.179
 30
0.0
 40
0.1
  1
07.14.03
 41
0.8
 72
     1
 11
27.210000000000001
 21
1.179
 31
0.0
  0
TEXT
  5
2E8
  8
TABLE_BL7
  6
CONTINUOUS
 62
     2
 10
23.306666666666668
 20
1.421999999999999
 30
0.0
 40
0.1
  1
1
 41
0.8
 72
     1
 11
23.32
 21
1.421999999999999
 31
0.0
  0
TEXT
  5
2E9
  8
TABLE_BL7
  6
CONTINUOUS
 62
     2
 10
23.908333333333331
 20
1.421999999999999
 30
0.0
 40
0.1
  1
C
 41
0.8
 72
     1
 11
23.934999999999999
 21
1.421999999999999
 31
0.0
  0
TEXT
  5
2EA
  8
TABLE_BL7
  6
CONTINUOUS
 62
     2
 10
24.428333333333342
 20
1.421999999999999
 30
0.0
 40
0.1
  1
DEL
 41
0.8
 72
     1
 11
24.535
 21
1.421999999999999
 31
0.0
  0
TEXT
  5
2EB
  8
TABLE_BL7
  6
CONTINUOUS
 62
     2
 10
25.210000000000001
 20
1.421999999999999
 30
0.0
 40
0.1
  1
SEE PCI #P0304233
 41
0.8
 72
     1
 11
25.850000000000001
 21
1.421999999999999
 31
0.0
  0
TEXT
  5
2EC
  8
TABLE_BL7
  6
CONTINUOUS
 62
     2
 10
26.97666666666667
 20
1.421999999999999
 30
0.0
 40
0.1
  1
07.30.03
 41
0.8
 72
     1
 11
27.210000000000001
 21
1.421999999999999
 31
0.0
  0
ENDBLK
  5
2ED
  8
0
  6
BYBLOCK
 62
     0
  0
BLOCK
  8
0
  2
*U12
 70
     1
 10
0.0
 20
0.0
 30
0.0
  3
*U12
  1

  0
SOLID
  5
501
  8
SYMBOL
  6
CONTINUOUS
 62
     2
 10
30.677809
 20
2.3477709999999989
 30
0.0
 11
30.677809
 21
2.3477709999999989
 31
0.0
 12
30.744809
 22
2.3477709999999989
 32
0.0
 13
30.744809
 23
2.3477709999999989
 33
0.0
210
0.0
220
0.0
230
1.0
  0
SOLID
  5
502
  8
SYMBOL
  6
CONTINUOUS
 62
     2
 10
30.677809
 20
2.3477709999999989
 30
0.0
 11
30.677809
 21
2.2864585000000002
 31
0.0
 12
30.744809
 22
2.2864585000000002
 32
0.0
 13
30.744809
 23
2.2864585000000002
 33
0.0
210
0.0
220
0.0
230
1.0
  0
SOLID
  5
503
  8
SYMBOL
  6
CONTINUOUS
 62
     2
 10
-30.677809
 20
2.3477709999999989
 30
0.0
 11
-30.744809
 21
2.3477709999999989
 31
0.0
 12
-30.744809
 22
2.2864585000000002
 32
0.0
 13
-30.744809
 23
2.2864585000000002
 33
0.0
210
0.0
220
0.0
230
-1.0
  0
SOLID
  5
504
  8
SYMBOL
  6
CONTINUOUS
 62
     2
 10
30.744809
 20
2.2864585000000002
 30
0.0
 11
30.744809
 21
2.2864585000000002
 31
0.0
 12
30.778184
 22
2.2864585000000002
 32
0.0
 13
30.778184
 23
2.2864585000000002
 33
0.0
210
0.0
220
0.0
230
1.0
  0
SOLID
  5
505
  8
SYMBOL
  6
CONTINUOUS
 62
     2
 10
30.778184
 20
2.2864585000000002
 30
0.0
 11
30.778184
 21
2.2864585000000002
 31
0.0
 12
30.858650134000001
 22
2.2864585000000002
 32
0.0
 13
30.858650134000001
 23
2.2864585000000002
 33
0.0
210
0.0
220
0.0
230
1.0
  0
SOLID
  5
506
  8
SYMBOL
  6
CONTINUOUS
 62
     2
 10
30.677809
 20
2.2864585000000002
 30
0.0
 11
30.677809
 21
2.2670431161999991
 31
0.0
 12
30.849768317900001
 22
2.2670431161999991
 32
0.0
 13
30.849768317900001
 23
2.2670431161999991
 33
0.0
210
0.0
220
0.0
230
1.0
  0
SOLID
  5
507
  8
SYMBOL
  6
CONTINUOUS
 62
     2
 10
-30.677809
 20
2.2864585000000002
 30
0.0
 11
-30.858650134000001
 21
2.2864585000000002
 31
0.0
 12
-30.849768317900001
 22
2.2670431161999991
 32
0.0
 13
-30.849768317900001
 23
2.2670431161999991
 33
0.0
210
0.0
220
0.0
230
-1.0
  0
SOLID
  5
508
  8
SYMBOL
  6
CONTINUOUS
 62
     2
 10
30.677809
 20
2.2670431161999991
 30
0.0
 11
30.677809
 21
2.2452292458000001
 31
0.0
 12
30.8276357616
 22
2.2452292458000001
 32
0.0
 13
30.8276357616
 23
2.2452292458000001
 33
0.0
210
0.0
220
0.0
230
1.0
  0
SOLID
  5
509
  8
SYMBOL
  6
CONTINUOUS
 62
     2
 10
-30.677809
 20
2.2670431161999991
 30
0.0
 11
-30.849768317900001
 21
2.2670431161999991
 31
0.0
 12
-30.8276357616
 22
2.2452292458000001
 32
0.0
 13
-30.8276357616
 23
2.2452292458000001
 33
0.0
210
0.0
220
0.0
230
-1.0
  0
SOLID
  5
50A
  8
SYMBOL
  6
CONTINUOUS
 62
     2
 10
30.677809
 20
2.2452292458000001
 30
0.0
 11
30.677809
 21
2.2303959999999989
 31
0.0
 12
30.83586673958326
 22
2.2303959999999989
 32
0.0
 13
30.83586673958326
 23
2.2303959999999989
 33
0.0
210
0.0
220
0.0
230
1.0
  0
SOLID
  5
50B
  8
SYMBOL
  6
CONTINUOUS
 62
     2
 10
-30.677809
 20
2.2452292458000001
 30
0.0
 11
-30.8276357616
 21
2.2452292458000001
 31
0.0
 12
-30.83586673958326
 22
2.2303959999999989
 32
0.0
 13
-30.83586673958326
 23
2.2303959999999989
 33
0.0
210
0.0
220
0.0
230
-1.0
  0
SOLID
  5
50C
  8
SYMBOL
  6
CONTINUOUS
 62
     2
 10
30.744809
 20
2.2303959999999989
 30
0.0
 11
30.744809
 21
2.2303959999999989
 31
0.0
 12
30.759242792199998
 22
2.2303959999999989
 32
0.0
 13
30.759242792199998
 23
2.2303959999999989
 33
0.0
210
0.0
220
0.0
230
1.0
  0
SOLID
  5
50D
  8
SYMBOL
  6
CONTINUOUS
 62
     2
 10
30.677809
 20
2.2303959999999989
 30
0.0
 11
30.677809
 21
2.1210209999999989
 31
0.0
 12
30.744809
 22
2.1210209999999989
 32
0.0
 13
30.744809
 23
2.1210209999999989
 33
0.0
210
0.0
220
0.0
230
1.0
  0
SOLID
  5
50E
  8
SYMBOL
  6
CONTINUOUS
 62
     2
 10
-30.677809
 20
2.2303959999999989
 30
0.0
 11
-30.744809
 21
2.2303959999999989
 31
0.0
 12
-30.744809
 22
2.1210209999999989
 32
0.0
 13
-30.744809
 23
2.1210209999999989
 33
0.0
210
0.0
220
0.0
230
-1.0
  0
SOLID
  5
50F
  8
SYMBOL
  6
CONTINUOUS
 62
     2
 10
30.759242792199998
 20
2.2303959999999989
 30
0.0
 11
30.819935052600002
 21
2.1210209999999989
 31
0.0
 12
30.896559
 22
2.1210209999999989
 32
0.0
 13
30.896559
 23
2.1210209999999989
 33
0.0
  0
SOLID
  5
510
  8
SYMBOL
  6
CONTINUOUS
 62
     2
 10
-30.759242792199998
 20
2.2303959999999989
 30
0.0
 11
-30.83586673958326
 21
2.2303959999999989
 31
0.0
 12
-30.896559
 22
2.1210209999999989
 32
0.0
 13
-30.896559
 23
2.1210209999999989
 33
0.0
210
0.0
220
0.0
230
-1.0
  0
SOLID
  5
511
  8
SYMBOL
  6
CONTINUOUS
 62
     2
 10
30.677809
 20
2.1210209999999989
 30
0.0
 11
30.677809
 21
2.1210209999999989
 31
0.0
 12
30.744809
 22
2.1210209999999989
 32
0.0
 13
30.744809
 23
2.1210209999999989
 33
0.0
210
0.0
220
0.0
230
1.0
  0
SOLID
  5
512
  8
SYMBOL
  6
CONTINUOUS
 62
     2
 10
30.819935052600002
 20
2.1210209999999989
 30
0.0
 11
30.819935052600002
 21
2.1210209999999989
 31
0.0
 12
30.896559
 22
2.1210209999999989
 32
0.0
 13
30.896559
 23
2.1210209999999989
 33
0.0
210
0.0
220
0.0
230
1.0
  0
LINE
  5
513
  8
SYMBOL
  6
CONTINUOUS
 62
     2
 10
30.677809
 20
2.3477709999999989
 30
0.0
 11
30.744809
 21
2.3477709999999989
 31
0.0
  0
LINE
  5
514
  8
SYMBOL
  6
CONTINUOUS
 62
     2
 10
30.677809
 20
2.3477709999999989
 30
0.0
 11
30.677809
 21
2.2864585000000002
 31
0.0
  0
LINE
  5
515
  8
SYMBOL
  6
CONTINUOUS
 62
     2
 10
30.744809
 20
2.3477709999999989
 30
0.0
 11
30.744809
 21
2.2864585000000002
 31
0.0
  0
LINE
  5
516
  8
SYMBOL
  6
CONTINUOUS
 62
     2
 10
30.744809
 20
2.2864585000000002
 30
0.0
 11
30.778184
 21
2.2864585000000002
 31
0.0
  0
LINE
  5
517
  8
SYMBOL
  6
CONTINUOUS
 62
     2
 10
30.778184
 20
2.2864585000000002
 30
0.0
 11
30.858650134000001
 21
2.2864585000000002
 31
0.0
  0
LINE
  5
518
  8
SYMBOL
  6
CONTINUOUS
 62
     2
 10
30.677809
 20
2.2864585000000002
 30
0.0
 11
30.677809
 21
2.2670431161999991
 31
0.0
  0
LINE
  5
519
  8
SYMBOL
  6
CONTINUOUS
 62
     2
 10
30.858650134000001
 20
2.2864585000000002
 30
0.0
 11
30.849768317900001
 21
2.2670431161999991
 31
0.0
  0
LINE
  5
51A
  8
SYMBOL
  6
CONTINUOUS
 62
     2
 10
30.677809
 20
2.2670431161999991
 30
0.0
 11
30.677809
 21
2.2452292458000001
 31
0.0
  0
LINE
  5
51B
  8
SYMBOL
  6
CONTINUOUS
 62
     2
 10
30.849768317900001
 20
2.2670431161999991
 30
0.0
 11
30.8276357616
 21
2.2452292458000001
 31
0.0
  0
LINE
  5
51C
  8
SYMBOL
  6
CONTINUOUS
 62
     2
 10
30.677809
 20
2.2452292458000001
 30
0.0
 11
30.677809
 21
2.2303959999999989
 31
0.0
  0
LINE
  5
51D
  8
SYMBOL
  6
CONTINUOUS
 62
     2
 10
30.8276357616
 20
2.2452292458000001
 30
0.0
 11
30.83586673958326
 21
2.2303959999999989
 31
0.0
  0
LINE
  5
51E
  8
SYMBOL
  6
CONTINUOUS
 62
     2
 10
30.744809
 20
2.2303959999999989
 30
0.0
 11
30.759242792199998
 21
2.2303959999999989
 31
0.0
  0
LINE
  5
51F
  8
SYMBOL
  6
CONTINUOUS
 62
     2
 10
30.677809
 20
2.2303959999999989
 30
0.0
 11
30.677809
 21
2.1210209999999989
 31
0.0
  0
LINE
  5
520
  8
SYMBOL
  6
CONTINUOUS
 62
     2
 10
30.744809
 20
2.2303959999999989
 30
0.0
 11
30.744809
 21
2.1210209999999989
 31
0.0
  0
LINE
  5
521
  8
SYMBOL
  6
CONTINUOUS
 62
     2
 10
30.759242792199998
 20
2.2303959999999989
 30
0.0
 11
30.819935052600002
 21
2.1210209999999989
 31
0.0
  0
LINE
  5
522
  8
SYMBOL
  6
CONTINUOUS
 62
     2
 10
30.83586673958326
 20
2.2303959999999989
 30
0.0
 11
30.896559
 21
2.1210209999999989
 31
0.0
  0
LINE
  5
523
  8
SYMBOL
  6
CONTINUOUS
 62
     2
 10
30.677809
 20
2.1210209999999989
 30
0.0
 11
30.744809
 21
2.1210209999999989
 31
0.0
  0
LINE
  5
524
  8
SYMBOL
  6
CONTINUOUS
 62
     2
 10
30.819935052600002
 20
2.1210209999999989
 30
0.0
 11
30.896559
 21
2.1210209999999989
 31
0.0
  0
ENDBLK
  5
526
  8
0
  0
BLOCK
  8
0
  2
*U13
 70
     1
 10
0.0
 20
0.0
 30
0.0
  3
*U13
  1

  0
SOLID
  5
53B
  8
SYMBOL
  6
CONTINUOUS
 62
     2
 10
30.677809
 20
2.4022709999999989
 30
0.0
 11
30.677809
 21
2.4022709999999989
 31
0.0
 12
30.7793715
 22
2.4022709999999989
 32
0.0
 13
30.7793715
 23
2.4022709999999989
 33
0.0
210
0.0
220
0.0
230
1.0
  0
SOLID
  5
53C
  8
SYMBOL
  6
CONTINUOUS
 62
     2
 10
30.677809
 20
2.4022709999999989
 30
0.0
 11
30.677809
 21
2.3966524109999989
 31
0.0
 12
30.8099349823
 22
2.3966524109999989
 32
0.0
 13
30.8099349823
 23
2.3966524109999989
 33
0.0
210
0.0
220
0.0
230
1.0
  0
SOLID
  5
53D
  8
SYMBOL
  6
CONTINUOUS
 62
     2
 10
-30.677809
 20
2.4022709999999989
 30
0.0
 11
-30.7793715
 21
2.4022709999999989
 31
0.0
 12
-30.8099349823
 22
2.3966524109999989
 32
0.0
 13
-30.8099349823
 23
2.3966524109999989
 33
0.0
210
0.0
220
0.0
230
-1.0
  0
SOLID
  5
53E
  8
SYMBOL
  6
CONTINUOUS
 62
     2
 10
30.677809
 20
2.3966524109999989
 30
0.0
 11
30.677809
 21
2.3805313299000002
 31
0.0
 12
30.836501986999998
 22
2.3805313299000002
 32
0.0
 13
30.836501986999998
 23
2.3805313299000002
 33
0.0
210
0.0
220
0.0
230
1.0
  0
SOLID
  5
53F
  8
SYMBOL
  6
CONTINUOUS
 62
     2
 10
-30.677809
 20
2.3966524109999989
 30
0.0
 11
-30.8099349823
 21
2.3966524109999989
 31
0.0
 12
-30.836501986999998
 22
2.3805313299000002
 32
0.0
 13
-30.836501986999998
 23
2.3805313299000002
 33
0.0
210
0.0
220
0.0
230
-1.0
  0
SOLID
  5
540
  8
SYMBOL
  6
CONTINUOUS
 62
     2
 10
30.677809
 20
2.3805313299000002
 30
0.0
 11
30.677809
 21
2.356015747599999
 31
0.0
 12
30.855598615500011
 22
2.356015747599999
 32
0.0
 13
30.855598615500011
 23
2.356015747599999
 33
0.0
210
0.0
220
0.0
230
1.0
  0
SOLID
  5
541
  8
SYMBOL
  6
CONTINUOUS
 62
     2
 10
-30.677809
 20
2.3805313299000002
 30
0.0
 11
-30.836501986999998
 21
2.3805313299000002
 31
0.0
 12
-30.855598615500011
 22
2.356015747599999
 32
0.0
 13
-30.855598615500011
 23
2.356015747599999
 33
0.0
210
0.0
220
0.0
230
-1.0
  0
SOLID
  5
542
  8
SYMBOL
  6
CONTINUOUS
 62
     2
 10
30.677809
 20
2.356015747599999
 30
0.0
 11
30.677809
 21
2.3477709999999989
 31
0.0
 12
30.858132506270579
 22
2.3477709999999989
 32
0.0
 13
30.858132506270579
 23
2.3477709999999989
 33
0.0
  0
SOLID
  5
543
  8
SYMBOL
  6
CONTINUOUS
 62
     2
 10
-30.677809
 20
2.356015747599999
 30
0.0
 11
-30.855598615500011
 21
2.356015747599999
 31
0.0
 12
-30.858132506270579
 22
2.3477709999999989
 32
0.0
 13
-30.858132506270579
 23
2.3477709999999989
 33
0.0
210
0.0
220
0.0
230
-1.0
  0
SOLID
  5
544
  8
SYMBOL
  6
CONTINUOUS
 62
     2
 10
30.677809
 20
2.3477709999999989
 30
0.0
 11
30.677809
 21
2.3477709999999989
 31
0.0
 12
30.744809
 22
2.3477709999999989
 32
0.0
 13
30.744809
 23
2.3477709999999989
 33
0.0
210
0.0
220
0.0
230
1.0
  0
SOLID
  5
545
  8
SYMBOL
  6
CONTINUOUS
 62
     2
 10
30.744809
 20
2.3477709999999989
 30
0.0
 11
30.744809
 21
2.3477709999999989
 31
0.0
 12
30.778184
 22
2.3477709999999989
 32
0.0
 13
30.778184
 23
2.3477709999999989
 33
0.0
210
0.0
220
0.0
230
1.0
  0
SOLID
  5
546
  8
SYMBOL
  6
CONTINUOUS
 62
     2
 10
30.778184
 20
2.3477709999999989
 30
0.0
 11
30.793512124999999
 21
2.3436638413000002
 31
0.0
 12
30.859394775539219
 22
2.3436638413000002
 32
0.0
 13
30.859394775539219
 23
2.3436638413000002
 33
0.0
210
0.0
220
0.0
230
1.0
  0
SOLID
  5
547
  8
SYMBOL
  6
CONTINUOUS
 62
     2
 10
-30.778184
 20
2.3477709999999989
 30
0.0
 11
-30.858132506270579
 21
2.3477709999999989
 31
0.0
 12
-30.859394775539219
 22
2.3436638413000002
 32
0.0
 13
-30.859394775539219
 23
2.3436638413000002
 33
0.0
210
0.0
220
0.0
230
-1.0
  0
SOLID
  5
548
  8
SYMBOL
  6
CONTINUOUS
 62
     2
 10
30.793512124999999
 20
2.3436638413000002
 30
0.0
 11
30.804733091300001
 21
2.332442874999999
 31
0.0
 12
30.86284335933146
 22
2.332442874999999
 32
0.0
 13
30.86284335933146
 23
2.332442874999999
 33
0.0
210
0.0
220
0.0
230
1.0
  0
SOLID
  5
549
  8
SYMBOL
  6
CONTINUOUS
 62
     2
 10
-30.793512124999999
 20
2.3436638413000002
 30
0.0
 11
-30.859394775539219
 21
2.3436638413000002
 31
0.0
 12
-30.86284335933146
 22
2.332442874999999
 32
0.0
 13
-30.86284335933146
 23
2.332442874999999
 33
0.0
210
0.0
220
0.0
230
-1.0
  0
SOLID
  5
54A
  8
SYMBOL
  6
CONTINUOUS
 62
     2
 10
30.804733091300001
 20
2.332442874999999
 30
0.0
 11
30.806376036772448
 21
2.3263113190000002
 31
0.0
 12
30.8647277946
 22
2.3263113190000002
 32
0.0
 13
30.8647277946
 23
2.3263113190000002
 33
0.0
210
0.0
220
0.0
230
1.0
  0
SOLID
  5
54B
  8
SYMBOL
  6
CONTINUOUS
 62
     2
 10
-30.804733091300001
 20
2.332442874999999
 30
0.0
 11
-30.86284335933146
 21
2.332442874999999
 31
0.0
 12
-30.8647277946
 22
2.3263113190000002
 32
0.0
 13
-30.8647277946
 23
2.3263113190000002
 33
0.0
210
0.0
220
0.0
230
-1.0
  0
SOLID
  5
54C
  8
SYMBOL
  6
CONTINUOUS
 62
     2
 10
30.806376036772448
 20
2.3263113190000002
 30
0.0
 11
30.808840249999999
 21
2.31711475
 31
0.0
 12
30.864125151620541
 22
2.31711475
 32
0.0
 13
30.864125151620541
 23
2.31711475
 33
0.0
  0
SOLID
  5
54D
  8
SYMBOL
  6
CONTINUOUS
 62
     2
 10
-30.806376036772448
 20
2.3263113190000002
 30
0.0
 11
-30.8647277946
 21
2.3263113190000002
 31
0.0
 12
-30.864125151620541
 22
2.31711475
 32
0.0
 13
-30.864125151620541
 23
2.31711475
 33
0.0
210
0.0
220
0.0
230
-1.0
  0
SOLID
  5
54E
  8
SYMBOL
  6
CONTINUOUS
 62
     2
 10
30.808840249999999
 20
2.31711475
 30
0.0
 11
30.804733091300001
 21
2.3017866250000001
 31
0.0
 12
30.86312071323492
 22
2.3017866250000001
 32
0.0
 13
30.86312071323492
 23
2.3017866250000001
 33
0.0
210
0.0
220
0.0
230
1.0
  0
SOLID
  5
54F
  8
SYMBOL
  6
CONTINUOUS
 62
     2
 10
-30.808840249999999
 20
2.31711475
 30
0.0
 11
-30.864125151620541
 21
2.31711475
 31
0.0
 12
-30.86312071323492
 22
2.3017866250000001
 32
0.0
 13
-30.86312071323492
 23
2.3017866250000001
 33
0.0
210
0.0
220
0.0
230
-1.0
  0
SOLID
  5
550
  8
SYMBOL
  6
CONTINUOUS
 62
     2
 10
30.804733091300001
 20
2.3017866250000001
 30
0.0
 11
30.7982486581
 21
2.2953021917999998
 31
0.0
 12
30.862695794099999
 22
2.2953021917999998
 32
0.0
 13
30.862695794099999
 23
2.2953021917999998
 33
0.0
  0
SOLID
  5
551
  8
SYMBOL
  6
CONTINUOUS
 62
     2
 10
-30.804733091300001
 20
2.3017866250000001
 30
0.0
 11
-30.86312071323492
 21
2.3017866250000001
 31
0.0
 12
-30.862695794099999
 22
2.2953021917999998
 32
0.0
 13
-30.862695794099999
 23
2.2953021917999998
 33
0.0
210
0.0
220
0.0
230
-1.0
  0
SOLID
  5
552
  8
SYMBOL
  6
CONTINUOUS
 62
     2
 10
30.7982486581
 20
2.2953021917999998
 30
0.0
 11
30.793512124999999
 21
2.290565658699999
 31
0.0
 12
30.860529006359279
 22
2.290565658699999
 32
0.0
 13
30.860529006359279
 23
2.290565658699999
 33
0.0
210
0.0
220
0.0
230
1.0
  0
SOLID
  5
553
  8
SYMBOL
  6
CONTINUOUS
 62
     2
 10
-30.7982486581
 20
2.2953021917999998
 30
0.0
 11
-30.862695794099999
 21
2.2953021917999998
 31
0.0
 12
-30.860529006359279
 22
2.290565658699999
 32
0.0
 13
-30.860529006359279
 23
2.290565658699999
 33
0.0
210
0.0
220
0.0
230
-1.0
  0
SOLID
  5
554
  8
SYMBOL
  6
CONTINUOUS
 62
     2
 10
30.793512124999999
 20
2.290565658699999
 30
0.0
 11
30.778184
 21
2.2864585000000002
 31
0.0
 12
30.858650134000001
 22
2.2864585000000002
 32
0.0
 13
30.858650134000001
 23
2.2864585000000002
 33
0.0
210
0.0
220
0.0
230
1.0
  0
SOLID
  5
555
  8
SYMBOL
  6
CONTINUOUS
 62
     2
 10
-30.793512124999999
 20
2.290565658699999
 30
0.0
 11
-30.860529006359279
 21
2.290565658699999
 31
0.0
 12
-30.858650134000001
 22
2.2864585000000002
 32
0.0
 13
-30.858650134000001
 23
2.2864585000000002
 33
0.0
210
0.0
220
0.0
230
-1.0
  0
SOLID
  5
556
  8
SYMBOL
  6
CONTINUOUS
 62
     2
 10
30.778184
 20
2.2864585000000002
 30
0.0
 11
30.778184
 21
2.2864585000000002
 31
0.0
 12
30.858650134000001
 22
2.2864585000000002
 32
0.0
 13
30.858650134000001
 23
2.2864585000000002
 33
0.0
210
0.0
220
0.0
230
1.0
  0
LINE
  5
557
  8
SYMBOL
  6
CONTINUOUS
 62
     2
 10
30.677809
 20
2.4022709999999989
 30
0.0
 11
30.7793715
 21
2.4022709999999989
 31
0.0
  0
LINE
  5
558
  8
SYMBOL
  6
CONTINUOUS
 62
     2
 10
30.677809
 20
2.4022709999999989
 30
0.0
 11
30.677809
 21
2.3966524109999989
 31
0.0
  0
LINE
  5
559
  8
SYMBOL
  6
CONTINUOUS
 62
     2
 10
30.7793715
 20
2.4022709999999989
 30
0.0
 11
30.8099349823
 21
2.3966524109999989
 31
0.0
  0
LINE
  5
55A
  8
SYMBOL
  6
CONTINUOUS
 62
     2
 10
30.677809
 20
2.3966524109999989
 30
0.0
 11
30.677809
 21
2.3805313299000002
 31
0.0
  0
LINE
  5
55B
  8
SYMBOL
  6
CONTINUOUS
 62
     2
 10
30.8099349823
 20
2.3966524109999989
 30
0.0
 11
30.836501986999998
 21
2.3805313299000002
 31
0.0
  0
LINE
  5
55C
  8
SYMBOL
  6
CONTINUOUS
 62
     2
 10
30.677809
 20
2.3805313299000002
 30
0.0
 11
30.677809
 21
2.356015747599999
 31
0.0
  0
LINE
  5
55D
  8
SYMBOL
  6
CONTINUOUS
 62
     2
 10
30.836501986999998
 20
2.3805313299000002
 30
0.0
 11
30.855598615500011
 21
2.356015747599999
 31
0.0
  0
LINE
  5
55E
  8
SYMBOL
  6
CONTINUOUS
 62
     2
 10
30.677809
 20
2.356015747599999
 30
0.0
 11
30.677809
 21
2.3477709999999989
 31
0.0
  0
LINE
  5
55F
  8
SYMBOL
  6
CONTINUOUS
 62
     2
 10
30.855598615500011
 20
2.356015747599999
 30
0.0
 11
30.858132506270579
 21
2.3477709999999989
 31
0.0
  0
LINE
  5
560
  8
SYMBOL
  6
CONTINUOUS
 62
     2
 10
30.677809
 20
2.3477709999999989
 30
0.0
 11
30.744809
 21
2.3477709999999989
 31
0.0
  0
LINE
  5
561
  8
SYMBOL
  6
CONTINUOUS
 62
     2
 10
30.744809
 20
2.3477709999999989
 30
0.0
 11
30.778184
 21
2.3477709999999989
 31
0.0
  0
LINE
  5
562
  8
SYMBOL
  6
CONTINUOUS
 62
     2
 10
30.778184
 20
2.3477709999999989
 30
0.0
 11
30.793512124999999
 21
2.3436638413000002
 31
0.0
  0
LINE
  5
563
  8
SYMBOL
  6
CONTINUOUS
 62
     2
 10
30.858132506270579
 20
2.3477709999999989
 30
0.0
 11
30.859394775539219
 21
2.3436638413000002
 31
0.0
  0
LINE
  5
564
  8
SYMBOL
  6
CONTINUOUS
 62
     2
 10
30.793512124999999
 20
2.3436638413000002
 30
0.0
 11
30.804733091300001
 21
2.332442874999999
 31
0.0
  0
LINE
  5
565
  8
SYMBOL
  6
CONTINUOUS
 62
     2
 10
30.859394775539219
 20
2.3436638413000002
 30
0.0
 11
30.86284335933146
 21
2.332442874999999
 31
0.0
  0
LINE
  5
566
  8
SYMBOL
  6
CONTINUOUS
 62
     2
 10
30.804733091300001
 20
2.332442874999999
 30
0.0
 11
30.806376036772448
 21
2.3263113190000002
 31
0.0
  0
LINE
  5
567
  8
SYMBOL
  6
CONTINUOUS
 62
     2
 10
30.86284335933146
 20
2.332442874999999
 30
0.0
 11
30.8647277946
 21
2.3263113190000002
 31
0.0
  0
LINE
  5
568
  8
SYMBOL
  6
CONTINUOUS
 62
     2
 10
30.806376036772448
 20
2.3263113190000002
 30
0.0
 11
30.808840249999999
 21
2.31711475
 31
0.0
  0
LINE
  5
569
  8
SYMBOL
  6
CONTINUOUS
 62
     2
 10
30.8647277946
 20
2.3263113190000002
 30
0.0
 11
30.864125151620541
 21
2.31711475
 31
0.0
  0
LINE
  5
56A
  8
SYMBOL
  6
CONTINUOUS
 62
     2
 10
30.808840249999999
 20
2.31711475
 30
0.0
 11
30.804733091300001
 21
2.3017866250000001
 31
0.0
  0
LINE
  5
56B
  8
SYMBOL
  6
CONTINUOUS
 62
     2
 10
30.864125151620541
 20
2.31711475
 30
0.0
 11
30.86312071323492
 21
2.3017866250000001
 31
0.0
  0
LINE
  5
56C
  8
SYMBOL
  6
CONTINUOUS
 62
     2
 10
30.804733091300001
 20
2.3017866250000001
 30
0.0
 11
30.7982486581
 21
2.2953021917999998
 31
0.0
  0
LINE
  5
56D
  8
SYMBOL
  6
CONTINUOUS
 62
     2
 10
30.86312071323492
 20
2.3017866250000001
 30
0.0
 11
30.862695794099999
 21
2.2953021917999998
 31
0.0
  0
LINE
  5
56E
  8
SYMBOL
  6
CONTINUOUS
 62
     2
 10
30.7982486581
 20
2.2953021917999998
 30
0.0
 11
30.793512124999999
 21
2.290565658699999
 31
0.0
  0
LINE
  5
56F
  8
SYMBOL
  6
CONTINUOUS
 62
     2
 10
30.862695794099999
 20
2.2953021917999998
 30
0.0
 11
30.860529006359279
 21
2.290565658699999
 31
0.0
  0
LINE
  5
570
  8
SYMBOL
  6
CONTINUOUS
 62
     2
 10
30.793512124999999
 20
2.290565658699999
 30
0.0
 11
30.778184
 21
2.2864585000000002
 31
0.0
  0
LINE
  5
571
  8
SYMBOL
  6
CONTINUOUS
 62
     2
 10
30.860529006359279
 20
2.290565658699999
 30
0.0
 11
30.858650134000001
 21
2.2864585000000002
 31
0.0
  0
LINE
  5
572
  8
SYMBOL
  6
CONTINUOUS
 62
     2
 10
30.778184
 20
2.2864585000000002
 30
0.0
 11
30.858650134000001
 21
2.2864585000000002
 31
0.0
  0
ENDBLK
  5
574
  8
0
  0
BLOCK
  8
0
  2
*U14
 70
     1
 10
0.0
 20
0.0
 30
0.0
  3
*U14
  1

  0
SOLID
  5
583
  8
SYMBOL
  6
CONTINUOUS
 62
     2
 10
29.528184
 20
2.4022709999999989
 30
0.0
 11
29.528184
 21
2.4022709999999989
 31
0.0
 12
29.595184
 22
2.4022709999999989
 32
0.0
 13
29.595184
 23
2.4022709999999989
 33
0.0
210
0.0
220
0.0
230
1.0
  0
SOLID
  5
584
  8
SYMBOL
  6
CONTINUOUS
 62
     2
 10
29.683431691300001
 20
2.4022709999999989
 30
0.0
 11
29.683431691300001
 21
2.4022709999999989
 31
0.0
 12
29.778184
 22
2.4022709999999989
 32
0.0
 13
29.778184
 23
2.4022709999999989
 33
0.0
210
0.0
220
0.0
230
1.0
  0
SOLID
  5
585
  8
SYMBOL
  6
CONTINUOUS
 62
     2
 10
29.528184
 20
2.4022709999999989
 30
0.0
 11
29.528184
 21
2.3140233086999991
 31
0.0
 12
29.595184
 22
2.3140233086999991
 32
0.0
 13
29.595184
 23
2.3140233086999991
 33
0.0
210
0.0
220
0.0
230
1.0
  0
SOLID
  5
586
  8
SYMBOL
  6
CONTINUOUS
 62
     2
 10
-29.528184
 20
2.4022709999999989
 30
0.0
 11
-29.595184
 21
2.4022709999999989
 31
0.0
 12
-29.595184
 22
2.3140233086999991
 32
0.0
 13
-29.595184
 23
2.3140233086999991
 33
0.0
210
0.0
220
0.0
230
-1.0
  0
SOLID
  5
587
  8
SYMBOL
  6
CONTINUOUS
 62
     2
 10
29.683431691300001
 20
2.4022709999999989
 30
0.0
 11
29.595184
 21
2.3140233086999991
 31
0.0
 12
29.689936308699998
 22
2.3140233086999991
 32
0.0
 13
29.689936308699998
 23
2.3140233086999991
 33
0.0
210
0.0
220
0.0
230
1.0
  0
SOLID
  5
588
  8
SYMBOL
  6
CONTINUOUS
 62
     2
 10
-29.683431691300001
 20
2.4022709999999989
 30
0.0
 11
-29.778184
 21
2.4022709999999989
 31
0.0
 12
-29.689936308699998
 22
2.3140233086999991
 32
0.0
 13
-29.689936308699998
 23
2.3140233086999991
 33
0.0
210
0.0
220
0.0
230
-1.0
  0
SOLID
  5
589
  8
SYMBOL
  6
CONTINUOUS
 62
     2
 10
29.528184
 20
2.3140233086999991
 30
0.0
 11
29.528184
 21
2.2772709999999989
 31
0.0
 12
29.653184
 22
2.2772709999999989
 32
0.0
 13
29.653184
 23
2.2772709999999989
 33
0.0
210
0.0
220
0.0
230
1.0
  0
SOLID
  5
58A
  8
SYMBOL
  6
CONTINUOUS
 62
     2
 10
-29.528184
 20
2.3140233086999991
 30
0.0
 11
-29.689936308699998
 21
2.3140233086999991
 31
0.0
 12
-29.653184
 22
2.2772709999999989
 32
0.0
 13
-29.653184
 23
2.2772709999999989
 33
0.0
210
0.0
220
0.0
230
-1.0
  0
SOLID
  5
58B
  8
SYMBOL
  6
CONTINUOUS
 62
     2
 10
29.528184
 20
2.2772709999999989
 30
0.0
 11
29.528184
 21
2.242518668999999
 31
0.0
 12
29.6809858648
 22
2.242518668999999
 32
0.0
 13
29.6809858648
 23
2.242518668999999
 33
0.0
210
0.0
220
0.0
230
1.0
  0
SOLID
  5
58C
  8
SYMBOL
  6
CONTINUOUS
 62
     2
 10
-29.528184
 20
2.2772709999999989
 30
0.0
 11
-29.653184
 21
2.2772709999999989
 31
0.0
 12
-29.6809858648
 22
2.242518668999999
 32
0.0
 13
-29.6809858648
 23
2.242518668999999
 33
0.0
210
0.0
220
0.0
230
-1.0
  0
SOLID
  5
58D
  8
SYMBOL
  6
CONTINUOUS
 62
     2
 10
29.528184
 20
2.242518668999999
 30
0.0
 11
29.528184
 21
2.1210209999999989
 31
0.0
 12
29.595184
 22
2.1210209999999989
 32
0.0
 13
29.595184
 23
2.1210209999999989
 33
0.0
210
0.0
220
0.0
230
1.0
  0
SOLID
  5
58E
  8
SYMBOL
  6
CONTINUOUS
 62
     2
 10
-29.528184
 20
2.242518668999999
 30
0.0
 11
-29.595184
 21
2.242518668999999
 31
0.0
 12
-29.595184
 22
2.1210209999999989
 32
0.0
 13
-29.595184
 23
2.1210209999999989
 33
0.0
210
0.0
220
0.0
230
-1.0
  0
SOLID
  5
58F
  8
SYMBOL
  6
CONTINUOUS
 62
     2
 10
29.595184
 20
2.242518668999999
 30
0.0
 11
29.692382135199999
 21
2.1210209999999989
 31
0.0
 12
29.778184
 22
2.1210209999999989
 32
0.0
 13
29.778184
 23
2.1210209999999989
 33
0.0
210
0.0
220
0.0
230
1.0
  0
SOLID
  5
590
  8
SYMBOL
  6
CONTINUOUS
 62
     2
 10
-29.595184
 20
2.242518668999999
 30
0.0
 11
-29.6809858648
 21
2.242518668999999
 31
0.0
 12
-29.778184
 22
2.1210209999999989
 32
0.0
 13
-29.778184
 23
2.1210209999999989
 33
0.0
210
0.0
220
0.0
230
-1.0
  0
SOLID
  5
591
  8
SYMBOL
  6
CONTINUOUS
 62
     2
 10
29.528184
 20
2.1210209999999989
 30
0.0
 11
29.528184
 21
2.1210209999999989
 31
0.0
 12
29.595184
 22
2.1210209999999989
 32
0.0
 13
29.595184
 23
2.1210209999999989
 33
0.0
210
0.0
220
0.0
230
1.0
  0
SOLID
  5
592
  8
SYMBOL
  6
CONTINUOUS
 62
     2
 10
29.692382135199999
 20
2.1210209999999989
 30
0.0
 11
29.692382135199999
 21
2.1210209999999989
 31
0.0
 12
29.778184
 22
2.1210209999999989
 32
0.0
 13
29.778184
 23
2.1210209999999989
 33
0.0
210
0.0
220
0.0
230
1.0
  0
LINE
  5
593
  8
SYMBOL
  6
CONTINUOUS
 62
     2
 10
29.528184
 20
2.4022709999999989
 30
0.0
 11
29.595184
 21
2.4022709999999989
 31
0.0
  0
LINE
  5
594
  8
SYMBOL
  6
CONTINUOUS
 62
     2
 10
29.683431691300001
 20
2.4022709999999989
 30
0.0
 11
29.778184
 21
2.4022709999999989
 31
0.0
  0
LINE
  5
595
  8
SYMBOL
  6
CONTINUOUS
 62
     2
 10
29.528184
 20
2.4022709999999989
 30
0.0
 11
29.528184
 21
2.3140233086999991
 31
0.0
  0
LINE
  5
596
  8
SYMBOL
  6
CONTINUOUS
 62
     2
 10
29.778184
 20
2.4022709999999989
 30
0.0
 11
29.689936308699998
 21
2.3140233086999991
 31
0.0
  0
LINE
  5
597
  8
SYMBOL
  6
CONTINUOUS
 62
     2
 10
29.528184
 20
2.3140233086999991
 30
0.0
 11
29.528184
 21
2.2772709999999989
 31
0.0
  0
LINE
  5
598
  8
SYMBOL
  6
CONTINUOUS
 62
     2
 10
29.689936308699998
 20
2.3140233086999991
 30
0.0
 11
29.653184
 21
2.2772709999999989
 31
0.0
  0
LINE
  5
599
  8
SYMBOL
  6
CONTINUOUS
 62
     2
 10
29.528184
 20
2.2772709999999989
 30
0.0
 11
29.528184
 21
2.242518668999999
 31
0.0
  0
LINE
  5
59A
  8
SYMBOL
  6
CONTINUOUS
 62
     2
 10
29.653184
 20
2.2772709999999989
 30
0.0
 11
29.6809858648
 21
2.242518668999999
 31
0.0
  0
LINE
  5
59B
  8
SYMBOL
  6
CONTINUOUS
 62
     2
 10
29.528184
 20
2.242518668999999
 30
0.0
 11
29.528184
 21
2.1210209999999989
 31
0.0
  0
LINE
  5
59C
  8
SYMBOL
  6
CONTINUOUS
 62
     2
 10
29.595184
 20
2.242518668999999
 30
0.0
 11
29.595184
 21
2.1210209999999989
 31
0.0
  0
LINE
  5
59D
  8
SYMBOL
  6
CONTINUOUS
 62
     2
 10
29.595184
 20
2.242518668999999
 30
0.0
 11
29.692382135199999
 21
2.1210209999999989
 31
0.0
  0
LINE
  5
59E
  8
SYMBOL
  6
CONTINUOUS
 62
     2
 10
29.6809858648
 20
2.242518668999999
 30
0.0
 11
29.778184
 21
2.1210209999999989
 31
0.0
  0
LINE
  5
59F
  8
SYMBOL
  6
CONTINUOUS
 62
     2
 10
29.528184
 20
2.1210209999999989
 30
0.0
 11
29.595184
 21
2.1210209999999989
 31
0.0
  0
LINE
  5
5A0
  8
SYMBOL
  6
CONTINUOUS
 62
     2
 10
29.692382135199999
 20
2.1210209999999989
 30
0.0
 11
29.778184
 21
2.1210209999999989
 31
0.0
  0
ENDBLK
  5
5A2
  8
0
  0
BLOCK
  8
0
  2
*U15
 70
     1
 10
0.0
 20
0.0
 30
0.0
  3
*U15
  1

  0
SOLID
  5
5BC
  8
SYMBOL
  6
CONTINUOUS
 62
     2
 10
29.769028770599999
 20
2.3349569287
 30
0.0
 11
29.769028770599999
 21
2.3349569287
 31
0.0
 12
29.894352258000001
 22
2.3349569287
 32
0.0
 13
29.894352258000001
 23
2.3349569287
 33
0.0
210
0.0
220
0.0
230
1.0
  0
SOLID
  5
5BD
  8
SYMBOL
  6
CONTINUOUS
 62
     2
 10
29.769028770599999
 20
2.3349569287
 30
0.0
 11
29.767756732314719
 21
2.3324604130000002
 31
0.0
 12
29.867410562399989
 22
2.3324604130000002
 32
0.0
 13
29.867410562399989
 23
2.3324604130000002
 33
0.0
210
0.0
220
0.0
230
1.0
  0
SOLID
  5
5BE
  8
SYMBOL
  6
CONTINUOUS
 62
     2
 10
-29.769028770599999
 20
2.3349569287
 30
0.0
 11
-29.894352258000001
 21
2.3349569287
 31
0.0
 12
-29.867410562399989
 22
2.3324604130000002
 32
0.0
 13
-29.867410562399989
 23
2.3324604130000002
 33
0.0
210
0.0
220
0.0
230
-1.0
  0
SOLID
  5
5BF
  8
SYMBOL
  6
CONTINUOUS
 62
     2
 10
29.767756732314719
 20
2.3324604130000002
 30
0.0
 11
29.761611654329919
 21
2.3204000183999991
 31
0.0
 12
29.8431900249
 22
2.3204000183999991
 32
0.0
 13
29.8431900249
 23
2.3204000183999991
 33
0.0
210
0.0
220
0.0
230
1.0
  0
SOLID
  5
5C0
  8
SYMBOL
  6
CONTINUOUS
 62
     2
 10
-29.767756732314719
 20
2.3324604130000002
 30
0.0
 11
-29.867410562399989
 21
2.3324604130000002
 31
0.0
 12
-29.8431900249
 22
2.3204000183999991
 32
0.0
 13
-29.8431900249
 23
2.3204000183999991
 33
0.0
210
0.0
220
0.0
230
-1.0
  0
SOLID
  5
5C1
  8
SYMBOL
  6
CONTINUOUS
 62
     2
 10
29.761611654329919
 20
2.3204000183999991
 30
0.0
 11
29.7538166774
 21
2.3051015148
 31
0.0
 12
29.829243596157418
 22
2.3051015148
 32
0.0
 13
29.829243596157418
 23
2.3051015148
 33
0.0
210
0.0
220
0.0
230
1.0
  0
SOLID
  5
5C2
  8
SYMBOL
  6
CONTINUOUS
 62
     2
 10
-29.761611654329919
 20
2.3204000183999991
 30
0.0
 11
-29.8431900249
 21
2.3204000183999991
 31
0.0
 12
-29.829243596157418
 22
2.3051015148
 32
0.0
 13
-29.829243596157418
 23
2.3051015148
 33
0.0
210
0.0
220
0.0
230
-1.0
  0
SOLID
  5
5C3
  8
SYMBOL
  6
CONTINUOUS
 62
     2
 10
29.7538166774
 20
2.3051015148
 30
0.0
 11
29.753072754108828
 21
2.3004045679999998
 31
0.0
 12
29.824961763400001
 22
2.3004045679999998
 32
0.0
 13
29.824961763400001
 23
2.3004045679999998
 33
0.0
210
0.0
220
0.0
230
1.0
  0
SOLID
  5
5C4
  8
SYMBOL
  6
CONTINUOUS
 62
     2
 10
-29.7538166774
 20
2.3051015148
 30
0.0
 11
-29.829243596157418
 21
2.3051015148
 31
0.0
 12
-29.824961763400001
 22
2.3004045679999998
 32
0.0
 13
-29.824961763400001
 23
2.3004045679999998
 33
0.0
210
0.0
220
0.0
230
-1.0
  0
SOLID
  5
5C5
  8
SYMBOL
  6
CONTINUOUS
 62
     2
 10
29.753072754108828
 20
2.3004045679999998
 30
0.0
 11
29.749076713121831
 21
2.2751745581999989
 31
0.0
 12
29.8151876055
 22
2.2751745581999989
 32
0.0
 13
29.8151876055
 23
2.2751745581999989
 33
0.0
210
0.0
220
0.0
230
1.0
  0
SOLID
  5
5C6
  8
SYMBOL
  6
CONTINUOUS
 62
     2
 10
-29.753072754108828
 20
2.3004045679999998
 30
0.0
 11
-29.824961763400001
 21
2.3004045679999998
 31
0.0
 12
-29.8151876055
 22
2.2751745581999989
 32
0.0
 13
-29.8151876055
 23
2.2751745581999989
 33
0.0
210
0.0
220
0.0
230
-1.0
  0
SOLID
  5
5C7
  8
SYMBOL
  6
CONTINUOUS
 62
     2
 10
29.749076713121831
 20
2.2751745581999989
 30
0.0
 11
29.746934
 21
2.2616459999999989
 31
0.0
 12
29.8151876055
 22
2.2616459999999989
 32
0.0
 13
29.8151876055
 23
2.2616459999999989
 33
0.0
  0
SOLID
  5
5C8
  8
SYMBOL
  6
CONTINUOUS
 62
     2
 10
-29.749076713121831
 20
2.2751745581999989
 30
0.0
 11
-29.8151876055
 21
2.2751745581999989
 31
0.0
 12
-29.8151876055
 22
2.2616459999999989
 32
0.0
 13
-29.8151876055
 23
2.2616459999999989
 33
0.0
210
0.0
220
0.0
230
-1.0
  0
SOLID
  5
5C9
  8
SYMBOL
  6
CONTINUOUS
 62
     2
 10
29.746934
 20
2.2616459999999989
 30
0.0
 11
29.749076713121831
 21
2.2481174417999998
 31
0.0
 12
29.8151876055
 22
2.2481174417999998
 32
0.0
 13
29.8151876055
 23
2.2481174417999998
 33
0.0
  0
SOLID
  5
5CA
  8
SYMBOL
  6
CONTINUOUS
 62
     2
 10
-29.746934
 20
2.2616459999999989
 30
0.0
 11
-29.8151876055
 21
2.2616459999999989
 31
0.0
 12
-29.8151876055
 22
2.2481174417999998
 32
0.0
 13
-29.8151876055
 23
2.2481174417999998
 33
0.0
210
0.0
220
0.0
230
-1.0
  0
SOLID
  5
5CB
  8
SYMBOL
  6
CONTINUOUS
 62
     2
 10
29.749076713121831
 20
2.2481174417999998
 30
0.0
 11
29.753072754108828
 21
2.2228874319999989
 31
0.0
 12
29.824961763400001
 22
2.2228874319999989
 32
0.0
 13
29.824961763400001
 23
2.2228874319999989
 33
0.0
  0
SOLID
  5
5CC
  8
SYMBOL
  6
CONTINUOUS
 62
     2
 10
-29.749076713121831
 20
2.2481174417999998
 30
0.0
 11
-29.8151876055
 21
2.2481174417999998
 31
0.0
 12
-29.824961763400001
 22
2.2228874319999989
 32
0.0
 13
-29.824961763400001
 23
2.2228874319999989
 33
0.0
210
0.0
220
0.0
230
-1.0
  0
SOLID
  5
5CD
  8
SYMBOL
  6
CONTINUOUS
 62
     2
 10
29.753072754108828
 20
2.2228874319999989
 30
0.0
 11
29.7538166774
 21
2.2181904852000001
 31
0.0
 12
29.829243596157418
 22
2.2181904852000001
 32
0.0
 13
29.829243596157418
 23
2.2181904852000001
 33
0.0
  0
SOLID
  5
5CE
  8
SYMBOL
  6
CONTINUOUS
 62
     2
 10
-29.753072754108828
 20
2.2228874319999989
 30
0.0
 11
-29.824961763400001
 21
2.2228874319999989
 31
0.0
 12
-29.829243596157418
 22
2.2181904852000001
 32
0.0
 13
-29.829243596157418
 23
2.2181904852000001
 33
0.0
210
0.0
220
0.0
230
-1.0
  0
SOLID
  5
5CF
  8
SYMBOL
  6
CONTINUOUS
 62
     2
 10
29.7538166774
 20
2.2181904852000001
 30
0.0
 11
29.761611654329041
 21
2.2028919816000001
 31
0.0
 12
29.8431900249
 22
2.2028919816000001
 32
0.0
 13
29.8431900249
 23
2.2028919816000001
 33
0.0
210
0.0
220
0.0
230
1.0
  0
SOLID
  5
5D0
  8
SYMBOL
  6
CONTINUOUS
 62
     2
 10
-29.7538166774
 20
2.2181904852000001
 30
0.0
 11
-29.829243596157418
 21
2.2181904852000001
 31
0.0
 12
-29.8431900249
 22
2.2028919816000001
 32
0.0
 13
-29.8431900249
 23
2.2028919816000001
 33
0.0
210
0.0
220
0.0
230
-1.0
  0
SOLID
  5
5D1
  8
SYMBOL
  6
CONTINUOUS
 62
     2
 10
29.761611654329041
 20
2.2028919816000001
 30
0.0
 11
29.767756732313149
 21
2.190831586999999
 31
0.0
 12
29.867410562399989
 22
2.190831586999999
 32
0.0
 13
29.867410562399989
 23
2.190831586999999
 33
0.0
210
0.0
220
0.0
230
1.0
  0
SOLID
  5
5D2
  8
SYMBOL
  6
CONTINUOUS
 62
     2
 10
-29.761611654329041
 20
2.2028919816000001
 30
0.0
 11
-29.8431900249
 21
2.2028919816000001
 31
0.0
 12
-29.867410562399989
 22
2.190831586999999
 32
0.0
 13
-29.867410562399989
 23
2.190831586999999
 33
0.0
210
0.0
220
0.0
230
-1.0
  0
SOLID
  5
5D3
  8
SYMBOL
  6
CONTINUOUS
 62
     2
 10
29.767756732313149
 20
2.190831586999999
 30
0.0
 11
29.76902877059829
 21
2.1883350713
 31
0.0
 12
29.894352258000001
 22
2.1883350713
 32
0.0
 13
29.894352258000001
 23
2.1883350713
 33
0.0
210
0.0
220
0.0
230
1.0
  0
SOLID
  5
5D4
  8
SYMBOL
  6
CONTINUOUS
 62
     2
 10
-29.767756732313149
 20
2.190831586999999
 30
0.0
 11
-29.867410562399989
 21
2.190831586999999
 31
0.0
 12
-29.894352258000001
 22
2.1883350713
 32
0.0
 13
-29.894352258000001
 23
2.1883350713
 33
0.0
210
0.0
220
0.0
230
-1.0
  0
SOLID
  5
5D5
  8
SYMBOL
  6
CONTINUOUS
 62
     2
 10
29.894352258000001
 20
2.1883350713
 30
0.0
 11
29.894352258000001
 21
2.1883350713
 31
0.0
 12
30.006089229400001
 22
2.1883350713
 32
0.0
 13
30.006089229400001
 23
2.1883350713
 33
0.0
210
0.0
220
0.0
230
1.0
  0
SOLID
  5
5D6
  8
SYMBOL
  6
CONTINUOUS
 62
     2
 10
29.76902877059829
 20
2.1883350713
 30
0.0
 11
29.773790985200002
 21
2.1789886989
 31
0.0
 12
30.001327014800001
 22
2.1789886989
 32
0.0
 13
30.001327014800001
 23
2.1789886989
 33
0.0
210
0.0
220
0.0
230
1.0
  0
SOLID
  5
5D7
  8
SYMBOL
  6
CONTINUOUS
 62
     2
 10
-29.76902877059829
 20
2.1883350713
 30
0.0
 11
-30.006089229400001
 21
2.1883350713
 31
0.0
 12
-30.001327014800001
 22
2.1789886989
 32
0.0
 13
-30.001327014800001
 23
2.1789886989
 33
0.0
210
0.0
220
0.0
230
-1.0
  0
SOLID
  5
5D8
  8
SYMBOL
  6
CONTINUOUS
 62
     2
 10
29.773790985200002
 20
2.1789886989
 30
0.0
 11
29.8049016989
 21
2.1478779852000001
 31
0.0
 12
29.970216301099999
 22
2.1478779852000001
 32
0.0
 13
29.970216301099999
 23
2.1478779852000001
 33
0.0
210
0.0
220
0.0
230
1.0
  0
SOLID
  5
5D9
  8
SYMBOL
  6
CONTINUOUS
 62
     2
 10
-29.773790985200002
 20
2.1789886989
 30
0.0
 11
-30.001327014800001
 21
2.1789886989
 31
0.0
 12
-29.970216301099999
 22
2.1478779852000001
 32
0.0
 13
-29.970216301099999
 23
2.1478779852000001
 33
0.0
210
0.0
220
0.0
230
-1.0
  0
SOLID
  5
5DA
  8
SYMBOL
  6
CONTINUOUS
 62
     2
 10
29.8049016989
 20
2.1478779852000001
 30
0.0
 11
29.844103485200002
 21
2.1279036773999991
 31
0.0
 12
29.931014514800001
 22
2.1279036773999991
 32
0.0
 13
29.931014514800001
 23
2.1279036773999991
 33
0.0
210
0.0
220
0.0
230
1.0
  0
SOLID
  5
5DB
  8
SYMBOL
  6
CONTINUOUS
 62
     2
 10
-29.8049016989
 20
2.1478779852000001
 30
0.0
 11
-29.970216301099999
 21
2.1478779852000001
 31
0.0
 12
-29.931014514800001
 22
2.1279036773999991
 32
0.0
 13
-29.931014514800001
 23
2.1279036773999991
 33
0.0
210
0.0
220
0.0
230
-1.0
  0
SOLID
  5
5DC
  8
SYMBOL
  6
CONTINUOUS
 62
     2
 10
-29.844103485200002
 20
2.1279036773999991
 30
0.0
 11
-29.931014514800001
 21
2.1279036773999991
 31
0.0
 12
-29.887559
 22
2.1210209999999989
 32
0.0
 13
-29.887559
 23
2.1210209999999989
 33
0.0
210
0.0
220
0.0
230
-1.0
  0
LINE
  5
5DD
  8
SYMBOL
  6
CONTINUOUS
 62
     2
 10
29.769028770599999
 20
2.3349569287
 30
0.0
 11
29.894352258000001
 21
2.3349569287
 31
0.0
  0
LINE
  5
5DE
  8
SYMBOL
  6
CONTINUOUS
 62
     2
 10
29.769028770599999
 20
2.3349569287
 30
0.0
 11
29.767756732314719
 21
2.3324604130000002
 31
0.0
  0
LINE
  5
5DF
  8
SYMBOL
  6
CONTINUOUS
 62
     2
 10
29.894352258000001
 20
2.3349569287
 30
0.0
 11
29.867410562399989
 21
2.3324604130000002
 31
0.0
  0
LINE
  5
5E0
  8
SYMBOL
  6
CONTINUOUS
 62
     2
 10
29.767756732314719
 20
2.3324604130000002
 30
0.0
 11
29.761611654329919
 21
2.3204000183999991
 31
0.0
  0
LINE
  5
5E1
  8
SYMBOL
  6
CONTINUOUS
 62
     2
 10
29.867410562399989
 20
2.3324604130000002
 30
0.0
 11
29.8431900249
 21
2.3204000183999991
 31
0.0
  0
LINE
  5
5E2
  8
SYMBOL
  6
CONTINUOUS
 62
     2
 10
29.761611654329919
 20
2.3204000183999991
 30
0.0
 11
29.7538166774
 21
2.3051015148
 31
0.0
  0
LINE
  5
5E3
  8
SYMBOL
  6
CONTINUOUS
 62
     2
 10
29.8431900249
 20
2.3204000183999991
 30
0.0
 11
29.829243596157418
 21
2.3051015148
 31
0.0
  0
LINE
  5
5E4
  8
SYMBOL
  6
CONTINUOUS
 62
     2
 10
29.7538166774
 20
2.3051015148
 30
0.0
 11
29.753072754108828
 21
2.3004045679999998
 31
0.0
  0
LINE
  5
5E5
  8
SYMBOL
  6
CONTINUOUS
 62
     2
 10
29.829243596157418
 20
2.3051015148
 30
0.0
 11
29.824961763400001
 21
2.3004045679999998
 31
0.0
  0
LINE
  5
5E6
  8
SYMBOL
  6
CONTINUOUS
 62
     2
 10
29.753072754108828
 20
2.3004045679999998
 30
0.0
 11
29.749076713121831
 21
2.2751745581999989
 31
0.0
  0
LINE
  5
5E7
  8
SYMBOL
  6
CONTINUOUS
 62
     2
 10
29.824961763400001
 20
2.3004045679999998
 30
0.0
 11
29.8151876055
 21
2.2751745581999989
 31
0.0
  0
LINE
  5
5E8
  8
SYMBOL
  6
CONTINUOUS
 62
     2
 10
29.749076713121831
 20
2.2751745581999989
 30
0.0
 11
29.746934
 21
2.2616459999999989
 31
0.0
  0
LINE
  5
5E9
  8
SYMBOL
  6
CONTINUOUS
 62
     2
 10
29.8151876055
 20
2.2751745581999989
 30
0.0
 11
29.8151876055
 21
2.2616459999999989
 31
0.0
  0
LINE
  5
5EA
  8
SYMBOL
  6
CONTINUOUS
 62
     2
 10
29.746934
 20
2.2616459999999989
 30
0.0
 11
29.749076713121831
 21
2.2481174417999998
 31
0.0
  0
LINE
  5
5EB
  8
SYMBOL
  6
CONTINUOUS
 62
     2
 10
29.8151876055
 20
2.2616459999999989
 30
0.0
 11
29.8151876055
 21
2.2481174417999998
 31
0.0
  0
LINE
  5
5EC
  8
SYMBOL
  6
CONTINUOUS
 62
     2
 10
29.749076713121831
 20
2.2481174417999998
 30
0.0
 11
29.753072754108828
 21
2.2228874319999989
 31
0.0
  0
LINE
  5
5ED
  8
SYMBOL
  6
CONTINUOUS
 62
     2
 10
29.8151876055
 20
2.2481174417999998
 30
0.0
 11
29.824961763400001
 21
2.2228874319999989
 31
0.0
  0
LINE
  5
5EE
  8
SYMBOL
  6
CONTINUOUS
 62
     2
 10
29.753072754108828
 20
2.2228874319999989
 30
0.0
 11
29.7538166774
 21
2.2181904852000001
 31
0.0
  0
LINE
  5
5EF
  8
SYMBOL
  6
CONTINUOUS
 62
     2
 10
29.824961763400001
 20
2.2228874319999989
 30
0.0
 11
29.829243596157418
 21
2.2181904852000001
 31
0.0
  0
LINE
  5
5F0
  8
SYMBOL
  6
CONTINUOUS
 62
     2
 10
29.7538166774
 20
2.2181904852000001
 30
0.0
 11
29.761611654329041
 21
2.2028919816000001
 31
0.0
  0
LINE
  5
5F1
  8
SYMBOL
  6
CONTINUOUS
 62
     2
 10
29.829243596157418
 20
2.2181904852000001
 30
0.0
 11
29.8431900249
 21
2.2028919816000001
 31
0.0
  0
LINE
  5
5F2
  8
SYMBOL
  6
CONTINUOUS
 62
     2
 10
29.761611654329041
 20
2.2028919816000001
 30
0.0
 11
29.767756732313149
 21
2.190831586999999
 31
0.0
  0
LINE
  5
5F3
  8
SYMBOL
  6
CONTINUOUS
 62
     2
 10
29.8431900249
 20
2.2028919816000001
 30
0.0
 11
29.867410562399989
 21
2.190831586999999
 31
0.0
  0
LINE
  5
5F4
  8
SYMBOL
  6
CONTINUOUS
 62
     2
 10
29.767756732313149
 20
2.190831586999999
 30
0.0
 11
29.76902877059829
 21
2.1883350713
 31
0.0
  0
LINE
  5
5F5
  8
SYMBOL
  6
CONTINUOUS
 62
     2
 10
29.867410562399989
 20
2.190831586999999
 30
0.0
 11
29.894352258000001
 21
2.1883350713
 31
0.0
  0
LINE
  5
5F6
  8
SYMBOL
  6
CONTINUOUS
 62
     2
 10
29.894352258000001
 20
2.1883350713
 30
0.0
 11
30.006089229400001
 21
2.1883350713
 31
0.0
  0
LINE
  5
5F7
  8
SYMBOL
  6
CONTINUOUS
 62
     2
 10
29.76902877059829
 20
2.1883350713
 30
0.0
 11
29.773790985200002
 21
2.1789886989
 31
0.0
  0
LINE
  5
5F8
  8
SYMBOL
  6
CONTINUOUS
 62
     2
 10
30.006089229400001
 20
2.1883350713
 30
0.0
 11
30.001327014800001
 21
2.1789886989
 31
0.0
  0
LINE
  5
5F9
  8
SYMBOL
  6
CONTINUOUS
 62
     2
 10
29.773790985200002
 20
2.1789886989
 30
0.0
 11
29.8049016989
 21
2.1478779852000001
 31
0.0
  0
LINE
  5
5FA
  8
SYMBOL
  6
CONTINUOUS
 62
     2
 10
30.001327014800001
 20
2.1789886989
 30
0.0
 11
29.970216301099999
 21
2.1478779852000001
 31
0.0
  0
LINE
  5
5FB
  8
SYMBOL
  6
CONTINUOUS
 62
     2
 10
29.8049016989
 20
2.1478779852000001
 30
0.0
 11
29.844103485200002
 21
2.1279036773999991
 31
0.0
  0
LINE
  5
5FC
  8
SYMBOL
  6
CONTINUOUS
 62
     2
 10
29.970216301099999
 20
2.1478779852000001
 30
0.0
 11
29.931014514800001
 21
2.1279036773999991
 31
0.0
  0
LINE
  5
5FD
  8
SYMBOL
  6
CONTINUOUS
 62
     2
 10
29.931014514800001
 20
2.1279036773999991
 30
0.0
 11
29.887559
 21
2.1210209999999989
 31
0.0
  0
LINE
  5
5FE
  8
SYMBOL
  6
CONTINUOUS
 62
     2
 10
29.887559
 20
2.1210209999999989
 30
0.0
 11
29.844103485200002
 21
2.1279036773999991
 31
0.0
  0
ENDBLK
  5
600
  8
0
  0
BLOCK
  8
0
  2
*U16
 70
     1
 10
0.0
 20
0.0
 30
0.0
  3
*U16
  1

  0
SOLID
  5
619
  8
SYMBOL
  6
CONTINUOUS
 62
     2
 10
29.887559
 20
2.4022709999999989
 30
0.0
 11
29.844103485200002
 21
2.3953883226000001
 31
0.0
 12
29.931014514800001
 22
2.3953883226000001
 32
0.0
 13
29.931014514800001
 23
2.3953883226000001
 33
0.0
210
0.0
220
0.0
230
1.0
  0
SOLID
  5
61A
  8
SYMBOL
  6
CONTINUOUS
 62
     2
 10
29.844103485200002
 20
2.3953883226000001
 30
0.0
 11
29.8049016989
 21
2.3754140148
 31
0.0
 12
29.970216301099999
 22
2.3754140148
 32
0.0
 13
29.970216301099999
 23
2.3754140148
 33
0.0
  0
SOLID
  5
61B
  8
SYMBOL
  6
CONTINUOUS
 62
     2
 10
-29.844103485200002
 20
2.3953883226000001
 30
0.0
 11
-29.931014514800001
 21
2.3953883226000001
 31
0.0
 12
-29.970216301099999
 22
2.3754140148
 32
0.0
 13
-29.970216301099999
 23
2.3754140148
 33
0.0
210
0.0
220
0.0
230
-1.0
  0
SOLID
  5
61C
  8
SYMBOL
  6
CONTINUOUS
 62
     2
 10
29.8049016989
 20
2.3754140148
 30
0.0
 11
29.773790985200002
 21
2.3443033011000001
 31
0.0
 12
30.001327014800001
 22
2.3443033011000001
 32
0.0
 13
30.001327014800001
 23
2.3443033011000001
 33
0.0
210
0.0
220
0.0
230
1.0
  0
SOLID
  5
61D
  8
SYMBOL
  6
CONTINUOUS
 62
     2
 10
-29.8049016989
 20
2.3754140148
 30
0.0
 11
-29.970216301099999
 21
2.3754140148
 31
0.0
 12
-30.001327014800001
 22
2.3443033011000001
 32
0.0
 13
-30.001327014800001
 23
2.3443033011000001
 33
0.0
210
0.0
220
0.0
230
-1.0
  0
SOLID
  5
61E
  8
SYMBOL
  6
CONTINUOUS
 62
     2
 10
29.773790985200002
 20
2.3443033011000001
 30
0.0
 11
29.769028770599999
 21
2.3349569287
 31
0.0
 12
30.00608922940172
 22
2.3349569287
 32
0.0
 13
30.00608922940172
 23
2.3349569287
 33
0.0
  0
SOLID
  5
61F
  8
SYMBOL
  6
CONTINUOUS
 62
     2
 10
-29.773790985200002
 20
2.3443033011000001
 30
0.0
 11
-30.001327014800001
 21
2.3443033011000001
 31
0.0
 12
-30.00608922940172
 22
2.3349569287
 32
0.0
 13
-30.00608922940172
 23
2.3349569287
 33
0.0
210
0.0
220
0.0
230
-1.0
  0
SOLID
  5
620
  8
SYMBOL
  6
CONTINUOUS
 62
     2
 10
29.769028770599999
 20
2.3349569287
 30
0.0
 11
29.769028770599999
 21
2.3349569287
 31
0.0
 12
29.894352258000001
 22
2.3349569287
 32
0.0
 13
29.894352258000001
 23
2.3349569287
 33
0.0
210
0.0
220
0.0
230
1.0
  0
SOLID
  5
621
  8
SYMBOL
  6
CONTINUOUS
 62
     2
 10
29.894352258000001
 20
2.3349569287
 30
0.0
 11
29.920376486399999
 21
2.327552397299999
 31
0.0
 12
30.00986202659433
 22
2.327552397299999
 32
0.0
 13
30.00986202659433
 23
2.327552397299999
 33
0.0
210
0.0
220
0.0
230
1.0
  0
SOLID
  5
622
  8
SYMBOL
  6
CONTINUOUS
 62
     2
 10
-29.894352258000001
 20
2.3349569287
 30
0.0
 11
-30.00608922940172
 21
2.3349569287
 31
0.0
 12
-30.00986202659433
 22
2.327552397299999
 32
0.0
 13
-30.00986202659433
 23
2.327552397299999
 33
0.0
210
0.0
220
0.0
230
-1.0
  0
SOLID
  5
623
  8
SYMBOL
  6
CONTINUOUS
 62
     2
 10
29.920376486399999
 20
2.327552397299999
 30
0.0
 11
29.941968531499999
 21
2.3112468418000001
 31
0.0
 12
30.018170122095761
 22
2.3112468418000001
 32
0.0
 13
30.018170122095761
 23
2.3112468418000001
 33
0.0
210
0.0
220
0.0
230
1.0
  0
SOLID
  5
624
  8
SYMBOL
  6
CONTINUOUS
 62
     2
 10
-29.920376486399999
 20
2.327552397299999
 30
0.0
 11
-30.00986202659433
 21
2.327552397299999
 31
0.0
 12
-30.018170122095761
 22
2.3112468418000001
 32
0.0
 13
-30.018170122095761
 23
2.3112468418000001
 33
0.0
210
0.0
220
0.0
230
-1.0
  0
SOLID
  5
625
  8
SYMBOL
  6
CONTINUOUS
 62
     2
 10
29.941968531499999
 20
2.3112468418000001
 30
0.0
 11
29.94577355689422
 21
2.3051015148
 31
0.0
 12
30.021301322599999
 22
2.3051015148
 32
0.0
 13
30.021301322599999
 23
2.3051015148
 33
0.0
  0
SOLID
  5
626
  8
SYMBOL
  6
CONTINUOUS
 62
     2
 10
-29.941968531499999
 20
2.3112468418000001
 30
0.0
 11
-30.018170122095761
 21
2.3112468418000001
 31
0.0
 12
-30.021301322599999
 22
2.3051015148
 32
0.0
 13
-30.021301322599999
 23
2.3051015148
 33
0.0
210
0.0
220
0.0
230
-1.0
  0
SOLID
  5
627
  8
SYMBOL
  6
CONTINUOUS
 62
     2
 10
29.94577355689422
 20
2.3051015148
 30
0.0
 11
29.9562122679
 21
2.2882424176999998
 31
0.0
 12
30.023971541262199
 22
2.2882424176999998
 32
0.0
 13
30.023971541262199
 23
2.2882424176999998
 33
0.0
210
0.0
220
0.0
230
1.0
  0
SOLID
  5
628
  8
SYMBOL
  6
CONTINUOUS
 62
     2
 10
-29.94577355689422
 20
2.3051015148
 30
0.0
 11
-30.021301322599999
 21
2.3051015148
 31
0.0
 12
-30.023971541262199
 22
2.2882424176999998
 32
0.0
 13
-30.023971541262199
 23
2.2882424176999998
 33
0.0
210
0.0
220
0.0
230
-1.0
  0
SOLID
  5
629
  8
SYMBOL
  6
CONTINUOUS
 62
     2
 10
29.9562122679
 20
2.2882424176999998
 30
0.0
 11
29.961183999999999
 21
2.2616459999999989
 31
0.0
 12
30.028184
 22
2.2616459999999989
 32
0.0
 13
30.028184
 23
2.2616459999999989
 33
0.0
210
0.0
220
0.0
230
1.0
  0
SOLID
  5
62A
  8
SYMBOL
  6
CONTINUOUS
 62
     2
 10
-29.9562122679
 20
2.2882424176999998
 30
0.0
 11
-30.023971541262199
 21
2.2882424176999998
 31
0.0
 12
-30.028184
 22
2.2616459999999989
 32
0.0
 13
-30.028184
 23
2.2616459999999989
 33
0.0
210
0.0
220
0.0
230
-1.0
  0
SOLID
  5
62B
  8
SYMBOL
  6
CONTINUOUS
 62
     2
 10
29.961183999999999
 20
2.2616459999999989
 30
0.0
 11
29.9562122679
 21
2.2350495822999989
 31
0.0
 12
30.023971541262199
 22
2.2350495822999989
 32
0.0
 13
30.023971541262199
 23
2.2350495822999989
 33
0.0
210
0.0
220
0.0
230
1.0
  0
SOLID
  5
62C
  8
SYMBOL
  6
CONTINUOUS
 62
     2
 10
-29.961183999999999
 20
2.2616459999999989
 30
0.0
 11
-30.028184
 21
2.2616459999999989
 31
0.0
 12
-30.023971541262199
 22
2.2350495822999989
 32
0.0
 13
-30.023971541262199
 23
2.2350495822999989
 33
0.0
210
0.0
220
0.0
230
-1.0
  0
SOLID
  5
62D
  8
SYMBOL
  6
CONTINUOUS
 62
     2
 10
29.9562122679
 20
2.2350495822999989
 30
0.0
 11
29.94577355689422
 21
2.2181904852000001
 31
0.0
 12
30.021301322599999
 22
2.2181904852000001
 32
0.0
 13
30.021301322599999
 23
2.2181904852000001
 33
0.0
210
0.0
220
0.0
230
1.0
  0
SOLID
  5
62E
  8
SYMBOL
  6
CONTINUOUS
 62
     2
 10
-29.9562122679
 20
2.2350495822999989
 30
0.0
 11
-30.023971541262199
 21
2.2350495822999989
 31
0.0
 12
-30.021301322599999
 22
2.2181904852000001
 32
0.0
 13
-30.021301322599999
 23
2.2181904852000001
 33
0.0
210
0.0
220
0.0
230
-1.0
  0
SOLID
  5
62F
  8
SYMBOL
  6
CONTINUOUS
 62
     2
 10
29.94577355689422
 20
2.2181904852000001
 30
0.0
 11
29.941968531499999
 21
2.2120451582
 31
0.0
 12
30.018170122095409
 22
2.2120451582
 32
0.0
 13
30.018170122095409
 23
2.2120451582
 33
0.0
210
0.0
220
0.0
230
1.0
  0
SOLID
  5
630
  8
SYMBOL
  6
CONTINUOUS
 62
     2
 10
-29.94577355689422
 20
2.2181904852000001
 30
0.0
 11
-30.021301322599999
 21
2.2181904852000001
 31
0.0
 12
-30.018170122095409
 22
2.2120451582
 32
0.0
 13
-30.018170122095409
 23
2.2120451582
 33
0.0
210
0.0
220
0.0
230
-1.0
  0
SOLID
  5
631
  8
SYMBOL
  6
CONTINUOUS
 62
     2
 10
29.941968531499999
 20
2.2120451582
 30
0.0
 11
29.920376486399999
 21
2.1957396026999998
 31
0.0
 12
30.009862026593051
 22
2.1957396026999998
 32
0.0
 13
30.009862026593051
 23
2.1957396026999998
 33
0.0
  0
SOLID
  5
632
  8
SYMBOL
  6
CONTINUOUS
 62
     2
 10
-29.941968531499999
 20
2.2120451582
 30
0.0
 11
-30.018170122095409
 21
2.2120451582
 31
0.0
 12
-30.009862026593051
 22
2.1957396026999998
 32
0.0
 13
-30.009862026593051
 23
2.1957396026999998
 33
0.0
210
0.0
220
0.0
230
-1.0
  0
SOLID
  5
633
  8
SYMBOL
  6
CONTINUOUS
 62
     2
 10
29.920376486399999
 20
2.1957396026999998
 30
0.0
 11
29.894352258000001
 21
2.1883350713
 31
0.0
 12
30.006089229400001
 22
2.1883350713
 32
0.0
 13
30.006089229400001
 23
2.1883350713
 33
0.0
210
0.0
220
0.0
230
1.0
  0
SOLID
  5
634
  8
SYMBOL
  6
CONTINUOUS
 62
     2
 10
-29.920376486399999
 20
2.1957396026999998
 30
0.0
 11
-30.009862026593051
 21
2.1957396026999998
 31
0.0
 12
-30.006089229400001
 22
2.1883350713
 32
0.0
 13
-30.006089229400001
 23
2.1883350713
 33
0.0
210
0.0
220
0.0
230
-1.0
  0
SOLID
  5
635
  8
SYMBOL
  6
CONTINUOUS
 62
     2
 10
29.894352258000001
 20
2.1883350713
 30
0.0
 11
29.894352258000001
 21
2.1883350713
 31
0.0
 12
30.006089229400001
 22
2.1883350713
 32
0.0
 13
30.006089229400001
 23
2.1883350713
 33
0.0
210
0.0
220
0.0
230
1.0
  0
LINE
  5
636
  8
SYMBOL
  6
CONTINUOUS
 62
     2
 10
29.887559
 20
2.4022709999999989
 30
0.0
 11
29.844103485200002
 21
2.3953883226000001
 31
0.0
  0
LINE
  5
637
  8
SYMBOL
  6
CONTINUOUS
 62
     2
 10
29.931014514800001
 20
2.3953883226000001
 30
0.0
 11
29.887559
 21
2.4022709999999989
 31
0.0
  0
LINE
  5
638
  8
SYMBOL
  6
CONTINUOUS
 62
     2
 10
29.844103485200002
 20
2.3953883226000001
 30
0.0
 11
29.8049016989
 21
2.3754140148
 31
0.0
  0
LINE
  5
639
  8
SYMBOL
  6
CONTINUOUS
 62
     2
 10
29.931014514800001
 20
2.3953883226000001
 30
0.0
 11
29.970216301099999
 21
2.3754140148
 31
0.0
  0
LINE
  5
63A
  8
SYMBOL
  6
CONTINUOUS
 62
     2
 10
29.8049016989
 20
2.3754140148
 30
0.0
 11
29.773790985200002
 21
2.3443033011000001
 31
0.0
  0
LINE
  5
63B
  8
SYMBOL
  6
CONTINUOUS
 62
     2
 10
29.970216301099999
 20
2.3754140148
 30
0.0
 11
30.001327014800001
 21
2.3443033011000001
 31
0.0
  0
LINE
  5
63C
  8
SYMBOL
  6
CONTINUOUS
 62
     2
 10
29.773790985200002
 20
2.3443033011000001
 30
0.0
 11
29.769028770599999
 21
2.3349569287
 31
0.0
  0
LINE
  5
63D
  8
SYMBOL
  6
CONTINUOUS
 62
     2
 10
30.001327014800001
 20
2.3443033011000001
 30
0.0
 11
30.00608922940172
 21
2.3349569287
 31
0.0
  0
LINE
  5
63E
  8
SYMBOL
  6
CONTINUOUS
 62
     2
 10
29.769028770599999
 20
2.3349569287
 30
0.0
 11
29.894352258000001
 21
2.3349569287
 31
0.0
  0
LINE
  5
63F
  8
SYMBOL
  6
CONTINUOUS
 62
     2
 10
29.894352258000001
 20
2.3349569287
 30
0.0
 11
29.920376486399999
 21
2.327552397299999
 31
0.0
  0
LINE
  5
640
  8
SYMBOL
  6
CONTINUOUS
 62
     2
 10
30.00608922940172
 20
2.3349569287
 30
0.0
 11
30.00986202659433
 21
2.327552397299999
 31
0.0
  0
LINE
  5
641
  8
SYMBOL
  6
CONTINUOUS
 62
     2
 10
29.920376486399999
 20
2.327552397299999
 30
0.0
 11
29.941968531499999
 21
2.3112468418000001
 31
0.0
  0
LINE
  5
642
  8
SYMBOL
  6
CONTINUOUS
 62
     2
 10
30.00986202659433
 20
2.327552397299999
 30
0.0
 11
30.018170122095761
 21
2.3112468418000001
 31
0.0
  0
LINE
  5
643
  8
SYMBOL
  6
CONTINUOUS
 62
     2
 10
29.941968531499999
 20
2.3112468418000001
 30
0.0
 11
29.94577355689422
 21
2.3051015148
 31
0.0
  0
LINE
  5
644
  8
SYMBOL
  6
CONTINUOUS
 62
     2
 10
30.018170122095761
 20
2.3112468418000001
 30
0.0
 11
30.021301322599999
 21
2.3051015148
 31
0.0
  0
LINE
  5
645
  8
SYMBOL
  6
CONTINUOUS
 62
     2
 10
29.94577355689422
 20
2.3051015148
 30
0.0
 11
29.9562122679
 21
2.2882424176999998
 31
0.0
  0
LINE
  5
646
  8
SYMBOL
  6
CONTINUOUS
 62
     2
 10
30.021301322599999
 20
2.3051015148
 30
0.0
 11
30.023971541262199
 21
2.2882424176999998
 31
0.0
  0
LINE
  5
647
  8
SYMBOL
  6
CONTINUOUS
 62
     2
 10
29.9562122679
 20
2.2882424176999998
 30
0.0
 11
29.961183999999999
 21
2.2616459999999989
 31
0.0
  0
LINE
  5
648
  8
SYMBOL
  6
CONTINUOUS
 62
     2
 10
30.023971541262199
 20
2.2882424176999998
 30
0.0
 11
30.028184
 21
2.2616459999999989
 31
0.0
  0
LINE
  5
649
  8
SYMBOL
  6
CONTINUOUS
 62
     2
 10
29.961183999999999
 20
2.2616459999999989
 30
0.0
 11
29.9562122679
 21
2.2350495822999989
 31
0.0
  0
LINE
  5
64A
  8
SYMBOL
  6
CONTINUOUS
 62
     2
 10
30.028184
 20
2.2616459999999989
 30
0.0
 11
30.023971541262199
 21
2.2350495822999989
 31
0.0
  0
LINE
  5
64B
  8
SYMBOL
  6
CONTINUOUS
 62
     2
 10
29.9562122679
 20
2.2350495822999989
 30
0.0
 11
29.94577355689422
 21
2.2181904852000001
 31
0.0
  0
LINE
  5
64C
  8
SYMBOL
  6
CONTINUOUS
 62
     2
 10
30.023971541262199
 20
2.2350495822999989
 30
0.0
 11
30.021301322599999
 21
2.2181904852000001
 31
0.0
  0
LINE
  5
64D
  8
SYMBOL
  6
CONTINUOUS
 62
     2
 10
29.94577355689422
 20
2.2181904852000001
 30
0.0
 11
29.941968531499999
 21
2.2120451582
 31
0.0
  0
LINE
  5
64E
  8
SYMBOL
  6
CONTINUOUS
 62
     2
 10
30.021301322599999
 20
2.2181904852000001
 30
0.0
 11
30.018170122095409
 21
2.2120451582
 31
0.0
  0
LINE
  5
64F
  8
SYMBOL
  6
CONTINUOUS
 62
     2
 10
29.941968531499999
 20
2.2120451582
 30
0.0
 11
29.920376486399999
 21
2.1957396026999998
 31
0.0
  0
LINE
  5
650
  8
SYMBOL
  6
CONTINUOUS
 62
     2
 10
30.018170122095409
 20
2.2120451582
 30
0.0
 11
30.009862026593051
 21
2.1957396026999998
 31
0.0
  0
LINE
  5
651
  8
SYMBOL
  6
CONTINUOUS
 62
     2
 10
29.920376486399999
 20
2.1957396026999998
 30
0.0
 11
29.894352258000001
 21
2.1883350713
 31
0.0
  0
LINE
  5
652
  8
SYMBOL
  6
CONTINUOUS
 62
     2
 10
30.009862026593051
 20
2.1957396026999998
 30
0.0
 11
30.006089229400001
 21
2.1883350713
 31
0.0
  0
LINE
  5
653
  8
SYMBOL
  6
CONTINUOUS
 62
     2
 10
29.894352258000001
 20
2.1883350713
 30
0.0
 11
30.006089229400001
 21
2.1883350713
 31
0.0
  0
ENDBLK
  5
655
  8
0
  0
BLOCK
  8
0
  2
*U17
 70
     1
 10
0.0
 20
0.0
 30
0.0
  3
*U17
  1

  0
SOLID
  5
665
  8
SYMBOL
  6
CONTINUOUS
 62
     2
 10
30.059434
 20
2.4022709999999989
 30
0.0
 11
30.059434
 21
2.4022709999999989
 31
0.0
 12
30.126434
 22
2.4022709999999989
 32
0.0
 13
30.126434
 23
2.4022709999999989
 33
0.0
210
0.0
220
0.0
230
1.0
  0
SOLID
  5
666
  8
SYMBOL
  6
CONTINUOUS
 62
     2
 10
30.204559
 20
2.4022709999999989
 30
0.0
 11
30.204559
 21
2.4022709999999989
 31
0.0
 12
30.271559
 22
2.4022709999999989
 32
0.0
 13
30.271559
 23
2.4022709999999989
 33
0.0
210
0.0
220
0.0
230
1.0
  0
SOLID
  5
667
  8
SYMBOL
  6
CONTINUOUS
 62
     2
 10
30.059434
 20
2.4022709999999989
 30
0.0
 11
30.059434
 21
2.310770999999999
 31
0.0
 12
30.126434
 22
2.310770999999999
 32
0.0
 13
30.126434
 23
2.310770999999999
 33
0.0
210
0.0
220
0.0
230
1.0
  0
SOLID
  5
668
  8
SYMBOL
  6
CONTINUOUS
 62
     2
 10
-30.059434
 20
2.4022709999999989
 30
0.0
 11
-30.126434
 21
2.4022709999999989
 31
0.0
 12
-30.126434
 22
2.310770999999999
 32
0.0
 13
-30.126434
 23
2.310770999999999
 33
0.0
210
0.0
220
0.0
230
-1.0
  0
SOLID
  5
669
  8
SYMBOL
  6
CONTINUOUS
 62
     2
 10
30.204559
 20
2.4022709999999989
 30
0.0
 11
30.204559
 21
2.310770999999999
 31
0.0
 12
30.271559
 22
2.310770999999999
 32
0.0
 13
30.271559
 23
2.310770999999999
 33
0.0
210
0.0
220
0.0
230
1.0
  0
SOLID
  5
66A
  8
SYMBOL
  6
CONTINUOUS
 62
     2
 10
-30.204559
 20
2.4022709999999989
 30
0.0
 11
-30.271559
 21
2.4022709999999989
 31
0.0
 12
-30.271559
 22
2.310770999999999
 32
0.0
 13
-30.271559
 23
2.310770999999999
 33
0.0
210
0.0
220
0.0
230
-1.0
  0
SOLID
  5
66B
  8
SYMBOL
  6
CONTINUOUS
 62
     2
 10
30.126434
 20
2.310770999999999
 30
0.0
 11
30.126434
 21
2.310770999999999
 31
0.0
 12
30.204559
 22
2.310770999999999
 32
0.0
 13
30.204559
 23
2.310770999999999
 33
0.0
210
0.0
220
0.0
230
1.0
  0
SOLID
  5
66C
  8
SYMBOL
  6
CONTINUOUS
 62
     2
 10
30.059434
 20
2.310770999999999
 30
0.0
 11
30.059434
 21
2.2437710000000002
 31
0.0
 12
30.271559
 22
2.2437710000000002
 32
0.0
 13
30.271559
 23
2.2437710000000002
 33
0.0
  0
SOLID
  5
66D
  8
SYMBOL
  6
CONTINUOUS
 62
     2
 10
-30.059434
 20
2.310770999999999
 30
0.0
 11
-30.271559
 21
2.310770999999999
 31
0.0
 12
-30.271559
 22
2.2437710000000002
 32
0.0
 13
-30.271559
 23
2.2437710000000002
 33
0.0
210
0.0
220
0.0
230
-1.0
  0
SOLID
  5
66E
  8
SYMBOL
  6
CONTINUOUS
 62
     2
 10
30.126434
 20
2.2437710000000002
 30
0.0
 11
30.126434
 21
2.2437710000000002
 31
0.0
 12
30.204559
 22
2.2437710000000002
 32
0.0
 13
30.204559
 23
2.2437710000000002
 33
0.0
210
0.0
220
0.0
230
1.0
  0
SOLID
  5
66F
  8
SYMBOL
  6
CONTINUOUS
 62
     2
 10
30.059434
 20
2.2437710000000002
 30
0.0
 11
30.059434
 21
2.1210209999999989
 31
0.0
 12
30.126434
 22
2.1210209999999989
 32
0.0
 13
30.126434
 23
2.1210209999999989
 33
0.0
  0
SOLID
  5
670
  8
SYMBOL
  6
CONTINUOUS
 62
     2
 10
-30.059434
 20
2.2437710000000002
 30
0.0
 11
-30.126434
 21
2.2437710000000002
 31
0.0
 12
-30.126434
 22
2.1210209999999989
 32
0.0
 13
-30.126434
 23
2.1210209999999989
 33
0.0
210
0.0
220
0.0
230
-1.0
  0
SOLID
  5
671
  8
SYMBOL
  6
CONTINUOUS
 62
     2
 10
30.204559
 20
2.2437710000000002
 30
0.0
 11
30.204559
 21
2.1210209999999989
 31
0.0
 12
30.271559
 22
2.1210209999999989
 32
0.0
 13
30.271559
 23
2.1210209999999989
 33
0.0
  0
SOLID
  5
672
  8
SYMBOL
  6
CONTINUOUS
 62
     2
 10
-30.204559
 20
2.2437710000000002
 30
0.0
 11
-30.271559
 21
2.2437710000000002
 31
0.0
 12
-30.271559
 22
2.1210209999999989
 32
0.0
 13
-30.271559
 23
2.1210209999999989
 33
0.0
210
0.0
220
0.0
230
-1.0
  0
SOLID
  5
673
  8
SYMBOL
  6
CONTINUOUS
 62
     2
 10
30.059434
 20
2.1210209999999989
 30
0.0
 11
30.059434
 21
2.1210209999999989
 31
0.0
 12
30.126434
 22
2.1210209999999989
 32
0.0
 13
30.126434
 23
2.1210209999999989
 33
0.0
210
0.0
220
0.0
230
1.0
  0
SOLID
  5
674
  8
SYMBOL
  6
CONTINUOUS
 62
     2
 10
30.204559
 20
2.1210209999999989
 30
0.0
 11
30.204559
 21
2.1210209999999989
 31
0.0
 12
30.271559
 22
2.1210209999999989
 32
0.0
 13
30.271559
 23
2.1210209999999989
 33
0.0
210
0.0
220
0.0
230
1.0
  0
LINE
  5
675
  8
SYMBOL
  6
CONTINUOUS
 62
     2
 10
30.059434
 20
2.4022709999999989
 30
0.0
 11
30.126434
 21
2.4022709999999989
 31
0.0
  0
LINE
  5
676
  8
SYMBOL
  6
CONTINUOUS
 62
     2
 10
30.204559
 20
2.4022709999999989
 30
0.0
 11
30.271559
 21
2.4022709999999989
 31
0.0
  0
LINE
  5
677
  8
SYMBOL
  6
CONTINUOUS
 62
     2
 10
30.059434
 20
2.4022709999999989
 30
0.0
 11
30.059434
 21
2.310770999999999
 31
0.0
  0
LINE
  5
678
  8
SYMBOL
  6
CONTINUOUS
 62
     2
 10
30.126434
 20
2.4022709999999989
 30
0.0
 11
30.126434
 21
2.310770999999999
 31
0.0
  0
LINE
  5
679
  8
SYMBOL
  6
CONTINUOUS
 62
     2
 10
30.204559
 20
2.4022709999999989
 30
0.0
 11
30.204559
 21
2.310770999999999
 31
0.0
  0
LINE
  5
67A
  8
SYMBOL
  6
CONTINUOUS
 62
     2
 10
30.271559
 20
2.4022709999999989
 30
0.0
 11
30.271559
 21
2.310770999999999
 31
0.0
  0
LINE
  5
67B
  8
SYMBOL
  6
CONTINUOUS
 62
     2
 10
30.126434
 20
2.310770999999999
 30
0.0
 11
30.204559
 21
2.310770999999999
 31
0.0
  0
LINE
  5
67C
  8
SYMBOL
  6
CONTINUOUS
 62
     2
 10
30.059434
 20
2.310770999999999
 30
0.0
 11
30.059434
 21
2.2437710000000002
 31
0.0
  0
LINE
  5
67D
  8
SYMBOL
  6
CONTINUOUS
 62
     2
 10
30.271559
 20
2.310770999999999
 30
0.0
 11
30.271559
 21
2.2437710000000002
 31
0.0
  0
LINE
  5
67E
  8
SYMBOL
  6
CONTINUOUS
 62
     2
 10
30.126434
 20
2.2437710000000002
 30
0.0
 11
30.204559
 21
2.2437710000000002
 31
0.0
  0
LINE
  5
67F
  8
SYMBOL
  6
CONTINUOUS
 62
     2
 10
30.059434
 20
2.2437710000000002
 30
0.0
 11
30.059434
 21
2.1210209999999989
 31
0.0
  0
LINE
  5
680
  8
SYMBOL
  6
CONTINUOUS
 62
     2
 10
30.126434
 20
2.2437710000000002
 30
0.0
 11
30.126434
 21
2.1210209999999989
 31
0.0
  0
LINE
  5
681
  8
SYMBOL
  6
CONTINUOUS
 62
     2
 10
30.204559
 20
2.2437710000000002
 30
0.0
 11
30.204559
 21
2.1210209999999989
 31
0.0
  0
LINE
  5
682
  8
SYMBOL
  6
CONTINUOUS
 62
     2
 10
30.271559
 20
2.2437710000000002
 30
0.0
 11
30.271559
 21
2.1210209999999989
 31
0.0
  0
LINE
  5
683
  8
SYMBOL
  6
CONTINUOUS
 62
     2
 10
30.059434
 20
2.1210209999999989
 30
0.0
 11
30.126434
 21
2.1210209999999989
 31
0.0
  0
LINE
  5
684
  8
SYMBOL
  6
CONTINUOUS
 62
     2
 10
30.204559
 20
2.1210209999999989
 30
0.0
 11
30.271559
 21
2.1210209999999989
 31
0.0
  0
ENDBLK
  5
686
  8
0
  0
BLOCK
  8
0
  2
*U18
 70
     1
 10
0.0
 20
0.0
 30
0.0
  3
*U18
  1

  0
SOLID
  5
690
  8
SYMBOL
  6
CONTINUOUS
 62
     2
 10
30.302809
 20
2.4022709999999989
 30
0.0
 11
30.302809
 21
2.4022709999999989
 31
0.0
 12
30.369809
 22
2.4022709999999989
 32
0.0
 13
30.369809
 23
2.4022709999999989
 33
0.0
210
0.0
220
0.0
230
1.0
  0
SOLID
  5
691
  8
SYMBOL
  6
CONTINUOUS
 62
     2
 10
30.302809
 20
2.4022709999999989
 30
0.0
 11
30.302809
 21
2.1880209999999991
 31
0.0
 12
30.369809
 22
2.1880209999999991
 32
0.0
 13
30.369809
 23
2.1880209999999991
 33
0.0
  0
SOLID
  5
692
  8
SYMBOL
  6
CONTINUOUS
 62
     2
 10
-30.302809
 20
2.4022709999999989
 30
0.0
 11
-30.369809
 21
2.4022709999999989
 31
0.0
 12
-30.369809
 22
2.1880209999999991
 32
0.0
 13
-30.369809
 23
2.1880209999999991
 33
0.0
210
0.0
220
0.0
230
-1.0
  0
SOLID
  5
693
  8
SYMBOL
  6
CONTINUOUS
 62
     2
 10
30.369809
 20
2.1880209999999991
 30
0.0
 11
30.369809
 21
2.1880209999999991
 31
0.0
 12
30.459059
 22
2.1880209999999991
 32
0.0
 13
30.459059
 23
2.1880209999999991
 33
0.0
210
0.0
220
0.0
230
1.0
  0
SOLID
  5
694
  8
SYMBOL
  6
CONTINUOUS
 62
     2
 10
30.302809
 20
2.1880209999999991
 30
0.0
 11
30.302809
 21
2.1210209999999989
 31
0.0
 12
30.459059
 22
2.1210209999999989
 32
0.0
 13
30.459059
 23
2.1210209999999989
 33
0.0
210
0.0
220
0.0
230
1.0
  0
SOLID
  5
695
  8
SYMBOL
  6
CONTINUOUS
 62
     2
 10
-30.302809
 20
2.1880209999999991
 30
0.0
 11
-30.459059
 21
2.1880209999999991
 31
0.0
 12
-30.459059
 22
2.1210209999999989
 32
0.0
 13
-30.459059
 23
2.1210209999999989
 33
0.0
210
0.0
220
0.0
230
-1.0
  0
SOLID
  5
696
  8
SYMBOL
  6
CONTINUOUS
 62
     2
 10
30.302809
 20
2.1210209999999989
 30
0.0
 11
30.302809
 21
2.1210209999999989
 31
0.0
 12
30.459059
 22
2.1210209999999989
 32
0.0
 13
30.459059
 23
2.1210209999999989
 33
0.0
210
0.0
220
0.0
230
1.0
  0
LINE
  5
697
  8
SYMBOL
  6
CONTINUOUS
 62
     2
 10
30.302809
 20
2.4022709999999989
 30
0.0
 11
30.369809
 21
2.4022709999999989
 31
0.0
  0
LINE
  5
698
  8
SYMBOL
  6
CONTINUOUS
 62
     2
 10
30.302809
 20
2.4022709999999989
 30
0.0
 11
30.302809
 21
2.1880209999999991
 31
0.0
  0
LINE
  5
699
  8
SYMBOL
  6
CONTINUOUS
 62
     2
 10
30.369809
 20
2.4022709999999989
 30
0.0
 11
30.369809
 21
2.1880209999999991
 31
0.0
  0
LINE
  5
69A
  8
SYMBOL
  6
CONTINUOUS
 62
     2
 10
30.369809
 20
2.1880209999999991
 30
0.0
 11
30.459059
 21
2.1880209999999991
 31
0.0
  0
LINE
  5
69B
  8
SYMBOL
  6
CONTINUOUS
 62
     2
 10
30.302809
 20
2.1880209999999991
 30
0.0
 11
30.302809
 21
2.1210209999999989
 31
0.0
  0
LINE
  5
69C
  8
SYMBOL
  6
CONTINUOUS
 62
     2
 10
30.459059
 20
2.1880209999999991
 30
0.0
 11
30.459059
 21
2.1210209999999989
 31
0.0
  0
LINE
  5
69D
  8
SYMBOL
  6
CONTINUOUS
 62
     2
 10
30.302809
 20
2.1210209999999989
 30
0.0
 11
30.459059
 21
2.1210209999999989
 31
0.0
  0
ENDBLK
  5
69F
  8
0
  0
BLOCK
  8
0
  2
*U19
 70
     1
 10
0.0
 20
0.0
 30
0.0
  3
*U19
  1

  0
SOLID
  5
6AF
  8
SYMBOL
  6
CONTINUOUS
 62
     2
 10
30.490309
 20
2.4022709999999989
 30
0.0
 11
30.490309
 21
2.4022709999999989
 31
0.0
 12
30.646559
 22
2.4022709999999989
 32
0.0
 13
30.646559
 23
2.4022709999999989
 33
0.0
210
0.0
220
0.0
230
1.0
  0
SOLID
  5
6B0
  8
SYMBOL
  6
CONTINUOUS
 62
     2
 10
30.490309
 20
2.4022709999999989
 30
0.0
 11
30.490309
 21
2.3352710000000001
 31
0.0
 12
30.646559
 22
2.3352710000000001
 32
0.0
 13
30.646559
 23
2.3352710000000001
 33
0.0
210
0.0
220
0.0
230
1.0
  0
SOLID
  5
6B1
  8
SYMBOL
  6
CONTINUOUS
 62
     2
 10
-30.490309
 20
2.4022709999999989
 30
0.0
 11
-30.646559
 21
2.4022709999999989
 31
0.0
 12
-30.646559
 22
2.3352710000000001
 32
0.0
 13
-30.646559
 23
2.3352710000000001
 33
0.0
210
0.0
220
0.0
230
-1.0
  0
SOLID
  5
6B2
  8
SYMBOL
  6
CONTINUOUS
 62
     2
 10
30.557309
 20
2.3352710000000001
 30
0.0
 11
30.557309
 21
2.3352710000000001
 31
0.0
 12
30.646559
 22
2.3352710000000001
 32
0.0
 13
30.646559
 23
2.3352710000000001
 33
0.0
210
0.0
220
0.0
230
1.0
  0
SOLID
  5
6B3
  8
SYMBOL
  6
CONTINUOUS
 62
     2
 10
30.490309
 20
2.3352710000000001
 30
0.0
 11
30.490309
 21
2.287333499999999
 31
0.0
 12
30.557309
 22
2.287333499999999
 32
0.0
 13
30.557309
 23
2.287333499999999
 33
0.0
  0
SOLID
  5
6B4
  8
SYMBOL
  6
CONTINUOUS
 62
     2
 10
-30.490309
 20
2.3352710000000001
 30
0.0
 11
-30.557309
 21
2.3352710000000001
 31
0.0
 12
-30.557309
 22
2.287333499999999
 32
0.0
 13
-30.557309
 23
2.287333499999999
 33
0.0
210
0.0
220
0.0
230
-1.0
  0
SOLID
  5
6B5
  8
SYMBOL
  6
CONTINUOUS
 62
     2
 10
30.557309
 20
2.287333499999999
 30
0.0
 11
30.557309
 21
2.287333499999999
 31
0.0
 12
30.646559
 22
2.287333499999999
 32
0.0
 13
30.646559
 23
2.287333499999999
 33
0.0
210
0.0
220
0.0
230
1.0
  0
SOLID
  5
6B6
  8
SYMBOL
  6
CONTINUOUS
 62
     2
 10
30.490309
 20
2.287333499999999
 30
0.0
 11
30.490309
 21
2.2359585000000002
 31
0.0
 12
30.646559
 22
2.2359585000000002
 32
0.0
 13
30.646559
 23
2.2359585000000002
 33
0.0
210
0.0
220
0.0
230
1.0
  0
SOLID
  5
6B7
  8
SYMBOL
  6
CONTINUOUS
 62
     2
 10
-30.490309
 20
2.287333499999999
 30
0.0
 11
-30.646559
 21
2.287333499999999
 31
0.0
 12
-30.646559
 22
2.2359585000000002
 32
0.0
 13
-30.646559
 23
2.2359585000000002
 33
0.0
210
0.0
220
0.0
230
-1.0
  0
SOLID
  5
6B8
  8
SYMBOL
  6
CONTINUOUS
 62
     2
 10
30.557309
 20
2.2359585000000002
 30
0.0
 11
30.557309
 21
2.2359585000000002
 31
0.0
 12
30.646559
 22
2.2359585000000002
 32
0.0
 13
30.646559
 23
2.2359585000000002
 33
0.0
210
0.0
220
0.0
230
1.0
  0
SOLID
  5
6B9
  8
SYMBOL
  6
CONTINUOUS
 62
     2
 10
30.490309
 20
2.2359585000000002
 30
0.0
 11
30.490309
 21
2.1880209999999991
 31
0.0
 12
30.557309
 22
2.1880209999999991
 32
0.0
 13
30.557309
 23
2.1880209999999991
 33
0.0
  0
SOLID
  5
6BA
  8
SYMBOL
  6
CONTINUOUS
 62
     2
 10
-30.490309
 20
2.2359585000000002
 30
0.0
 11
-30.557309
 21
2.2359585000000002
 31
0.0
 12
-30.557309
 22
2.1880209999999991
 32
0.0
 13
-30.557309
 23
2.1880209999999991
 33
0.0
210
0.0
220
0.0
230
-1.0
  0
SOLID
  5
6BB
  8
SYMBOL
  6
CONTINUOUS
 62
     2
 10
30.557309
 20
2.1880209999999991
 30
0.0
 11
30.557309
 21
2.1880209999999991
 31
0.0
 12
30.646559
 22
2.1880209999999991
 32
0.0
 13
30.646559
 23
2.1880209999999991
 33
0.0
210
0.0
220
0.0
230
1.0
  0
SOLID
  5
6BC
  8
SYMBOL
  6
CONTINUOUS
 62
     2
 10
30.490309
 20
2.1880209999999991
 30
0.0
 11
30.490309
 21
2.1210209999999989
 31
0.0
 12
30.646559
 22
2.1210209999999989
 32
0.0
 13
30.646559
 23
2.1210209999999989
 33
0.0
210
0.0
220
0.0
230
1.0
  0
SOLID
  5
6BD
  8
SYMBOL
  6
CONTINUOUS
 62
     2
 10
-30.490309
 20
2.1880209999999991
 30
0.0
 11
-30.646559
 21
2.1880209999999991
 31
0.0
 12
-30.646559
 22
2.1210209999999989
 32
0.0
 13
-30.646559
 23
2.1210209999999989
 33
0.0
210
0.0
220
0.0
230
-1.0
  0
SOLID
  5
6BE
  8
SYMBOL
  6
CONTINUOUS
 62
     2
 10
30.490309
 20
2.1210209999999989
 30
0.0
 11
30.490309
 21
2.1210209999999989
 31
0.0
 12
30.646559
 22
2.1210209999999989
 32
0.0
 13
30.646559
 23
2.1210209999999989
 33
0.0
210
0.0
220
0.0
230
1.0
  0
LINE
  5
6BF
  8
SYMBOL
  6
CONTINUOUS
 62
     2
 10
30.490309
 20
2.4022709999999989
 30
0.0
 11
30.646559
 21
2.4022709999999989
 31
0.0
  0
LINE
  5
6C0
  8
SYMBOL
  6
CONTINUOUS
 62
     2
 10
30.490309
 20
2.4022709999999989
 30
0.0
 11
30.490309
 21
2.3352710000000001
 31
0.0
  0
LINE
  5
6C1
  8
SYMBOL
  6
CONTINUOUS
 62
     2
 10
30.646559
 20
2.4022709999999989
 30
0.0
 11
30.646559
 21
2.3352710000000001
 31
0.0
  0
LINE
  5
6C2
  8
SYMBOL
  6
CONTINUOUS
 62
     2
 10
30.557309
 20
2.3352710000000001
 30
0.0
 11
30.646559
 21
2.3352710000000001
 31
0.0
  0
LINE
  5
6C3
  8
SYMBOL
  6
CONTINUOUS
 62
     2
 10
30.490309
 20
2.3352710000000001
 30
0.0
 11
30.490309
 21
2.287333499999999
 31
0.0
  0
LINE
  5
6C4
  8
SYMBOL
  6
CONTINUOUS
 62
     2
 10
30.557309
 20
2.3352710000000001
 30
0.0
 11
30.557309
 21
2.287333499999999
 31
0.0
  0
LINE
  5
6C5
  8
SYMBOL
  6
CONTINUOUS
 62
     2
 10
30.557309
 20
2.287333499999999
 30
0.0
 11
30.646559
 21
2.287333499999999
 31
0.0
  0
LINE
  5
6C6
  8
SYMBOL
  6
CONTINUOUS
 62
     2
 10
30.490309
 20
2.287333499999999
 30
0.0
 11
30.490309
 21
2.2359585000000002
 31
0.0
  0
LINE
  5
6C7
  8
SYMBOL
  6
CONTINUOUS
 62
     2
 10
30.646559
 20
2.287333499999999
 30
0.0
 11
30.646559
 21
2.2359585000000002
 31
0.0
  0
LINE
  5
6C8
  8
SYMBOL
  6
CONTINUOUS
 62
     2
 10
30.557309
 20
2.2359585000000002
 30
0.0
 11
30.646559
 21
2.2359585000000002
 31
0.0
  0
LINE
  5
6C9
  8
SYMBOL
  6
CONTINUOUS
 62
     2
 10
30.490309
 20
2.2359585000000002
 30
0.0
 11
30.490309
 21
2.1880209999999991
 31
0.0
  0
LINE
  5
6CA
  8
SYMBOL
  6
CONTINUOUS
 62
     2
 10
30.557309
 20
2.2359585000000002
 30
0.0
 11
30.557309
 21
2.1880209999999991
 31
0.0
  0
LINE
  5
6CB
  8
SYMBOL
  6
CONTINUOUS
 62
     2
 10
30.557309
 20
2.1880209999999991
 30
0.0
 11
30.646559
 21
2.1880209999999991
 31
0.0
  0
LINE
  5
6CC
  8
SYMBOL
  6
CONTINUOUS
 62
     2
 10
30.490309
 20
2.1880209999999991
 30
0.0
 11
30.490309
 21
2.1210209999999989
 31
0.0
  0
LINE
  5
6CD
  8
SYMBOL
  6
CONTINUOUS
 62
     2
 10
30.646559
 20
2.1880209999999991
 30
0.0
 11
30.646559
 21
2.1210209999999989
 31
0.0
  0
LINE
  5
6CE
  8
SYMBOL
  6
CONTINUOUS
 62
     2
 10
30.490309
 20
2.1210209999999989
 30
0.0
 11
30.646559
 21
2.1210209999999989
 31
0.0
  0
ENDBLK
  5
6D0
  8
0
  0
BLOCK
  8
0
  2
*U20
 70
     1
 10
0.0
 20
0.0
 30
0.0
  3
*U20
  1

  0
SOLID
  5
6DB
  8
SYMBOL
  6
CONTINUOUS
 62
     8
 10
16.9765625
 20
21.962499999999999
 30
0.0
 11
16.9765625
 21
21.962499999999999
 31
0.0
 12
17.0234375
 22
21.962499999999999
 32
0.0
 13
17.0234375
 23
21.962499999999999
 33
0.0
210
0.0
220
0.0
230
1.0
  0
SOLID
  5
6DC
  8
SYMBOL
  6
CONTINUOUS
 62
     8
 10
16.9765625
 20
21.962499999999999
 30
0.0
 11
16.9765625
 21
21.774999999999999
 31
0.0
 12
17.0234375
 22
21.774999999999999
 32
0.0
 13
17.0234375
 23
21.774999999999999
 33
0.0
210
0.0
220
0.0
230
1.0
  0
SOLID
  5
6DD
  8
SYMBOL
  6
CONTINUOUS
 62
     8
 10
-16.9765625
 20
21.962499999999999
 30
0.0
 11
-17.0234375
 21
21.962499999999999
 31
0.0
 12
-17.0234375
 22
21.774999999999999
 32
0.0
 13
-17.0234375
 23
21.774999999999999
 33
0.0
210
0.0
220
0.0
230
-1.0
  0
SOLID
  5
6DE
  8
SYMBOL
  6
CONTINUOUS
 62
     8
 10
16.90625
 20
21.774999999999999
 30
0.0
 11
16.90625
 21
21.774999999999999
 31
0.0
 12
16.9765625
 22
21.774999999999999
 32
0.0
 13
16.9765625
 23
21.774999999999999
 33
0.0
210
0.0
220
0.0
230
1.0
  0
SOLID
  5
6DF
  8
SYMBOL
  6
CONTINUOUS
 62
     8
 10
17.0234375
 20
21.774999999999999
 30
0.0
 11
17.0234375
 21
21.774999999999999
 31
0.0
 12
17.09375
 22
21.774999999999999
 32
0.0
 13
17.09375
 23
21.774999999999999
 33
0.0
210
0.0
220
0.0
230
1.0
  0
SOLID
  5
6E0
  8
SYMBOL
  6
CONTINUOUS
 62
     8
 10
-16.90625
 20
21.774999999999999
 30
0.0
 11
-17.09375
 21
21.774999999999999
 31
0.0
 12
-17.0
 22
21.587499999999999
 32
0.0
 13
-17.0
 23
21.587499999999999
 33
0.0
210
0.0
220
0.0
230
-1.0
  0
LINE
  5
6E1
  8
SYMBOL
  6
CONTINUOUS
 62
     8
 10
16.9765625
 20
21.962499999999999
 30
0.0
 11
17.0234375
 21
21.962499999999999
 31
0.0
  0
LINE
  5
6E2
  8
SYMBOL
  6
CONTINUOUS
 62
     8
 10
16.9765625
 20
21.962499999999999
 30
0.0
 11
16.9765625
 21
21.774999999999999
 31
0.0
  0
LINE
  5
6E3
  8
SYMBOL
  6
CONTINUOUS
 62
     8
 10
17.0234375
 20
21.962499999999999
 30
0.0
 11
17.0234375
 21
21.774999999999999
 31
0.0
  0
LINE
  5
6E4
  8
SYMBOL
  6
CONTINUOUS
 62
     8
 10
16.90625
 20
21.774999999999999
 30
0.0
 11
16.9765625
 21
21.774999999999999
 31
0.0
  0
LINE
  5
6E5
  8
SYMBOL
  6
CONTINUOUS
 62
     8
 10
17.0234375
 20
21.774999999999999
 30
0.0
 11
17.09375
 21
21.774999999999999
 31
0.0
  0
LINE
  5
6E6
  8
SYMBOL
  6
CONTINUOUS
 62
     8
 10
17.09375
 20
21.774999999999999
 30
0.0
 11
17.0
 21
21.587499999999999
 31
0.0
  0
LINE
  5
6E7
  8
SYMBOL
  6
CONTINUOUS
 62
     8
 10
17.0
 20
21.587499999999999
 30
0.0
 11
16.90625
 21
21.774999999999999
 31
0.0
  0
ENDBLK
  5
6E9
  8
0
  0
BLOCK
  8
0
  2
*U21
 70
     1
 10
0.0
 20
0.0
 30
0.0
  3
*U21
  1

  0
SOLID
  5
6F4
  8
SYMBOL
  6
CONTINUOUS
 62
     8
 10
0.3375
 20
11.09375
 30
0.0
 11
0.3375
 21
11.0234375
 31
0.0
 12
0.478125
 22
11.0234375
 32
0.0
 13
0.478125
 23
11.0234375
 33
0.0
210
0.0
220
0.0
230
1.0
  0
SOLID
  5
6F5
  8
SYMBOL
  6
CONTINUOUS
 62
     8
 10
0.15
 20
11.0234375
 30
0.0
 11
0.15
 21
11.0234375
 31
0.0
 12
0.3375
 22
11.0234375
 32
0.0
 13
0.3375
 23
11.0234375
 33
0.0
210
0.0
220
0.0
230
1.0
  0
SOLID
  5
6F6
  8
SYMBOL
  6
CONTINUOUS
 62
     8
 10
0.15
 20
11.0234375
 30
0.0
 11
0.15
 21
11.0
 31
0.0
 12
0.525
 22
11.0
 32
0.0
 13
0.525
 23
11.0
 33
0.0
210
0.0
220
0.0
230
1.0
  0
SOLID
  5
6F7
  8
SYMBOL
  6
CONTINUOUS
 62
     8
 10
-0.15
 20
11.0234375
 30
0.0
 11
-0.478125
 21
11.0234375
 31
0.0
 12
-0.525
 22
11.0
 32
0.0
 13
-0.525
 23
11.0
 33
0.0
210
0.0
220
0.0
230
-1.0
  0
SOLID
  5
6F8
  8
SYMBOL
  6
CONTINUOUS
 62
     8
 10
0.15
 20
11.0
 30
0.0
 11
0.15
 21
10.9765625
 31
0.0
 12
0.478125
 22
10.9765625
 32
0.0
 13
0.478125
 23
10.9765625
 33
0.0
210
0.0
220
0.0
230
1.0
  0
SOLID
  5
6F9
  8
SYMBOL
  6
CONTINUOUS
 62
     8
 10
-0.15
 20
11.0
 30
0.0
 11
-0.525
 21
11.0
 31
0.0
 12
-0.478125
 22
10.9765625
 32
0.0
 13
-0.478125
 23
10.9765625
 33
0.0
210
0.0
220
0.0
230
-1.0
  0
SOLID
  5
6FA
  8
SYMBOL
  6
CONTINUOUS
 62
     8
 10
0.15
 20
10.9765625
 30
0.0
 11
0.15
 21
10.9765625
 31
0.0
 12
0.3375
 22
10.9765625
 32
0.0
 13
0.3375
 23
10.9765625
 33
0.0
210
0.0
220
0.0
230
1.0
  0
SOLID
  5
6FB
  8
SYMBOL
  6
CONTINUOUS
 62
     8
 10
-0.3375
 20
10.9765625
 30
0.0
 11
-0.478125
 21
10.9765625
 31
0.0
 12
-0.3375
 22
10.90625
 32
0.0
 13
-0.3375
 23
10.90625
 33
0.0
210
0.0
220
0.0
230
-1.0
  0
LINE
  5
6FC
  8
SYMBOL
  6
CONTINUOUS
 62
     8
 10
0.3375
 20
11.09375
 30
0.0
 11
0.3375
 21
11.0234375
 31
0.0
  0
LINE
  5
6FD
  8
SYMBOL
  6
CONTINUOUS
 62
     8
 10
0.478125
 20
11.0234375
 30
0.0
 11
0.3375
 21
11.09375
 31
0.0
  0
LINE
  5
6FE
  8
SYMBOL
  6
CONTINUOUS
 62
     8
 10
0.15
 20
11.0234375
 30
0.0
 11
0.3375
 21
11.0234375
 31
0.0
  0
LINE
  5
6FF
  8
SYMBOL
  6
CONTINUOUS
 62
     8
 10
0.15
 20
11.0234375
 30
0.0
 11
0.15
 21
11.0
 31
0.0
  0
LINE
  5
700
  8
SYMBOL
  6
CONTINUOUS
 62
     8
 10
0.478125
 20
11.0234375
 30
0.0
 11
0.525
 21
11.0
 31
0.0
  0
LINE
  5
701
  8
SYMBOL
  6
CONTINUOUS
 62
     8
 10
0.15
 20
11.0
 30
0.0
 11
0.15
 21
10.9765625
 31
0.0
  0
LINE
  5
702
  8
SYMBOL
  6
CONTINUOUS
 62
     8
 10
0.525
 20
11.0
 30
0.0
 11
0.478125
 21
10.9765625
 31
0.0
  0
LINE
  5
703
  8
SYMBOL
  6
CONTINUOUS
 62
     8
 10
0.15
 20
10.9765625
 30
0.0
 11
0.3375
 21
10.9765625
 31
0.0
  0
LINE
  5
704
  8
SYMBOL
  6
CONTINUOUS
 62
     8
 10
0.478125
 20
10.9765625
 30
0.0
 11
0.3375
 21
10.90625
 31
0.0
  0
LINE
  5
705
  8
SYMBOL
  6
CONTINUOUS
 62
     8
 10
0.3375
 20
10.90625
 30
0.0
 11
0.3375
 21
10.9765625
 31
0.0
  0
ENDBLK
  5
707
  8
0
  0
BLOCK
  8
0
  2
*U22
 70
     1
 10
0.0
 20
0.0
 30
0.0
  3
*U22
  1

  0
SOLID
  5
712
  8
SYMBOL
  6
CONTINUOUS
 62
     8
 10
17.0
 20
0.5875
 30
0.0
 11
16.90625
 21
0.4
 31
0.0
 12
17.09375
 22
0.4
 32
0.0
 13
17.09375
 23
0.4
 33
0.0
210
0.0
220
0.0
230
1.0
  0
SOLID
  5
713
  8
SYMBOL
  6
CONTINUOUS
 62
     8
 10
16.90625
 20
0.4
 30
0.0
 11
16.90625
 21
0.4
 31
0.0
 12
16.9765625
 22
0.4
 32
0.0
 13
16.9765625
 23
0.4
 33
0.0
210
0.0
220
0.0
230
1.0
  0
SOLID
  5
714
  8
SYMBOL
  6
CONTINUOUS
 62
     8
 10
17.0234375
 20
0.4
 30
0.0
 11
17.0234375
 21
0.4
 31
0.0
 12
17.09375
 22
0.4
 32
0.0
 13
17.09375
 23
0.4
 33
0.0
210
0.0
220
0.0
230
1.0
  0
SOLID
  5
715
  8
SYMBOL
  6
CONTINUOUS
 62
     8
 10
16.9765625
 20
0.4
 30
0.0
 11
16.9765625
 21
0.2125
 31
0.0
 12
17.0234375
 22
0.2125
 32
0.0
 13
17.0234375
 23
0.2125
 33
0.0
210
0.0
220
0.0
230
1.0
  0
SOLID
  5
716
  8
SYMBOL
  6
CONTINUOUS
 62
     8
 10
-16.9765625
 20
0.4
 30
0.0
 11
-17.0234375
 21
0.4
 31
0.0
 12
-17.0234375
 22
0.2125
 32
0.0
 13
-17.0234375
 23
0.2125
 33
0.0
210
0.0
220
0.0
230
-1.0
  0
SOLID
  5
717
  8
SYMBOL
  6
CONTINUOUS
 62
     8
 10
16.9765625
 20
0.2125
 30
0.0
 11
16.9765625
 21
0.2125
 31
0.0
 12
17.0234375
 22
0.2125
 32
0.0
 13
17.0234375
 23
0.2125
 33
0.0
210
0.0
220
0.0
230
1.0
  0
LINE
  5
718
  8
SYMBOL
  6
CONTINUOUS
 62
     8
 10
17.0
 20
0.5875
 30
0.0
 11
16.90625
 21
0.4
 31
0.0
  0
LINE
  5
719
  8
SYMBOL
  6
CONTINUOUS
 62
     8
 10
17.09375
 20
0.4
 30
0.0
 11
17.0
 21
0.5875
 31
0.0
  0
LINE
  5
71A
  8
SYMBOL
  6
CONTINUOUS
 62
     8
 10
16.90625
 20
0.4
 30
0.0
 11
16.9765625
 21
0.4
 31
0.0
  0
LINE
  5
71B
  8
SYMBOL
  6
CONTINUOUS
 62
     8
 10
17.0234375
 20
0.4
 30
0.0
 11
17.09375
 21
0.4
 31
0.0
  0
LINE
  5
71C
  8
SYMBOL
  6
CONTINUOUS
 62
     8
 10
16.9765625
 20
0.4
 30
0.0
 11
16.9765625
 21
0.2125
 31
0.0
  0
LINE
  5
71D
  8
SYMBOL
  6
CONTINUOUS
 62
     8
 10
17.0234375
 20
0.4
 30
0.0
 11
17.0234375
 21
0.2125
 31
0.0
  0
LINE
  5
71E
  8
SYMBOL
  6
CONTINUOUS
 62
     8
 10
16.9765625
 20
0.2125
 30
0.0
 11
17.0234375
 21
0.2125
 31
0.0
  0
ENDBLK
  5
720
  8
0
  0
BLOCK
  8
0
  2
*U23
 70
     1
 10
0.0
 20
0.0
 30
0.0
  3
*U23
  1

  0
SOLID
  5
72B
  8
SYMBOL
  6
CONTINUOUS
 62
     8
 10
33.712499999999999
 20
11.09375
 30
0.0
 11
33.571874999999999
 21
11.0234375
 31
0.0
 12
33.712499999999999
 22
11.0234375
 32
0.0
 13
33.712499999999999
 23
11.0234375
 33
0.0
210
0.0
220
0.0
230
1.0
  0
SOLID
  5
72C
  8
SYMBOL
  6
CONTINUOUS
 62
     8
 10
33.712499999999999
 20
11.0234375
 30
0.0
 11
33.712499999999999
 21
11.0234375
 31
0.0
 12
33.899999999999999
 22
11.0234375
 32
0.0
 13
33.899999999999999
 23
11.0234375
 33
0.0
210
0.0
220
0.0
230
1.0
  0
SOLID
  5
72D
  8
SYMBOL
  6
CONTINUOUS
 62
     8
 10
33.571874999999999
 20
11.0234375
 30
0.0
 11
33.524999999999999
 21
11.0
 31
0.0
 12
33.899999999999999
 22
11.0
 32
0.0
 13
33.899999999999999
 23
11.0
 33
0.0
210
0.0
220
0.0
230
1.0
  0
SOLID
  5
72E
  8
SYMBOL
  6
CONTINUOUS
 62
     8
 10
-33.571874999999999
 20
11.0234375
 30
0.0
 11
-33.899999999999999
 21
11.0234375
 31
0.0
 12
-33.899999999999999
 22
11.0
 32
0.0
 13
-33.899999999999999
 23
11.0
 33
0.0
210
0.0
220
0.0
230
-1.0
  0
SOLID
  5
72F
  8
SYMBOL
  6
CONTINUOUS
 62
     8
 10
33.524999999999999
 20
11.0
 30
0.0
 11
33.571874999999999
 21
10.9765625
 31
0.0
 12
33.899999999999999
 22
10.9765625
 32
0.0
 13
33.899999999999999
 23
10.9765625
 33
0.0
  0
SOLID
  5
730
  8
SYMBOL
  6
CONTINUOUS
 62
     8
 10
-33.524999999999999
 20
11.0
 30
0.0
 11
-33.899999999999999
 21
11.0
 31
0.0
 12
-33.899999999999999
 22
10.9765625
 32
0.0
 13
-33.899999999999999
 23
10.9765625
 33
0.0
210
0.0
220
0.0
230
-1.0
  0
SOLID
  5
731
  8
SYMBOL
  6
CONTINUOUS
 62
     8
 10
33.712499999999999
 20
10.9765625
 30
0.0
 11
33.712499999999999
 21
10.9765625
 31
0.0
 12
33.899999999999999
 22
10.9765625
 32
0.0
 13
33.899999999999999
 23
10.9765625
 33
0.0
210
0.0
220
0.0
230
1.0
  0
SOLID
  5
732
  8
SYMBOL
  6
CONTINUOUS
 62
     8
 10
-33.571874999999999
 20
10.9765625
 30
0.0
 11
-33.712499999999999
 21
10.9765625
 31
0.0
 12
-33.712499999999999
 22
10.90625
 32
0.0
 13
-33.712499999999999
 23
10.90625
 33
0.0
210
0.0
220
0.0
230
-1.0
  0
LINE
  5
733
  8
SYMBOL
  6
CONTINUOUS
 62
     8
 10
33.712499999999999
 20
11.09375
 30
0.0
 11
33.571874999999999
 21
11.0234375
 31
0.0
  0
LINE
  5
734
  8
SYMBOL
  6
CONTINUOUS
 62
     8
 10
33.712499999999999
 20
11.0234375
 30
0.0
 11
33.712499999999999
 21
11.09375
 31
0.0
  0
LINE
  5
735
  8
SYMBOL
  6
CONTINUOUS
 62
     8
 10
33.712499999999999
 20
11.0234375
 30
0.0
 11
33.899999999999999
 21
11.0234375
 31
0.0
  0
LINE
  5
736
  8
SYMBOL
  6
CONTINUOUS
 62
     8
 10
33.571874999999999
 20
11.0234375
 30
0.0
 11
33.524999999999999
 21
11.0
 31
0.0
  0
LINE
  5
737
  8
SYMBOL
  6
CONTINUOUS
 62
     8
 10
33.899999999999999
 20
11.0234375
 30
0.0
 11
33.899999999999999
 21
11.0
 31
0.0
  0
LINE
  5
738
  8
SYMBOL
  6
CONTINUOUS
 62
     8
 10
33.524999999999999
 20
11.0
 30
0.0
 11
33.571874999999999
 21
10.9765625
 31
0.0
  0
LINE
  5
739
  8
SYMBOL
  6
CONTINUOUS
 62
     8
 10
33.899999999999999
 20
11.0
 30
0.0
 11
33.899999999999999
 21
10.9765625
 31
0.0
  0
LINE
  5
73A
  8
SYMBOL
  6
CONTINUOUS
 62
     8
 10
33.712499999999999
 20
10.9765625
 30
0.0
 11
33.899999999999999
 21
10.9765625
 31
0.0
  0
LINE
  5
73B
  8
SYMBOL
  6
CONTINUOUS
 62
     8
 10
33.712499999999999
 20
10.9765625
 30
0.0
 11
33.712499999999999
 21
10.90625
 31
0.0
  0
LINE
  5
73C
  8
SYMBOL
  6
CONTINUOUS
 62
     8
 10
33.712499999999999
 20
10.90625
 30
0.0
 11
33.571874999999999
 21
10.9765625
 31
0.0
  0
ENDBLK
  5
73E
  8
0
  0
BLOCK
  8
0
  2
*U24
 70
     1
 10
0.0
 20
0.0
 30
0.0
  3
*U24
  1

  0
TEXT
  5
740
  8
TABLE_BL6
 62
     2
 10
33.07
 20
0.665625
 30
0.0
 40
0.1
  1
1 of 1
 41
0.8
  0
ENDBLK
  5
742
  8
0
  0
BLOCK
  8
0
  2
*U25
 70
     1
 10
0.0
 20
0.0
 30
0.0
  3
*U25
  1

  0
TEXT
  5
744
  8
0
 62
     2
 10
9.3963862229000004
 20
1.3274277699000001
 30
0.0
 40
0.094
  1
1004223-7-C
  7
TEXTSTYLE_2
  0
ENDBLK
  5
746
  8
0
  0
BLOCK
  8
0
  2
*U26
 70
     1
 10
0.0
 20
0.0
 30
0.0
  3
*U26
  1

  0
TEXT
  5
748
  8
0
 62
     2
 10
9.3963862229000004
 20
3.1519028535000002
 30
0.0
 40
0.094
  1
1004223-7-C
  7
TEXTSTYLE_2
  0
ENDBLK
  5
74A
  8
0
  0
BLOCK
  8
0
  2
*U27
 70
     1
 10
0.0
 20
0.0
 30
0.0
  3
*U27
  1

  0
TEXT
  5
74C
  8
NOTE
 62
     2
 10
5.9758206479
 20
17.380385924500001
 30
0.0
 40
0.15625
  1
WHEN PLOTTING TEMPLATE FULL SIZE:
 41
0.8
  0
TEXT
  5
74D
  8
NOTE
 62
     2
 10
5.9758206479
 20
17.119969257833329
 30
0.0
 40
0.15625
  1
Make sure horizontal and vertical dimensions
 41
0.8
  0
TEXT
  5
74E
  8
NOTE
 62
     2
 10
5.9758206479
 20
16.859552591166668
 30
0.0
 40
0.15625
  1
match the dimensions labeled on the template.
 41
0.8
  0
TEXT
  5
74F
  8
NOTE
 62
     2
 10
5.9758206479
 20
16.599135924500001
 30
0.0
 40
0.15625
  1
 
 41
0.8
  0
TEXT
  5
750
  8
NOTE
 62
     2
 10
5.9758206479
 20
16.338719257833329
 30
0.0
 40
0.15625
  1
AL TRAZAR UNA PLANTILLA A ESCALA,
 41
0.8
  0
TEXT
  5
751
  8
NOTE
 62
     2
 10
5.9758206479
 20
16.078302591166668
 30
0.0
 40
0.15625
  1
asegúrese de que las dimensiones horizontales
 41
0.8
  0
TEXT
  5
752
  8
NOTE
 62
     2
 10
5.9758206479
 20
15.817885924500001
 30
0.0
 40
0.15625
  1
y verticales concuerden con las dimensiones 
 41
0.8
  0
TEXT
  5
753
  8
NOTE
 62
     2
 10
5.9758206479
 20
15.557469257833329
 30
0.0
 40
0.15625
  1
marcadas en la plantilla.
 41
0.8
  0
TEXT
  5
754
  8
NOTE
 62
     2
 10
5.9758206479
 20
15.29705259116667
 30
0.0
 40
0.15625
  1
 
 41
0.8
  0
TEXT
  5
755
  8
NOTE
 62
     2
 10
5.9758206479
 20
15.036635924500001
 30
0.0
 40
0.15625
  1
AU MOMENT DE TRACER UN GABARIT À L'ÉCHELLE,
 41
0.8
  0
TEXT
  5
756
  8
NOTE
 62
     2
 10
5.9758206479
 20
14.776219257833329
 30
0.0
 40
0.15625
  1
s'assurer que les dimensions horizotales et 
 41
0.8
  0
TEXT
  5
757
  8
NOTE
 62
     2
 10
5.9758206479
 20
14.51580259116667
 30
0.0
 40
0.15625
  1
verticales correspondent avec les dimensions 
 41
0.8
  0
TEXT
  5
758
  8
NOTE
 62
     2
 10
5.9758206479
 20
14.255385924500001
 30
0.0
 40
0.15625
  1
sur le gabarit.
 41
0.8
  0
ENDBLK
  5
75A
  8
0
  0
BLOCK
  8
0
  2
*U28
 70
     1
 10
0.0
 20
0.0
 30
0.0
  3
*U28
  1

  0
TEXT
  5
75C
  8
NOTE
 62
     2
 10
5.4131239118999996
 20
5.7025067739999988
 30
0.0
 40
0.15625
  1
RIM OF LAVATORY
 41
0.8
  0
TEXT
  5
75D
  8
NOTE
 62
     2
 10
5.4131239118999996
 20
5.4420901073333319
 30
0.0
 40
0.15625
  1
REBORDE DEL LAVABO
 41
0.8
  0
TEXT
  5
75E
  8
NOTE
 62
     2
 10
5.4131239118999996
 20
5.1816734406666658
 30
0.0
 40
0.15625
  1
REBORD DE LAVABO
 41
0.8
  0
TEXT
  5
75F
  8
NOTE
 62
     2
 10
5.4131239118999996
 20
4.9212567739999988
 30
0.0
 40
0.15625
  1
 
 41
0.8
  0
ENDBLK
  5
761
  8
0
  0
BLOCK
  8
0
  2
*U29
 70
     1
 10
0.0
 20
0.0
 30
0.0
  3
*U29
  1

  0
TEXT
  5
763
  8
NOTE
 62
     2
 10
8.0107719699000004
 20
4.037816821299999
 30
0.0
 40
0.15625
  1
CUT ALONG THIS LINE
 41
0.8
  0
TEXT
  5
764
  8
NOTE
 62
     2
 10
8.0107719699000004
 20
3.7774001546333329
 30
0.0
 40
0.15625
  1
CORTE A LO LARGO DE ESTA LÍNEA
 41
0.8
  0
TEXT
  5
765
  8
NOTE
 62
     2
 10
8.0107719699000004
 20
3.5169834879666659
 30
0.0
 40
0.15625
  1
DÉCOUPER AU LONG DE CETTE LIGNE
 41
0.8
  0
ENDBLK
  5
767
  8
0
  0
BLOCK
  8
0
  2
*U30
 70
     1
 10
0.0
 20
0.0
 30
0.0
  3
*U30
  1

  0
TEXT
  5
769
  8
NOTE
 62
     2
 10
14.049300824299999
 20
18.474674745200002
 30
0.0
 40
0.15625
  1
CUT-OUT TEMPLATE
 41
0.8
  0
TEXT
  5
76A
  8
NOTE
 62
     2
 10
14.049300824299999
 20
18.21425807853333
 30
0.0
 40
0.15625
  1
SELF-RIMMING LAVATORY
 41
0.8
  0
TEXT
  5
76B
  8
NOTE
 62
     2
 10
14.049300824299999
 20
17.953841411866669
 30
0.0
 40
0.15625
  1
PLANTILLA DE RECORTE
 41
0.8
  0
TEXT
  5
76C
  8
NOTE
 62
     2
 10
14.049300824299999
 20
17.693424745200002
 30
0.0
 40
0.15625
  1
LAVABO CON BORDE TERMINADO
 41
0.8
  0
TEXT
  5
76D
  8
NOTE
 62
     2
 10
14.049300824299999
 20
17.43300807853333
 30
0.0
 40
0.15625
  1
GABARIT
 41
0.8
  0
TEXT
  5
76E
  8
NOTE
 62
     2
 10
14.049300824299999
 20
17.172591411866669
 30
0.0
 40
0.15625
  1
LAVABO À REBORD INTÉGRÉ
 41
0.8
  0
TEXT
  5
76F
  8
NOTE
 62
     2
 10
14.049300824299999
 20
16.912174745200002
 30
0.0
 40
0.15625
  1
 
 41
0.8
  0
TEXT
  5
770
  8
NOTE
 62
     2
 10
14.049300824299999
 20
16.65175807853333
 30
0.0
 40
0.15625
  1
PORTAIT    2189-**-**-BB
 41
0.8
  0
TEXT
  5
771
  8
NOTE
 62
     2
 10
14.049300824299999
 20
16.391341411866669
 30
0.0
 40
0.15625
  1
 
 41
0.8
  0
TEXT
  5
772
  8
NOTE
 62
     2
 10
14.049300824299999
 20
16.130924745200002
 30
0.0
 40
0.15625
  1
ARTIST EDITION  14176-**-**-AA
 41
0.8
  0
ENDBLK
  5
774
  8
0
  0
BLOCK
  8
0
  2
*U31
 70
     1
 10
0.0
 20
0.0
 30
0.0
  3
*U31
  1

  0
TEXT
  5
776
  8
NOTE
 62
     2
 10
14.049767577500001
 20
9.8304980658000005
 30
0.0
 40
0.15625
  1
PACKAGING/UPC LABEL ON BOX
 41
0.8
  0
TEXT
  5
777
  8
NOTE
 62
     2
 10
14.049767577500001
 20
9.5700813991333344
 30
0.0
 40
0.15625
  1
ETIQUETA DE EMBALAJE/UPC EN LA CAJA
 41
0.8
  0
ENDBLK
  5
779
  8
0
  0
BLOCK
  8
0
  2
*U32
 70
     1
 10
0.0
 20
0.0
 30
0.0
  3
*U32
  1

  0
TEXT
  5
77B
  8
NOTE
 62
     2
 10
14.045900508600001
 20
6.8493975748000002
 30
0.0
 40
0.15625
  1
   Pour une découpe adéquate, assurez-vous que les suffixes
 41
0.8
  0
TEXT
  5
77C
  8
NOTE
 62
     2
 10
14.045900508600001
 20
6.5889809081333333
 30
0.0
 40
0.15625
  1
de l'étiquette et du gabarit soient identiques
 41
0.8
  0
ENDBLK
  5
77E
  8
0
  0
BLOCK
  8
0
  2
*U33
 70
     1
 10
0.0
 20
0.0
 30
0.0
  3
*U33
  1

  0
TEXT
  5
780
  8
NOTE
 62
     2
 10
14.064079019099999
 20
8.0381150282
 30
0.0
 40
0.15625
  1
   The template and the label suffixes circled must
 41
0.8
  0
TEXT
  5
781
  8
NOTE
 62
     2
 10
14.064079019099999
 20
7.777698361533333
 30
0.0
 40
0.15625
  1
match for proper cut-out.
 41
0.8
  0
TEXT
  5
782
  8
NOTE
 62
     2
 10
14.064079019099999
 20
7.5172816948666661
 30
0.0
 40
0.15625
  1
   A fin de realizar el corte apropiado, la plantilla
 41
0.8
  0
TEXT
  5
783
  8
NOTE
 62
     2
 10
14.064079019099999
 20
7.2568650282
 30
0.0
 40
0.15625
  1
y los sufijos de la etiqueta demarcados deben
 41
0.8
  0
TEXT
  5
784
  8
NOTE
 62
     2
 10
14.064079019099999
 20
6.996448361533333
 30
0.0
 40
0.15625
  1
concordar.
 41
0.8
  0
ENDBLK
  5
786
  8
0
  0
ENDSEC
  0
SECTION
  2
ENTITIES
  0
SOLID
  5
32A
  8
DRAFT_ENT
  6
CONTINUOUS
 62
     2
 10
15.0893954077
 20
8.5438815531000003
 30
0.0
 11
15.0893954077
 21
8.6452440530999972
 31
0.0
 12
15.8024829077
 22
8.6452440530999972
 32
0.0
 13
15.8024829077
 23
8.6452440530999972
 33
0.0
  0
SOLID
  5
32B
  8
DRAFT_ENT
  6
CONTINUOUS
 62
     2
 10
15.8024829077
 20
8.6452440530999972
 30
0.0
 11
15.8024829077
 21
8.5438815531000003
 31
0.0
 12
15.0893954077
 22
8.5438815531000003
 32
0.0
 13
15.0893954077
 23
8.5438815531000003
 33
0.0
  0
SOLID
  5
32C
  8
DRAFT_ENT
  6
CONTINUOUS
 62
     2
 10
15.0893954077
 20
8.3050378030999994
 30
0.0
 11
15.0893954077
 21
8.3341878030999972
 31
0.0
 12
15.8024829077
 22
8.3341878030999972
 32
0.0
 13
15.8024829077
 23
8.3341878030999972
 33
0.0
  0
SOLID
  5
32D
  8
DRAFT_ENT
  6
CONTINUOUS
 62
     2
 10
15.8024829077
 20
8.3341878030999972
 30
0.0
 11
15.8024829077
 21
8.3050378030999994
 31
0.0
 12
15.0893954077
 22
8.3050378030999994
 32
0.0
 13
15.0893954077
 23
8.3050378030999994
 33
0.0
  0
SOLID
  5
32E
  8
DRAFT_ENT
  6
CONTINUOUS
 62
     2
 10
15.128270407700001
 20
8.6827440530999986
 30
0.0
 11
15.128270407700001
 21
8.7341190530999988
 31
0.0
 12
15.841357907700001
 22
8.7341190530999988
 32
0.0
 13
15.841357907700001
 23
8.7341190530999988
 33
0.0
  0
SOLID
  5
32F
  8
DRAFT_ENT
  6
CONTINUOUS
 62
     2
 10
15.841357907700001
 20
8.7341190530999988
 30
0.0
 11
15.841357907700001
 21
8.6827440530999986
 31
0.0
 12
15.128270407700001
 22
8.6827440530999986
 32
0.0
 13
15.128270407700001
 23
8.6827440530999986
 33
0.0
  0
SOLID
  5
330
  8
DRAFT_ENT
  6
CONTINUOUS
 62
     2
 10
15.128270407700001
 20
8.7882815530999991
 30
0.0
 11
15.128270407700001
 21
8.8396503030999991
 31
0.0
 12
15.841357907700001
 22
8.8396503030999991
 32
0.0
 13
15.841357907700001
 23
8.8396503030999991
 33
0.0
  0
SOLID
  5
331
  8
DRAFT_ENT
  6
CONTINUOUS
 62
     2
 10
15.841357907700001
 20
8.8396503030999991
 30
0.0
 11
15.841357907700001
 21
8.7882815530999991
 31
0.0
 12
15.128270407700001
 22
8.7882815530999991
 32
0.0
 13
15.128270407700001
 23
8.7882815530999991
 33
0.0
  0
SOLID
  5
332
  8
DRAFT_ENT
  6
CONTINUOUS
 62
     2
 10
15.128270407700001
 20
8.8716003030999993
 30
0.0
 11
15.128270407700001
 21
8.9229690530999992
 31
0.0
 12
15.841357907700001
 22
8.9229690530999992
 32
0.0
 13
15.841357907700001
 23
8.9229690530999992
 33
0.0
  0
SOLID
  5
333
  8
DRAFT_ENT
  6
CONTINUOUS
 62
     2
 10
15.841357907700001
 20
8.9229690530999992
 30
0.0
 11
15.841357907700001
 21
8.8716003030999993
 31
0.0
 12
15.128270407700001
 22
8.8716003030999993
 32
0.0
 13
15.128270407700001
 23
8.8716003030999993
 33
0.0
  0
SOLID
  5
334
  8
DRAFT_ENT
  6
CONTINUOUS
 62
     2
 10
15.128270407700001
 20
8.9549128030999992
 30
0.0
 11
15.128270407700001
 21
9.0062878030999993
 31
0.0
 12
15.841357907700001
 22
9.0062878030999993
 32
0.0
 13
15.841357907700001
 23
9.0062878030999993
 33
0.0
  0
SOLID
  5
335
  8
DRAFT_ENT
  6
CONTINUOUS
 62
     2
 10
15.841357907700001
 20
9.0062878030999993
 30
0.0
 11
15.841357907700001
 21
8.9549128030999992
 31
0.0
 12
15.128270407700001
 22
8.9549128030999992
 32
0.0
 13
15.128270407700001
 23
8.9549128030999992
 33
0.0
  0
SOLID
  5
336
  8
DRAFT_ENT
  6
CONTINUOUS
 62
     2
 10
15.128270407700001
 20
9.0382315530999993
 30
0.0
 11
15.128270407700001
 21
9.0896065530999994
 31
0.0
 12
15.841357907700001
 22
9.0896065530999994
 32
0.0
 13
15.841357907700001
 23
9.0896065530999994
 33
0.0
  0
SOLID
  5
337
  8
DRAFT_ENT
  6
CONTINUOUS
 62
     2
 10
15.841357907700001
 20
9.0896065530999994
 30
0.0
 11
15.841357907700001
 21
9.0382315530999993
 31
0.0
 12
15.128270407700001
 22
9.0382315530999993
 32
0.0
 13
15.128270407700001
 23
9.0382315530999993
 33
0.0
  0
SOLID
  5
338
  8
DRAFT_ENT
  6
CONTINUOUS
 62
     2
 10
16.412901657700001
 20
8.5438815531000003
 30
0.0
 11
16.412901657700001
 21
8.6452440530999972
 31
0.0
 12
16.698695407700001
 22
8.6452440530999972
 32
0.0
 13
16.698695407700001
 23
8.6452440530999972
 33
0.0
  0
SOLID
  5
339
  8
DRAFT_ENT
  6
CONTINUOUS
 62
     2
 10
16.698695407700001
 20
8.6452440530999972
 30
0.0
 11
16.698695407700001
 21
8.5438815531000003
 31
0.0
 12
16.412901657700001
 22
8.5438815531000003
 32
0.0
 13
16.412901657700001
 23
8.5438815531000003
 33
0.0
  0
SOLID
  5
33A
  8
DRAFT_ENT
  6
CONTINUOUS
 62
     2
 10
14.143636383600001
 20
19.0415275332
 30
0.0
 11
14.229739004300001
 21
19.1439157963
 31
0.0
 12
14.349777659700001
 22
19.1439157963
 32
0.0
 13
14.349777659700001
 23
19.1439157963
 33
0.0
  0
SOLID
  5
33B
  8
DRAFT_ENT
  6
CONTINUOUS
 62
     2
 10
14.349777659700001
 20
19.1439157963
 30
0.0
 11
14.216462976900001
 21
18.985385595499999
 31
0.0
 12
14.143636383600001
 22
19.0415275332
 32
0.0
 13
14.143636383600001
 23
19.0415275332
 33
0.0
  0
SOLID
  5
33C
  8
DRAFT_ENT
  6
CONTINUOUS
 62
     2
 10
14.143636383600001
 20
18.9036571159
 30
0.0
 11
14.216462976900001
 21
18.985385595499999
 31
0.0
 12
14.2397226145
 22
18.777719695599998
 32
0.0
 13
14.2397226145
 23
18.777719695599998
 33
0.0
  0
SOLID
  5
33D
  8
DRAFT_ENT
  6
CONTINUOUS
 62
     2
 10
14.216462976900001
 20
18.985385595499999
 30
0.0
 11
14.3749054038
 21
18.777719695599998
 31
0.0
 12
14.2397226145
 22
18.777719695599998
 32
0.0
 13
14.2397226145
 23
18.777719695599998
 33
0.0
  0
SOLID
  5
33E
  8
DRAFT_ENT
  6
CONTINUOUS
 62
     2
 10
14.143636383600001
 20
18.777719695599998
 30
0.0
 11
14.034573720999999
 21
18.7777046934
 31
0.0
 12
14.143636383600001
 22
18.9036571159
 32
0.0
 13
14.143636383600001
 23
18.9036571159
 33
0.0
  0
SOLID
  5
33F
  8
DRAFT_ENT
  6
CONTINUOUS
 62
     2
 10
14.216462976900001
 20
18.985385595499999
 30
0.0
 11
14.143636383600001
 21
18.9036571159
 31
0.0
 12
14.143636383600001
 22
19.0415275332
 32
0.0
 13
14.143636383600001
 23
19.0415275332
 33
0.0
  0
SOLID
  5
340
  8
DRAFT_ENT
  6
CONTINUOUS
 62
     2
 10
14.143636383600001
 20
18.9036571159
 30
0.0
 11
14.034573720999999
 21
18.7777046934
 31
0.0
 12
14.143636383600001
 22
19.0415275332
 32
0.0
 13
14.143636383600001
 23
19.0415275332
 33
0.0
  0
SOLID
  5
341
  8
DRAFT_ENT
  6
CONTINUOUS
 62
     2
 10
14.143636383600001
 20
19.0415275332
 30
0.0
 11
14.034573720999999
 21
18.7777046934
 31
0.0
 12
14.143636383600001
 22
19.1439157963
 32
0.0
 13
14.143636383600001
 23
19.1439157963
 33
0.0
  0
SOLID
  5
342
  8
DRAFT_ENT
  6
CONTINUOUS
 62
     2
 10
14.034573720999999
 20
18.7777046934
 30
0.0
 11
14.034573720999999
 21
19.1439157963
 31
0.0
 12
14.143636383600001
 22
19.1439157963
 32
0.0
 13
14.143636383600001
 23
19.1439157963
 33
0.0
  0
SOLID
  5
343
  8
DRAFT_ENT
  6
CONTINUOUS
 62
     2
 10
14.4276580918
 20
19.137284911599998
 30
0.0
 11
14.465751320600001
 21
19.145381877399998
 31
0.0
 12
14.504695574899999
 22
19.145381877399998
 32
0.0
 13
14.504695574899999
 23
19.145381877399998
 33
0.0
  0
SOLID
  5
344
  8
DRAFT_ENT
  6
CONTINUOUS
 62
     2
 10
14.504695574899999
 20
19.145381877399998
 30
0.0
 11
14.542788803700001
 21
19.137284911599998
 31
0.0
 12
14.4276580918
 22
19.137284911599998
 32
0.0
 13
14.4276580918
 23
19.137284911599998
 33
0.0
  0
SOLID
  5
345
  8
DRAFT_ENT
  6
CONTINUOUS
 62
     2
 10
14.392080745299999
 20
19.1214448564
 30
0.0
 11
14.4276580918
 21
19.137284911599998
 31
0.0
 12
14.542788803700001
 22
19.137284911599998
 32
0.0
 13
14.542788803700001
 23
19.137284911599998
 33
0.0
  0
SOLID
  5
346
  8
DRAFT_ENT
  6
CONTINUOUS
 62
     2
 10
14.542788803700001
 20
19.137284911599998
 30
0.0
 11
14.578366150200001
 21
19.1214448564
 31
0.0
 12
14.392080745299999
 22
19.1214448564
 32
0.0
 13
14.392080745299999
 23
19.1214448564
 33
0.0
  0
SOLID
  5
347
  8
DRAFT_ENT
  6
CONTINUOUS
 62
     2
 10
14.360574181800001
 20
19.098553998100002
 30
0.0
 11
14.392080745299999
 21
19.1214448564
 31
0.0
 12
14.578366150200001
 22
19.1214448564
 32
0.0
 13
14.578366150200001
 23
19.1214448564
 33
0.0
  0
SOLID
  5
348
  8
DRAFT_ENT
  6
CONTINUOUS
 62
     2
 10
14.578366150200001
 20
19.1214448564
 30
0.0
 11
14.6098727137
 21
19.098553998100002
 31
0.0
 12
14.360574181800001
 22
19.098553998100002
 32
0.0
 13
14.360574181800001
 23
19.098553998100002
 33
0.0
  0
SOLID
  5
349
  8
DRAFT_ENT
  6
CONTINUOUS
 62
     2
 10
14.3345153894
 20
19.069612777100001
 30
0.0
 11
14.360574181800001
 21
19.098553998100002
 31
0.0
 12
14.6098727137
 22
19.098553998100002
 32
0.0
 13
14.6098727137
 23
19.098553998100002
 33
0.0
  0
SOLID
  5
34A
  8
DRAFT_ENT
  6
CONTINUOUS
 62
     2
 10
14.6098727137
 20
19.098553998100002
 30
0.0
 11
14.6359315061
 21
19.069612777100001
 31
0.0
 12
14.3345153894
 22
19.069612777100001
 32
0.0
 13
14.3345153894
 23
19.069612777100001
 33
0.0
  0
SOLID
  5
34B
  8
DRAFT_ENT
  6
CONTINUOUS
 62
     2
 10
14.485223447699999
 20
19.038097862699999
 30
0.0
 11
14.3150432623
 21
19.035886063700001
 31
0.0
 12
14.6359315061
 22
19.069612777100001
 32
0.0
 13
14.6359315061
 23
19.069612777100001
 33
0.0
  0
SOLID
  5
34C
  8
DRAFT_ENT
  6
CONTINUOUS
 62
     2
 10
14.3150432623
 20
19.035886063700001
 30
0.0
 11
14.3345153894
 21
19.069612777100001
 31
0.0
 12
14.6359315061
 22
19.069612777100001
 32
0.0
 13
14.6359315061
 23
19.069612777100001
 33
0.0
  0
SOLID
  5
34D
  8
DRAFT_ENT
  6
CONTINUOUS
 62
     2
 10
14.6359315061
 20
19.069612777100001
 30
0.0
 11
14.655403633200001
 21
19.035886063700001
 31
0.0
 12
14.485223447699999
 22
19.038097862699999
 32
0.0
 13
14.485223447699999
 23
19.038097862699999
 33
0.0
  0
SOLID
  5
34E
  8
DRAFT_ENT
  6
CONTINUOUS
 62
     2
 10
14.485223447699999
 20
19.038097862699999
 30
0.0
 11
14.4611260246
 21
19.034281205799999
 31
0.0
 12
14.3150432623
 22
19.035886063700001
 32
0.0
 13
14.3150432623
 23
19.035886063700001
 33
0.0
  0
SOLID
  5
34F
  8
DRAFT_ENT
  6
CONTINUOUS
 62
     2
 10
14.5093208709
 20
19.034281205799999
 30
0.0
 11
14.485223447699999
 21
19.038097862699999
 31
0.0
 12
14.655403633200001
 22
19.035886063700001
 32
0.0
 13
14.655403633200001
 23
19.035886063700001
 33
0.0
  0
SOLID
  5
350
  8
DRAFT_ENT
  6
CONTINUOUS
 62
     2
 10
14.422135575
 20
19.005952986
 30
0.0
 11
14.303008825899999
 21
18.998847876900001
 31
0.0
 12
14.4393874252
 22
19.023204836200001
 32
0.0
 13
14.4393874252
 23
19.023204836200001
 33
0.0
  0
SOLID
  5
351
  8
DRAFT_ENT
  6
CONTINUOUS
 62
     2
 10
14.4393874252
 20
19.023204836200001
 30
0.0
 11
14.303008825899999
 21
18.998847876900001
 31
0.0
 12
14.4611260246
 22
19.034281205799999
 32
0.0
 13
14.4611260246
 23
19.034281205799999
 33
0.0
  0
SOLID
  5
352
  8
DRAFT_ENT
  6
CONTINUOUS
 62
     2
 10
14.303008825899999
 20
18.998847876900001
 30
0.0
 11
14.3150432623
 21
19.035886063700001
 31
0.0
 12
14.4611260246
 22
19.034281205799999
 32
0.0
 13
14.4611260246
 23
19.034281205799999
 33
0.0
  0
SOLID
  5
353
  8
DRAFT_ENT
  6
CONTINUOUS
 62
     2
 10
14.5093208709
 20
19.034281205799999
 30
0.0
 11
14.655403633200001
 21
19.035886063700001
 31
0.0
 12
14.531059470300001
 22
19.023204836200001
 32
0.0
 13
14.531059470300001
 23
19.023204836200001
 33
0.0
  0
SOLID
  5
354
  8
DRAFT_ENT
  6
CONTINUOUS
 62
     2
 10
14.531059470300001
 20
19.023204836200001
 30
0.0
 11
14.655403633200001
 21
19.035886063700001
 31
0.0
 12
14.5483113205
 22
19.005952986
 32
0.0
 13
14.5483113205
 23
19.005952986
 33
0.0
  0
SOLID
  5
355
  8
DRAFT_ENT
  6
CONTINUOUS
 62
     2
 10
14.655403633200001
 20
19.035886063700001
 30
0.0
 11
14.667438069599999
 21
18.998847876900001
 31
0.0
 12
14.5483113205
 22
19.005952986
 32
0.0
 13
14.5483113205
 23
19.005952986
 33
0.0
  0
SOLID
  5
356
  8
DRAFT_ENT
  6
CONTINUOUS
 62
     2
 10
14.422135575
 20
19.005952986
 30
0.0
 11
14.411059205300001
 21
18.9842143865
 31
0.0
 12
14.303008825899999
 22
18.998847876900001
 32
0.0
 13
14.303008825899999
 23
18.998847876900001
 33
0.0
  0
SOLID
  5
357
  8
DRAFT_ENT
  6
CONTINUOUS
 62
     2
 10
14.559387690199999
 20
18.9842143865
 30
0.0
 11
14.5483113205
 21
19.005952986
 31
0.0
 12
14.667438069599999
 22
18.998847876900001
 32
0.0
 13
14.667438069599999
 23
18.998847876900001
 33
0.0
  0
SOLID
  5
358
  8
DRAFT_ENT
  6
CONTINUOUS
 62
     2
 10
14.2989380428
 20
18.960116963400001
 30
0.0
 11
14.303008825899999
 21
18.998847876900001
 31
0.0
 12
14.411059205300001
 22
18.9842143865
 32
0.0
 13
14.411059205300001
 23
18.9842143865
 33
0.0
  0
SOLID
  5
359
  8
DRAFT_ENT
  6
CONTINUOUS
 62
     2
 10
14.411059205300001
 20
18.9842143865
 30
0.0
 11
14.407242548399999
 21
18.960116963400001
 31
0.0
 12
14.2989380428
 22
18.960116963400001
 32
0.0
 13
14.2989380428
 23
18.960116963400001
 33
0.0
  0
SOLID
  5
35A
  8
DRAFT_ENT
  6
CONTINUOUS
 62
     2
 10
14.559387690199999
 20
18.9842143865
 30
0.0
 11
14.667438069599999
 21
18.998847876900001
 31
0.0
 12
14.563204347099999
 22
18.960116963400001
 32
0.0
 13
14.563204347099999
 23
18.960116963400001
 33
0.0
  0
SOLID
  5
35B
  8
DRAFT_ENT
  6
CONTINUOUS
 62
     2
 10
14.667438069599999
 20
18.998847876900001
 30
0.0
 11
14.671508852700001
 21
18.960116963400001
 31
0.0
 12
14.563204347099999
 22
18.960116963400001
 32
0.0
 13
14.563204347099999
 23
18.960116963400001
 33
0.0
  0
SOLID
  5
35C
  8
DRAFT_ENT
  6
CONTINUOUS
 62
     2
 10
14.559387690199999
 20
18.936019540299998
 30
0.0
 11
14.563204347099999
 21
18.960116963400001
 31
0.0
 12
14.671508852700001
 22
18.960116963400001
 32
0.0
 13
14.671508852700001
 23
18.960116963400001
 33
0.0
  0
SOLID
  5
35D
  8
DRAFT_ENT
  6
CONTINUOUS
 62
     2
 10
14.411059205300001
 20
18.936019540299998
 30
0.0
 11
14.303008825899999
 21
18.921386049900001
 31
0.0
 12
14.407242548399999
 22
18.960116963400001
 32
0.0
 13
14.407242548399999
 23
18.960116963400001
 33
0.0
  0
SOLID
  5
35E
  8
DRAFT_ENT
  6
CONTINUOUS
 62
     2
 10
14.303008825899999
 20
18.921386049900001
 30
0.0
 11
14.2989380428
 21
18.960116963400001
 31
0.0
 12
14.407242548399999
 22
18.960116963400001
 32
0.0
 13
14.407242548399999
 23
18.960116963400001
 33
0.0
  0
SOLID
  5
35F
  8
DRAFT_ENT
  6
CONTINUOUS
 62
     2
 10
14.671508852700001
 20
18.960116963400001
 30
0.0
 11
14.667438069599999
 21
18.921386049900001
 31
0.0
 12
14.559387690199999
 22
18.936019540299998
 32
0.0
 13
14.559387690199999
 23
18.936019540299998
 33
0.0
  0
SOLID
  5
360
  8
DRAFT_ENT
  6
CONTINUOUS
 62
     2
 10
14.411059205300001
 20
18.936019540299998
 30
0.0
 11
14.422135575
 21
18.914280940800001
 31
0.0
 12
14.303008825899999
 22
18.921386049900001
 32
0.0
 13
14.303008825899999
 23
18.921386049900001
 33
0.0
  0
SOLID
  5
361
  8
DRAFT_ENT
  6
CONTINUOUS
 62
     2
 10
14.5483113205
 20
18.914280940800001
 30
0.0
 11
14.559387690199999
 21
18.936019540299998
 31
0.0
 12
14.667438069599999
 22
18.921386049900001
 32
0.0
 13
14.667438069599999
 23
18.921386049900001
 33
0.0
  0
SOLID
  5
362
  8
DRAFT_ENT
  6
CONTINUOUS
 62
     2
 10
14.4611260246
 20
18.885952720999999
 30
0.0
 11
14.3150432623
 21
18.8843478631
 31
0.0
 12
14.4393874252
 22
18.8970290906
 32
0.0
 13
14.4393874252
 23
18.8970290906
 33
0.0
  0
SOLID
  5
363
  8
DRAFT_ENT
  6
CONTINUOUS
 62
     2
 10
14.4393874252
 20
18.8970290906
 30
0.0
 11
14.3150432623
 21
18.8843478631
 31
0.0
 12
14.422135575
 22
18.914280940800001
 32
0.0
 13
14.422135575
 23
18.914280940800001
 33
0.0
  0
SOLID
  5
364
  8
DRAFT_ENT
  6
CONTINUOUS
 62
     2
 10
14.3150432623
 20
18.8843478631
 30
0.0
 11
14.303008825899999
 21
18.921386049900001
 31
0.0
 12
14.422135575
 22
18.914280940800001
 32
0.0
 13
14.422135575
 23
18.914280940800001
 33
0.0
  0
SOLID
  5
365
  8
DRAFT_ENT
  6
CONTINUOUS
 62
     2
 10
14.5483113205
 20
18.914280940800001
 30
0.0
 11
14.667438069599999
 21
18.921386049900001
 31
0.0
 12
14.531059470300001
 22
18.8970290906
 32
0.0
 13
14.531059470300001
 23
18.8970290906
 33
0.0
  0
SOLID
  5
366
  8
DRAFT_ENT
  6
CONTINUOUS
 62
     2
 10
14.531059470300001
 20
18.8970290906
 30
0.0
 11
14.667438069599999
 21
18.921386049900001
 31
0.0
 12
14.5093208709
 22
18.885952720999999
 32
0.0
 13
14.5093208709
 23
18.885952720999999
 33
0.0
  0
SOLID
  5
367
  8
DRAFT_ENT
  6
CONTINUOUS
 62
     2
 10
14.667438069599999
 20
18.921386049900001
 30
0.0
 11
14.655403633200001
 21
18.8843478631
 31
0.0
 12
14.5093208709
 22
18.885952720999999
 32
0.0
 13
14.5093208709
 23
18.885952720999999
 33
0.0
  0
SOLID
  5
368
  8
DRAFT_ENT
  6
CONTINUOUS
 62
     2
 10
14.4611260246
 20
18.885952720999999
 30
0.0
 11
14.485223447699999
 21
18.882136064099999
 31
0.0
 12
14.3150432623
 22
18.8843478631
 32
0.0
 13
14.3150432623
 23
18.8843478631
 33
0.0
  0
SOLID
  5
369
  8
DRAFT_ENT
  6
CONTINUOUS
 62
     2
 10
14.485223447699999
 20
18.882136064099999
 30
0.0
 11
14.5093208709
 21
18.885952720999999
 31
0.0
 12
14.655403633200001
 22
18.8843478631
 32
0.0
 13
14.655403633200001
 23
18.8843478631
 33
0.0
  0
SOLID
  5
36A
  8
DRAFT_ENT
  6
CONTINUOUS
 62
     2
 10
14.3345153894
 20
18.8506211497
 30
0.0
 11
14.3150432623
 21
18.8843478631
 31
0.0
 12
14.485223447699999
 22
18.882136064099999
 32
0.0
 13
14.485223447699999
 23
18.882136064099999
 33
0.0
  0
SOLID
  5
36B
  8
DRAFT_ENT
  6
CONTINUOUS
 62
     2
 10
14.485223447699999
 20
18.882136064099999
 30
0.0
 11
14.655403633200001
 21
18.8843478631
 31
0.0
 12
14.3345153894
 22
18.8506211497
 32
0.0
 13
14.3345153894
 23
18.8506211497
 33
0.0
  0
SOLID
  5
36C
  8
DRAFT_ENT
  6
CONTINUOUS
 62
     2
 10
14.655403633200001
 20
18.8843478631
 30
0.0
 11
14.6359315061
 21
18.8506211497
 31
0.0
 12
14.3345153894
 22
18.8506211497
 32
0.0
 13
14.3345153894
 23
18.8506211497
 33
0.0
  0
SOLID
  5
36D
  8
DRAFT_ENT
  6
CONTINUOUS
 62
     2
 10
14.360574181800001
 20
18.8216799287
 30
0.0
 11
14.3345153894
 21
18.8506211497
 31
0.0
 12
14.6359315061
 22
18.8506211497
 32
0.0
 13
14.6359315061
 23
18.8506211497
 33
0.0
  0
SOLID
  5
36E
  8
DRAFT_ENT
  6
CONTINUOUS
 62
     2
 10
14.6359315061
 20
18.8506211497
 30
0.0
 11
14.6098727137
 21
18.8216799287
 31
0.0
 12
14.360574181800001
 22
18.8216799287
 32
0.0
 13
14.360574181800001
 23
18.8216799287
 33
0.0
  0
SOLID
  5
36F
  8
DRAFT_ENT
  6
CONTINUOUS
 62
     2
 10
14.392080745299999
 20
18.798789070400002
 30
0.0
 11
14.360574181800001
 21
18.8216799287
 31
0.0
 12
14.6098727137
 22
18.8216799287
 32
0.0
 13
14.6098727137
 23
18.8216799287
 33
0.0
  0
SOLID
  5
370
  8
DRAFT_ENT
  6
CONTINUOUS
 62
     2
 10
14.6098727137
 20
18.8216799287
 30
0.0
 11
14.578366150200001
 21
18.798789070400002
 31
0.0
 12
14.392080745299999
 22
18.798789070400002
 32
0.0
 13
14.392080745299999
 23
18.798789070400002
 33
0.0
  0
SOLID
  5
371
  8
DRAFT_ENT
  6
CONTINUOUS
 62
     2
 10
14.4276580918
 20
18.7829490152
 30
0.0
 11
14.392080745299999
 21
18.798789070400002
 31
0.0
 12
14.578366150200001
 22
18.798789070400002
 32
0.0
 13
14.578366150200001
 23
18.798789070400002
 33
0.0
  0
SOLID
  5
372
  8
DRAFT_ENT
  6
CONTINUOUS
 62
     2
 10
14.578366150200001
 20
18.798789070400002
 30
0.0
 11
14.542788803700001
 21
18.7829490152
 31
0.0
 12
14.4276580918
 22
18.7829490152
 32
0.0
 13
14.4276580918
 23
18.7829490152
 33
0.0
  0
SOLID
  5
373
  8
DRAFT_ENT
  6
CONTINUOUS
 62
     2
 10
14.465751320600001
 20
18.7748520494
 30
0.0
 11
14.4276580918
 21
18.7829490152
 31
0.0
 12
14.542788803700001
 22
18.7829490152
 32
0.0
 13
14.542788803700001
 23
18.7829490152
 33
0.0
  0
SOLID
  5
374
  8
DRAFT_ENT
  6
CONTINUOUS
 62
     2
 10
14.542788803700001
 20
18.7829490152
 30
0.0
 11
14.504695574899999
 21
18.7748520494
 31
0.0
 12
14.465751320600001
 22
18.7748520494
 32
0.0
 13
14.465751320600001
 23
18.7748520494
 33
0.0
  0
SOLID
  5
375
  8
DRAFT_ENT
  6
CONTINUOUS
 62
     2
 10
14.8776624785
 20
19.0061759202
 30
0.0
 11
14.8776624785
 21
19.1439157963
 31
0.0
 12
14.9806210481
 22
19.1439157963
 32
0.0
 13
14.9806210481
 23
19.1439157963
 33
0.0
  0
SOLID
  5
376
  8
DRAFT_ENT
  6
CONTINUOUS
 62
     2
 10
14.8776624785
 20
19.0061759202
 30
0.0
 11
14.7851644539
 21
18.920422603900001
 31
0.0
 12
14.7851644539
 22
19.0061759202
 32
0.0
 13
14.7851644539
 23
19.0061759202
 33
0.0
  0
SOLID
  5
377
  8
DRAFT_ENT
  6
CONTINUOUS
 62
     2
 10
14.7851644539
 20
18.920422603900001
 30
0.0
 11
14.6822058843
 21
18.777719695599998
 31
0.0
 12
14.7851644539
 22
19.0061759202
 32
0.0
 13
14.7851644539
 23
19.0061759202
 33
0.0
  0
SOLID
  5
378
  8
DRAFT_ENT
  6
CONTINUOUS
 62
     2
 10
14.7851644539
 20
19.0061759202
 30
0.0
 11
14.6822058843
 21
18.777719695599998
 31
0.0
 12
14.7851644539
 22
19.1439157963
 32
0.0
 13
14.7851644539
 23
19.1439157963
 33
0.0
  0
SOLID
  5
379
  8
DRAFT_ENT
  6
CONTINUOUS
 62
     2
 10
14.6822058843
 20
18.777719695599998
 30
0.0
 11
14.6822058843
 21
19.1439157963
 31
0.0
 12
14.7851644539
 22
19.1439157963
 32
0.0
 13
14.7851644539
 23
19.1439157963
 33
0.0
  0
SOLID
  5
37A
  8
DRAFT_ENT
  6
CONTINUOUS
 62
     2
 10
14.7851644539
 20
18.920422603900001
 30
0.0
 11
14.7851644539
 21
18.777719695599998
 31
0.0
 12
14.6822058843
 22
18.777719695599998
 32
0.0
 13
14.6822058843
 23
18.777719695599998
 33
0.0
  0
SOLID
  5
37B
  8
DRAFT_ENT
  6
CONTINUOUS
 62
     2
 10
14.7851644539
 20
18.920422603900001
 30
0.0
 11
14.8776624785
 21
19.0061759202
 31
0.0
 12
14.8776624785
 22
18.920422603900001
 32
0.0
 13
14.8776624785
 23
18.920422603900001
 33
0.0
  0
SOLID
  5
37C
  8
DRAFT_ENT
  6
CONTINUOUS
 62
     2
 10
14.8776624785
 20
19.0061759202
 30
0.0
 11
14.9806210481
 21
19.1439157963
 31
0.0
 12
14.8776624785
 22
18.920422603900001
 32
0.0
 13
14.8776624785
 23
18.920422603900001
 33
0.0
  0
SOLID
  5
37D
  8
DRAFT_ENT
  6
CONTINUOUS
 62
     2
 10
14.8776624785
 20
18.920422603900001
 30
0.0
 11
14.9806210481
 21
19.1439157963
 31
0.0
 12
14.8776624785
 22
18.777719695599998
 32
0.0
 13
14.8776624785
 23
18.777719695599998
 33
0.0
  0
SOLID
  5
37E
  8
DRAFT_ENT
  6
CONTINUOUS
 62
     2
 10
14.9806210481
 20
19.1439157963
 30
0.0
 11
14.9806210481
 21
18.777719695599998
 31
0.0
 12
14.8776624785
 22
18.777719695599998
 32
0.0
 13
14.8776624785
 23
18.777719695599998
 33
0.0
  0
SOLID
  5
37F
  8
DRAFT_ENT
  6
CONTINUOUS
 62
     2
 10
15.204230451300001
 20
18.8659864356
 30
0.0
 11
15.0087740811
 21
18.777719695599998
 31
0.0
 12
15.1025528882
 22
18.8659864356
 32
0.0
 13
15.1025528882
 23
18.8659864356
 33
0.0
  0
SOLID
  5
380
  8
DRAFT_ENT
  6
CONTINUOUS
 62
     2
 10
15.1025528882
 20
18.8659864356
 30
0.0
 11
15.0087740811
 21
18.777719695599998
 31
0.0
 12
15.1025528882
 22
19.1439157963
 32
0.0
 13
15.1025528882
 23
19.1439157963
 33
0.0
  0
SOLID
  5
381
  8
DRAFT_ENT
  6
CONTINUOUS
 62
     2
 10
15.0087740811
 20
18.777719695599998
 30
0.0
 11
15.0087740811
 21
19.1439157963
 31
0.0
 12
15.1025528882
 22
19.1439157963
 32
0.0
 13
15.1025528882
 23
19.1439157963
 33
0.0
  0
SOLID
  5
382
  8
DRAFT_ENT
  6
CONTINUOUS
 62
     2
 10
15.0087740811
 20
18.777719695599998
 30
0.0
 11
15.204230451300001
 21
18.8659864356
 31
0.0
 12
15.1025528882
 22
18.777719695599998
 32
0.0
 13
15.1025528882
 23
18.777719695599998
 33
0.0
  0
SOLID
  5
383
  8
DRAFT_ENT
  6
CONTINUOUS
 62
     2
 10
15.204230451300001
 20
18.8659864356
 30
0.0
 11
15.204230451300001
 21
18.777719695599998
 31
0.0
 12
15.1025528882
 22
18.777719695599998
 32
0.0
 13
15.1025528882
 23
18.777719695599998
 33
0.0
  0
SOLID
  5
384
  8
DRAFT_ENT
  6
CONTINUOUS
 62
     2
 10
15.4156379379
 20
19.1439157963
 30
0.0
 11
15.4156379379
 21
19.054691156299999
 31
0.0
 12
15.3213519678
 22
19.054691156299999
 32
0.0
 13
15.3213519678
 23
19.054691156299999
 33
0.0
  0
SOLID
  5
385
  8
DRAFT_ENT
  6
CONTINUOUS
 62
     2
 10
15.4156379379
 20
19.0061759202
 30
0.0
 11
15.4156379379
 21
18.915937402000001
 31
0.0
 12
15.3213519678
 22
18.915937402000001
 32
0.0
 13
15.3213519678
 23
18.915937402000001
 33
0.0
  0
SOLID
  5
386
  8
DRAFT_ENT
  6
CONTINUOUS
 62
     2
 10
15.4156379379
 20
18.8659864356
 30
0.0
 11
15.2224477914
 21
18.777719695599998
 31
0.0
 12
15.3213519678
 22
18.8659864356
 32
0.0
 13
15.3213519678
 23
18.8659864356
 33
0.0
  0
SOLID
  5
387
  8
DRAFT_ENT
  6
CONTINUOUS
 62
     2
 10
15.3213519678
 20
18.8659864356
 30
0.0
 11
15.2224477914
 21
18.777719695599998
 31
0.0
 12
15.3213519678
 22
18.915937402000001
 32
0.0
 13
15.3213519678
 23
18.915937402000001
 33
0.0
  0
SOLID
  5
388
  8
DRAFT_ENT
  6
CONTINUOUS
 62
     2
 10
15.4156379379
 20
19.0061759202
 30
0.0
 11
15.3213519678
 21
18.915937402000001
 31
0.0
 12
15.3213519678
 22
19.0061759202
 32
0.0
 13
15.3213519678
 23
19.0061759202
 33
0.0
  0
SOLID
  5
389
  8
DRAFT_ENT
  6
CONTINUOUS
 62
     2
 10
15.3213519678
 20
18.915937402000001
 30
0.0
 11
15.2224477914
 21
18.777719695599998
 31
0.0
 12
15.3213519678
 22
19.0061759202
 32
0.0
 13
15.3213519678
 23
19.0061759202
 33
0.0
  0
SOLID
  5
38A
  8
DRAFT_ENT
  6
CONTINUOUS
 62
     2
 10
15.3213519678
 20
19.0061759202
 30
0.0
 11
15.2224477914
 21
18.777719695599998
 31
0.0
 12
15.3213519678
 22
19.054691156299999
 32
0.0
 13
15.3213519678
 23
19.054691156299999
 33
0.0
  0
SOLID
  5
38B
  8
DRAFT_ENT
  6
CONTINUOUS
 62
     2
 10
15.4156379379
 20
19.1439157963
 30
0.0
 11
15.3213519678
 21
19.054691156299999
 31
0.0
 12
15.3302296716
 22
19.1439157963
 32
0.0
 13
15.3302296716
 23
19.1439157963
 33
0.0
  0
SOLID
  5
38C
  8
DRAFT_ENT
  6
CONTINUOUS
 62
     2
 10
15.3213519678
 20
19.054691156299999
 30
0.0
 11
15.2224477914
 21
18.777719695599998
 31
0.0
 12
15.3302296716
 22
19.1439157963
 32
0.0
 13
15.3302296716
 23
19.1439157963
 33
0.0
  0
SOLID
  5
38D
  8
DRAFT_ENT
  6
CONTINUOUS
 62
     2
 10
15.2224477914
 20
18.777719695599998
 30
0.0
 11
15.2224477914
 21
19.1439157963
 31
0.0
 12
15.3302296716
 22
19.1439157963
 32
0.0
 13
15.3302296716
 23
19.1439157963
 33
0.0
  0
SOLID
  5
38E
  8
DRAFT_ENT
  6
CONTINUOUS
 62
     2
 10
15.4156379379
 20
18.8659864356
 30
0.0
 11
15.4156379379
 21
18.777719695599998
 31
0.0
 12
15.2224477914
 22
18.777719695599998
 32
0.0
 13
15.2224477914
 23
18.777719695599998
 33
0.0
  0
SOLID
  5
38F
  8
DRAFT_ENT
  6
CONTINUOUS
 62
     2
 10
15.5896179182
 20
19.143920237300001
 30
0.0
 11
15.618951063500001
 21
19.139913831299999
 31
0.0
 12
15.4436505774
 22
19.1439157963
 32
0.0
 13
15.4436505774
 23
19.1439157963
 33
0.0
  0
SOLID
  5
390
  8
DRAFT_ENT
  6
CONTINUOUS
 62
     2
 10
15.5378104845
 20
19.0548040085
 30
0.0
 11
15.696522852999999
 21
19.057697343699999
 31
0.0
 12
15.5727666671
 22
19.0548040085
 32
0.0
 13
15.5727666671
 23
19.0548040085
 33
0.0
  0
SOLID
  5
391
  8
DRAFT_ENT
  6
CONTINUOUS
 62
     2
 10
15.5727666671
 20
19.0548040085
 30
0.0
 11
15.696522852999999
 21
19.057697343699999
 31
0.0
 12
15.5875932834
 22
19.0513451526
 32
0.0
 13
15.5875932834
 23
19.0513451526
 33
0.0
  0
SOLID
  5
392
  8
DRAFT_ENT
  6
CONTINUOUS
 62
     2
 10
15.5875932834
 20
19.0513451526
 30
0.0
 11
15.696522852999999
 21
19.057697343699999
 31
0.0
 12
15.599358902900001
 22
19.0416827289
 32
0.0
 13
15.599358902900001
 23
19.0416827289
 33
0.0
  0
SOLID
  5
393
  8
DRAFT_ENT
  6
CONTINUOUS
 62
     2
 10
15.696522852999999
 20
19.057697343699999
 30
0.0
 11
15.6988186324
 21
19.028181007600001
 31
0.0
 12
15.599358902900001
 22
19.0416827289
 32
0.0
 13
15.599358902900001
 23
19.0416827289
 33
0.0
  0
SOLID
  5
394
  8
DRAFT_ENT
  6
CONTINUOUS
 62
     2
 10
15.6056344908
 20
19.027811563299998
 30
0.0
 11
15.599358902900001
 21
19.0416827289
 31
0.0
 12
15.6988186324
 22
19.028181007600001
 32
0.0
 13
15.6988186324
 23
19.028181007600001
 33
0.0
  0
SOLID
  5
395
  8
DRAFT_ENT
  6
CONTINUOUS
 62
     2
 10
15.6056344908
 20
19.027811563299998
 30
0.0
 11
15.6988186324
 21
19.028181007600001
 31
0.0
 12
15.605124439600001
 22
19.012595385000001
 32
0.0
 13
15.605124439600001
 23
19.012595385000001
 33
0.0
  0
SOLID
  5
396
  8
DRAFT_ENT
  6
CONTINUOUS
 62
     2
 10
15.605124439600001
 20
19.012595385000001
 30
0.0
 11
15.6988186324
 21
19.028181007600001
 31
0.0
 12
15.597934050499999
 22
18.999175603299999
 32
0.0
 13
15.597934050499999
 23
18.999175603299999
 33
0.0
  0
SOLID
  5
397
  8
DRAFT_ENT
  6
CONTINUOUS
 62
     2
 10
15.6988186324
 20
19.028181007600001
 30
0.0
 11
15.693115129100001
 21
18.999130108199999
 31
0.0
 12
15.597934050499999
 22
18.999175603299999
 32
0.0
 13
15.597934050499999
 23
18.999175603299999
 33
0.0
  0
SOLID
  5
398
  8
DRAFT_ENT
  6
CONTINUOUS
 62
     2
 10
15.5855477933
 20
18.990322758199991
 30
0.0
 11
15.597934050499999
 21
18.999175603299999
 31
0.0
 12
15.693115129100001
 22
18.999130108199999
 32
0.0
 13
15.693115129100001
 23
18.999130108199999
 33
0.0
  0
SOLID
  5
399
  8
DRAFT_ENT
  6
CONTINUOUS
 62
     2
 10
15.5855477933
 20
18.990322758199991
 30
0.0
 11
15.693115129100001
 21
18.999130108199999
 31
0.0
 12
15.5705228346
 22
18.9878645366
 32
0.0
 13
15.5705228346
 23
18.9878645366
 33
0.0
  0
SOLID
  5
39A
  8
DRAFT_ENT
  6
CONTINUOUS
 62
     2
 10
15.693115129100001
 20
18.999130108199999
 30
0.0
 11
15.6798301417
 21
18.972672712000001
 31
0.0
 12
15.5705228346
 22
18.9878645366
 32
0.0
 13
15.5705228346
 23
18.9878645366
 33
0.0
  0
SOLID
  5
39B
  8
DRAFT_ENT
  6
CONTINUOUS
 62
     2
 10
15.634892456599999
 20
18.9349588139
 30
0.0
 11
15.5378104845
 21
18.900817450799991
 31
0.0
 12
15.659936836
 22
18.950746903300001
 32
0.0
 13
15.659936836
 23
18.950746903300001
 33
0.0
  0
SOLID
  5
39C
  8
DRAFT_ENT
  6
CONTINUOUS
 62
     2
 10
15.659936836
 20
18.950746903300001
 30
0.0
 11
15.5378104845
 21
18.900817450799991
 31
0.0
 12
15.6798301417
 22
18.972672712000001
 32
0.0
 13
15.6798301417
 23
18.972672712000001
 33
0.0
  0
SOLID
  5
39D
  8
DRAFT_ENT
  6
CONTINUOUS
 62
     2
 10
15.6798301417
 20
18.972672712000001
 30
0.0
 11
15.5378104845
 21
18.900817450799991
 31
0.0
 12
15.5705228346
 22
18.9878645366
 32
0.0
 13
15.5705228346
 23
18.9878645366
 33
0.0
  0
SOLID
  5
39E
  8
DRAFT_ENT
  6
CONTINUOUS
 62
     2
 10
15.5378104845
 20
18.900817450799991
 30
0.0
 11
15.4436505774
 21
18.777719695599998
 31
0.0
 12
15.5705228346
 22
18.9878645366
 32
0.0
 13
15.5705228346
 23
18.9878645366
 33
0.0
  0
SOLID
  5
39F
  8
DRAFT_ENT
  6
CONTINUOUS
 62
     2
 10
15.5705228346
 20
18.9878645366
 30
0.0
 11
15.4436505774
 21
18.777719695599998
 31
0.0
 12
15.5378104845
 22
18.9878645366
 32
0.0
 13
15.5378104845
 23
18.9878645366
 33
0.0
  0
SOLID
  5
3A0
  8
DRAFT_ENT
  6
CONTINUOUS
 62
     2
 10
15.5378104845
 20
18.9878645366
 30
0.0
 11
15.4436505774
 21
18.777719695599998
 31
0.0
 12
15.5378104845
 22
19.0548040085
 32
0.0
 13
15.5378104845
 23
19.0548040085
 33
0.0
  0
SOLID
  5
3A1
  8
DRAFT_ENT
  6
CONTINUOUS
 62
     2
 10
15.696522852999999
 20
19.057697343699999
 30
0.0
 11
15.5378104845
 21
19.0548040085
 31
0.0
 12
15.686395963500001
 22
19.085516955700001
 32
0.0
 13
15.686395963500001
 23
19.085516955700001
 33
0.0
  0
SOLID
  5
3A2
  8
DRAFT_ENT
  6
CONTINUOUS
 62
     2
 10
15.686395963500001
 20
19.085516955700001
 30
0.0
 11
15.5378104845
 21
19.0548040085
 31
0.0
 12
15.669179789199999
 22
19.1096019728
 32
0.0
 13
15.669179789199999
 23
19.1096019728
 33
0.0
  0
SOLID
  5
3A3
  8
DRAFT_ENT
  6
CONTINUOUS
 62
     2
 10
15.669179789199999
 20
19.1096019728
 30
0.0
 11
15.5378104845
 21
19.0548040085
 31
0.0
 12
15.646135467100001
 22
19.1281880945
 32
0.0
 13
15.646135467100001
 23
19.1281880945
 33
0.0
  0
SOLID
  5
3A4
  8
DRAFT_ENT
  6
CONTINUOUS
 62
     2
 10
15.646135467100001
 20
19.1281880945
 30
0.0
 11
15.5378104845
 21
19.0548040085
 31
0.0
 12
15.618951063500001
 22
19.139913831299999
 32
0.0
 13
15.618951063500001
 23
19.139913831299999
 33
0.0
  0
SOLID
  5
3A5
  8
DRAFT_ENT
  6
CONTINUOUS
 62
     2
 10
15.618951063500001
 20
19.139913831299999
 30
0.0
 11
15.5378104845
 21
19.0548040085
 31
0.0
 12
15.4436505774
 22
19.1439157963
 32
0.0
 13
15.4436505774
 23
19.1439157963
 33
0.0
  0
SOLID
  5
3A6
  8
DRAFT_ENT
  6
CONTINUOUS
 62
     2
 10
15.4436505774
 20
18.777719695599998
 30
0.0
 11
15.4436505774
 21
19.1439157963
 31
0.0
 12
15.5378104845
 22
19.0548040085
 32
0.0
 13
15.5378104845
 23
19.0548040085
 33
0.0
  0
SOLID
  5
3A7
  8
DRAFT_ENT
  6
CONTINUOUS
 62
     2
 10
15.5378104845
 20
18.900817450799991
 30
0.0
 11
15.5378104845
 21
18.777719695599998
 31
0.0
 12
15.4436505774
 22
18.777719695599998
 32
0.0
 13
15.4436505774
 23
18.777719695599998
 33
0.0
  0
SOLID
  5
3A8
  8
DRAFT_ENT
  6
CONTINUOUS
 62
     2
 10
15.5378104845
 20
18.900817450799991
 30
0.0
 11
15.634892456599999
 21
18.9349588139
 31
0.0
 12
15.6158251426
 22
18.777719695599998
 32
0.0
 13
15.6158251426
 23
18.777719695599998
 33
0.0
  0
SOLID
  5
3A9
  8
DRAFT_ENT
  6
CONTINUOUS
 62
     2
 10
15.634892456599999
 20
18.9349588139
 30
0.0
 11
15.7345445025
 21
18.777719695599998
 31
0.0
 12
15.6158251426
 22
18.777719695599998
 32
0.0
 13
15.6158251426
 23
18.777719695599998
 33
0.0
  0
DIMENSION
  5
3AA
  8
0
  6
CONTINUOUS
 62
     2
  2
*D6
 10
23.6209341048
 20
11.4069903567
 30
0.0
 11
11.2600134213
 21
11.2898028567
 31
0.0
 70
   128
  1
<>"\P(54,3 cm)
 13
2.2547075509000001
 23
11.2819903567
 33
0.0
 14
23.6209341048
 24
11.2819903567
 34
0.0
  0
DIMENSION
  5
3AB
  8
0
  6
CONTINUOUS
 62
     2
  2
*D7
 10
12.9412198719
 20
20.217145667099999
 30
0.0
 11
12.9412198719
 21
12.901766714500001
 31
0.0
 70
   128
  1
<>"\P(44,8 cm)
 13
13.0662198719
 23
2.5994279241
 33
0.0
 14
13.0662198719
 24
20.217145667099999
 34
0.0
 50
90.0
  0
INSERT
  5
3AC
  8
0
  2
*U25
 10
0.0
 20
0.0
 30
0.0
  0
TEXT
  5
3AD
  8
0
  6
CONTINUOUS
 62
     2
 10
15.394737188100001
 20
3.1708088906
 30
0.0
 40
0.05625
  1
C
  0
INSERT
  5
3AE
  8
0
  2
*U26
 10
0.0
 20
0.0
 30
0.0
  0
TEXT
  5
3AF
  8
0
  6
CONTINUOUS
 62
     2
 10
15.4978109904
 20
3.1519028535000002
 30
0.0
 40
0.094
  1
2003 KOHLER CO.
  0
INSERT
  5
3B0
  8
0
  2
*U27
 10
0.0
 20
0.0
 30
0.0
  0
INSERT
  5
3B1
  8
0
  2
*U28
 10
0.0
 20
0.0
 30
0.0
  0
LINE
  5
3B2
  8
NOTE
  6
CONTINUOUS
 62
     2
 10
3.7696321567000002
 20
4.9141576769000004
 30
0.0
 11
5.1631239118999988
 21
5.7806317739999988
 31
0.0
  0
LINE
  5
3B3
  8
NOTE
  6
CONTINUOUS
 62
     2
 10
5.1631239118999988
 20
5.7806317739999988
 30
0.0
 11
5.4131239118999996
 21
5.7806317739999988
 31
0.0
  0
SOLID
  5
3B4
  8
NOTE
  6
CONTINUOUS
 62
     2
 10
3.9123590032999989
 20
5.0397039224000002
 30
0.0
 11
3.7696321567000002
 21
4.9141576769000004
 31
0.0
 12
3.9453617399000001
 22
4.9866278506999988
 32
0.0
 13
3.9453617399000001
 23
4.9866278506999988
 33
0.0
  0
INSERT
  5
3B5
  8
0
  2
*U29
 10
0.0
 20
0.0
 30
0.0
  0
LINE
  5
3B6
  8
NOTE
  6
CONTINUOUS
 62
     2
 10
7.1303335772000001
 20
3.4041813072
 30
0.0
 11
7.7607719699000004
 21
4.115941821299999
 31
0.0
  0
LINE
  5
3B7
  8
NOTE
  6
CONTINUOUS
 62
     2
 10
7.7607719699000004
 20
4.115941821299999
 30
0.0
 11
8.0107719699000004
 21
4.115941821299999
 31
0.0
  0
SOLID
  5
3B8
  8
NOTE
  6
CONTINUOUS
 62
     2
 10
7.2312620872000002
 20
3.5652596991999999
 30
0.0
 11
7.1303335772000001
 21
3.4041813072
 31
0.0
 12
7.2780481326999986
 22
3.5238191882999992
 32
0.0
 13
7.2780481326999986
 23
3.5238191882999992
 33
0.0
  0
TEXT
  5
3B9
  8
NOTE
  6
CONTINUOUS
 62
     2
 10
15.085571051100001
 20
8.4098048927000004
 30
0.0
 40
0.08
  1
XXXXX-XX-X-XX
 41
0.85
  0
TEXT
  5
3BA
  8
NOTE
  6
CONTINUOUS
 62
     2
 10
16.552803010200002
 20
8.3069687405999986
 30
0.0
 40
0.03875
  1
xxxxxx-xx
 41
0.8
  0
INSERT
  5
3BB
  8
0
  2
*U30
 10
0.0
 20
0.0
 30
0.0
  0
INSERT
  5
3BC
  8
0
  2
*U31
 10
0.0
 20
0.0
 30
0.0
  0
INSERT
  5
3BD
  8
0
  2
*U32
 10
0.0
 20
0.0
 30
0.0
  0
TEXT
  5
3BE
  8
NOTE
  6
CONTINUOUS
 62
     2
 10
14.0681153333
 20
9.3075870270000003
 30
0.0
 40
0.15625
  1
EMBALLAGE/ÉTIGUETTE UPC SUR LA BOITE
 41
0.8
  0
TEXT
  5
3BF
  8
NOTE
  6
CONTINUOUS
 62
     2
 10
17.247407626299999
 20
16.7750382521
 30
0.0
 40
0.15625
  1
 
 41
0.8
  0
INSERT
  5
3C0
  8
0
  2
*U33
 10
0.0
 20
0.0
 30
0.0
  0
TEXT
  5
3C1
  8
0
  6
CONTINUOUS
 62
     2
 10
17.6254655957
 20
16.305020236000001
 30
0.0
 40
0.15625
  1
 
 41
0.8
  0
TEXT
  5
3C2
  8
0
  6
CONTINUOUS
 62
     2
 10
14.88920266871046
 20
16.734551019305911
 30
0.0
 40
0.0705
  1
TM
  0
POLYLINE
  5
3CA
  8
0
  6
DASHED
 62
     7
 66
     1
 10
0.0
 20
0.0
 30
0.0
  0
VERTEX
  5
787
  8
0
  6
DASHED
 62
     7
 10
1.5698214530000001
 20
11.408291688
 30
0.0
  0
VERTEX
  5
788
  8
0
  6
DASHED
 62
     7
 10
1.5710191371999991
 20
11.225192792
 30
0.0
  0
VERTEX
  5
789
  8
0
  6
DASHED
 62
     7
 10
1.5746120399000001
 20
11.0421275882
 30
0.0
  0
VERTEX
  5
78A
  8
0
  6
DASHED
 62
     7
 10
1.5805995517999989
 20
10.8591271213
 30
0.0
  0
VERTEX
  5
78B
  8
0
  6
DASHED
 62
     7
 10
1.5889806575000001
 20
10.676222425100001
 30
0.0
  0
VERTEX
  5
78C
  8
0
  6
DASHED
 62
     7
 10
1.599753935699999
 20
10.4934445172
 30
0.0
  0
VERTEX
  5
78D
  8
0
  6
DASHED
 62
     7
 10
1.6129175594999989
 20
10.310824393600001
 30
0.0
  0
VERTEX
  5
78E
  8
0
  6
DASHED
 62
     7
 10
1.6284692965000001
 20
10.128393023699999
 30
0.0
  0
VERTEX
  5
78F
  8
0
  6
DASHED
 62
     7
 10
1.6464065094
 20
9.9461813447999994
 30
0.0
  0
VERTEX
  5
790
  8
0
  6
DASHED
 62
     7
 10
1.6667261563
 20
9.7642202568999998
 30
0.0
  0
VERTEX
  5
791
  8
0
  6
DASHED
 62
     7
 10
1.6894247913999989
 20
9.5825406174999994
 30
0.0
  0
VERTEX
  5
792
  8
0
  6
DASHED
 62
     7
 10
1.7144985654
 20
9.4011732364
 30
0.0
  0
VERTEX
  5
793
  8
0
  6
DASHED
 62
     7
 10
1.7419432262000001
 20
9.2201488705999992
 30
0.0
  0
VERTEX
  5
794
  8
0
  6
DASHED
 62
     7
 10
1.7717541196
 20
9.0394982187000004
 30
0.0
  0
VERTEX
  5
795
  8
0
  6
DASHED
 62
     7
 10
1.8039261901999999
 20
8.8592519159999998
 30
0.0
  0
VERTEX
  5
796
  8
0
  6
DASHED
 62
     7
 10
1.838453982199999
 20
8.6794405291999972
 30
0.0
  0
VERTEX
  5
797
  8
0
  6
DASHED
 62
     7
 10
1.8753316402
 20
8.5000945514000001
 30
0.0
  0
VERTEX
  5
798
  8
0
  6
DASHED
 62
     7
 10
1.914552910399999
 20
8.3212443966999992
 30
0.0
  0
VERTEX
  5
799
  8
0
  6
DASHED
 62
     7
 10
1.9561111415000001
 20
8.1429203949000009
 30
0.0
  0
SEQEND
  5
79A
  8
0
  6
DASHED
 62
     7
  0
POLYLINE
  5
3CB
  8
0
  6
DASHED
 62
     7
 66
     1
 10
0.0
 20
0.0
 30
0.0
  0
VERTEX
  5
79B
  8
0
  6
DASHED
 62
     7
 10
1.9561116839999999
 20
14.6736573645
 30
0.0
  0
VERTEX
  5
79C
  8
0
  6
DASHED
 62
     7
 10
1.9145532477999989
 20
14.4953325663
 30
0.0
  0
VERTEX
  5
79D
  8
0
  6
DASHED
 62
     7
 10
1.8753318156000001
 20
14.316481849800001
 30
0.0
  0
VERTEX
  5
79E
  8
0
  6
DASHED
 62
     7
 10
1.838454033199999
 20
14.137135520099999
 30
0.0
  0
VERTEX
  5
79F
  8
0
  6
DASHED
 62
     7
 10
1.803926149499999
 20
13.957323966400001
 30
0.0
  0
VERTEX
  5
7A0
  8
0
  6
DASHED
 62
     7
 10
1.7717540149
 20
13.777077656499999
 30
0.0
  0
VERTEX
  5
7A1
  8
0
  6
DASHED
 62
     7
 10
1.7419430807
 20
13.596427132100001
 30
0.0
  0
VERTEX
  5
7A2
  8
0
  6
DASHED
 62
     7
 10
1.7144983983999991
 20
13.4154030033
 30
0.0
  0
VERTEX
  5
7A3
  8
0
  6
DASHED
 62
     7
 10
1.6894246181000001
 20
13.2340359434
 30
0.0
  0
VERTEX
  5
7A4
  8
0
  6
DASHED
 62
     7
 10
1.666725988499999
 20
13.052356684099999
 30
0.0
  0
VERTEX
  5
7A5
  8
0
  6
DASHED
 62
     7
 10
1.646406355699999
 20
12.8703960096
 30
0.0
  0
VERTEX
  5
7A6
  8
0
  6
DASHED
 62
     7
 10
1.6284691628000001
 20
12.6881847521
 30
0.0
  0
VERTEX
  5
7A7
  8
0
  6
DASHED
 62
     7
 10
1.6129174491
 20
12.5057537862
 30
0.0
  0
VERTEX
  5
7A8
  8
0
  6
DASHED
 62
     7
 10
1.599753849699999
 20
12.3231340236
 30
0.0
  0
VERTEX
  5
7A9
  8
0
  6
DASHED
 62
     7
 10
1.5889805950999989
 20
12.140356408000001
 30
0.0
  0
VERTEX
  5
7AA
  8
0
  6
DASHED
 62
     7
 10
1.5805995108999991
 20
11.9574519101
 30
0.0
  0
VERTEX
  5
7AB
  8
0
  6
DASHED
 62
     7
 10
1.5746120169999991
 20
11.7744515219
 30
0.0
  0
VERTEX
  5
7AC
  8
0
  6
DASHED
 62
     7
 10
1.5710191281000001
 20
11.591386251499999
 30
0.0
  0
VERTEX
  5
7AD
  8
0
  6
DASHED
 62
     7
 10
1.5698214530000001
 20
11.408287118200001
 30
0.0
  0
SEQEND
  5
7AE
  8
0
  6
DASHED
 62
     7
  0
POLYLINE
  5
3CC
  8
0
  6
DASHED
 62
     7
 66
     1
 10
0.0
 20
0.0
 30
0.0
  0
VERTEX
  5
7AF
  8
0
  6
DASHED
 62
     7
 10
1.9561113287
 20
8.1429196210000008
 30
0.0
  0
VERTEX
  5
7B0
  8
0
  6
DASHED
 62
     7
 10
1.986983189
 20
8.0172722676999992
 30
0.0
  0
VERTEX
  5
7B1
  8
0
  6
DASHED
 62
     7
 10
2.0202799087000001
 20
7.8922454050999988
 30
0.0
  0
VERTEX
  5
7B2
  8
0
  6
DASHED
 62
     7
 10
2.055989022399999
 20
7.7678858394999999
 30
0.0
  0
VERTEX
  5
7B3
  8
0
  6
DASHED
 62
     7
 10
2.0940971616999988
 20
7.6442401275999989
 30
0.0
  0
VERTEX
  5
7B4
  8
0
  6
DASHED
 62
     7
 10
2.134590060099999
 20
7.5213545587999988
 30
0.0
  0
VERTEX
  5
7B5
  8
0
  6
DASHED
 62
     7
 10
2.1774525580000001
 20
7.3992751378999992
 30
0.0
  0
VERTEX
  5
7B6
  8
0
  6
DASHED
 62
     7
 10
2.222668608999999
 20
7.278047567899999
 30
0.0
  0
VERTEX
  5
7B7
  8
0
  6
DASHED
 62
     7
 10
2.270221285699999
 20
7.1577172329999987
 30
0.0
  0
VERTEX
  5
7B8
  8
0
  6
DASHED
 62
     7
 10
2.3200927854999991
 20
7.0383291811999991
 30
0.0
  0
VERTEX
  5
7B9
  8
0
  6
DASHED
 62
     7
 10
2.3722644381000002
 20
6.9199281081999997
 30
0.0
  0
VERTEX
  5
7BA
  8
0
  6
DASHED
 62
     7
 10
2.4267167118000001
 20
6.8025583397
 30
0.0
  0
VERTEX
  5
7BB
  8
0
  6
DASHED
 62
     7
 10
2.4834292213999989
 20
6.6862638157000003
 30
0.0
  0
VERTEX
  5
7BC
  8
0
  6
DASHED
 62
     7
 10
2.5423807353000001
 20
6.5710880734000003
 30
0.0
  0
VERTEX
  5
7BD
  8
0
  6
DASHED
 62
     7
 10
2.6035491837999989
 20
6.4570742314
 30
0.0
  0
VERTEX
  5
7BE
  8
0
  6
DASHED
 62
     7
 10
2.6669116670999991
 20
6.3442649730999987
 30
0.0
  0
VERTEX
  5
7BF
  8
0
  6
DASHED
 62
     7
 10
2.7324444641999999
 20
6.2327025311000002
 30
0.0
  0
VERTEX
  5
7C0
  8
0
  6
DASHED
 62
     7
 10
2.8001230416
 20
6.1224286710999989
 30
0.0
  0
VERTEX
  5
7C1
  8
0
  6
DASHED
 62
     7
 10
2.8699220620999988
 20
6.0134846764000001
 30
0.0
  0
VERTEX
  5
7C2
  8
0
  6
DASHED
 62
     7
 10
2.941815395299999
 20
5.9059113326999988
 30
0.0
  0
VERTEX
  5
7C3
  8
0
  6
DASHED
 62
     7
 10
3.0157761262
 20
5.7997489121000001
 30
0.0
  0
VERTEX
  5
7C4
  8
0
  6
DASHED
 62
     7
 10
3.0917765660000001
 20
5.6950371588999991
 30
0.0
  0
VERTEX
  5
7C5
  8
0
  6
DASHED
 62
     7
 10
3.1697882625
 20
5.5918152741
 30
0.0
  0
VERTEX
  5
7C6
  8
0
  6
DASHED
 62
     7
 10
3.2497820102999988
 20
5.4901219010000002
 30
0.0
  0
VERTEX
  5
7C7
  8
0
  6
DASHED
 62
     7
 10
3.3317278620999988
 20
5.3899951107000001
 30
0.0
  0
VERTEX
  5
7C8
  8
0
  6
DASHED
 62
     7
 10
3.4155951395999988
 20
5.2914723876999989
 30
0.0
  0
VERTEX
  5
7C9
  8
0
  6
DASHED
 62
     7
 10
3.5013524454999998
 20
5.1945906162000002
 30
0.0
  0
VERTEX
  5
7CA
  8
0
  6
DASHED
 62
     7
 10
3.5889676745000001
 20
5.0993860658000001
 30
0.0
  0
VERTEX
  5
7CB
  8
0
  6
DASHED
 62
     7
 10
3.6784080262000001
 20
5.005894378399999
 30
0.0
  0
VERTEX
  5
7CC
  8
0
  6
DASHED
 62
     7
 10
3.7696400166999999
 20
4.914150554499999
 30
0.0
  0
SEQEND
  5
7CD
  8
0
  6
DASHED
 62
     7
  0
POLYLINE
  5
3CD
  8
0
  6
CONTINUOUS
 62
     7
 66
     1
 10
0.0
 20
0.0
 30
0.0
  0
VERTEX
  5
7CE
  8
0
  6
CONTINUOUS
 62
     7
 10
2.2547075509000001
 20
11.4082914006
 30
0.0
  0
VERTEX
  5
7CF
  8
0
  6
CONTINUOUS
 62
     7
 10
2.2558517813999992
 20
11.2333722217
 30
0.0
  0
VERTEX
  5
7D0
  8
0
  6
CONTINUOUS
 62
     7
 10
2.2592843241999989
 20
11.058484575
 30
0.0
  0
VERTEX
  5
7D1
  8
0
  6
CONTINUOUS
 62
     7
 10
2.265004596399999
 20
10.883658157499999
 30
0.0
  0
VERTEX
  5
7D2
  8
0
  6
CONTINUOUS
 62
     7
 10
2.2730116267999998
 20
10.7089226556
 30
0.0
  0
VERTEX
  5
7D3
  8
0
  6
CONTINUOUS
 62
     7
 10
2.283304055599999
 20
10.534307740399999
 30
0.0
  0
VERTEX
  5
7D4
  8
0
  6
CONTINUOUS
 62
     7
 10
2.2958801352
 20
10.3598430626
 30
0.0
  0
VERTEX
  5
7D5
  8
0
  6
CONTINUOUS
 62
     7
 10
2.3107377301000001
 20
10.185558247299999
 30
0.0
  0
VERTEX
  5
7D6
  8
0
  6
CONTINUOUS
 62
     7
 10
2.3278743173000001
 20
10.0114828891
 30
0.0
  0
VERTEX
  5
7D7
  8
0
  6
CONTINUOUS
 62
     7
 10
2.347286986999999
 20
9.8376465469000003
 30
0.0
  0
VERTEX
  5
7D8
  8
0
  6
CONTINUOUS
 62
     7
 10
2.3689724428000001
 20
9.6640787391999972
 30
0.0
  0
VERTEX
  5
7D9
  8
0
  6
CONTINUOUS
 62
     7
 10
2.3929270022999991
 20
9.4908089387000008
 30
0.0
  0
VERTEX
  5
7DA
  8
0
  6
CONTINUOUS
 62
     7
 10
2.4191465980000002
 20
9.3178665676999994
 30
0.0
  0
VERTEX
  5
7DB
  8
0
  6
CONTINUOUS
 62
     7
 10
2.4476267776
 20
9.1452809928000001
 30
0.0
  0
VERTEX
  5
7DC
  8
0
  6
CONTINUOUS
 62
     7
 10
2.478362704999999
 20
8.9730815200999992
 30
0.0
  0
VERTEX
  5
7DD
  8
0
  6
CONTINUOUS
 62
     7
 10
2.5113491611000001
 20
8.8012973899000002
 30
0.0
  0
VERTEX
  5
7DE
  8
0
  6
CONTINUOUS
 62
     7
 10
2.5465805445999998
 20
8.6299577721999992
 30
0.0
  0
VERTEX
  5
7DF
  8
0
  6
CONTINUOUS
 62
     7
 10
2.5840508729999998
 20
8.4590917615999999
 30
0.0
  0
VERTEX
  5
7E0
  8
0
  6
CONTINUOUS
 62
     7
 10
2.6237537835999998
 20
8.2887283719000013
 30
0.0
  0
SEQEND
  5
7E1
  8
0
  6
CONTINUOUS
 62
     7
  0
POLYLINE
  5
3CE
  8
0
  6
CONTINUOUS
 62
     7
 66
     1
 10
0.0
 20
0.0
 30
0.0
  0
VERTEX
  5
7E2
  8
0
  6
CONTINUOUS
 62
     7
 10
2.6237540356999989
 20
14.527848177299999
 30
0.0
  0
VERTEX
  5
7E3
  8
0
  6
CONTINUOUS
 62
     7
 10
2.5840512155000002
 20
14.357485134499999
 30
0.0
  0
VERTEX
  5
7E4
  8
0
  6
CONTINUOUS
 62
     7
 10
2.5465809511000002
 20
14.1866193808
 30
0.0
  0
VERTEX
  5
7E5
  8
0
  6
CONTINUOUS
 62
     7
 10
2.5113496087999989
 20
14.0152799456
 30
0.0
  0
VERTEX
  5
7E6
  8
0
  6
CONTINUOUS
 62
     7
 10
2.4783631741000001
 20
13.8434959389
 30
0.0
  0
VERTEX
  5
7E7
  8
0
  6
CONTINUOUS
 62
     7
 10
2.4476272513000001
 20
13.671296546100001
 30
0.0
  0
VERTEX
  5
7E8
  8
0
  6
CONTINUOUS
 62
     7
 10
2.4191470623999991
 20
13.4987110234
 30
0.0
  0
VERTEX
  5
7E9
  8
0
  6
CONTINUOUS
 62
     7
 10
2.3929274460999999
 20
13.3257686923
 30
0.0
  0
VERTEX
  5
7EA
  8
0
  6
CONTINUOUS
 62
     7
 10
2.3689728569000001
 20
13.152498935200001
 30
0.0
  0
VERTEX
  5
7EB
  8
0
  6
CONTINUOUS
 62
     7
 10
2.3472873646000001
 20
12.978931190000001
 30
0.0
  0
VERTEX
  5
7EC
  8
0
  6
CONTINUOUS
 62
     7
 10
2.3278746535999999
 20
12.8050949452
 30
0.0
  0
VERTEX
  5
7ED
  8
0
  6
CONTINUOUS
 62
     7
 10
2.3107380219999989
 20
12.631019735000001
 30
0.0
  0
VERTEX
  5
7EE
  8
0
  6
CONTINUOUS
 62
     7
 10
2.295880381199999
 20
12.456735134100001
 30
0.0
  0
VERTEX
  5
7EF
  8
0
  6
CONTINUOUS
 62
     7
 10
2.2833042555
 20
12.282270752900001
 30
0.0
  0
VERTEX
  5
7F0
  8
0
  6
CONTINUOUS
 62
     7
 10
2.2730117816000002
 20
12.1076562322
 30
0.0
  0
VERTEX
  5
7F1
  8
0
  6
CONTINUOUS
 62
     7
 10
2.2650047081000002
 20
11.932921238400001
 30
0.0
  0
VERTEX
  5
7F2
  8
0
  6
CONTINUOUS
 62
     7
 10
2.259284395299999
 20
11.7580954585
 30
0.0
  0
VERTEX
  5
7F3
  8
0
  6
CONTINUOUS
 62
     7
 10
2.2558518152000002
 20
11.5832085945
 30
0.0
  0
VERTEX
  5
7F4
  8
0
  6
CONTINUOUS
 62
     7
 10
2.2547075509000001
 20
11.4082903593
 30
0.0
  0
SEQEND
  5
7F5
  8
0
  6
CONTINUOUS
 62
     7
  0
POLYLINE
  5
3CF
  8
0
  6
DASHED
 62
     7
 66
     1
 10
0.0
 20
0.0
 30
0.0
  0
VERTEX
  5
7F6
  8
0
  6
DASHED
 62
     7
 10
4.3415209900000002
 20
18.8672576437
 30
0.0
  0
VERTEX
  5
7F7
  8
0
  6
DASHED
 62
     7
 10
4.317823784899999
 20
18.8425294229
 30
0.0
  0
VERTEX
  5
7F8
  8
0
  6
DASHED
 62
     7
 10
4.2958769516000004
 20
18.816238826100001
 30
0.0
  0
VERTEX
  5
7F9
  8
0
  6
DASHED
 62
     7
 10
4.275783088599999
 20
18.788508758399999
 30
0.0
  0
VERTEX
  5
7FA
  8
0
  6
DASHED
 62
     7
 10
4.257636132
 20
18.759468854000001
 30
0.0
  0
VERTEX
  5
7FB
  8
0
  6
DASHED
 62
     7
 10
4.2415209162999989
 20
18.729254870599998
 30
0.0
  0
VERTEX
  5
7FC
  8
0
  6
DASHED
 62
     7
 10
4.2275127780000004
 20
18.698008054300001
 30
0.0
  0
VERTEX
  5
7FD
  8
0
  6
DASHED
 62
     7
 10
4.2156772032000003
 20
18.665874479900001
 30
0.0
  0
VERTEX
  5
7FE
  8
0
  6
DASHED
 62
     7
 10
4.206069521699999
 20
18.6330043673
 30
0.0
  0
VERTEX
  5
7FF
  8
0
  6
DASHED
 62
     7
 10
4.1987346479000003
 20
18.599551379899999
 30
0.0
  0
SEQEND
  5
800
  8
0
  6
DASHED
 62
     7
  0
POLYLINE
  5
3D0
  8
0
  6
DASHED
 62
     7
 66
     1
 10
0.0
 20
0.0
 30
0.0
  0
VERTEX
  5
801
  8
0
  6
DASHED
 62
     7
 10
3.7696355657999989
 20
17.902418646600001
 30
0.0
  0
VERTEX
  5
802
  8
0
  6
DASHED
 62
     7
 10
3.6784026041
 20
17.810673577999999
 30
0.0
  0
VERTEX
  5
803
  8
0
  6
DASHED
 62
     7
 10
3.5889614796
 20
17.717180902900001
 30
0.0
  0
VERTEX
  5
804
  8
0
  6
DASHED
 62
     7
 10
3.5013456607999989
 20
17.621975605799999
 30
0.0
  0
VERTEX
  5
805
  8
0
  6
DASHED
 62
     7
 10
3.415587933199999
 20
17.525093312199999
 30
0.0
  0
VERTEX
  5
806
  8
0
  6
DASHED
 62
     7
 10
3.331720386999999
 20
17.426570275
 30
0.0
  0
VERTEX
  5
807
  8
0
  6
DASHED
 62
     7
 10
3.2497744051999988
 20
17.326443361300001
 30
0.0
  0
VERTEX
  5
808
  8
0
  6
DASHED
 62
     7
 10
3.1697806516
 20
17.224750038100002
 30
0.0
  0
VERTEX
  5
809
  8
0
  6
DASHED
 62
     7
 10
3.0917690594999989
 20
17.121528358599999
 30
0.0
  0
VERTEX
  5
80A
  8
0
  6
DASHED
 62
     7
 10
3.0157688206999991
 20
17.016816948100001
 30
0.0
  0
VERTEX
  5
80B
  8
0
  6
DASHED
 62
     7
 10
2.9418083739999989
 20
16.910654989099999
 30
0.0
  0
VERTEX
  5
80C
  8
0
  6
DASHED
 62
     7
 10
2.8699153952999992
 20
16.803082206999999
 30
0.0
  0
VERTEX
  5
80D
  8
0
  6
DASHED
 62
     7
 10
2.800116786499999
 20
16.694138855199999
 30
0.0
  0
VERTEX
  5
80E
  8
0
  6
DASHED
 62
     7
 10
2.7324386662000002
 20
16.5838656998
 30
0.0
  0
VERTEX
  5
80F
  8
0
  6
DASHED
 62
     7
 10
2.6669063589999991
 20
16.4723040047
 30
0.0
  0
VERTEX
  5
810
  8
0
  6
DASHED
 62
     7
 10
2.603544387099999
 20
16.359495515700001
 30
0.0
  0
VERTEX
  5
811
  8
0
  6
DASHED
 62
     7
 10
2.5423764601999999
 20
16.2454824454
 30
0.0
  0
VERTEX
  5
812
  8
0
  6
DASHED
 62
     7
 10
2.4834254671
 20
16.130307457099999
 30
0.0
  0
VERTEX
  5
813
  8
0
  6
DASHED
 62
     7
 10
2.426713466999999
 20
16.014013648700001
 30
0.0
  0
VERTEX
  5
814
  8
0
  6
DASHED
 62
     7
 10
2.372261681399999
 20
15.896644537
 30
0.0
  0
VERTEX
  5
815
  8
0
  6
DASHED
 62
     7
 10
2.3200904859000002
 20
15.778244041000001
 30
0.0
  0
VERTEX
  5
816
  8
0
  6
DASHED
 62
     7
 10
2.2702194026999991
 20
15.6588564658
 30
0.0
  0
VERTEX
  5
817
  8
0
  6
DASHED
 62
     7
 10
2.2226670935000001
 20
15.5385264858
 30
0.0
  0
VERTEX
  5
818
  8
0
  6
DASHED
 62
     7
 10
2.1774513520999998
 20
15.4172991278
 30
0.0
  0
VERTEX
  5
819
  8
0
  6
DASHED
 62
     7
 10
2.1345890980000002
 20
15.2952197549
 30
0.0
  0
VERTEX
  5
81A
  8
0
  6
DASHED
 62
     7
 10
2.0940963702999991
 20
15.1723340485
 30
0.0
  0
VERTEX
  5
81B
  8
0
  6
DASHED
 62
     7
 10
2.0559883210000001
 20
15.048687992
 30
0.0
  0
VERTEX
  5
81C
  8
0
  6
DASHED
 62
     7
 10
2.0202792101
 20
14.924327853399999
 30
0.0
  0
VERTEX
  5
81D
  8
0
  6
DASHED
 62
     7
 10
1.9869823997999989
 20
14.7993001677
 30
0.0
  0
VERTEX
  5
81E
  8
0
  6
DASHED
 62
     7
 10
1.9561103497000001
 20
14.6736517198
 30
0.0
  0
SEQEND
  5
81F
  8
0
  6
DASHED
 62
     7
  0
POLYLINE
  5
3D1
  8
0
  6
CONTINUOUS
 62
     7
 66
     1
 10
0.0
 20
0.0
 30
0.0
  0
VERTEX
  5
820
  8
0
  6
CONTINUOUS
 62
     7
 10
2.6243669287000002
 20
8.2861490851999982
 30
0.0
  0
VERTEX
  5
821
  8
0
  6
CONTINUOUS
 62
     7
 10
2.653395270599999
 20
8.1681805465000004
 30
0.0
  0
VERTEX
  5
822
  8
0
  6
CONTINUOUS
 62
     7
 10
2.6847811222999991
 20
8.0508175849000008
 30
0.0
  0
VERTEX
  5
823
  8
0
  6
CONTINUOUS
 62
     7
 10
2.718511890799999
 20
7.9341072902000001
 30
0.0
  0
VERTEX
  5
824
  8
0
  6
CONTINUOUS
 62
     7
 10
2.7545740422999998
 20
7.8180964903999994
 30
0.0
  0
VERTEX
  5
825
  8
0
  6
CONTINUOUS
 62
     7
 10
2.7929531074999989
 20
7.7028317325999991
 30
0.0
  0
VERTEX
  5
826
  8
0
  6
CONTINUOUS
 62
     7
 10
2.833633687399999
 20
7.5883592648000002
 30
0.0
  0
VERTEX
  5
827
  8
0
  6
CONTINUOUS
 62
     7
 10
2.8765994597999991
 20
7.4747250170999999
 30
0.0
  0
VERTEX
  5
828
  8
0
  6
CONTINUOUS
 62
     7
 10
2.9218331851999988
 20
7.3619745832000003
 30
0.0
  0
VERTEX
  5
829
  8
0
  6
CONTINUOUS
 62
     7
 10
2.9693167147000001
 20
7.2501532020999999
 30
0.0
  0
VERTEX
  5
82A
  8
0
  6
CONTINUOUS
 62
     7
 10
3.0190309961000001
 20
7.1393057402999993
 30
0.0
  0
VERTEX
  5
82B
  8
0
  6
CONTINUOUS
 62
     7
 10
3.0709560825999991
 20
7.0294766731999996
 30
0.0
  0
VERTEX
  5
82C
  8
0
  6
CONTINUOUS
 62
     7
 10
3.1250711400000002
 20
6.9207100677999991
 30
0.0
  0
VERTEX
  5
82D
  8
0
  6
CONTINUOUS
 62
     7
 10
3.1813544557999989
 20
6.8130495649
 30
0.0
  0
VERTEX
  5
82E
  8
0
  6
CONTINUOUS
 62
     7
 10
3.2397834472999998
 20
6.7065383610999989
 30
0.0
  0
VERTEX
  5
82F
  8
0
  6
CONTINUOUS
 62
     7
 10
3.300334670799999
 20
6.6012191924000003
 30
0.0
  0
VERTEX
  5
830
  8
0
  6
CONTINUOUS
 62
     7
 10
3.3629838312999989
 20
6.4971343160000004
 30
0.0
  0
VERTEX
  5
831
  8
0
  6
CONTINUOUS
 62
     7
 10
3.4277057917999998
 20
6.3943254942999994
 30
0.0
  0
VERTEX
  5
832
  8
0
  6
CONTINUOUS
 62
     7
 10
3.4944745838999989
 20
6.2928339773999991
 30
0.0
  0
VERTEX
  5
833
  8
0
  6
CONTINUOUS
 62
     7
 10
3.5632634177999991
 20
6.1927004868999997
 30
0.0
  0
VERTEX
  5
834
  8
0
  6
CONTINUOUS
 62
     7
 10
3.634044693199999
 20
6.0939651997000004
 30
0.0
  0
VERTEX
  5
835
  8
0
  6
CONTINUOUS
 62
     7
 10
3.7067900102999989
 20
5.9966677315999988
 30
0.0
  0
VERTEX
  5
836
  8
0
  6
CONTINUOUS
 62
     7
 10
3.7814701814
 20
5.9008471212999991
 30
0.0
  0
VERTEX
  5
837
  8
0
  6
CONTINUOUS
 62
     7
 10
3.858055242499999
 20
5.8065418152000001
 30
0.0
  0
VERTEX
  5
838
  8
0
  6
CONTINUOUS
 62
     7
 10
3.9365144650000001
 20
5.7137896516999991
 30
0.0
  0
VERTEX
  5
839
  8
0
  6
CONTINUOUS
 62
     7
 10
4.0168163687999989
 20
5.6226278459000003
 30
0.0
  0
VERTEX
  5
83A
  8
0
  6
CONTINUOUS
 62
     7
 10
4.0989287339000002
 20
5.5330929747999997
 30
0.0
  0
VERTEX
  5
83B
  8
0
  6
CONTINUOUS
 62
     7
 10
4.1828186144000004
 20
5.4452209626999988
 30
0.0
  0
VERTEX
  5
83C
  8
0
  6
CONTINUOUS
 62
     7
 10
4.2684523508999987
 20
5.3590470666999996
 30
0.0
  0
SEQEND
  5
83D
  8
0
  6
CONTINUOUS
 62
     7
  0
POLYLINE
  5
3D2
  8
0
  6
CONTINUOUS
 62
     7
 66
     1
 10
0.0
 20
0.0
 30
0.0
  0
VERTEX
  5
83E
  8
0
  6
CONTINUOUS
 62
     7
 10
4.2684505482999988
 20
17.457530468600002
 30
0.0
  0
VERTEX
  5
83F
  8
0
  6
CONTINUOUS
 62
     7
 10
4.182817632399999
 20
17.371357307699999
 30
0.0
  0
VERTEX
  5
840
  8
0
  6
CONTINUOUS
 62
     7
 10
4.098928461699999
 20
17.2834859158
 30
0.0
  0
VERTEX
  5
841
  8
0
  6
CONTINUOUS
 62
     7
 10
4.0168167033999991
 20
17.193951557999998
 30
0.0
  0
VERTEX
  5
842
  8
0
  6
CONTINUOUS
 62
     7
 10
3.9365153110999991
 20
17.1027901671
 30
0.0
  0
VERTEX
  5
843
  8
0
  6
CONTINUOUS
 62
     7
 10
3.8580565120999988
 20
17.010038328699999
 30
0.0
  0
VERTEX
  5
844
  8
0
  6
CONTINUOUS
 62
     7
 10
3.7814717940999998
 20
16.915733266699998
 30
0.0
  0
VERTEX
  5
845
  8
0
  6
CONTINUOUS
 62
     7
 10
3.7067918927999992
 20
16.8199128284
 30
0.0
  0
VERTEX
  5
846
  8
0
  6
CONTINUOUS
 62
     7
 10
3.6340467792000002
 20
16.722615469099999
 30
0.0
  0
VERTEX
  5
847
  8
0
  6
CONTINUOUS
 62
     7
 10
3.5632656479999998
 20
16.623880237200002
 30
0.0
  0
VERTEX
  5
848
  8
0
  6
CONTINUOUS
 62
     7
 10
3.4944769057
 20
16.5237467577
 30
0.0
  0
VERTEX
  5
849
  8
0
  6
CONTINUOUS
 62
     7
 10
3.4277081591999998
 20
16.4222552172
 30
0.0
  0
VERTEX
  5
84A
  8
0
  6
CONTINUOUS
 62
     7
 10
3.362986204599999
 20
16.319446347
 30
0.0
  0
VERTEX
  5
84B
  8
0
  6
CONTINUOUS
 62
     7
 10
3.3003370166999999
 20
16.2153614072
 30
0.0
  0
VERTEX
  5
84C
  8
0
  6
CONTINUOUS
 62
     7
 10
3.2397857382999988
 20
16.11004217
 30
0.0
  0
VERTEX
  5
84D
  8
0
  6
CONTINUOUS
 62
     7
 10
3.1813566704
 20
16.003530903000001
 30
0.0
  0
VERTEX
  5
84E
  8
0
  6
CONTINUOUS
 62
     7
 10
3.1250732621999999
 20
15.895870352099999
 30
0.0
  0
VERTEX
  5
84F
  8
0
  6
CONTINUOUS
 62
     7
 10
3.0709581019000001
 20
15.7871037246
 30
0.0
  0
VERTEX
  5
850
  8
0
  6
CONTINUOUS
 62
     7
 10
3.0190329073000002
 20
15.677274671599999
 30
0.0
  0
VERTEX
  5
851
  8
0
  6
CONTINUOUS
 62
     7
 10
2.9693185174999992
 20
15.5664272706
 30
0.0
  0
VERTEX
  5
852
  8
0
  6
CONTINUOUS
 62
     7
 10
2.921834884299999
 20
15.454606007800001
 30
0.0
  0
VERTEX
  5
853
  8
0
  6
CONTINUOUS
 62
     7
 10
2.8766010641999991
 20
15.3418557601
 30
0.0
  0
VERTEX
  5
854
  8
0
  6
CONTINUOUS
 62
     7
 10
2.8336352108999989
 20
15.2282217774
 30
0.0
  0
VERTEX
  5
855
  8
0
  6
CONTINUOUS
 62
     7
 10
2.7929545675999989
 20
15.1137496643
 30
0.0
  0
VERTEX
  5
856
  8
0
  6
CONTINUOUS
 62
     7
 10
2.754575460799999
 20
14.9984853616
 30
0.0
  0
VERTEX
  5
857
  8
0
  6
CONTINUOUS
 62
     7
 10
2.7185132929999991
 20
14.882475128099999
 30
0.0
  0
VERTEX
  5
858
  8
0
  6
CONTINUOUS
 62
     7
 10
2.6847825368999989
 20
14.765765522000001
 30
0.0
  0
VERTEX
  5
859
  8
0
  6
CONTINUOUS
 62
     7
 10
2.653396729799999
 20
14.6484033822
 30
0.0
  0
VERTEX
  5
85A
  8
0
  6
CONTINUOUS
 62
     7
 10
2.6243684675000001
 20
14.5304358094
 30
0.0
  0
SEQEND
  5
85B
  8
0
  6
CONTINUOUS
 62
     7
  0
POLYLINE
  5
3D3
  8
0
  6
DASHED
 62
     7
 66
     1
 10
0.0
 20
0.0
 30
0.0
  0
VERTEX
  5
85C
  8
0
  6
DASHED
 62
     7
 10
3.7696358589999992
 20
17.902419055399999
 30
0.0
  0
VERTEX
  5
85D
  8
0
  6
DASHED
 62
     7
 10
3.8129439377999992
 20
17.940689663699999
 30
0.0
  0
VERTEX
  5
85E
  8
0
  6
DASHED
 62
     7
 10
3.8544059263000001
 20
17.9804456898
 30
0.0
  0
VERTEX
  5
85F
  8
0
  6
DASHED
 62
     7
 10
3.8939529885000002
 20
18.0216211298
 30
0.0
  0
VERTEX
  5
860
  8
0
  6
DASHED
 62
     7
 10
3.9315194674999989
 20
18.064147623499998
 30
0.0
  0
VERTEX
  5
861
  8
0
  6
DASHED
 62
     7
 10
3.9670429946999999
 20
18.107954567299998
 30
0.0
  0
VERTEX
  5
862
  8
0
  6
DASHED
 62
     7
 10
4.0004645931000002
 20
18.152969232
 30
0.0
  0
VERTEX
  5
863
  8
0
  6
DASHED
 62
     7
 10
4.0317287754000004
 20
18.199116883399999
 30
0.0
  0
VERTEX
  5
864
  8
0
  6
DASHED
 62
     7
 10
4.0607836362
 20
18.246320906099999
 30
0.0
  0
VERTEX
  5
865
  8
0
  6
DASHED
 62
     7
 10
4.0875809380000003
 20
18.294502931
 30
0.0
  0
VERTEX
  5
866
  8
0
  6
DASHED
 62
     7
 10
4.112076191299999
 20
18.3435829652
 30
0.0
  0
VERTEX
  5
867
  8
0
  6
DASHED
 62
     7
 10
4.1342287286000001
 20
18.393479525099998
 30
0.0
  0
VERTEX
  5
868
  8
0
  6
DASHED
 62
     7
 10
4.1540017716999991
 20
18.444109771200001
 30
0.0
  0
VERTEX
  5
869
  8
0
  6
DASHED
 62
     7
 10
4.1713624931000002
 20
18.495389646099991
 30
0.0
  0
VERTEX
  5
86A
  8
0
  6
DASHED
 62
     7
 10
4.186282069999999
 20
18.547234014000001
 30
0.0
  0
VERTEX
  5
86B
  8
0
  6
DASHED
 62
     7
 10
4.1987357326999986
 20
18.599556801599999
 30
0.0
  0
SEQEND
  5
86C
  8
0
  6
DASHED
 62
     7
  0
POLYLINE
  5
3D4
  8
0
  6
DASHED
 62
     7
 66
     1
 10
0.0
 20
0.0
 30
0.0
  0
VERTEX
  5
86D
  8
0
  6
DASHED
 62
     7
 10
5.1882849513
 20
19.497751554400001
 30
0.0
  0
VERTEX
  5
86E
  8
0
  6
DASHED
 62
     7
 10
5.1047410105999989
 20
19.449955124300001
 30
0.0
  0
VERTEX
  5
86F
  8
0
  6
DASHED
 62
     7
 10
5.0223716501000002
 20
19.400161350299999
 30
0.0
  0
VERTEX
  5
870
  8
0
  6
DASHED
 62
     7
 10
4.9412245302999986
 20
19.348399043899999
 30
0.0
  0
VERTEX
  5
871
  8
0
  6
DASHED
 62
     7
 10
4.8613466044999987
 20
19.294698155799999
 30
0.0
  0
VERTEX
  5
872
  8
0
  6
DASHED
 62
     7
 10
4.7827840917999991
 20
19.239089758599999
 30
0.0
  0
VERTEX
  5
873
  8
0
  6
DASHED
 62
     7
 10
4.7055824498999996
 20
19.181606028299999
 30
0.0
  0
VERTEX
  5
874
  8
0
  6
DASHED
 62
     7
 10
4.6297863492999989
 20
19.122280226099999
 30
0.0
  0
VERTEX
  5
875
  8
0
  6
DASHED
 62
     7
 10
4.5554396471
 20
19.061146679099998
 30
0.0
  0
VERTEX
  5
876
  8
0
  6
DASHED
 62
     7
 10
4.4825853616999991
 20
18.9982407605
 30
0.0
  0
VERTEX
  5
877
  8
0
  6
DASHED
 62
     7
 10
4.4112656481999988
 20
18.933598868800001
 30
0.0
  0
VERTEX
  5
878
  8
0
  6
DASHED
 62
     7
 10
4.3415217735000002
 20
18.8672584071
 30
0.0
  0
SEQEND
  5
879
  8
0
  6
DASHED
 62
     7
  0
POLYLINE
  5
3D5
  8
0
  6
DASHED
 62
     7
 66
     1
 10
0.0
 20
0.0
 30
0.0
  0
VERTEX
  5
87A
  8
0
  6
DASHED
 62
     7
 10
6.2133103922000004
 20
2.8989137075000002
 30
0.0
  0
VERTEX
  5
87B
  8
0
  6
DASHED
 62
     7
 10
6.1840362319000004
 20
2.9238720898000001
 30
0.0
  0
VERTEX
  5
87C
  8
0
  6
DASHED
 62
     7
 10
6.1538693834
 20
2.9486478726000001
 30
0.0
  0
VERTEX
  5
87D
  8
0
  6
DASHED
 62
     7
 10
6.1229376114999994
 20
2.9731361236999998
 30
0.0
  0
VERTEX
  5
87E
  8
0
  6
DASHED
 62
     7
 10
6.0913719207000003
 20
2.9972331287999991
 30
0.0
  0
VERTEX
  5
87F
  8
0
  6
DASHED
 62
     7
 10
6.0593060002999994
 20
3.0208368304999991
 30
0.0
  0
VERTEX
  5
880
  8
0
  6
DASHED
 62
     7
 10
6.0268756579999989
 20
3.0438472607999989
 30
0.0
  0
VERTEX
  5
881
  8
0
  6
DASHED
 62
     7
 10
5.994218245199999
 20
3.0661669642999998
 30
0.0
  0
VERTEX
  5
882
  8
0
  6
DASHED
 62
     7
 10
5.9614720748999996
 20
3.0877014108999989
 30
0.0
  0
VERTEX
  5
883
  8
0
  6
DASHED
 62
     7
 10
5.9287758358999998
 20
3.1083593964
 30
0.0
  0
VERTEX
  5
884
  8
0
  6
DASHED
 62
     7
 10
5.8962680057999997
 20
3.128053428699999
 30
0.0
  0
VERTEX
  5
885
  8
0
  6
DASHED
 62
     7
 10
5.8640862638999991
 20
3.1467000981999989
 30
0.0
  0
VERTEX
  5
886
  8
0
  6
DASHED
 62
     7
 10
5.8323669087000001
 20
3.1642204311999991
 30
0.0
  0
VERTEX
  5
887
  8
0
  6
DASHED
 62
     7
 10
5.8012442802999988
 20
3.1805402244000001
 30
0.0
  0
VERTEX
  5
888
  8
0
  6
DASHED
 62
     7
 10
5.7708501913000001
 20
3.1955903588999992
 30
0.0
  0
VERTEX
  5
889
  8
0
  6
DASHED
 62
     7
 10
5.7413133690999993
 20
3.2093070935000001
 30
0.0
  0
VERTEX
  5
88A
  8
0
  6
DASHED
 62
     7
 10
5.7127589098999989
 20
3.2216323339999988
 30
0.0
  0
VERTEX
  5
88B
  8
0
  6
DASHED
 62
     7
 10
5.6853077497999989
 20
3.2325138796999999
 30
0.0
  0
VERTEX
  5
88C
  8
0
  6
DASHED
 62
     7
 10
5.6590761518999999
 20
3.2419056443000001
 30
0.0
  0
VERTEX
  5
88D
  8
0
  6
DASHED
 62
     7
 10
5.634175213899999
 20
3.2497678512000001
 30
0.0
  0
VERTEX
  5
88E
  8
0
  6
DASHED
 62
     7
 10
5.6107103983000002
 20
3.2560672016000001
 30
0.0
  0
VERTEX
  5
88F
  8
0
  6
DASHED
 62
     7
 10
5.588781084699999
 20
3.2607770163000001
 30
0.0
  0
VERTEX
  5
890
  8
0
  6
DASHED
 62
     7
 10
5.5684801498000001
 20
3.2638773477999989
 30
0.0
  0
VERTEX
  5
891
  8
0
  6
DASHED
 62
     7
 10
5.5498935736000004
 20
3.2653550655000001
 30
0.0
  0
VERTEX
  5
892
  8
0
  6
DASHED
 62
     7
 10
5.5331000753000001
 20
3.265203910699999
 30
0.0
  0
VERTEX
  5
893
  8
0
  6
DASHED
 62
     7
 10
5.5181707798000001
 20
3.2634245235999999
 30
0.0
  0
SEQEND
  5
894
  8
0
  6
DASHED
 62
     7
  0
POLYLINE
  5
3D6
  8
0
  6
DASHED
 62
     7
 66
     1
 10
0.0
 20
0.0
 30
0.0
  0
VERTEX
  5
895
  8
0
  6
DASHED
 62
     7
 10
4.3415174529999989
 20
3.949321301299999
 30
0.0
  0
VERTEX
  5
896
  8
0
  6
DASHED
 62
     7
 10
4.4112660359999998
 20
3.8829758808999988
 30
0.0
  0
VERTEX
  5
897
  8
0
  6
DASHED
 62
     7
 10
4.482586895199999
 20
3.8183322310999999
 30
0.0
  0
VERTEX
  5
898
  8
0
  6
DASHED
 62
     7
 10
4.5554396222999989
 20
3.755426976899999
 30
0.0
  0
VERTEX
  5
899
  8
0
  6
DASHED
 62
     7
 10
4.6297829411000002
 20
3.6942957587
 30
0.0
  0
VERTEX
  5
89A
  8
0
  6
DASHED
 62
     7
 10
4.7055747310999996
 20
3.6349732114999989
 30
0.0
  0
VERTEX
  5
89B
  8
0
  6
DASHED
 62
     7
 10
4.7827720508999993
 20
3.5774929454999991
 30
0.0
  0
VERTEX
  5
89C
  8
0
  6
DASHED
 62
     7
 10
4.8613311629
 20
3.5218875275000001
 30
0.0
  0
VERTEX
  5
89D
  8
0
  6
DASHED
 62
     7
 10
4.9412075579000003
 20
3.4681884616
 30
0.0
  0
VERTEX
  5
89E
  8
0
  6
DASHED
 62
     7
 10
5.0223559802999986
 20
3.4164261722
 30
0.0
  0
VERTEX
  5
89F
  8
0
  6
DASHED
 62
     7
 10
5.1047304539999994
 20
3.3666299861999991
 30
0.0
  0
VERTEX
  5
8A0
  8
0
  6
DASHED
 62
     7
 10
5.1882843081000001
 20
3.3188281166000002
 30
0.0
  0
SEQEND
  5
8A1
  8
0
  6
DASHED
 62
     7
  0
POLYLINE
  5
3D7
  8
0
  6
CONTINUOUS
 62
     7
 66
     1
 10
0.0
 20
0.0
 30
0.0
  0
VERTEX
  5
8A2
  8
0
  6
CONTINUOUS
 62
     7
 10
4.268451688899999
 20
5.3590479380999989
 30
0.0
  0
VERTEX
  5
8A3
  8
0
  6
CONTINUOUS
 62
     7
 10
4.3481200005999989
 20
5.265871677899999
 30
0.0
  0
VERTEX
  5
8A4
  8
0
  6
CONTINUOUS
 62
     7
 10
4.4296866004000002
 20
5.1743526718000004
 30
0.0
  0
VERTEX
  5
8A5
  8
0
  6
CONTINUOUS
 62
     7
 10
4.5131170256999988
 20
5.0845295872999996
 30
0.0
  0
VERTEX
  5
8A6
  8
0
  6
CONTINUOUS
 62
     7
 10
4.5983760266000004
 20
4.9964403753999997
 30
0.0
  0
VERTEX
  5
8A7
  8
0
  6
CONTINUOUS
 62
     7
 10
4.685427580399999
 20
4.9101222545000001
 30
0.0
  0
VERTEX
  5
8A8
  8
0
  6
CONTINUOUS
 62
     7
 10
4.7742349069000003
 20
4.8256116948000001
 30
0.0
  0
VERTEX
  5
8A9
  8
0
  6
CONTINUOUS
 62
     7
 10
4.8647604844999988
 20
4.7429444026000001
 30
0.0
  0
VERTEX
  5
8AA
  8
0
  6
CONTINUOUS
 62
     7
 10
4.9569660651999987
 20
4.6621553056999989
 30
0.0
  0
VERTEX
  5
8AB
  8
0
  6
CONTINUOUS
 62
     7
 10
5.0508126915
 20
4.5832785380000001
 30
0.0
  0
VERTEX
  5
8AC
  8
0
  6
CONTINUOUS
 62
     7
 10
5.1462607124000002
 20
4.5063474256999987
 30
0.0
  0
VERTEX
  5
8AD
  8
0
  6
CONTINUOUS
 62
     7
 10
5.2432698002000002
 20
4.4313944728000001
 30
0.0
  0
VERTEX
  5
8AE
  8
0
  6
CONTINUOUS
 62
     7
 10
5.3417989677999991
 20
4.3584513475999991
 30
0.0
  0
VERTEX
  5
8AF
  8
0
  6
CONTINUOUS
 62
     7
 10
5.4418065859000002
 20
4.2875488692000001
 30
0.0
  0
VERTEX
  5
8B0
  8
0
  6
CONTINUOUS
 62
     7
 10
5.5432504002999989
 20
4.2187169944000003
 30
0.0
  0
VERTEX
  5
8B1
  8
0
  6
CONTINUOUS
 62
     7
 10
5.646087550099999
 20
4.1519848052999988
 30
0.0
  0
VERTEX
  5
8B2
  8
0
  6
CONTINUOUS
 62
     7
 10
5.7502745858999997
 20
4.0873804967999989
 30
0.0
  0
VERTEX
  5
8B3
  8
0
  6
CONTINUOUS
 62
     7
 10
5.8557674877999988
 20
4.0249313647999996
 30
0.0
  0
VERTEX
  5
8B4
  8
0
  6
CONTINUOUS
 62
     7
 10
5.9625216839999986
 20
3.964663794499999
 30
0.0
  0
VERTEX
  5
8B5
  8
0
  6
CONTINUOUS
 62
     7
 10
6.0704920700000002
 20
3.9066032494999989
 30
0.0
  0
VERTEX
  5
8B6
  8
0
  6
CONTINUOUS
 62
     7
 10
6.1796330275000004
 20
3.8507742610000002
 30
0.0
  0
VERTEX
  5
8B7
  8
0
  6
CONTINUOUS
 62
     7
 10
6.2898984435000003
 20
3.7972004169999991
 30
0.0
  0
VERTEX
  5
8B8
  8
0
  6
CONTINUOUS
 62
     7
 10
6.4012417297999997
 20
3.7459043529999998
 30
0.0
  0
VERTEX
  5
8B9
  8
0
  6
CONTINUOUS
 62
     7
 10
6.5136158430999993
 20
3.6969077420000001
 30
0.0
  0
SEQEND
  5
8BA
  8
0
  6
CONTINUOUS
 62
     7
  0
POLYLINE
  5
3D8
  8
0
  6
DASHED
 62
     7
 66
     1
 10
0.0
 20
0.0
 30
0.0
  0
VERTEX
  5
8BB
  8
0
  6
DASHED
 62
     7
 10
4.1987346441999991
 20
4.2170257040000001
 30
0.0
  0
VERTEX
  5
8BC
  8
0
  6
DASHED
 62
     7
 10
4.1862805428999996
 20
4.269349716899999
 30
0.0
  0
VERTEX
  5
8BD
  8
0
  6
DASHED
 62
     7
 10
4.1713607975000002
 20
4.3211945551999991
 30
0.0
  0
VERTEX
  5
8BE
  8
0
  6
DASHED
 62
     7
 10
4.1540001419000001
 20
4.3724742702999988
 30
0.0
  0
VERTEX
  5
8BF
  8
0
  6
DASHED
 62
     7
 10
4.1342273566000003
 20
4.4231038508999987
 30
0.0
  0
VERTEX
  5
8C0
  8
0
  6
DASHED
 62
     7
 10
4.1120752209999996
 20
4.4729993631999987
 30
0.0
  0
VERTEX
  5
8C1
  8
0
  6
DASHED
 62
     7
 10
4.0875804587999989
 20
4.5220780903999991
 30
0.0
  0
VERTEX
  5
8C2
  8
0
  6
DASHED
 62
     7
 10
4.060783677499999
 20
4.5702586698000003
 30
0.0
  0
VERTEX
  5
8C3
  8
0
  6
DASHED
 62
     7
 10
4.0317293007000004
 20
4.6174612276999989
 30
0.0
  0
VERTEX
  5
8C4
  8
0
  6
DASHED
 62
     7
 10
4.0004654948000002
 20
4.6636075117000004
 30
0.0
  0
VERTEX
  5
8C5
  8
0
  6
DASHED
 62
     7
 10
3.9670440889999989
 20
4.708621020399999
 30
0.0
  0
VERTEX
  5
8C6
  8
0
  6
DASHED
 62
     7
 10
3.9315204892
 20
4.7524271304000001
 30
0.0
  0
VERTEX
  5
8C7
  8
0
  6
DASHED
 62
     7
 10
3.893953586399999
 20
4.7949532201
 30
0.0
  0
VERTEX
  5
8C8
  8
0
  6
DASHED
 62
     7
 10
3.8544056591999998
 20
4.8361287897
 30
0.0
  0
VERTEX
  5
8C9
  8
0
  6
DASHED
 62
     7
 10
3.8129422699000002
 20
4.8758855782000001
 30
0.0
  0
VERTEX
  5
8CA
  8
0
  6
DASHED
 62
     7
 10
3.7696321567000002
 20
4.9141576769000004
 30
0.0
  0
SEQEND
  5
8CB
  8
0
  6
DASHED
 62
     7
  0
POLYLINE
  5
3D9
  8
0
  6
DASHED
 62
     7
 66
     1
 10
0.0
 20
0.0
 30
0.0
  0
VERTEX
  5
8CC
  8
0
  6
DASHED
 62
     7
 10
4.1987353243000003
 20
4.2170223421999991
 30
0.0
  0
VERTEX
  5
8CD
  8
0
  6
DASHED
 62
     7
 10
4.2060703964999986
 20
4.183569295199999
 30
0.0
  0
VERTEX
  5
8CE
  8
0
  6
DASHED
 62
     7
 10
4.2156779963000002
 20
4.1506995795999986
 30
0.0
  0
VERTEX
  5
8CF
  8
0
  6
DASHED
 62
     7
 10
4.2275132491000003
 20
4.1185667217999988
 30
0.0
  0
VERTEX
  5
8D0
  8
0
  6
DASHED
 62
     7
 10
4.2415208752999991
 20
4.0873208063000002
 30
0.0
  0
VERTEX
  5
8D1
  8
0
  6
DASHED
 62
     7
 10
4.2576354487000003
 20
4.0571077750000004
 30
0.0
  0
VERTEX
  5
8D2
  8
0
  6
DASHED
 62
     7
 10
4.2757817021999998
 20
4.0280687456999988
 30
0.0
  0
VERTEX
  5
8D3
  8
0
  6
DASHED
 62
     7
 10
4.2958748791000003
 20
4.0003393523000002
 30
0.0
  0
VERTEX
  5
8D4
  8
0
  6
DASHED
 62
     7
 10
4.3178211292000004
 20
3.974049111999999
 30
0.0
  0
VERTEX
  5
8D5
  8
0
  6
DASHED
 62
     7
 10
4.3415179468999989
 20
3.9493208201000001
 30
0.0
  0
SEQEND
  5
8D6
  8
0
  6
DASHED
 62
     7
  0
POLYLINE
  5
3DB
  8
0
  6
DASHED
 62
     7
 66
     1
 10
0.0
 20
0.0
 30
0.0
  0
VERTEX
  5
8D7
  8
0
  6
DASHED
 62
     7
 10
5.188285369099999
 20
3.3188275263999989
 30
0.0
  0
VERTEX
  5
8D8
  8
0
  6
DASHED
 62
     7
 10
5.2186384731999986
 20
3.3032747581000002
 30
0.0
  0
VERTEX
  5
8D9
  8
0
  6
DASHED
 62
     7
 10
5.2499783120999988
 20
3.2898289636000002
 30
0.0
  0
VERTEX
  5
8DA
  8
0
  6
DASHED
 62
     7
 10
5.2821597969000003
 20
3.2785523905999989
 30
0.0
  0
VERTEX
  5
8DB
  8
0
  6
DASHED
 62
     7
 10
5.3150339425000004
 20
3.2694972444999988
 30
0.0
  0
VERTEX
  5
8DC
  8
0
  6
DASHED
 62
     7
 10
5.3484485569000002
 20
3.2627054463
 30
0.0
  0
VERTEX
  5
8DD
  8
0
  6
DASHED
 62
     7
 10
5.3822489458999998
 20
3.2582084388999988
 30
0.0
  0
VERTEX
  5
8DE
  8
0
  6
DASHED
 62
     7
 10
5.4162786294999998
 20
3.256027041399999
 30
0.0
  0
VERTEX
  5
8DF
  8
0
  6
DASHED
 62
     7
 10
5.4503800662000002
 20
3.2561713526
 30
0.0
  0
VERTEX
  5
8E0
  8
0
  6
DASHED
 62
     7
 10
5.4843953821999998
 20
3.258640704399999
 30
0.0
  0
VERTEX
  5
8E1
  8
0
  6
DASHED
 62
     7
 10
5.5181671024999988
 20
3.263423664899999
 30
0.0
  0
SEQEND
  5
8E2
  8
0
  6
DASHED
 62
     7
  0
POLYLINE
  5
3DC
  8
0
  6
DASHED
 62
     7
 66
     1
 10
0.0
 20
0.0
 30
0.0
  0
VERTEX
  5
8E3
  8
0
  6
DASHED
 62
     7
 10
6.2133087419999997
 20
2.8989161600000002
 30
0.0
  0
VERTEX
  5
8E4
  8
0
  6
DASHED
 62
     7
 10
6.3255643596000004
 20
2.8388200550999989
 30
0.0
  0
VERTEX
  5
8E5
  8
0
  6
DASHED
 62
     7
 10
6.4389707960999996
 20
2.780937114399999
 30
0.0
  0
VERTEX
  5
8E6
  8
0
  6
DASHED
 62
     7
 10
6.553485221199999
 20
2.7252891986000001
 30
0.0
  0
VERTEX
  5
8E7
  8
0
  6
DASHED
 62
     7
 10
6.6690643863999988
 20
2.6718973241999988
 30
0.0
  0
VERTEX
  5
8E8
  8
0
  6
DASHED
 62
     7
 10
6.7856646408000003
 20
2.6207816557000001
 30
0.0
  0
VERTEX
  5
8E9
  8
0
  6
DASHED
 62
     7
 10
6.9032419480999989
 20
2.5719614979999998
 30
0.0
  0
VERTEX
  5
8EA
  8
0
  6
DASHED
 62
     7
 10
7.0217519027999993
 20
2.525455288799999
 30
0.0
  0
VERTEX
  5
8EB
  8
0
  6
DASHED
 62
     7
 10
7.1411497474000001
 20
2.4812805924000001
 30
0.0
  0
VERTEX
  5
8EC
  8
0
  6
DASHED
 62
     7
 10
7.2613903887999989
 20
2.4394540920000001
 30
0.0
  0
VERTEX
  5
8ED
  8
0
  6
DASHED
 62
     7
 10
7.3824284158999998
 20
2.399991584199999
 30
0.0
  0
VERTEX
  5
8EE
  8
0
  6
DASHED
 62
     7
 10
7.5042181161999988
 20
2.3629079729999991
 30
0.0
  0
VERTEX
  5
8EF
  8
0
  6
DASHED
 62
     7
 10
7.6267134933999996
 20
2.3282172637
 30
0.0
  0
VERTEX
  5
8F0
  8
0
  6
DASHED
 62
     7
 10
7.7498682846999998
 20
2.2959325578000001
 30
0.0
  0
VERTEX
  5
8F1
  8
0
  6
DASHED
 62
     7
 10
7.8736359783000003
 20
2.266066048299999
 30
0.0
  0
VERTEX
  5
8F2
  8
0
  6
DASHED
 62
     7
 10
7.9979698307999998
 20
2.238629014999999
 30
0.0
  0
SEQEND
  5
8F3
  8
0
  6
DASHED
 62
     7
  0
POLYLINE
  5
3DD
  8
0
  6
CONTINUOUS
 62
     7
 66
     1
 10
0.0
 20
0.0
 30
0.0
  0
VERTEX
  5
8F4
  8
0
  6
CONTINUOUS
 62
     7
 10
6.5136225482999999
 20
19.119668691000001
 30
0.0
  0
VERTEX
  5
8F5
  8
0
  6
CONTINUOUS
 62
     7
 10
6.401246315299999
 20
19.070671214299999
 30
0.0
  0
VERTEX
  5
8F6
  8
0
  6
CONTINUOUS
 62
     7
 10
6.2899012422
 20
19.019374479100001
 30
0.0
  0
VERTEX
  5
8F7
  8
0
  6
CONTINUOUS
 62
     7
 10
6.1796343486999987
 20
18.9658001474
 30
0.0
  0
VERTEX
  5
8F8
  8
0
  6
CONTINUOUS
 62
     7
 10
6.0704921994000003
 20
18.9099708432
 30
0.0
  0
VERTEX
  5
8F9
  8
0
  6
CONTINUOUS
 62
     7
 10
5.962520883999999
 20
18.8519101425
 30
0.0
  0
VERTEX
  5
8FA
  8
0
  6
CONTINUOUS
 62
     7
 10
5.8557659973999989
 20
18.791642563900002
 30
0.0
  0
VERTEX
  5
8FB
  8
0
  6
CONTINUOUS
 62
     7
 10
5.7502726212999988
 20
18.729193557599999
 30
0.0
  0
VERTEX
  5
8FC
  8
0
  6
CONTINUOUS
 62
     7
 10
5.6460853043999997
 20
18.664589495200001
 30
0.0
  0
VERTEX
  5
8FD
  8
0
  6
CONTINUOUS
 62
     7
 10
5.5432480438000002
 20
18.597857658399999
 30
0.0
  0
VERTEX
  5
8FE
  8
0
  6
CONTINUOUS
 62
     7
 10
5.4418042665999993
 20
18.529026227199999
 30
0.0
  0
VERTEX
  5
8FF
  8
0
  6
CONTINUOUS
 62
     7
 10
5.3417968116000001
 20
18.458124268500001
 30
0.0
  0
VERTEX
  5
900
  8
0
  6
CONTINUOUS
 62
     7
 10
5.2432679107000002
 20
18.385181723500001
 30
0.0
  0
VERTEX
  5
901
  8
0
  6
CONTINUOUS
 62
     7
 10
5.1462591717999988
 20
18.310229394899999
 30
0.0
  0
VERTEX
  5
902
  8
0
  6
CONTINUOUS
 62
     7
 10
5.0508115604999988
 20
18.233298934499999
 30
0.0
  0
VERTEX
  5
903
  8
0
  6
CONTINUOUS
 62
     7
 10
4.9569653835
 20
18.154422829000001
 30
0.0
  0
VERTEX
  5
904
  8
0
  6
CONTINUOUS
 62
     7
 10
4.8647602707999988
 20
18.0736343871
 30
0.0
  0
VERTEX
  5
905
  8
0
  6
CONTINUOUS
 62
     7
 10
4.774235159899999
 20
17.990967724800001
 30
0.0
  0
VERTEX
  5
906
  8
0
  6
CONTINUOUS
 62
     7
 10
4.685428278499999
 20
17.9064577515
 30
0.0
  0
VERTEX
  5
907
  8
0
  6
CONTINUOUS
 62
     7
 10
4.5983771288000002
 20
17.820140154699999
 30
0.0
  0
VERTEX
  5
908
  8
0
  6
CONTINUOUS
 62
     7
 10
4.5131184716000003
 20
17.732051385599998
 30
0.0
  0
VERTEX
  5
909
  8
0
  6
CONTINUOUS
 62
     7
 10
4.4296883106999987
 20
17.642228642999999
 30
0.0
  0
VERTEX
  5
90A
  8
0
  6
CONTINUOUS
 62
     7
 10
4.3481218778999997
 20
17.550709858199991
 30
0.0
  0
VERTEX
  5
90B
  8
0
  6
CONTINUOUS
 62
     7
 10
4.2684536176999988
 20
17.457533678499999
 30
0.0
  0
SEQEND
  5
90C
  8
0
  6
CONTINUOUS
 62
     7
  0
POLYLINE
  5
3E3
  8
0
  6
CONTINUOUS
 62
     7
 66
     1
 10
0.0
 20
0.0
 30
0.0
  0
VERTEX
  5
90D
  8
0
  6
CONTINUOUS
 62
     7
 10
6.5136179423999989
 20
3.696906870299999
 30
0.0
  0
VERTEX
  5
90E
  8
0
  6
CONTINUOUS
 62
     7
 10
6.6150628766999988
 20
3.6425984668999991
 30
0.0
  0
VERTEX
  5
90F
  8
0
  6
CONTINUOUS
 62
     7
 10
6.7175540848999988
 20
3.5902874893000001
 30
0.0
  0
VERTEX
  5
910
  8
0
  6
CONTINUOUS
 62
     7
 10
6.8210519627999986
 20
3.5399941512000002
 30
0.0
  0
VERTEX
  5
911
  8
0
  6
CONTINUOUS
 62
     7
 10
6.9255165177000002
 20
3.4917378864999988
 30
0.0
  0
VERTEX
  5
912
  8
0
  6
CONTINUOUS
 62
     7
 10
7.0309073829999988
 20
3.4455373420999988
 30
0.0
  0
VERTEX
  5
913
  8
0
  6
CONTINUOUS
 62
     7
 10
7.1371838342999991
 20
3.4014103704999998
 30
0.0
  0
VERTEX
  5
914
  8
0
  6
CONTINUOUS
 62
     7
 10
7.2443048051999988
 20
3.3593740229
 30
0.0
  0
VERTEX
  5
915
  8
0
  6
CONTINUOUS
 62
     7
 10
7.3522289026000003
 20
3.319444542699999
 30
0.0
  0
VERTEX
  5
916
  8
0
  6
CONTINUOUS
 62
     7
 10
7.4609144234000002
 20
3.2816373590999999
 30
0.0
  0
VERTEX
  5
917
  8
0
  6
CONTINUOUS
 62
     7
 10
7.5703193699999991
 20
3.245967081399999
 30
0.0
  0
VERTEX
  5
918
  8
0
  6
CONTINUOUS
 62
     7
 10
7.6804014669000003
 20
3.2124474929999991
 30
0.0
  0
VERTEX
  5
919
  8
0
  6
CONTINUOUS
 62
     7
 10
7.7911181770000004
 20
3.1810915461999998
 30
0.0
  0
VERTEX
  5
91A
  8
0
  6
CONTINUOUS
 62
     7
 10
7.9024267179999992
 20
3.1519113574999991
 30
0.0
  0
VERTEX
  5
91B
  8
0
  6
CONTINUOUS
 62
     7
 10
8.0142840787999994
 20
3.1249182023999991
 30
0.0
  0
VERTEX
  5
91C
  8
0
  6
CONTINUOUS
 62
     7
 10
8.1266470362999996
 20
3.1001225114999991
 30
0.0
  0
SEQEND
  5
91D
  8
0
  6
CONTINUOUS
 62
     7
  0
POLYLINE
  5
3E6
  8
0
  6
CONTINUOUS
 62
     7
 66
     1
 10
0.0
 20
0.0
 30
0.0
  0
VERTEX
  5
91E
  8
0
  6
CONTINUOUS
 62
     7
 10
8.1266998463999993
 20
3.1001166138
 30
0.0
  0
VERTEX
  5
91F
  8
0
  6
CONTINUOUS
 62
     7
 10
8.3640514650999993
 20
3.0514578749000001
 30
0.0
  0
VERTEX
  5
920
  8
0
  6
CONTINUOUS
 62
     7
 10
8.6018953077999996
 20
3.0052628488999988
 30
0.0
  0
VERTEX
  5
921
  8
0
  6
CONTINUOUS
 62
     7
 10
8.8402057359999997
 20
2.9615365151999988
 30
0.0
  0
VERTEX
  5
922
  8
0
  6
CONTINUOUS
 62
     7
 10
9.0789570612000006
 20
2.9202835873000001
 30
0.0
  0
VERTEX
  5
923
  8
0
  6
CONTINUOUS
 62
     7
 10
9.3181235471000008
 20
2.8815085121999999
 30
0.0
  0
VERTEX
  5
924
  8
0
  6
CONTINUOUS
 62
     7
 10
9.5576794127999989
 20
2.8452154694999989
 30
0.0
  0
VERTEX
  5
925
  8
0
  6
CONTINUOUS
 62
     7
 10
9.7975988353999988
 20
2.8114083714999989
 30
0.0
  0
VERTEX
  5
926
  8
0
  6
CONTINUOUS
 62
     7
 10
10.037855952699999
 20
2.7800908624999989
 30
0.0
  0
VERTEX
  5
927
  8
0
  6
CONTINUOUS
 62
     7
 10
10.2784248663
 20
2.751266318199999
 30
0.0
  0
VERTEX
  5
928
  8
0
  6
CONTINUOUS
 62
     7
 10
10.519279643999999
 20
2.7249378457999991
 30
0.0
  0
VERTEX
  5
929
  8
0
  6
CONTINUOUS
 62
     7
 10
10.760394323
 20
2.7011082833999991
 30
0.0
  0
VERTEX
  5
92A
  8
0
  6
CONTINUOUS
 62
     7
 10
11.001742912299999
 20
2.6797801997999988
 30
0.0
  0
VERTEX
  5
92B
  8
0
  6
CONTINUOUS
 62
     7
 10
11.243299395599999
 20
2.6609558938999989
 30
0.0
  0
VERTEX
  5
92C
  8
0
  6
CONTINUOUS
 62
     7
 10
11.485037734500001
 20
2.6446373949000002
 30
0.0
  0
VERTEX
  5
92D
  8
0
  6
CONTINUOUS
 62
     7
 10
11.7269318708
 20
2.630826461899999
 30
0.0
  0
VERTEX
  5
92E
  8
0
  6
CONTINUOUS
 62
     7
 10
11.968955729499999
 20
2.6195245836000001
 30
0.0
  0
VERTEX
  5
92F
  8
0
  6
CONTINUOUS
 62
     7
 10
12.211083221699999
 20
2.6107329784000002
 30
0.0
  0
VERTEX
  5
930
  8
0
  6
CONTINUOUS
 62
     7
 10
12.4532882471
 20
2.6044525939000001
 30
0.0
  0
VERTEX
  5
931
  8
0
  6
CONTINUOUS
 62
     7
 10
12.695544697500001
 20
2.6006841069999989
 30
0.0
  0
VERTEX
  5
932
  8
0
  6
CONTINUOUS
 62
     7
 10
12.9378264587
 20
2.5994279241
 30
0.0
  0
SEQEND
  5
933
  8
0
  6
CONTINUOUS
 62
     7
  0
POLYLINE
  5
3E7
  8
0
  6
DASHED
 62
     7
 66
     1
 10
0.0
 20
0.0
 30
0.0
  0
VERTEX
  5
934
  8
0
  6
DASHED
 62
     7
 10
7.9980378434999997
 20
2.238619917399999
 30
0.0
  0
VERTEX
  5
935
  8
0
  6
DASHED
 62
     7
 10
8.2301243603999996
 20
2.1909809107
 30
0.0
  0
VERTEX
  5
936
  8
0
  6
DASHED
 62
     7
 10
8.4626694998000005
 20
2.1456362323999998
 30
0.0
  0
VERTEX
  5
937
  8
0
  6
DASHED
 62
     7
 10
8.6956506024000007
 20
2.1025903009000002
 30
0.0
  0
VERTEX
  5
938
  8
0
  6
DASHED
 62
     7
 10
8.9290449660999993
 20
2.0618473108000002
 30
0.0
  0
VERTEX
  5
939
  8
0
  6
DASHED
 62
     7
 10
9.1628298484999995
 20
2.0234112319999991
 30
0.0
  0
VERTEX
  5
93A
  8
0
  6
DASHED
 62
     7
 10
9.3969824696000011
 20
1.987285809799999
 30
0.0
  0
VERTEX
  5
93B
  8
0
  6
DASHED
 62
     7
 10
9.6314800129999991
 20
1.9534745644
 30
0.0
  0
VERTEX
  5
93C
  8
0
  6
DASHED
 62
     7
 10
9.8662996290000002
 20
1.921980790299999
 30
0.0
  0
VERTEX
  5
93D
  8
0
  6
DASHED
 62
     7
 10
10.101418436599999
 20
1.8928075563
 30
0.0
  0
VERTEX
  5
93E
  8
0
  6
DASHED
 62
     7
 10
10.3368135253
 20
1.8659577051999989
 30
0.0
  0
VERTEX
  5
93F
  8
0
  6
DASHED
 62
     7
 10
10.572461958
 20
1.8414338531000001
 30
0.0
  0
VERTEX
  5
940
  8
0
  6
DASHED
 62
     7
 10
10.808340772799999
 20
1.8192383897999991
 30
0.0
  0
VERTEX
  5
941
  8
0
  6
DASHED
 62
     7
 10
11.044426985399999
 20
1.799373477899999
 30
0.0
  0
VERTEX
  5
942
  8
0
  6
DASHED
 62
     7
 10
11.280697591099999
 20
1.7818410533
 30
0.0
  0
VERTEX
  5
943
  8
0
  6
DASHED
 62
     7
 10
11.5171295675
 20
1.7666428241000001
 30
0.0
  0
VERTEX
  5
944
  8
0
  6
DASHED
 62
     7
 10
11.753699876300001
 20
1.753780271399999
 30
0.0
  0
VERTEX
  5
945
  8
0
  6
DASHED
 62
     7
 10
11.990385465799999
 20
1.7432546486
 30
0.0
  0
VERTEX
  5
946
  8
0
  6
DASHED
 62
     7
 10
12.227163273
 20
1.7350669811999999
 30
0.0
  0
VERTEX
  5
947
  8
0
  6
DASHED
 62
     7
 10
12.464010225899999
 20
1.7292180670999999
 30
0.0
  0
VERTEX
  5
948
  8
0
  6
DASHED
 62
     7
 10
12.700903245999999
 20
1.7257084761000001
 30
0.0
  0
VERTEX
  5
949
  8
0
  6
DASHED
 62
     7
 10
12.93781925
 20
1.724538550299999
 30
0.0
  0
SEQEND
  5
94A
  8
0
  6
DASHED
 62
     7
  0
POLYLINE
  5
3E9
  8
0
  6
DASHED
 62
     7
 66
     1
 10
0.0
 20
0.0
 30
0.0
  0
VERTEX
  5
94B
  8
0
  6
DASHED
 62
     7
 10
17.877664065699999
 20
2.2386275076999991
 30
0.0
  0
VERTEX
  5
94C
  8
0
  6
DASHED
 62
     7
 10
18.001995521800001
 20
2.2660640703000001
 30
0.0
  0
VERTEX
  5
94D
  8
0
  6
DASHED
 62
     7
 10
18.125762266500001
 20
2.2959305037000002
 30
0.0
  0
VERTEX
  5
94E
  8
0
  6
DASHED
 62
     7
 10
18.248917318299998
 20
2.3282154706
 30
0.0
  0
VERTEX
  5
94F
  8
0
  6
DASHED
 62
     7
 10
18.371413927700001
 20
2.362906715899999
 30
0.0
  0
VERTEX
  5
950
  8
0
  6
DASHED
 62
     7
 10
18.493205595199999
 20
2.3999910706000001
 30
0.0
  0
VERTEX
  5
951
  8
0
  6
DASHED
 62
     7
 10
18.6142460889
 20
2.4394544578000001
 30
0.0
  0
VERTEX
  5
952
  8
0
  6
DASHED
 62
     7
 10
18.734489462199999
 20
2.4812818971000001
 30
0.0
  0
VERTEX
  5
953
  8
0
  6
DASHED
 62
     7
 10
18.853890070799999
 20
2.525457510899999
 30
0.0
  0
VERTEX
  5
954
  8
0
  6
DASHED
 62
     7
 10
18.9724025905
 20
2.5719645302999989
 30
0.0
  0
VERTEX
  5
955
  8
0
  6
DASHED
 62
     7
 10
19.089982034199998
 20
2.6207853012000002
 30
0.0
  0
VERTEX
  5
956
  8
0
  6
DASHED
 62
     7
 10
19.2065837689
 20
2.6719012915000002
 30
0.0
  0
VERTEX
  5
957
  8
0
  6
DASHED
 62
     7
 10
19.322163532899999
 20
2.7252930974999989
 30
0.0
  0
VERTEX
  5
958
  8
0
  6
DASHED
 62
     7
 10
19.4366774523
 20
2.7809404518999989
 30
0.0
  0
VERTEX
  5
959
  8
0
  6
DASHED
 62
     7
 10
19.550082057800001
 20
2.8388222310999991
 30
0.0
  0
VERTEX
  5
95A
  8
0
  6
DASHED
 62
     7
 10
19.662334301200001
 20
2.8989164630999991
 30
0.0
  0
SEQEND
  5
95B
  8
0
  6
DASHED
 62
     7
  0
POLYLINE
  5
3EA
  8
0
  6
CONTINUOUS
 62
     7
 66
     1
 10
0.0
 20
0.0
 30
0.0
  0
VERTEX
  5
95C
  8
0
  6
CONTINUOUS
 62
     7
 10
12.9378234795
 20
2.5994279241
 30
0.0
  0
VERTEX
  5
95D
  8
0
  6
CONTINUOUS
 62
     7
 10
13.180104370600001
 20
2.600684146499999
 30
0.0
  0
VERTEX
  5
95E
  8
0
  6
CONTINUOUS
 62
     7
 10
13.422359998799999
 20
2.604452666599999
 30
0.0
  0
VERTEX
  5
95F
  8
0
  6
CONTINUOUS
 62
     7
 10
13.664564246299999
 20
2.6107330780999991
 30
0.0
  0
VERTEX
  5
960
  8
0
  6
CONTINUOUS
 62
     7
 10
13.906691001
 20
2.6195247037999989
 30
0.0
  0
VERTEX
  5
961
  8
0
  6
CONTINUOUS
 62
     7
 10
14.148714159300001
 20
2.630826595999999
 30
0.0
  0
VERTEX
  5
962
  8
0
  6
CONTINUOUS
 62
     7
 10
14.3906076284
 20
2.644637536199999
 30
0.0
  0
VERTEX
  5
963
  8
0
  6
CONTINUOUS
 62
     7
 10
14.6323453298
 20
2.660956035399999
 30
0.0
  0
VERTEX
  5
964
  8
0
  6
CONTINUOUS
 62
     7
 10
14.873901201700001
 20
2.6797803344000002
 30
0.0
  0
VERTEX
  5
965
  8
0
  6
CONTINUOUS
 62
     7
 10
15.115249201799999
 20
2.7011084036000002
 30
0.0
  0
VERTEX
  5
966
  8
0
  6
CONTINUOUS
 62
     7
 10
15.356363310400001
 20
2.7249379437000001
 30
0.0
  0
VERTEX
  5
967
  8
0
  6
CONTINUOUS
 62
     7
 10
15.5972175328
 20
2.7512663857000001
 30
0.0
  0
VERTEX
  5
968
  8
0
  6
CONTINUOUS
 62
     7
 10
15.8377859026
 20
2.780090891
 30
0.0
  0
VERTEX
  5
969
  8
0
  6
CONTINUOUS
 62
     7
 10
16.078042483899999
 20
2.8114083520999991
 30
0.0
  0
VERTEX
  5
96A
  8
0
  6
CONTINUOUS
 62
     7
 10
16.317961374599999
 20
2.8452153925000001
 30
0.0
  0
VERTEX
  5
96B
  8
0
  6
CONTINUOUS
 62
     7
 10
16.557516709000001
 20
2.8815083677
 30
0.0
  0
VERTEX
  5
96C
  8
0
  6
CONTINUOUS
 62
     7
 10
16.796682660599998
 20
2.9202833647999999
 30
0.0
  0
VERTEX
  5
96D
  8
0
  6
CONTINUOUS
 62
     7
 10
17.035433444700001
 20
2.9615362033999988
 30
0.0
  0
VERTEX
  5
96E
  8
0
  6
CONTINUOUS
 62
     7
 10
17.2737433217
 20
3.0052624362000002
 30
0.0
  0
VERTEX
  5
96F
  8
0
  6
CONTINUOUS
 62
     7
 10
17.511586599200001
 20
3.0514573488999992
 30
0.0
  0
VERTEX
  5
970
  8
0
  6
CONTINUOUS
 62
     7
 10
17.748937635299999
 20
3.1001159612999989
 30
0.0
  0
SEQEND
  5
971
  8
0
  6
CONTINUOUS
 62
     7
  0
POLYLINE
  5
3EB
  8
0
  6
DASHED
 62
     7
 66
     1
 10
0.0
 20
0.0
 30
0.0
  0
VERTEX
  5
972
  8
0
  6
DASHED
 62
     7
 10
12.9378231896
 20
1.724538550299999
 30
0.0
  0
VERTEX
  5
973
  8
0
  6
DASHED
 62
     7
 10
13.174739087400001
 20
1.725708449099999
 30
0.0
  0
VERTEX
  5
974
  8
0
  6
DASHED
 62
     7
 10
13.411632212600001
 20
1.729218025999999
 30
0.0
  0
VERTEX
  5
975
  8
0
  6
DASHED
 62
     7
 10
13.648479455
 20
1.735066938499999
 30
0.0
  0
VERTEX
  5
976
  8
0
  6
DASHED
 62
     7
 10
13.885257708899999
 20
1.7432546159999991
 30
0.0
  0
VERTEX
  5
977
  8
0
  6
DASHED
 62
     7
 10
14.1219438755
 20
1.7537802599000001
 30
0.0
  0
VERTEX
  5
978
  8
0
  6
DASHED
 62
     7
 10
14.3585148646
 20
1.766642843199999
 30
0.0
  0
VERTEX
  5
979
  8
0
  6
DASHED
 62
     7
 10
14.594947597699999
 20
1.7818411112000001
 30
0.0
  0
VERTEX
  5
97A
  8
0
  6
DASHED
 62
     7
 10
14.8312190095
 20
1.7993735812
 30
0.0
  0
VERTEX
  5
97B
  8
0
  6
DASHED
 62
     7
 10
15.067306050399999
 20
1.8192385428999991
 30
0.0
  0
VERTEX
  5
97C
  8
0
  6
DASHED
 62
     7
 10
15.303185689099999
 20
1.8414340581999991
 30
0.0
  0
VERTEX
  5
97D
  8
0
  6
DASHED
 62
     7
 10
15.538834914100001
 20
1.8659579618999991
 30
0.0
  0
VERTEX
  5
97E
  8
0
  6
DASHED
 62
     7
 10
15.7742307367
 20
1.892807861599999
 30
0.0
  0
VERTEX
  5
97F
  8
0
  6
DASHED
 62
     7
 10
16.009350192900001
 20
1.9219811378999989
 30
0.0
  0
VERTEX
  5
980
  8
0
  6
DASHED
 62
     7
 10
16.244170345499999
 20
1.9534749447999991
 30
0.0
  0
VERTEX
  5
981
  8
0
  6
DASHED
 62
     7
 10
16.478668286600001
 20
1.9872862099999991
 30
0.0
  0
VERTEX
  5
982
  8
0
  6
DASHED
 62
     7
 10
16.712821139700001
 20
2.0234116348999991
 30
0.0
  0
VERTEX
  5
983
  8
0
  6
DASHED
 62
     7
 10
16.946606062000001
 20
2.0618476954
 30
0.0
  0
VERTEX
  5
984
  8
0
  6
DASHED
 62
     7
 10
17.180000246599999
 20
2.1025906417999991
 30
0.0
  0
VERTEX
  5
985
  8
0
  6
DASHED
 62
     7
 10
17.412980924599999
 20
2.1456364994000001
 30
0.0
  0
VERTEX
  5
986
  8
0
  6
DASHED
 62
     7
 10
17.645525367699999
 20
2.1909810688999989
 30
0.0
  0
VERTEX
  5
987
  8
0
  6
DASHED
 62
     7
 10
17.8776108898
 20
2.2386199266999989
 30
0.0
  0
SEQEND
  5
988
  8
0
  6
DASHED
 62
     7
  0
LINE
  5
415
  8
DRAFT_ENT
  6
CONTINUOUS
 62
     2
 10
14.229739004300001
 20
19.1439157963
 30
0.0
 11
14.143636383600001
 21
19.0415275332
 31
0.0
  0
LINE
  5
416
  8
DRAFT_ENT
  6
CONTINUOUS
 62
     2
 10
14.349777659700001
 20
19.1439157963
 30
0.0
 11
14.216462976900001
 21
18.985385595499999
 31
0.0
  0
POLYLINE
  5
418
  8
0
  6
CONTINUOUS
 62
     7
 66
     1
 10
0.0
 20
0.0
 30
0.0
  0
VERTEX
  5
989
  8
0
  6
CONTINUOUS
 62
     7
 10
17.748996910799999
 20
3.100122918399999
 30
0.0
  0
VERTEX
  5
98A
  8
0
  6
CONTINUOUS
 62
     7
 10
17.861361459600001
 20
3.1249189286000001
 30
0.0
  0
VERTEX
  5
98B
  8
0
  6
CONTINUOUS
 62
     7
 10
17.9732195303
 20
3.151912155899999
 30
0.0
  0
VERTEX
  5
98C
  8
0
  6
CONTINUOUS
 62
     7
 10
18.084528039999999
 20
3.1810922035
 30
0.0
  0
VERTEX
  5
98D
  8
0
  6
CONTINUOUS
 62
     7
 10
18.1952441173
 20
3.2124478326000001
 30
0.0
  0
VERTEX
  5
98E
  8
0
  6
CONTINUOUS
 62
     7
 10
18.305325119399999
 20
3.2459669663000001
 30
0.0
  0
VERTEX
  5
98F
  8
0
  6
CONTINUOUS
 62
     7
 10
18.4147286476
 20
3.2816366945999991
 30
0.0
  0
VERTEX
  5
990
  8
0
  6
CONTINUOUS
 62
     7
 10
18.523412564400001
 20
3.3194432788999988
 30
0.0
  0
VERTEX
  5
991
  8
0
  6
CONTINUOUS
 62
     7
 10
18.631335009600001
 20
3.3593721579000002
 30
0.0
  0
VERTEX
  5
992
  8
0
  6
CONTINUOUS
 62
     7
 10
18.738454415900001
 20
3.4014079525000001
 30
0.0
  0
VERTEX
  5
993
  8
0
  6
CONTINUOUS
 62
     7
 10
18.8447295257
 20
3.445534472499999
 30
0.0
  0
VERTEX
  5
994
  8
0
  6
CONTINUOUS
 62
     7
 10
18.950119406300001
 20
3.4917347222999999
 30
0.0
  0
VERTEX
  5
995
  8
0
  6
CONTINUOUS
 62
     7
 10
19.054583466099999
 20
3.5399909072999991
 30
0.0
  0
VERTEX
  5
996
  8
0
  6
CONTINUOUS
 62
     7
 10
19.158081469999999
 20
3.5902844416000002
 30
0.0
  0
VERTEX
  5
997
  8
0
  6
CONTINUOUS
 62
     7
 10
19.260573555000001
 20
3.642595953999999
 30
0.0
  0
VERTEX
  5
998
  8
0
  6
CONTINUOUS
 62
     7
 10
19.362020245699998
 20
3.6969052965999998
 30
0.0
  0
SEQEND
  5
999
  8
0
  6
CONTINUOUS
 62
     7
  0
POLYLINE
  5
419
  8
0
  6
DASHED
 62
     7
 66
     1
 10
0.0
 20
0.0
 30
0.0
  0
VERTEX
  5
99A
  8
0
  6
DASHED
 62
     7
 10
20.357481865
 20
3.2634229055000001
 30
0.0
  0
VERTEX
  5
99B
  8
0
  6
DASHED
 62
     7
 10
20.342553753000001
 20
3.2652032580000001
 30
0.0
  0
VERTEX
  5
99C
  8
0
  6
DASHED
 62
     7
 10
20.325761240799999
 20
3.2653553083999989
 30
0.0
  0
VERTEX
  5
99D
  8
0
  6
DASHED
 62
     7
 10
20.3071754578
 20
3.2638784127999991
 30
0.0
  0
VERTEX
  5
99E
  8
0
  6
DASHED
 62
     7
 10
20.286875128999998
 20
3.2607788268000002
 30
0.0
  0
VERTEX
  5
99F
  8
0
  6
DASHED
 62
     7
 10
20.264946241800001
 20
3.256069679599999
 30
0.0
  0
VERTEX
  5
9A0
  8
0
  6
DASHED
 62
     7
 10
20.241481682
 20
3.249770918099999
 30
0.0
  0
VERTEX
  5
9A1
  8
0
  6
DASHED
 62
     7
 10
20.216580839999999
 20
3.2419092222999999
 30
0.0
  0
VERTEX
  5
9A2
  8
0
  6
DASHED
 62
     7
 10
20.190349190100001
 20
3.2325178926999989
 30
0.0
  0
VERTEX
  5
9A3
  8
0
  6
DASHED
 62
     7
 10
20.162897843500001
 20
3.2216367086000002
 30
0.0
  0
VERTEX
  5
9A4
  8
0
  6
DASHED
 62
     7
 10
20.134343077600001
 20
3.209311760299999
 30
0.0
  0
VERTEX
  5
9A5
  8
0
  6
DASHED
 62
     7
 10
20.104805843899999
 20
3.1955952533999992
 30
0.0
  0
VERTEX
  5
9A6
  8
0
  6
DASHED
 62
     7
 10
20.074411255299999
 20
3.1805452878999998
 30
0.0
  0
VERTEX
  5
9A7
  8
0
  6
DASHED
 62
     7
 10
20.043288056200002
 20
3.1642256119000001
 30
0.0
  0
VERTEX
  5
9A8
  8
0
  6
DASHED
 62
     7
 10
20.0115680774
 20
3.1467053518000001
 30
0.0
  0
VERTEX
  5
9A9
  8
0
  6
DASHED
 62
     7
 10
19.9793856772
 20
3.1280587192999998
 30
0.0
  0
VERTEX
  5
9AA
  8
0
  6
DASHED
 62
     7
 10
19.946877173000001
 20
3.108364697399999
 30
0.0
  0
VERTEX
  5
9AB
  8
0
  6
DASHED
 62
     7
 10
19.9141802631
 20
3.0877067052999991
 30
0.0
  0
VERTEX
  5
9AC
  8
0
  6
DASHED
 62
     7
 10
19.881433444300001
 20
3.0661722454999998
 30
0.0
  0
VERTEX
  5
9AD
  8
0
  6
DASHED
 62
     7
 10
19.848775424300001
 20
3.0438525328999999
 30
0.0
  0
VERTEX
  5
9AE
  8
0
  6
DASHED
 62
     7
 10
19.816344535100001
 20
3.0208421088000001
 30
0.0
  0
VERTEX
  5
9AF
  8
0
  6
DASHED
 62
     7
 10
19.784278146399998
 20
2.9972384399999989
 30
0.0
  0
VERTEX
  5
9B0
  8
0
  6
DASHED
 62
     7
 10
19.752712083999999
 20
2.9731415061000002
 30
0.0
  0
VERTEX
  5
9B1
  8
0
  6
DASHED
 62
     7
 10
19.7217800544
 20
2.9486533761999998
 30
0.0
  0
VERTEX
  5
9B2
  8
0
  6
DASHED
 62
     7
 10
19.6916130786
 20
2.923877776399999
 30
0.0
  0
VERTEX
  5
9B3
  8
0
  6
DASHED
 62
     7
 10
19.662338936899999
 20
2.8989196503999999
 30
0.0
  0
SEQEND
  5
9B4
  8
0
  6
DASHED
 62
     7
  0
POLYLINE
  5
41A
  8
0
  6
DASHED
 62
     7
 66
     1
 10
0.0
 20
0.0
 30
0.0
  0
VERTEX
  5
9B5
  8
0
  6
DASHED
 62
     7
 10
20.357464719100001
 20
3.2634246226999988
 30
0.0
  0
VERTEX
  5
9B6
  8
0
  6
DASHED
 62
     7
 10
20.391236492899999
 20
3.2586411379000002
 30
0.0
  0
VERTEX
  5
9B7
  8
0
  6
DASHED
 62
     7
 10
20.425252259000001
 20
3.2561713151
 30
0.0
  0
VERTEX
  5
9B8
  8
0
  6
DASHED
 62
     7
 10
20.459354450399999
 20
3.2560265947999998
 30
0.0
  0
VERTEX
  5
9B9
  8
0
  6
DASHED
 62
     7
 10
20.493385099800001
 20
3.258207647499999
 30
0.0
  0
VERTEX
  5
9BA
  8
0
  6
DASHED
 62
     7
 10
20.527186571200001
 20
3.2627043699999989
 30
0.0
  0
VERTEX
  5
9BB
  8
0
  6
DASHED
 62
     7
 10
20.560602290199999
 20
3.2694959329
 30
0.0
  0
VERTEX
  5
9BC
  8
0
  6
DASHED
 62
     7
 10
20.593477469300002
 20
3.2785508762999989
 30
0.0
  0
VERTEX
  5
9BD
  8
0
  6
DASHED
 62
     7
 10
20.625659825
 20
3.2898272563000002
 30
0.0
  0
VERTEX
  5
9BE
  8
0
  6
DASHED
 62
     7
 10
20.657000282999999
 20
3.3032728384999999
 30
0.0
  0
VERTEX
  5
9BF
  8
0
  6
DASHED
 62
     7
 10
20.6873536686
 20
3.3188253407999988
 30
0.0
  0
SEQEND
  5
9C0
  8
0
  6
DASHED
 62
     7
  0
LINE
  5
421
  8
DEFAULT_1
  6
CENTER
 62
     2
 10
12.9378190688
 20
21.328854644700002
 30
0.0
 11
12.9378190688
 21
20.132497739400002
 31
0.0
  0
LINE
  5
422
  8
DEFAULT_1
  6
CENTER
 62
     2
 10
12.9378190688
 20
2.7226264809999998
 30
0.0
 11
12.9378190688
 21
1.1059291136
 31
0.0
  0
LINE
  5
423
  8
DRAFT_ENT
  6
CONTINUOUS
 62
     2
 10
14.034573720999999
 20
19.1439157963
 30
0.0
 11
14.034573720999999
 21
18.7777046934
 31
0.0
  0
LINE
  5
424
  8
DRAFT_ENT
  6
CONTINUOUS
 62
     2
 10
14.143636383600001
 20
19.1439157963
 30
0.0
 11
14.143636383600001
 21
19.0415275332
 31
0.0
  0
LINE
  5
425
  8
DRAFT_ENT
  6
CONTINUOUS
 62
     2
 10
14.143636383600001
 20
18.9036571159
 30
0.0
 11
14.143636383600001
 21
18.777719695599998
 31
0.0
  0
LINE
  5
426
  8
DRAFT_ENT
  6
CONTINUOUS
 62
     2
 10
14.6822058843
 20
19.1439157963
 30
0.0
 11
14.6822058843
 21
18.777719695599998
 31
0.0
  0
LINE
  5
427
  8
DRAFT_ENT
  6
CONTINUOUS
 62
     2
 10
14.7851644539
 20
19.1439157963
 30
0.0
 11
14.7851644539
 21
19.0061759202
 31
0.0
  0
LINE
  5
428
  8
DRAFT_ENT
  6
CONTINUOUS
 62
     2
 10
14.7851644539
 20
18.920422603900001
 30
0.0
 11
14.7851644539
 21
18.777719695599998
 31
0.0
  0
LINE
  5
429
  8
DRAFT_ENT
  6
CONTINUOUS
 62
     2
 10
16.8981454077
 20
8.2293378030999982
 30
0.0
 11
15.0210079077
 21
8.2293378030999982
 31
0.0
  0
LINE
  5
42A
  8
DRAFT_ENT
  6
CONTINUOUS
 62
     2
 10
16.8696829077
 20
8.2855190530999998
 30
0.0
 11
15.048814157700001
 21
8.2855190530999998
 31
0.0
  0
LINE
  5
42B
  8
DRAFT_ENT
  6
CONTINUOUS
 62
     2
 10
14.8776624785
 20
19.1439157963
 30
0.0
 11
14.8776624785
 21
19.0061759202
 31
0.0
  0
LINE
  5
42C
  8
DRAFT_ENT
  6
CONTINUOUS
 62
     2
 10
14.8776624785
 20
18.920422603900001
 30
0.0
 11
14.8776624785
 21
18.777719695599998
 31
0.0
  0
LINE
  5
42D
  8
DRAFT_ENT
  6
CONTINUOUS
 62
     2
 10
14.9806210481
 20
19.1439157963
 30
0.0
 11
14.9806210481
 21
18.777719695599998
 31
0.0
  0
LINE
  5
42E
  8
DRAFT_ENT
  6
CONTINUOUS
 62
     2
 10
15.0087740811
 20
18.777719695599998
 30
0.0
 11
15.0087740811
 21
19.1439157963
 31
0.0
  0
LINE
  5
42F
  8
DRAFT_ENT
  6
CONTINUOUS
 62
     2
 10
15.0210079077
 20
8.2293378030999982
 30
0.0
 11
15.0210079077
 21
9.1400940530999986
 31
0.0
  0
LINE
  5
430
  8
DRAFT_ENT
  6
CONTINUOUS
 62
     2
 10
15.048814157700001
 20
8.2855190530999998
 30
0.0
 11
15.048814157700001
 21
9.1130440530999994
 31
0.0
  0
LINE
  5
431
  8
DRAFT_ENT
  6
CONTINUOUS
 62
     2
 10
15.1025528882
 20
19.1439157963
 30
0.0
 11
15.1025528882
 21
18.8659864356
 31
0.0
  0
LINE
  5
432
  8
DRAFT_ENT
  6
CONTINUOUS
 62
     2
 10
15.204230451300001
 20
18.8659864356
 30
0.0
 11
15.204230451300001
 21
18.777719695599998
 31
0.0
  0
LINE
  5
433
  8
DRAFT_ENT
  6
CONTINUOUS
 62
     2
 10
15.2224477914
 20
18.777719695599998
 30
0.0
 11
15.2224477914
 21
19.1439157963
 31
0.0
  0
LINE
  5
434
  8
DRAFT_ENT
  6
CONTINUOUS
 62
     2
 10
15.3213519678
 20
19.054691156299999
 30
0.0
 11
15.3213519678
 21
19.0061759202
 31
0.0
  0
LINE
  5
435
  8
DRAFT_ENT
  6
CONTINUOUS
 62
     2
 10
15.3213519678
 20
18.915937402000001
 30
0.0
 11
15.3213519678
 21
18.8659864356
 31
0.0
  0
LINE
  5
436
  8
DRAFT_ENT
  6
CONTINUOUS
 62
     2
 10
15.4156379379
 20
18.777719695599998
 30
0.0
 11
15.4156379379
 21
18.8659864356
 31
0.0
  0
LINE
  5
437
  8
DRAFT_ENT
  6
CONTINUOUS
 62
     2
 10
15.4156379379
 20
18.915937402000001
 30
0.0
 11
15.4156379379
 21
19.0061759202
 31
0.0
  0
LINE
  5
438
  8
DRAFT_ENT
  6
CONTINUOUS
 62
     2
 10
15.4156379379
 20
19.054691156299999
 30
0.0
 11
15.4156379379
 21
19.1439157963
 31
0.0
  0
LINE
  5
439
  8
DRAFT_ENT
  6
CONTINUOUS
 62
     2
 10
15.4436505774
 20
18.777719695599998
 30
0.0
 11
15.4436505774
 21
19.1439157963
 31
0.0
  0
LINE
  5
43A
  8
DRAFT_ENT
  6
CONTINUOUS
 62
     2
 10
15.5378104845
 20
19.0548040085
 30
0.0
 11
15.5378104845
 21
18.9878645366
 31
0.0
  0
LINE
  5
43B
  8
DRAFT_ENT
  6
CONTINUOUS
 62
     2
 10
15.5378104845
 20
18.900817450799991
 30
0.0
 11
15.5378104845
 21
18.777719695599998
 31
0.0
  0
LINE
  5
43C
  8
DRAFT_ENT
  6
CONTINUOUS
 62
     2
 10
15.8125970019
 20
18.7571942599
 30
0.0
 11
15.8125970019
 21
18.798423142099999
 31
0.0
  0
LINE
  5
43D
  8
DRAFT_ENT
  6
CONTINUOUS
 62
     2
 10
15.048814157700001
 20
9.1130440530999994
 30
0.0
 11
16.8696829077
 21
9.1130440530999994
 31
0.0
  0
LINE
  5
43E
  8
DRAFT_ENT
  6
CONTINUOUS
 62
     2
 10
15.0210079077
 20
9.1400940530999986
 30
0.0
 11
16.8981454077
 21
9.1400940530999986
 31
0.0
  0
LINE
  5
43F
  8
DRAFT_ENT
  6
CONTINUOUS
 62
     2
 10
16.8696829077
 20
9.1130440530999994
 30
0.0
 11
16.8696829077
 21
8.2855190530999998
 31
0.0
  0
LINE
  5
440
  8
DRAFT_ENT
  6
CONTINUOUS
 62
     2
 10
16.8981454077
 20
9.1400940530999986
 30
0.0
 11
16.8981454077
 21
8.2293378030999982
 31
0.0
  0
LINE
  5
449
  8
DEFAULT_1
  6
CENTER
 62
     2
 10
1.1595090688
 20
11.4082946447
 30
0.0
 11
2.3211601209000001
 21
11.4082946447
 31
0.0
  0
LINE
  5
44A
  8
DEFAULT_1
  6
CENTER
 62
     2
 10
23.526647751900001
 20
11.4082946447
 30
0.0
 11
25.0917990688
 21
11.4082946447
 31
0.0
  0
LINE
  5
44B
  8
DRAFT_ENT
  6
CONTINUOUS
 62
     2
 10
14.2397226145
 20
18.777719695599998
 30
0.0
 11
14.143636383600001
 21
18.9036571159
 31
0.0
  0
LINE
  5
44C
  8
DRAFT_ENT
  6
CONTINUOUS
 62
     2
 10
14.3749054038
 20
18.777719695599998
 30
0.0
 11
14.216462976900001
 21
18.985385595499999
 31
0.0
  0
LINE
  5
44D
  8
DRAFT_ENT
  6
CONTINUOUS
 62
     2
 10
15.6158251426
 20
18.777719695599998
 30
0.0
 11
15.5378104845
 21
18.900817450799991
 31
0.0
  0
LINE
  5
44E
  8
DRAFT_ENT
  6
CONTINUOUS
 62
     2
 10
15.7345445025
 20
18.777719695599998
 30
0.0
 11
15.634892456599999
 21
18.9349588139
 31
0.0
  0
LINE
  5
451
  8
DRAFT_ENT
  6
CONTINUOUS
 62
     2
 10
15.8198457384
 20
18.777383602099999
 30
0.0
 11
15.839763250200001
 21
18.7571942599
 31
0.0
  0
POLYLINE
  5
456
  8
0
  6
CONTINUOUS
 62
     7
 66
     1
 10
0.0
 20
0.0
 30
0.0
  0
VERTEX
  5
9C1
  8
0
  6
CONTINUOUS
 62
     7
 10
23.6209341048
 20
11.4082895538
 30
0.0
  0
VERTEX
  5
9C2
  8
0
  6
CONTINUOUS
 62
     7
 10
23.6197898221
 20
11.5832059535
 30
0.0
  0
VERTEX
  5
9C3
  8
0
  6
CONTINUOUS
 62
     7
 10
23.616357167099999
 20
11.7580924953
 30
0.0
  0
VERTEX
  5
9C4
  8
0
  6
CONTINUOUS
 62
     7
 10
23.610636727900001
 20
11.932919224700001
 30
0.0
  0
VERTEX
  5
9C5
  8
0
  6
CONTINUOUS
 62
     7
 10
23.6026294843
 20
12.107656197700001
 30
0.0
  0
VERTEX
  5
9C6
  8
0
  6
CONTINUOUS
 62
     7
 10
23.592336807599999
 20
12.282273485599999
 30
0.0
  0
VERTEX
  5
9C7
  8
0
  6
CONTINUOUS
 62
     7
 10
23.579760460900001
 20
12.45674118
 30
0.0
  0
VERTEX
  5
9C8
  8
0
  6
CONTINUOUS
 62
     7
 10
23.56490259820001
 20
12.631029398300001
 30
0.0
  0
VERTEX
  5
9C9
  8
0
  6
CONTINUOUS
 62
     7
 10
23.547765764299999
 20
12.8051082887
 30
0.0
  0
VERTEX
  5
9CA
  8
0
  6
CONTINUOUS
 62
     7
 10
23.528352894400001
 20
12.9789480352
 30
0.0
  0
VERTEX
  5
9CB
  8
0
  6
CONTINUOUS
 62
     7
 10
23.506667313499999
 20
13.152518862599999
 30
0.0
  0
VERTEX
  5
9CC
  8
0
  6
CONTINUOUS
 62
     7
 10
23.482712735900002
 20
13.325791042000001
 30
0.0
  0
VERTEX
  5
9CD
  8
0
  6
CONTINUOUS
 62
     7
 10
23.456493264500001
 20
13.4987348955
 30
0.0
  0
VERTEX
  5
9CE
  8
0
  6
CONTINUOUS
 62
     7
 10
23.4280133902
 20
13.6713208015
 30
0.0
  0
VERTEX
  5
9CF
  8
0
  6
CONTINUOUS
 62
     7
 10
23.397277990900001
 20
13.843519199699999
 30
0.0
  0
VERTEX
  5
9D0
  8
0
  6
CONTINUOUS
 62
     7
 10
23.3642923309
 20
14.015300596099999
 30
0.0
  0
VERTEX
  5
9D1
  8
0
  6
CONTINUOUS
 62
     7
 10
23.3290620601
 20
14.1866355682
 30
0.0
  0
VERTEX
  5
9D2
  8
0
  6
CONTINUOUS
 62
     7
 10
23.2915932127
 20
14.357494770100001
 30
0.0
  0
VERTEX
  5
9D3
  8
0
  6
CONTINUOUS
 62
     7
 10
23.251892206099999
 20
14.527848937
 30
0.0
  0
SEQEND
  5
9D4
  8
0
  6
CONTINUOUS
 62
     7
  0
POLYLINE
  5
457
  8
0
  6
CONTINUOUS
 62
     7
 66
     1
 10
0.0
 20
0.0
 30
0.0
  0
VERTEX
  5
9D5
  8
0
  6
CONTINUOUS
 62
     7
 10
23.251893490699999
 20
8.2887319149999996
 30
0.0
  0
VERTEX
  5
9D6
  8
0
  6
CONTINUOUS
 62
     7
 10
23.291592486399999
 20
8.4590781556000003
 30
0.0
  0
VERTEX
  5
9D7
  8
0
  6
CONTINUOUS
 62
     7
 10
23.3290598468
 20
8.6299320942999991
 30
0.0
  0
VERTEX
  5
9D8
  8
0
  6
CONTINUOUS
 62
     7
 10
23.364289082900001
 20
8.8012641408000007
 30
0.0
  0
VERTEX
  5
9D9
  8
0
  6
CONTINUOUS
 62
     7
 10
23.3972740934
 20
8.9730446217999997
 30
0.0
  0
VERTEX
  5
9DA
  8
0
  6
CONTINUOUS
 62
     7
 10
23.428009165500001
 20
9.1452437864
 30
0.0
  0
VERTEX
  5
9DB
  8
0
  6
CONTINUOUS
 62
     7
 10
23.456488976199999
 20
9.3178318112999996
 30
0.0
  0
VERTEX
  5
9DC
  8
0
  6
CONTINUOUS
 62
     7
 10
23.4827085929
 20
9.4907788054999997
 30
0.0
  0
VERTEX
  5
9DD
  8
0
  6
CONTINUOUS
 62
     7
 10
23.506663474700002
 20
9.6640548164000002
 30
0.0
  0
VERTEX
  5
9DE
  8
0
  6
CONTINUOUS
 62
     7
 10
23.5283494729
 20
9.8376298337999994
 30
0.0
  0
VERTEX
  5
9DF
  8
0
  6
CONTINUOUS
 62
     7
 10
23.547762831499998
 20
10.011473796200001
 30
0.0
  0
VERTEX
  5
9E0
  8
0
  6
CONTINUOUS
 62
     7
 10
23.564900188399999
 20
10.1855565952
 30
0.0
  0
VERTEX
  5
9E1
  8
0
  6
CONTINUOUS
 62
     7
 10
23.5797585756
 20
10.359848081199999
 30
0.0
  0
VERTEX
  5
9E2
  8
0
  6
CONTINUOUS
 62
     7
 10
23.592335419600001
 20
10.534318068499999
 30
0.0
  0
VERTEX
  5
9E3
  8
0
  6
CONTINUOUS
 62
     7
 10
23.602628542200002
 20
10.708936340299999
 30
0.0
  0
VERTEX
  5
9E4
  8
0
  6
CONTINUOUS
 62
     7
 10
23.6106361609
 20
10.8836726543
 30
0.0
  0
VERTEX
  5
9E5
  8
0
  6
CONTINUOUS
 62
     7
 10
23.6163568887
 20
11.0584967476
 30
0.0
  0
VERTEX
  5
9E6
  8
0
  6
CONTINUOUS
 62
     7
 10
23.619789734800001
 20
11.2333783422
 30
0.0
  0
VERTEX
  5
9E7
  8
0
  6
CONTINUOUS
 62
     7
 10
23.6209341048
 20
11.4082871502
 30
0.0
  0
SEQEND
  5
9E8
  8
0
  6
CONTINUOUS
 62
     7
  0
POLYLINE
  5
458
  8
0
  6
CONTINUOUS
 62
     7
 66
     1
 10
0.0
 20
0.0
 30
0.0
  0
VERTEX
  5
9E9
  8
0
  6
CONTINUOUS
 62
     7
 10
21.607185929900002
 20
5.3590447961000001
 30
0.0
  0
VERTEX
  5
9EA
  8
0
  6
CONTINUOUS
 62
     7
 10
21.692819573400001
 20
5.4452183652999988
 30
0.0
  0
VERTEX
  5
9EB
  8
0
  6
CONTINUOUS
 62
     7
 10
21.776709504700001
 20
5.5330902430999993
 30
0.0
  0
VERTEX
  5
9EC
  8
0
  6
CONTINUOUS
 62
     7
 10
21.858822049099999
 20
5.622625156599999
 30
0.0
  0
VERTEX
  5
9ED
  8
0
  6
CONTINUOUS
 62
     7
 10
21.9391242457
 20
5.7137871651999994
 30
0.0
  0
VERTEX
  5
9EE
  8
0
  6
CONTINUOUS
 62
     7
 10
22.0175838599
 20
5.8065396752999989
 30
0.0
  0
VERTEX
  5
9EF
  8
0
  6
CONTINUOUS
 62
     7
 10
22.094169397000002
 20
5.9008454544999998
 30
0.0
  0
VERTEX
  5
9F0
  8
0
  6
CONTINUOUS
 62
     7
 10
22.168850114400001
 20
5.9966666473999988
 30
0.0
  0
VERTEX
  5
9F1
  8
0
  6
CONTINUOUS
 62
     7
 10
22.241596034299999
 20
6.0939647900000002
 30
0.0
  0
VERTEX
  5
9F2
  8
0
  6
CONTINUOUS
 62
     7
 10
22.312377955500001
 20
6.1927008252999993
 30
0.0
  0
VERTEX
  5
9F3
  8
0
  6
CONTINUOUS
 62
     7
 10
22.381167465000001
 20
6.2928351194000003
 30
0.0
  0
VERTEX
  5
9F4
  8
0
  6
CONTINUOUS
 62
     7
 10
22.447936949900001
 20
6.394327477
 30
0.0
  0
VERTEX
  5
9F5
  8
0
  6
CONTINUOUS
 62
     7
 10
22.512659608
 20
6.4971371576000001
 30
0.0
  0
VERTEX
  5
9F6
  8
0
  6
CONTINUOUS
 62
     7
 10
22.5753094586
 20
6.601222892
 30
0.0
  0
VERTEX
  5
9F7
  8
0
  6
CONTINUOUS
 62
     7
 10
22.635861353199999
 20
6.7065428987999987
 30
0.0
  0
VERTEX
  5
9F8
  8
0
  6
CONTINUOUS
 62
     7
 10
22.694290985399999
 20
6.8130549009000001
 30
0.0
  0
VERTEX
  5
9F9
  8
0
  6
CONTINUOUS
 62
     7
 10
22.7505749008
 20
6.920716142999999
 30
0.0
  0
VERTEX
  5
9FA
  8
0
  6
CONTINUOUS
 62
     7
 10
22.804690506299998
 20
7.0294834083
 30
0.0
  0
VERTEX
  5
9FB
  8
0
  6
CONTINUOUS
 62
     7
 10
22.856616078999998
 20
7.139313036299999
 30
0.0
  0
VERTEX
  5
9FC
  8
0
  6
CONTINUOUS
 62
     7
 10
22.906330775400001
 20
7.2501609395999997
 30
0.0
  0
VERTEX
  5
9FD
  8
0
  6
CONTINUOUS
 62
     7
 10
22.953814639200001
 20
7.3619826225000002
 30
0.0
  0
VERTEX
  5
9FE
  8
0
  6
CONTINUOUS
 62
     7
 10
22.999048609700001
 20
7.4747331980999991
 30
0.0
  0
VERTEX
  5
9FF
  8
0
  6
CONTINUOUS
 62
     7
 10
23.042014529500001
 20
7.5883674067999989
 30
0.0
  0
VERTEX
  5
A00
  8
0
  6
CONTINUOUS
 62
     7
 10
23.082695151300001
 20
7.7028396341999992
 30
0.0
  0
VERTEX
  5
A01
  8
0
  6
CONTINUOUS
 62
     7
 10
23.1210741455
 20
7.8181039296000003
 30
0.0
  0
VERTEX
  5
A02
  8
0
  6
CONTINUOUS
 62
     7
 10
23.157136106100001
 20
7.9341140241999986
 30
0.0
  0
VERTEX
  5
A03
  8
0
  6
CONTINUOUS
 62
     7
 10
23.1908665574
 20
8.0508233500999982
 30
0.0
  0
VERTEX
  5
A04
  8
0
  6
CONTINUOUS
 62
     7
 10
23.222251959499999
 20
8.1681850584000006
 30
0.0
  0
VERTEX
  5
A05
  8
0
  6
CONTINUOUS
 62
     7
 10
23.251279713900001
 20
8.2861520384999992
 30
0.0
  0
SEQEND
  5
A06
  8
0
  6
CONTINUOUS
 62
     7
  0
POLYLINE
  5
459
  8
0
  6
DASHED
 62
     7
 66
     1
 10
0.0
 20
0.0
 30
0.0
  0
VERTEX
  5
A07
  8
0
  6
DASHED
 62
     7
 10
5.5181701309999998
 20
19.553158724599999
 30
0.0
  0
VERTEX
  5
A08
  8
0
  6
DASHED
 62
     7
 10
5.5331002533999998
 20
19.5513790346
 30
0.0
  0
VERTEX
  5
A09
  8
0
  6
DASHED
 62
     7
 10
5.5498943003000001
 20
19.551227514600001
 30
0.0
  0
VERTEX
  5
A0A
  8
0
  6
DASHED
 62
     7
 10
5.5684811620000003
 20
19.5527048063
 30
0.0
  0
VERTEX
  5
A0B
  8
0
  6
DASHED
 62
     7
 10
5.5887821373999991
 20
19.555804654500001
 30
0.0
  0
VERTEX
  5
A0C
  8
0
  6
DASHED
 62
     7
 10
5.6107112675000002
 20
19.560513933599999
 30
0.0
  0
VERTEX
  5
A0D
  8
0
  6
DASHED
 62
     7
 10
5.6341756994000001
 20
19.566812703499998
 30
0.0
  0
VERTEX
  5
A0E
  8
0
  6
DASHED
 62
     7
 10
5.659076079400001
 20
19.574674293800001
 30
0.0
  0
VERTEX
  5
A0F
  8
0
  6
DASHED
 62
     7
 10
5.6853069734000004
 20
19.5840654167
 30
0.0
  0
VERTEX
  5
A10
  8
0
  6
DASHED
 62
     7
 10
5.7127573139000001
 20
19.594946308000001
 30
0.0
  0
VERTEX
  5
A11
  8
0
  6
DASHED
 62
     7
 10
5.7413108699000004
 20
19.607270895599999
 30
0.0
  0
VERTEX
  5
A12
  8
0
  6
DASHED
 62
     7
 10
5.7708467390999987
 20
19.620986994300001
 30
0.0
  0
VERTEX
  5
A13
  8
0
  6
DASHED
 62
     7
 10
5.801239859799999
 20
19.6360365271
 30
0.0
  0
VERTEX
  5
A14
  8
0
  6
DASHED
 62
     7
 10
5.8323615407
 20
19.652355770700002
 30
0.0
  0
VERTEX
  5
A15
  8
0
  6
DASHED
 62
     7
 10
5.8640800053999991
 20
19.6698756258
 30
0.0
  0
VERTEX
  5
A16
  8
0
  6
DASHED
 62
     7
 10
5.8962609505999994
 20
19.6885219093
 30
0.0
  0
VERTEX
  5
A17
  8
0
  6
DASHED
 62
     7
 10
5.9287681149999987
 20
19.708215668499999
 30
0.0
  0
VERTEX
  5
A18
  8
0
  6
DASHED
 62
     7
 10
5.961463855599999
 20
19.7288735156
 30
0.0
  0
VERTEX
  5
A19
  8
0
  6
DASHED
 62
     7
 10
5.9942097313999989
 20
19.7504079805
 30
0.0
  0
VERTEX
  5
A1A
  8
0
  6
DASHED
 62
     7
 10
6.0268670886000004
 20
19.772727881400002
 30
0.0
  0
VERTEX
  5
A1B
  8
0
  6
DASHED
 62
     7
 10
6.0592976487000003
 20
19.795738710599998
 30
0.0
  0
VERTEX
  5
A1C
  8
0
  6
DASHED
 62
     7
 10
6.0913640932000002
 20
19.819343035199999
 30
0.0
  0
VERTEX
  5
A1D
  8
0
  6
DASHED
 62
     7
 10
6.1229306453999994
 20
19.8434409089
 30
0.0
  0
VERTEX
  5
A1E
  8
0
  6
DASHED
 62
     7
 10
6.1538636452999986
 20
19.867930295899999
 30
0.0
  0
VERTEX
  5
A1F
  8
0
  6
DASHED
 62
     7
 10
6.1840321155999991
 20
19.8927075024
 30
0.0
  0
VERTEX
  5
A20
  8
0
  6
DASHED
 62
     7
 10
6.2133083159999991
 20
19.917667616199999
 30
0.0
  0
SEQEND
  5
A21
  8
0
  6
DASHED
 62
     7
  0
POLYLINE
  5
45A
  8
0
  6
DASHED
 62
     7
 66
     1
 10
0.0
 20
0.0
 30
0.0
  0
VERTEX
  5
A22
  8
0
  6
DASHED
 62
     7
 10
5.518164647799999
 20
19.5531598966
 30
0.0
  0
VERTEX
  5
A23
  8
0
  6
DASHED
 62
     7
 10
5.4844025248000001
 20
19.557941196000002
 30
0.0
  0
VERTEX
  5
A24
  8
0
  6
DASHED
 62
     7
 10
5.4503917699000004
 20
19.560409059200001
 30
0.0
  0
VERTEX
  5
A25
  8
0
  6
DASHED
 62
     7
 10
5.4162909904999994
 20
19.560551977399999
 30
0.0
  0
VERTEX
  5
A26
  8
0
  6
DASHED
 62
     7
 10
5.3822592136000003
 20
19.558369284299999
 30
0.0
  0
VERTEX
  5
A27
  8
0
  6
DASHED
 62
     7
 10
5.348455144499999
 20
19.5538711586
 30
0.0
  0
VERTEX
  5
A28
  8
0
  6
DASHED
 62
     7
 10
5.315036426599999
 20
19.547078577099999
 30
0.0
  0
VERTEX
  5
A29
  8
0
  6
DASHED
 62
     7
 10
5.2821589061000003
 20
19.538023216599999
 30
0.0
  0
VERTEX
  5
A2A
  8
0
  6
DASHED
 62
     7
 10
5.2499759056000004
 20
19.526747306400001
 30
0.0
  0
VERTEX
  5
A2B
  8
0
  6
DASHED
 62
     7
 10
5.2186375085999996
 20
19.513303430899999
 30
0.0
  0
VERTEX
  5
A2C
  8
0
  6
DASHED
 62
     7
 10
5.1882898601000003
 20
19.497754284900001
 30
0.0
  0
SEQEND
  5
A2D
  8
0
  6
DASHED
 62
     7
  0
POLYLINE
  5
45B
  8
0
  6
CONTINUOUS
 62
     7
 66
     1
 10
0.0
 20
0.0
 30
0.0
  0
VERTEX
  5
A2E
  8
0
  6
CONTINUOUS
 62
     7
 10
23.251278869299998
 20
14.530429908
 30
0.0
  0
VERTEX
  5
A2F
  8
0
  6
CONTINUOUS
 62
     7
 10
23.222251261299999
 20
14.648395906299999
 30
0.0
  0
VERTEX
  5
A30
  8
0
  6
CONTINUOUS
 62
     7
 10
23.190865971400001
 20
14.7657567783
 30
0.0
  0
VERTEX
  5
A31
  8
0
  6
CONTINUOUS
 62
     7
 10
23.157135601099998
 20
14.882465402499999
 30
0.0
  0
VERTEX
  5
A32
  8
0
  6
CONTINUOUS
 62
     7
 10
23.1210736936
 20
14.9984749194
 30
0.0
  0
VERTEX
  5
A33
  8
0
  6
CONTINUOUS
 62
     7
 10
23.082694728000011
 20
15.1137387498
 30
0.0
  0
VERTEX
  5
A34
  8
0
  6
CONTINUOUS
 62
     7
 10
23.042014113800001
 20
15.2282106144
 30
0.0
  0
VERTEX
  5
A35
  8
0
  6
CONTINUOUS
 62
     7
 10
22.999048184799999
 20
15.341844551499999
 30
0.0
  0
VERTEX
  5
A36
  8
0
  6
CONTINUOUS
 62
     7
 10
22.953814192100001
 20
15.454594935899999
 30
0.0
  0
VERTEX
  5
A37
  8
0
  6
CONTINUOUS
 62
     7
 10
22.906330297699999
 20
15.566416497400001
 30
0.0
  0
VERTEX
  5
A38
  8
0
  6
CONTINUOUS
 62
     7
 10
22.8566155667
 20
15.677264338400001
 30
0.0
  0
VERTEX
  5
A39
  8
0
  6
CONTINUOUS
 62
     7
 10
22.804689960200001
 20
15.787093952499999
 30
0.0
  0
VERTEX
  5
A3A
  8
0
  6
CONTINUOUS
 62
     7
 10
22.750574326700001
 20
15.895861242000001
 30
0.0
  0
VERTEX
  5
A3B
  8
0
  6
CONTINUOUS
 62
     7
 10
22.694290394300001
 20
16.0035225359
 30
0.0
  0
VERTEX
  5
A3C
  8
0
  6
CONTINUOUS
 62
     7
 10
22.6358607614
 20
16.110034606900001
 30
0.0
  0
VERTEX
  5
A3D
  8
0
  6
CONTINUOUS
 62
     7
 10
22.575308888199999
 20
16.215354689600002
 30
0.0
  0
VERTEX
  5
A3E
  8
0
  6
CONTINUOUS
 62
     7
 10
22.512659086799999
 20
16.319440496799999
 30
0.0
  0
VERTEX
  5
A3F
  8
0
  6
CONTINUOUS
 62
     7
 10
22.4479365117
 20
16.422250237099998
 30
0.0
  0
VERTEX
  5
A40
  8
0
  6
CONTINUOUS
 62
     7
 10
22.381167149700001
 20
16.523742631299999
 30
0.0
  0
VERTEX
  5
A41
  8
0
  6
CONTINUOUS
 62
     7
 10
22.312377809200001
 20
16.623876929400002
 30
0.0
  0
VERTEX
  5
A42
  8
0
  6
CONTINUOUS
 62
     7
 10
22.24159611
 20
16.7226129264
 30
0.0
  0
VERTEX
  5
A43
  8
0
  6
CONTINUOUS
 62
     7
 10
22.168850471500001
 20
16.819910978799999
 30
0.0
  0
VERTEX
  5
A44
  8
0
  6
CONTINUOUS
 62
     7
 10
22.0941701018
 20
16.9157320206
 30
0.0
  0
VERTEX
  5
A45
  8
0
  6
CONTINUOUS
 62
     7
 10
22.017584985799999
 20
17.010037578599999
 30
0.0
  0
VERTEX
  5
A46
  8
0
  6
CONTINUOUS
 62
     7
 10
21.939125873199998
 20
17.102789788199999
 30
0.0
  0
VERTEX
  5
A47
  8
0
  6
CONTINUOUS
 62
     7
 10
21.858824265999999
 20
17.1939514086
 30
0.0
  0
VERTEX
  5
A48
  8
0
  6
CONTINUOUS
 62
     7
 10
21.7767124063
 20
17.283485837400001
 30
0.0
  0
VERTEX
  5
A49
  8
0
  6
CONTINUOUS
 62
     7
 10
21.692823262600001
 20
17.371357125799999
 30
0.0
  0
VERTEX
  5
A4A
  8
0
  6
CONTINUOUS
 62
     7
 10
21.607190517199999
 20
17.457529992400001
 30
0.0
  0
SEQEND
  5
A4B
  8
0
  6
CONTINUOUS
 62
     7
  0
POLYLINE
  5
45C
  8
0
  6
DASHED
 62
     7
 66
     1
 10
0.0
 20
0.0
 30
0.0
  0
VERTEX
  5
A4C
  8
0
  6
DASHED
 62
     7
 10
21.676906726199999
 20
18.599555831
 30
0.0
  0
VERTEX
  5
A4D
  8
0
  6
DASHED
 62
     7
 10
21.689361100399999
 20
18.5472295836
 30
0.0
  0
VERTEX
  5
A4E
  8
0
  6
DASHED
 62
     7
 10
21.704280835399999
 20
18.495383174600001
 30
0.0
  0
VERTEX
  5
A4F
  8
0
  6
DASHED
 62
     7
 10
21.721641222799999
 20
18.444102466299999
 30
0.0
  0
VERTEX
  5
A50
  8
0
  6
DASHED
 62
     7
 10
21.741413512299999
 20
18.393472384100001
 30
0.0
  0
VERTEX
  5
A51
  8
0
  6
DASHED
 62
     7
 10
21.763564959299998
 20
18.343576775900001
 30
0.0
  0
VERTEX
  5
A52
  8
0
  6
DASHED
 62
     7
 10
21.788058878800001
 20
18.2944982735
 30
0.0
  0
VERTEX
  5
A53
  8
0
  6
DASHED
 62
     7
 10
21.814854706799998
 20
18.246318155200001
 30
0.0
  0
VERTEX
  5
A54
  8
0
  6
DASHED
 62
     7
 10
21.843908067000001
 20
18.1991162116
 30
0.0
  0
VERTEX
  5
A55
  8
0
  6
DASHED
 62
     7
 10
21.875170844399999
 20
18.152970613400001
 30
0.0
  0
VERTEX
  5
A56
  8
0
  6
DASHED
 62
     7
 10
21.908591264999998
 20
18.1079577818
 30
0.0
  0
VERTEX
  5
A57
  8
0
  6
DASHED
 62
     7
 10
21.944113981600001
 20
18.0641522622
 30
0.0
  0
VERTEX
  5
A58
  8
0
  6
DASHED
 62
     7
 10
21.9816801654
 20
18.021626600400001
 30
0.0
  0
VERTEX
  5
A59
  8
0
  6
DASHED
 62
     7
 10
22.0212276034
 20
17.980451222799999
 30
0.0
  0
VERTEX
  5
A5A
  8
0
  6
DASHED
 62
     7
 10
22.062690801500001
 20
17.940694319399999
 30
0.0
  0
VERTEX
  5
A5B
  8
0
  6
DASHED
 62
     7
 10
22.106001092900001
 20
17.9024217314
 30
0.0
  0
SEQEND
  5
A5C
  8
0
  6
DASHED
 62
     7
  0
POLYLINE
  5
45D
  8
0
  6
DASHED
 62
     7
 66
     1
 10
0.0
 20
0.0
 30
0.0
  0
VERTEX
  5
A5D
  8
0
  6
DASHED
 62
     7
 10
21.676907323999998
 20
18.599552903799999
 30
0.0
  0
VERTEX
  5
A5E
  8
0
  6
DASHED
 62
     7
 10
21.6695734947
 20
18.6329979299
 30
0.0
  0
VERTEX
  5
A5F
  8
0
  6
DASHED
 62
     7
 10
21.659965161300001
 20
18.665865801500001
 30
0.0
  0
VERTEX
  5
A60
  8
0
  6
DASHED
 62
     7
 10
21.648127731199999
 20
18.698001189599999
 30
0.0
  0
VERTEX
  5
A61
  8
0
  6
DASHED
 62
     7
 10
21.634117146600001
 20
18.729252227
 30
0.0
  0
VERTEX
  5
A62
  8
0
  6
DASHED
 62
     7
 10
21.617999619500001
 20
18.759471225799999
 30
0.0
  0
VERTEX
  5
A63
  8
0
  6
DASHED
 62
     7
 10
21.599851318900001
 20
18.788515375399999
 30
0.0
  0
VERTEX
  5
A64
  8
0
  6
DASHED
 62
     7
 10
21.579758011100001
 20
18.816247417300001
 30
0.0
  0
VERTEX
  5
A65
  8
0
  6
DASHED
 62
     7
 10
21.557814654200001
 20
18.842536293799999
 30
0.0
  0
VERTEX
  5
A66
  8
0
  6
DASHED
 62
     7
 10
21.534124949399999
 20
18.8672577675
 30
0.0
  0
SEQEND
  5
A67
  8
0
  6
DASHED
 62
     7
  0
POLYLINE
  5
45E
  8
0
  6
DASHED
 62
     7
 66
     1
 10
0.0
 20
0.0
 30
0.0
  0
VERTEX
  5
A68
  8
0
  6
DASHED
 62
     7
 10
24.305826759199999
 20
11.4082843811
 30
0.0
  0
VERTEX
  5
A69
  8
0
  6
DASHED
 62
     7
 10
24.304628962700001
 20
11.5913648739
 30
0.0
  0
VERTEX
  5
A6A
  8
0
  6
DASHED
 62
     7
 10
24.301035643300001
 20
11.774418047499999
 30
0.0
  0
VERTEX
  5
A6B
  8
0
  6
DASHED
 62
     7
 10
24.295047425700002
 20
11.9574120722
 30
0.0
  0
VERTEX
  5
A6C
  8
0
  6
DASHED
 62
     7
 10
24.2866653514
 20
12.140315128399999
 30
0.0
  0
VERTEX
  5
A6D
  8
0
  6
DASHED
 62
     7
 10
24.275890877799998
 20
12.323095412300001
 30
0.0
  0
VERTEX
  5
A6E
  8
0
  6
DASHED
 62
     7
 10
24.262725878299999
 20
12.5057211416
 30
0.0
  0
VERTEX
  5
A6F
  8
0
  6
DASHED
 62
     7
 10
24.247172642199999
 20
12.6881605608
 30
0.0
  0
VERTEX
  5
A70
  8
0
  6
DASHED
 62
     7
 10
24.229233873799998
 20
12.8703819468
 30
0.0
  0
VERTEX
  5
A71
  8
0
  6
DASHED
 62
     7
 10
24.2089126925
 20
13.052353614499999
 30
0.0
  0
VERTEX
  5
A72
  8
0
  6
DASHED
 62
     7
 10
24.186212631699998
 20
13.234043922
 30
0.0
  0
VERTEX
  5
A73
  8
0
  6
DASHED
 62
     7
 10
24.161137638700001
 20
13.4154212765
 30
0.0
  0
VERTEX
  5
A74
  8
0
  6
DASHED
 62
     7
 10
24.13369207340001
 20
13.5964541395
 30
0.0
  0
VERTEX
  5
A75
  8
0
  6
DASHED
 62
     7
 10
24.103880708199998
 20
13.777111032700001
 30
0.0
  0
VERTEX
  5
A76
  8
0
  6
DASHED
 62
     7
 10
24.071708726899999
 20
13.9573605427
 30
0.0
  0
VERTEX
  5
A77
  8
0
  6
DASHED
 62
     7
 10
24.037181723500002
 20
14.137171327300001
 30
0.0
  0
VERTEX
  5
A78
  8
0
  6
DASHED
 62
     7
 10
24.000305701799999
 20
14.316512120500001
 30
0.0
  0
VERTEX
  5
A79
  8
0
  6
DASHED
 62
     7
 10
23.9610870737
 20
14.495351738
 30
0.0
  0
VERTEX
  5
A7A
  8
0
  6
DASHED
 62
     7
 10
23.9195326589
 20
14.6736590826
 30
0.0
  0
SEQEND
  5
A7B
  8
0
  6
DASHED
 62
     7
  0
POLYLINE
  5
45F
  8
0
  6
DASHED
 62
     7
 66
     1
 10
0.0
 20
0.0
 30
0.0
  0
VERTEX
  5
A7C
  8
0
  6
DASHED
 62
     7
 10
23.919532640500002
 20
8.142916339400001
 30
0.0
  0
VERTEX
  5
A7D
  8
0
  6
DASHED
 62
     7
 10
23.9610868231
 20
8.3212226250000008
 30
0.0
  0
VERTEX
  5
A7E
  8
0
  6
DASHED
 62
     7
 10
24.000305268799998
 20
8.5000614170999995
 30
0.0
  0
VERTEX
  5
A7F
  8
0
  6
DASHED
 62
     7
 10
24.037181152599999
 20
8.6794015936999998
 30
0.0
  0
VERTEX
  5
A80
  8
0
  6
DASHED
 62
     7
 10
24.0717080575
 20
8.8592119458000003
 30
0.0
  0
VERTEX
  5
A81
  8
0
  6
DASHED
 62
     7
 10
24.103879975000002
 20
9.0394611825000002
 30
0.0
  0
VERTEX
  5
A82
  8
0
  6
DASHED
 62
     7
 10
24.133691306300001
 20
9.2201179364999994
 30
0.0
  0
VERTEX
  5
A83
  8
0
  6
DASHED
 62
     7
 10
24.161136863900001
 20
9.4011507694999992
 30
0.0
  0
VERTEX
  5
A84
  8
0
  6
DASHED
 62
     7
 10
24.186211871400001
 20
9.5825281778000004
 30
0.0
  0
VERTEX
  5
A85
  8
0
  6
DASHED
 62
     7
 10
24.2089119653
 20
9.7642185977999993
 30
0.0
  0
VERTEX
  5
A86
  8
0
  6
DASHED
 62
     7
 10
24.229233195300001
 20
9.9461904113999982
 30
0.0
  0
VERTEX
  5
A87
  8
0
  6
DASHED
 62
     7
 10
24.247172025000001
 20
10.1284119515
 30
0.0
  0
VERTEX
  5
A88
  8
0
  6
DASHED
 62
     7
 10
24.262725332800009
 20
10.310851507600001
 30
0.0
  0
VERTEX
  5
A89
  8
0
  6
DASHED
 62
     7
 10
24.275890411900001
 20
10.493477331199999
 30
0.0
  0
VERTEX
  5
A8A
  8
0
  6
DASHED
 62
     7
 10
24.2866649714
 20
10.676257641399999
 30
0.0
  0
VERTEX
  5
A8B
  8
0
  6
DASHED
 62
     7
 10
24.295047136200001
 20
10.8591606305
 30
0.0
  0
VERTEX
  5
A8C
  8
0
  6
DASHED
 62
     7
 10
24.3010354478
 20
11.0421544693
 30
0.0
  0
VERTEX
  5
A8D
  8
0
  6
DASHED
 62
     7
 10
24.3046288639
 20
11.2252073129
 30
0.0
  0
VERTEX
  5
A8E
  8
0
  6
DASHED
 62
     7
 10
24.305826759199999
 20
11.408287306
 30
0.0
  0
SEQEND
  5
A8F
  8
0
  6
DASHED
 62
     7
  0
POLYLINE
  5
460
  8
0
  6
DASHED
 62
     7
 66
     1
 10
0.0
 20
0.0
 30
0.0
  0
VERTEX
  5
A90
  8
0
  6
DASHED
 62
     7
 10
21.5341278991
 20
3.9493206051999992
 30
0.0
  0
VERTEX
  5
A91
  8
0
  6
DASHED
 62
     7
 10
21.557817544999999
 20
3.9740423991
 30
0.0
  0
VERTEX
  5
A92
  8
0
  6
DASHED
 62
     7
 10
21.579760675399999
 20
4.0003314023999996
 30
0.0
  0
VERTEX
  5
A93
  8
0
  6
DASHED
 62
     7
 10
21.599853645300001
 20
4.0280634427999988
 30
0.0
  0
VERTEX
  5
A94
  8
0
  6
DASHED
 62
     7
 10
21.618001548199999
 20
4.0571075317999989
 30
0.0
  0
VERTEX
  5
A95
  8
0
  6
DASHED
 62
     7
 10
21.634118665100001
 20
4.0873264840000001
 30
0.0
  0
VERTEX
  5
A96
  8
0
  6
DASHED
 62
     7
 10
21.648128869299999
 20
4.1185775643999989
 30
0.0
  0
VERTEX
  5
A97
  8
0
  6
DASHED
 62
     7
 10
21.6599659854
 20
4.1507131629999989
 30
0.0
  0
VERTEX
  5
A98
  8
0
  6
DASHED
 62
     7
 10
21.6695741025
 20
4.1835814919000001
 30
0.0
  0
VERTEX
  5
A99
  8
0
  6
DASHED
 62
     7
 10
21.676907838199998
 20
4.2170273023
 30
0.0
  0
SEQEND
  5
A9A
  8
0
  6
DASHED
 62
     7
  0
POLYLINE
  5
461
  8
0
  6
DASHED
 62
     7
 66
     1
 10
0.0
 20
0.0
 30
0.0
  0
VERTEX
  5
A9B
  8
0
  6
DASHED
 62
     7
 10
22.106005958499999
 20
4.9141563436000002
 30
0.0
  0
VERTEX
  5
A9C
  8
0
  6
DASHED
 62
     7
 10
22.197238323200001
 20
5.0059006420999994
 30
0.0
  0
VERTEX
  5
A9D
  8
0
  6
DASHED
 62
     7
 10
22.286679015899999
 20
5.0993927527
 30
0.0
  0
VERTEX
  5
A9E
  8
0
  6
DASHED
 62
     7
 10
22.3742945531
 20
5.1945976752999989
 30
0.0
  0
VERTEX
  5
A9F
  8
0
  6
DASHED
 62
     7
 10
22.4600521347
 20
5.2914797685000003
 30
0.0
  0
VERTEX
  5
AA0
  8
0
  6
DASHED
 62
     7
 10
22.5439196562
 20
5.3900027633000001
 30
0.0
  0
VERTEX
  5
AA1
  8
0
  6
DASHED
 62
     7
 10
22.625865720499998
 20
5.490129775999999
 30
0.0
  0
VERTEX
  5
AA2
  8
0
  6
DASHED
 62
     7
 10
22.705859650000001
 20
5.5918233225999989
 30
0.0
  0
VERTEX
  5
AA3
  8
0
  6
DASHED
 62
     7
 10
22.783871497700002
 20
5.6950453327999986
 30
0.0
  0
VERTEX
  5
AA4
  8
0
  6
DASHED
 62
     7
 10
22.859872058800001
 20
5.799757163899999
 30
0.0
  0
VERTEX
  5
AA5
  8
0
  6
DASHED
 62
     7
 10
22.933832881400001
 20
5.9059196154999993
 30
0.0
  0
VERTEX
  5
AA6
  8
0
  6
DASHED
 62
     7
 10
23.005726277200001
 20
6.0134929440999993
 30
0.0
  0
VERTEX
  5
AA7
  8
0
  6
DASHED
 62
     7
 10
23.0755253319
 20
6.1224368782000003
 30
0.0
  0
VERTEX
  5
AA8
  8
0
  6
DASHED
 62
     7
 10
23.143203915099999
 20
6.232710632899999
 30
0.0
  0
VERTEX
  5
AA9
  8
0
  6
DASHED
 62
     7
 10
23.2087366905
 20
6.3442729258000004
 30
0.0
  0
VERTEX
  5
AAA
  8
0
  6
DASHED
 62
     7
 10
23.272099124899999
 20
6.4570819917999991
 30
0.0
  0
VERTEX
  5
AAB
  8
0
  6
DASHED
 62
     7
 10
23.333267497600001
 20
6.5710955992999986
 30
0.0
  0
VERTEX
  5
AAC
  8
0
  6
DASHED
 62
     7
 10
23.3922189094
 20
6.6862710656999997
 30
0.0
  0
VERTEX
  5
AAD
  8
0
  6
DASHED
 62
     7
 10
23.448931291000001
 20
6.8025652731999999
 30
0.0
  0
VERTEX
  5
AAE
  8
0
  6
DASHED
 62
     7
 10
23.503383411200002
 20
6.9199346855999986
 30
0.0
  0
VERTEX
  5
AAF
  8
0
  6
DASHED
 62
     7
 10
23.555554885199999
 20
7.038335363899999
 30
0.0
  0
VERTEX
  5
AB0
  8
0
  6
DASHED
 62
     7
 10
23.605426181799999
 20
7.1577229830999993
 30
0.0
  0
VERTEX
  5
AB1
  8
0
  6
DASHED
 62
     7
 10
23.652978631
 20
7.2780528487999989
 30
0.0
  0
VERTEX
  5
AB2
  8
0
  6
DASHED
 62
     7
 10
23.698194430800001
 20
7.3992799136
 30
0.0
  0
VERTEX
  5
AB3
  8
0
  6
DASHED
 62
     7
 10
23.741056654000001
 20
7.5213587945000002
 30
0.0
  0
VERTEX
  5
AB4
  8
0
  6
DASHED
 62
     7
 10
23.7815492545
 20
7.6442437894999999
 30
0.0
  0
VERTEX
  5
AB5
  8
0
  6
DASHED
 62
     7
 10
23.819657073399998
 20
7.7678888948999996
 30
0.0
  0
VERTEX
  5
AB6
  8
0
  6
DASHED
 62
     7
 10
23.8553658445
 20
7.892247822299999
 30
0.0
  0
VERTEX
  5
AB7
  8
0
  6
DASHED
 62
     7
 10
23.888662199599999
 20
8.0172740161
 30
0.0
  0
VERTEX
  5
AB8
  8
0
  6
DASHED
 62
     7
 10
23.919533673699998
 20
8.1429206710000006
 30
0.0
  0
SEQEND
  5
AB9
  8
0
  6
DASHED
 62
     7
  0
POLYLINE
  5
462
  8
0
  6
DASHED
 62
     7
 66
     1
 10
0.0
 20
0.0
 30
0.0
  0
VERTEX
  5
ABA
  8
0
  6
DASHED
 62
     7
 10
22.106000812200001
 20
4.9141516216000003
 30
0.0
  0
VERTEX
  5
ABB
  8
0
  6
DASHED
 62
     7
 10
22.0626887737
 20
4.8758775981999989
 30
0.0
  0
VERTEX
  5
ABC
  8
0
  6
DASHED
 62
     7
 10
22.021224427
 20
4.8361199352000002
 30
0.0
  0
VERTEX
  5
ABD
  8
0
  6
DASHED
 62
     7
 10
21.981676346899999
 20
4.7949443846999991
 30
0.0
  0
VERTEX
  5
ABE
  8
0
  6
DASHED
 62
     7
 10
21.944109938699999
 20
4.7524190436999989
 30
0.0
  0
VERTEX
  5
ABF
  8
0
  6
DASHED
 62
     7
 10
21.908587330700001
 20
4.7086142417000003
 30
0.0
  0
VERTEX
  5
AC0
  8
0
  6
DASHED
 62
     7
 10
21.875167270799999
 20
4.6636024237999987
 30
0.0
  0
VERTEX
  5
AC1
  8
0
  6
DASHED
 62
     7
 10
21.843905029999998
 20
4.6174580317
 30
0.0
  0
VERTEX
  5
AC2
  8
0
  6
DASHED
 62
     7
 10
21.814852310300001
 20
4.5702573799000001
 30
0.0
  0
VERTEX
  5
AC3
  8
0
  6
DASHED
 62
     7
 10
21.788057159899999
 20
4.522078529899999
 30
0.0
  0
VERTEX
  5
AC4
  8
0
  6
DASHED
 62
     7
 10
21.763563893099999
 20
4.4730011611
 30
0.0
  0
VERTEX
  5
AC5
  8
0
  6
DASHED
 62
     7
 10
21.741413017399999
 20
4.4231064384999996
 30
0.0
  0
VERTEX
  5
AC6
  8
0
  6
DASHED
 62
     7
 10
21.7216411665
 20
4.3724768790999997
 30
0.0
  0
VERTEX
  5
AC7
  8
0
  6
DASHED
 62
     7
 10
21.704281039400001
 20
4.3211962153999997
 30
0.0
  0
VERTEX
  5
AC8
  8
0
  6
DASHED
 62
     7
 10
21.689361346799998
 20
4.2693492561999991
 30
0.0
  0
VERTEX
  5
AC9
  8
0
  6
DASHED
 62
     7
 10
21.676906763000002
 20
4.2170217473999996
 30
0.0
  0
SEQEND
  5
ACA
  8
0
  6
DASHED
 62
     7
  0
POLYLINE
  5
464
  8
0
  6
CONTINUOUS
 62
     7
 66
     1
 10
0.0
 20
0.0
 30
0.0
  0
VERTEX
  5
ACB
  8
0
  6
CONTINUOUS
 62
     7
 10
19.362019770700002
 20
3.6969054339
 30
0.0
  0
VERTEX
  5
ACC
  8
0
  6
CONTINUOUS
 62
     7
 10
19.474391881900001
 20
3.745901053299999
 30
0.0
  0
VERTEX
  5
ACD
  8
0
  6
CONTINUOUS
 62
     7
 10
19.585733729499999
 20
3.7971964419000002
 30
0.0
  0
VERTEX
  5
ACE
  8
0
  6
CONTINUOUS
 62
     7
 10
19.6959982166
 20
3.8507699018000001
 30
0.0
  0
VERTEX
  5
ACF
  8
0
  6
CONTINUOUS
 62
     7
 10
19.805138701899999
 20
3.9065987718000001
 30
0.0
  0
VERTEX
  5
AD0
  8
0
  6
CONTINUOUS
 62
     7
 10
19.9131090194
 20
3.9646594365999999
 30
0.0
  0
VERTEX
  5
AD1
  8
0
  6
CONTINUOUS
 62
     7
 10
20.019863498500001
 20
4.0249273370000003
 30
0.0
  0
VERTEX
  5
AD2
  8
0
  6
CONTINUOUS
 62
     7
 10
20.1253569826
 20
4.0873769798000001
 30
0.0
  0
VERTEX
  5
AD3
  8
0
  6
CONTINUOUS
 62
     7
 10
20.229544848500002
 20
4.1519819491999996
 30
0.0
  0
VERTEX
  5
AD4
  8
0
  6
CONTINUOUS
 62
     7
 10
20.332383025199999
 20
4.218714917699999
 30
0.0
  0
VERTEX
  5
AD5
  8
0
  6
CONTINUOUS
 62
     7
 10
20.433828012900001
 20
4.2875476577000002
 30
0.0
  0
VERTEX
  5
AD6
  8
0
  6
CONTINUOUS
 62
     7
 10
20.533836900899999
 20
4.3584510531999987
 30
0.0
  0
VERTEX
  5
AD7
  8
0
  6
CONTINUOUS
 62
     7
 10
20.6323673859
 20
4.4313951124999988
 30
0.0
  0
VERTEX
  5
AD8
  8
0
  6
CONTINUOUS
 62
     7
 10
20.729377790200001
 20
4.5063489807000003
 30
0.0
  0
VERTEX
  5
AD9
  8
0
  6
CONTINUOUS
 62
     7
 10
20.824827078799999
 20
4.5832809527
 30
0.0
  0
VERTEX
  5
ADA
  8
0
  6
CONTINUOUS
 62
     7
 10
20.918674877200001
 20
4.6621584867000001
 30
0.0
  0
VERTEX
  5
ADB
  8
0
  6
CONTINUOUS
 62
     7
 10
21.010881488399999
 20
4.7429482180000004
 30
0.0
  0
VERTEX
  5
ADC
  8
0
  6
CONTINUOUS
 62
     7
 10
21.101407909500001
 20
4.8256159728999997
 30
0.0
  0
VERTEX
  5
ADD
  8
0
  6
CONTINUOUS
 62
     7
 10
21.190215848200001
 20
4.9101267834999991
 30
0.0
  0
VERTEX
  5
ADE
  8
0
  6
CONTINUOUS
 62
     7
 10
21.277267739399999
 20
4.9964449020999986
 30
0.0
  0
VERTEX
  5
ADF
  8
0
  6
CONTINUOUS
 62
     7
 10
21.3625267605
 20
5.0845338166999996
 30
0.0
  0
VERTEX
  5
AE0
  8
0
  6
CONTINUOUS
 62
     7
 10
21.4459568475
 20
5.1743562661000002
 30
0.0
  0
VERTEX
  5
AE1
  8
0
  6
CONTINUOUS
 62
     7
 10
21.527522709900001
 20
5.265874256
 30
0.0
  0
VERTEX
  5
AE2
  8
0
  6
CONTINUOUS
 62
     7
 10
21.607189845699999
 20
5.3590490746999997
 30
0.0
  0
SEQEND
  5
AE3
  8
0
  6
CONTINUOUS
 62
     7
  0
LINE
  5
465
  8
DRAFT_ENT
  6
CONTINUOUS
 62
     2
 10
14.143636383600001
 20
18.777719695599998
 30
0.0
 11
14.034573720999999
 21
18.7777046934
 31
0.0
  0
LINE
  5
466
  8
DRAFT_ENT
  6
CONTINUOUS
 62
     2
 10
15.827771587899999
 20
18.777383602099999
 30
0.0
 11
15.8125970019
 21
18.777383602099999
 31
0.0
  0
LINE
  5
467
  8
DRAFT_ENT
  6
CONTINUOUS
 62
     2
 10
14.9806210481
 20
18.777719695599998
 30
0.0
 11
14.8776624785
 21
18.777719695599998
 31
0.0
  0
LINE
  5
468
  8
DRAFT_ENT
  6
CONTINUOUS
 62
     2
 10
14.7851644539
 20
18.777719695599998
 30
0.0
 11
14.6822058843
 21
18.777719695599998
 31
0.0
  0
LINE
  5
469
  8
DRAFT_ENT
  6
CONTINUOUS
 62
     2
 10
14.2397226145
 20
18.777719695599998
 30
0.0
 11
14.3749054038
 21
18.777719695599998
 31
0.0
  0
LINE
  5
46A
  8
DRAFT_ENT
  6
CONTINUOUS
 62
     2
 10
15.0087740811
 20
18.777719695599998
 30
0.0
 11
15.204230451300001
 21
18.777719695599998
 31
0.0
  0
LINE
  5
46B
  8
DRAFT_ENT
  6
CONTINUOUS
 62
     2
 10
15.2224477914
 20
18.777719695599998
 30
0.0
 11
15.4156379379
 21
18.777719695599998
 31
0.0
  0
LINE
  5
46C
  8
DRAFT_ENT
  6
CONTINUOUS
 62
     2
 10
15.4436505774
 20
18.777719695599998
 30
0.0
 11
15.5378104845
 21
18.777719695599998
 31
0.0
  0
LINE
  5
46D
  8
DRAFT_ENT
  6
CONTINUOUS
 62
     2
 10
15.6158251426
 20
18.777719695599998
 30
0.0
 11
15.7345445025
 21
18.777719695599998
 31
0.0
  0
LINE
  5
46E
  8
DRAFT_ENT
  6
CONTINUOUS
 62
     2
 10
15.8125970019
 20
18.798423142099999
 30
0.0
 11
15.827771587899999
 21
18.798423142099999
 31
0.0
  0
LINE
  5
46F
  8
DRAFT_ENT
  6
CONTINUOUS
 62
     2
 10
15.1025528882
 20
18.8659864356
 30
0.0
 11
15.204230451300001
 21
18.8659864356
 31
0.0
  0
LINE
  5
470
  8
DRAFT_ENT
  6
CONTINUOUS
 62
     2
 10
15.3213519678
 20
18.8659864356
 30
0.0
 11
15.4156379379
 21
18.8659864356
 31
0.0
  0
LINE
  5
471
  8
DRAFT_ENT
  6
CONTINUOUS
 62
     2
 10
15.3213519678
 20
18.915937402000001
 30
0.0
 11
15.4156379379
 21
18.915937402000001
 31
0.0
  0
LINE
  5
472
  8
DRAFT_ENT
  6
CONTINUOUS
 62
     2
 10
14.7851644539
 20
18.920422603900001
 30
0.0
 11
14.8776624785
 21
18.920422603900001
 31
0.0
  0
LINE
  5
473
  8
DRAFT_ENT
  6
CONTINUOUS
 62
     2
 10
15.5378104845
 20
18.9878645366
 30
0.0
 11
15.5705228346
 21
18.9878645366
 31
0.0
  0
LINE
  5
474
  8
DRAFT_ENT
  6
CONTINUOUS
 62
     2
 10
14.7851644539
 20
19.0061759202
 30
0.0
 11
14.8776624785
 21
19.0061759202
 31
0.0
  0
LINE
  5
475
  8
DRAFT_ENT
  6
CONTINUOUS
 62
     2
 10
15.3213519678
 20
19.0061759202
 30
0.0
 11
15.4156379379
 21
19.0061759202
 31
0.0
  0
LINE
  5
476
  8
DRAFT_ENT
  6
CONTINUOUS
 62
     2
 10
15.3213519678
 20
19.054691156299999
 30
0.0
 11
15.4156379379
 21
19.054691156299999
 31
0.0
  0
LINE
  5
477
  8
DRAFT_ENT
  6
CONTINUOUS
 62
     2
 10
15.5727666671
 20
19.0548040085
 30
0.0
 11
15.5378104845
 21
19.0548040085
 31
0.0
  0
LINE
  5
478
  8
DRAFT_ENT
  6
CONTINUOUS
 62
     2
 10
14.034573720999999
 20
19.1439157963
 30
0.0
 11
14.143636383600001
 21
19.1439157963
 31
0.0
  0
LINE
  5
479
  8
DRAFT_ENT
  6
CONTINUOUS
 62
     2
 10
14.229739004300001
 20
19.1439157963
 30
0.0
 11
14.349777659700001
 21
19.1439157963
 31
0.0
  0
LINE
  5
47A
  8
DRAFT_ENT
  6
CONTINUOUS
 62
     2
 10
14.6822058843
 20
19.1439157963
 30
0.0
 11
14.7851644539
 21
19.1439157963
 31
0.0
  0
LINE
  5
47B
  8
DRAFT_ENT
  6
CONTINUOUS
 62
     2
 10
14.8776624785
 20
19.1439157963
 30
0.0
 11
14.9806210481
 21
19.1439157963
 31
0.0
  0
LINE
  5
47C
  8
DRAFT_ENT
  6
CONTINUOUS
 62
     2
 10
15.0087740811
 20
19.1439157963
 30
0.0
 11
15.1025528882
 21
19.1439157963
 31
0.0
  0
LINE
  5
47D
  8
DRAFT_ENT
  6
CONTINUOUS
 62
     2
 10
15.2224477914
 20
19.1439157963
 30
0.0
 11
15.4156379379
 21
19.1439157963
 31
0.0
  0
LINE
  5
47E
  8
DRAFT_ENT
  6
CONTINUOUS
 62
     2
 10
15.4436505774
 20
19.1439157963
 30
0.0
 11
15.5896179182
 21
19.1439157963
 31
0.0
  0
POLYLINE
  5
480
  8
0
  6
CONTINUOUS
 62
     7
 66
     1
 10
0.0
 20
0.0
 30
0.0
  0
VERTEX
  5
AE4
  8
0
  6
CONTINUOUS
 62
     7
 10
19.3620196177
 20
19.119668638699999
 30
0.0
  0
VERTEX
  5
AE5
  8
0
  6
CONTINUOUS
 62
     7
 10
19.260565783499999
 20
19.1739818422
 30
0.0
  0
VERTEX
  5
AE6
  8
0
  6
CONTINUOUS
 62
     7
 10
19.158069555800001
 20
19.2262957887
 30
0.0
  0
VERTEX
  5
AE7
  8
0
  6
CONTINUOUS
 62
     7
 10
19.0545699611
 20
19.276590558999999
 30
0.0
  0
VERTEX
  5
AE8
  8
0
  6
CONTINUOUS
 62
     7
 10
18.9501064078
 20
19.3248470029
 30
0.0
  0
VERTEX
  5
AE9
  8
0
  6
CONTINUOUS
 62
     7
 10
18.844718671599999
 20
19.371046746400001
 30
0.0
  0
VERTEX
  5
AEA
  8
0
  6
CONTINUOUS
 62
     7
 10
18.7384468797
 20
19.415172198299999
 30
0.0
  0
VERTEX
  5
AEB
  8
0
  6
CONTINUOUS
 62
     7
 10
18.6313314963
 20
19.457206557599999
 30
0.0
  0
VERTEX
  5
AEC
  8
0
  6
CONTINUOUS
 62
     7
 10
18.5234133065
 20
19.497133819199998
 30
0.0
  0
VERTEX
  5
AED
  8
0
  6
CONTINUOUS
 62
     7
 10
18.414733401199999
 20
19.534938780400001
 30
0.0
  0
VERTEX
  5
AEE
  8
0
  6
CONTINUOUS
 62
     7
 10
18.3053331614
 20
19.570607046599999
 30
0.0
  0
VERTEX
  5
AEF
  8
0
  6
CONTINUOUS
 62
     7
 10
18.195254242400001
 20
19.604125036900001
 30
0.0
  0
VERTEX
  5
AF0
  8
0
  6
CONTINUOUS
 62
     7
 10
18.084538557599998
 20
19.635479988699998
 30
0.0
  0
VERTEX
  5
AF1
  8
0
  6
CONTINUOUS
 62
     7
 10
17.973228263199999
 20
19.664659963599998
 30
0.0
  0
VERTEX
  5
AF2
  8
0
  6
CONTINUOUS
 62
     7
 10
17.861365741699998
 20
19.6916538509
 30
0.0
  0
VERTEX
  5
AF3
  8
0
  6
CONTINUOUS
 62
     7
 10
17.748993585800001
 20
19.716451372400002
 30
0.0
  0
SEQEND
  5
AF4
  8
0
  6
CONTINUOUS
 62
     7
  0
POLYLINE
  5
481
  8
0
  6
CONTINUOUS
 62
     7
 66
     1
 10
0.0
 20
0.0
 30
0.0
  0
VERTEX
  5
AF5
  8
0
  6
CONTINUOUS
 62
     7
 10
21.6071872234
 20
17.457533370099998
 30
0.0
  0
VERTEX
  5
AF6
  8
0
  6
CONTINUOUS
 62
     7
 10
21.5275202065
 20
17.550707933199991
 30
0.0
  0
VERTEX
  5
AF7
  8
0
  6
CONTINUOUS
 62
     7
 10
21.445954623900001
 20
17.642225509399999
 30
0.0
  0
VERTEX
  5
AF8
  8
0
  6
CONTINUOUS
 62
     7
 10
21.362524957200002
 20
17.732047409900002
 30
0.0
  0
VERTEX
  5
AF9
  8
0
  6
CONTINUOUS
 62
     7
 10
21.277266476000001
 20
17.820135662799998
 30
0.0
  0
VERTEX
  5
AFA
  8
0
  6
CONTINUOUS
 62
     7
 10
21.190215222999999
 20
17.906453029200001
 30
0.0
  0
VERTEX
  5
AFB
  8
0
  6
CONTINUOUS
 62
     7
 10
21.101407998700001
 20
17.9909630187
 30
0.0
  0
VERTEX
  5
AFC
  8
0
  6
CONTINUOUS
 62
     7
 10
21.010882346300001
 20
18.073629905000001
 30
0.0
  0
VERTEX
  5
AFD
  8
0
  6
CONTINUOUS
 62
     7
 10
20.918676534900001
 20
18.154418741000001
 30
0.0
  0
VERTEX
  5
AFE
  8
0
  6
CONTINUOUS
 62
     7
 10
20.824829544300002
 20
18.233295373499999
 30
0.0
  0
VERTEX
  5
AFF
  8
0
  6
CONTINUOUS
 62
     7
 10
20.729381048
 20
18.310226457700001
 30
0.0
  0
VERTEX
  5
B00
  8
0
  6
CONTINUOUS
 62
     7
 10
20.632371396500002
 20
18.38517947119999
 30
0.0
  0
VERTEX
  5
B01
  8
0
  6
CONTINUOUS
 62
     7
 10
20.533841600199999
 20
18.458122727999999
 30
0.0
  0
VERTEX
  5
B02
  8
0
  6
CONTINUOUS
 62
     7
 10
20.433833312299999
 20
18.529025391600001
 30
0.0
  0
VERTEX
  5
B03
  8
0
  6
CONTINUOUS
 62
     7
 10
20.332388810800001
 20
18.597857487999999
 30
0.0
  0
VERTEX
  5
B04
  8
0
  6
CONTINUOUS
 62
     7
 10
20.229550981199999
 20
18.664589918800001
 30
0.0
  0
VERTEX
  5
B05
  8
0
  6
CONTINUOUS
 62
     7
 10
20.125363297700002
 20
18.7291944732
 30
0.0
  0
VERTEX
  5
B06
  8
0
  6
CONTINUOUS
 62
     7
 10
20.019869805199999
 20
18.791643839599999
 30
0.0
  0
VERTEX
  5
B07
  8
0
  6
CONTINUOUS
 62
     7
 10
19.913115100799999
 20
18.851911617999999
 30
0.0
  0
VERTEX
  5
B08
  8
0
  6
CONTINUOUS
 62
     7
 10
19.8051443146
 20
18.9099723303
 30
0.0
  0
VERTEX
  5
B09
  8
0
  6
CONTINUOUS
 62
     7
 10
19.6960030909
 20
18.965801431599999
 30
0.0
  0
VERTEX
  5
B0A
  8
0
  6
CONTINUOUS
 62
     7
 10
19.585737568799999
 20
19.019375320399998
 30
0.0
  0
VERTEX
  5
B0B
  8
0
  6
CONTINUOUS
 62
     7
 10
19.4743943625
 20
19.070671348299999
 30
0.0
  0
VERTEX
  5
B0C
  8
0
  6
CONTINUOUS
 62
     7
 10
19.362020542100002
 20
19.119667830400001
 30
0.0
  0
SEQEND
  5
B0D
  8
0
  6
CONTINUOUS
 62
     7
  0
POLYLINE
  5
484
  8
0
  6
DASHED
 62
     7
 66
     1
 10
0.0
 20
0.0
 30
0.0
  0
VERTEX
  5
B0E
  8
0
  6
DASHED
 62
     7
 10
23.91953248510001
 20
14.6736598753
 30
0.0
  0
VERTEX
  5
B0F
  8
0
  6
DASHED
 62
     7
 10
23.888660617900001
 20
14.799307681
 30
0.0
  0
VERTEX
  5
B10
  8
0
  6
DASHED
 62
     7
 10
23.855363965999999
 20
14.9243347496
 30
0.0
  0
VERTEX
  5
B11
  8
0
  6
DASHED
 62
     7
 10
23.8196549888
 20
15.048694297200001
 30
0.0
  0
VERTEX
  5
B12
  8
0
  6
DASHED
 62
     7
 10
23.781547048099998
 20
15.172339789600001
 30
0.0
  0
VERTEX
  5
B13
  8
0
  6
DASHED
 62
     7
 10
23.741054403500002
 20
15.295224960000001
 30
0.0
  0
VERTEX
  5
B14
  8
0
  6
DASHED
 62
     7
 10
23.6981922071
 20
15.417303825999999
 30
0.0
  0
VERTEX
  5
B15
  8
0
  6
DASHED
 62
     7
 10
23.652976497499999
 20
15.5385307068
 30
0.0
  0
VERTEX
  5
B16
  8
0
  6
DASHED
 62
     7
 10
23.605424193800001
 20
15.658860240599999
 30
0.0
  0
VERTEX
  5
B17
  8
0
  6
DASHED
 62
     7
 10
23.555553089699998
 20
15.7782474013
 30
0.0
  0
VERTEX
  5
B18
  8
0
  6
DASHED
 62
     7
 10
23.5033818464
 20
15.8966475154
 30
0.0
  0
VERTEX
  5
B19
  8
0
  6
DASHED
 62
     7
 10
23.448929986
 20
16.0140162786
 30
0.0
  0
VERTEX
  5
B1A
  8
0
  6
DASHED
 62
     7
 10
23.392217883699999
 20
16.130309772899999
 30
0.0
  0
VERTEX
  5
B1B
  8
0
  6
DASHED
 62
     7
 10
23.333266760699999
 20
16.245484482399998
 30
0.0
  0
VERTEX
  5
B1C
  8
0
  6
DASHED
 62
     7
 10
23.272098675900001
 20
16.359497309799998
 30
0.0
  0
VERTEX
  5
B1D
  8
0
  6
DASHED
 62
     7
 10
23.208736517799998
 20
16.472305592600001
 30
0.0
  0
VERTEX
  5
B1E
  8
0
  6
DASHED
 62
     7
 10
23.143203995899999
 20
16.583867119099999
 30
0.0
  0
VERTEX
  5
B1F
  8
0
  6
DASHED
 62
     7
 10
23.0755256317
 20
16.6941401441
 30
0.0
  0
VERTEX
  5
B20
  8
0
  6
DASHED
 62
     7
 10
23.005726749899999
 20
16.803083404599999
 30
0.0
  0
VERTEX
  5
B21
  8
0
  6
DASHED
 62
     7
 10
22.933833468500001
 20
16.910656135100002
 30
0.0
  0
VERTEX
  5
B22
  8
0
  6
DASHED
 62
     7
 10
22.859872689199999
 20
17.0168180828
 30
0.0
  0
VERTEX
  5
B23
  8
0
  6
DASHED
 62
     7
 10
22.783872087500001
 20
17.121529523100001
 30
0.0
  0
VERTEX
  5
B24
  8
0
  6
DASHED
 62
     7
 10
22.705860101900001
 20
17.224751273999999
 30
0.0
  0
VERTEX
  5
B25
  8
0
  6
DASHED
 62
     7
 10
22.625865923900001
 20
17.326444710899999
 30
0.0
  0
VERTEX
  5
B26
  8
0
  6
DASHED
 62
     7
 10
22.5439194864
 20
17.426571781300002
 30
0.0
  0
VERTEX
  5
B27
  8
0
  6
DASHED
 62
     7
 10
22.460051452999998
 20
17.525095018399998
 30
0.0
  0
VERTEX
  5
B28
  8
0
  6
DASHED
 62
     7
 10
22.374293206299999
 20
17.621977555899999
 30
0.0
  0
VERTEX
  5
B29
  8
0
  6
DASHED
 62
     7
 10
22.2866768361
 20
17.7171831414
 30
0.0
  0
VERTEX
  5
B2A
  8
0
  6
DASHED
 62
     7
 10
22.197235127599999
 20
17.810676149799999
 30
0.0
  0
VERTEX
  5
B2B
  8
0
  6
DASHED
 62
     7
 10
22.106001548999998
 20
17.902421596899998
 30
0.0
  0
SEQEND
  5
B2C
  8
0
  6
DASHED
 62
     7
  0
POLYLINE
  5
486
  8
0
  6
DASHED
 62
     7
 66
     1
 10
0.0
 20
0.0
 30
0.0
  0
VERTEX
  5
B2D
  8
0
  6
DASHED
 62
     7
 10
20.687355234200002
 20
3.3188262115999998
 30
0.0
  0
VERTEX
  5
B2E
  8
0
  6
DASHED
 62
     7
 10
20.770904243499999
 20
3.3666253690999999
 30
0.0
  0
VERTEX
  5
B2F
  8
0
  6
DASHED
 62
     7
 10
20.853277257599999
 20
3.4164209451000001
 30
0.0
  0
VERTEX
  5
B30
  8
0
  6
DASHED
 62
     7
 10
20.934426794299998
 20
3.468184236099999
 30
0.0
  0
VERTEX
  5
B31
  8
0
  6
DASHED
 62
     7
 10
21.014306076699999
 20
3.521885404299999
 30
0.0
  0
VERTEX
  5
B32
  8
0
  6
DASHED
 62
     7
 10
21.0928690601
 20
3.5774934948000001
 30
0.0
  0
VERTEX
  5
B33
  8
0
  6
DASHED
 62
     7
 10
21.1700704587
 20
3.6349764536000002
 30
0.0
  0
VERTEX
  5
B34
  8
0
  6
DASHED
 62
     7
 10
21.245865771399998
 20
3.694301145799999
 30
0.0
  0
VERTEX
  5
B35
  8
0
  6
DASHED
 62
     7
 10
21.320211307499999
 20
3.7554333748999991
 30
0.0
  0
VERTEX
  5
B36
  8
0
  6
DASHED
 62
     7
 10
21.393064212300001
 20
3.8183379027999989
 30
0.0
  0
VERTEX
  5
B37
  8
0
  6
DASHED
 62
     7
 10
21.4643824913
 20
3.8829784692999998
 30
0.0
  0
VERTEX
  5
B38
  8
0
  6
DASHED
 62
     7
 10
21.534125034500001
 20
3.9493178139999991
 30
0.0
  0
SEQEND
  5
B39
  8
0
  6
DASHED
 62
     7
  0
POLYLINE
  5
487
  8
0
  6
CONTINUOUS
 62
     7
 66
     1
 10
0.0
 20
0.0
 30
0.0
  0
VERTEX
  5
B3A
  8
0
  6
CONTINUOUS
 62
     7
 10
12.9378211973
 20
20.217145667099999
 30
0.0
  0
VERTEX
  5
B3B
  8
0
  6
CONTINUOUS
 62
     7
 10
12.695533876800001
 20
20.215889473600001
 30
0.0
  0
VERTEX
  5
B3C
  8
0
  6
CONTINUOUS
 62
     7
 10
12.4532735288
 20
20.212121063600001
 30
0.0
  0
VERTEX
  5
B3D
  8
0
  6
CONTINUOUS
 62
     7
 10
12.2110660963
 20
20.205840840299999
 30
0.0
  0
VERTEX
  5
B3E
  8
0
  6
CONTINUOUS
 62
     7
 10
11.9689375164
 20
20.197049476499998
 30
0.0
  0
VERTEX
  5
B3F
  8
0
  6
CONTINUOUS
 62
     7
 10
11.7269137177
 20
20.1857479134
 30
0.0
  0
VERTEX
  5
B40
  8
0
  6
CONTINUOUS
 62
     7
 10
11.4850206179
 20
20.171937361499999
 30
0.0
  0
VERTEX
  5
B41
  8
0
  6
CONTINUOUS
 62
     7
 10
11.2432841203
 20
20.1556192995
 30
0.0
  0
VERTEX
  5
B42
  8
0
  6
CONTINUOUS
 62
     7
 10
11.001730111800001
 20
20.136795475
 30
0.0
  0
VERTEX
  5
B43
  8
0
  6
CONTINUOUS
 62
     7
 10
10.760384459400001
 20
20.115467903700001
 30
0.0
  0
VERTEX
  5
B44
  8
0
  6
CONTINUOUS
 62
     7
 10
10.519273008200001
 20
20.091638869499999
 30
0.0
  0
VERTEX
  5
B45
  8
0
  6
CONTINUOUS
 62
     7
 10
10.2784215779
 20
20.065310924199999
 30
0.0
  0
VERTEX
  5
B46
  8
0
  6
CONTINUOUS
 62
     7
 10
10.0378559605
 20
20.036486887100001
 30
0.0
  0
VERTEX
  5
B47
  8
0
  6
CONTINUOUS
 62
     7
 10
9.7976019171999997
 20
20.005169845000001
 30
0.0
  0
VERTEX
  5
B48
  8
0
  6
CONTINUOUS
 62
     7
 10
9.5576851760999997
 20
19.971363151399999
 30
0.0
  0
VERTEX
  5
B49
  8
0
  6
CONTINUOUS
 62
     7
 10
9.3181314290999993
 20
19.935070426599999
 30
0.0
  0
VERTEX
  5
B4A
  8
0
  6
CONTINUOUS
 62
     7
 10
9.0789663291
 20
19.8962955571
 30
0.0
  0
VERTEX
  5
B4B
  8
0
  6
CONTINUOUS
 62
     7
 10
8.8402154876000001
 20
19.8550426951
 30
0.0
  0
VERTEX
  5
B4C
  8
0
  6
CONTINUOUS
 62
     7
 10
8.6019044713999993
 20
19.8113162583
 30
0.0
  0
VERTEX
  5
B4D
  8
0
  6
CONTINUOUS
 62
     7
 10
8.3640588005999987
 20
19.7651209291
 30
0.0
  0
VERTEX
  5
B4E
  8
0
  6
CONTINUOUS
 62
     7
 10
8.1267039451999992
 20
19.716461654500002
 30
0.0
  0
SEQEND
  5
B4F
  8
0
  6
CONTINUOUS
 62
     7
  0
POLYLINE
  5
488
  8
0
  6
CONTINUOUS
 62
     7
 66
     1
 10
0.0
 20
0.0
 30
0.0
  0
VERTEX
  5
B50
  8
0
  6
CONTINUOUS
 62
     7
 10
17.748938342599999
 20
19.716461295799999
 30
0.0
  0
VERTEX
  5
B51
  8
0
  6
CONTINUOUS
 62
     7
 10
17.511583375200001
 20
19.765120614200001
 30
0.0
  0
VERTEX
  5
B52
  8
0
  6
CONTINUOUS
 62
     7
 10
17.273737626300001
 20
19.811315983699998
 30
0.0
  0
VERTEX
  5
B53
  8
0
  6
CONTINUOUS
 62
     7
 10
17.0354265651
 20
19.855042457500002
 30
0.0
  0
VERTEX
  5
B54
  8
0
  6
CONTINUOUS
 62
     7
 10
16.796675710599999
 20
19.896295353399999
 30
0.0
  0
VERTEX
  5
B55
  8
0
  6
CONTINUOUS
 62
     7
 10
16.557510628900001
 20
19.935070253700001
 30
0.0
  0
VERTEX
  5
B56
  8
0
  6
CONTINUOUS
 62
     7
 10
16.317956930600001
 20
19.971363006400001
 30
0.0
  0
VERTEX
  5
B57
  8
0
  6
CONTINUOUS
 62
     7
 10
16.078040267599999
 20
20.0051697251
 30
0.0
  0
VERTEX
  5
B58
  8
0
  6
CONTINUOUS
 62
     7
 10
15.8377863311
 20
20.036486789800001
 30
0.0
  0
VERTEX
  5
B59
  8
0
  6
CONTINUOUS
 62
     7
 10
15.597220847999999
 20
20.065310846900001
 30
0.0
  0
VERTEX
  5
B5A
  8
0
  6
CONTINUOUS
 62
     7
 10
15.356369578900001
 20
20.091638809799999
 30
0.0
  0
VERTEX
  5
B5B
  8
0
  6
CONTINUOUS
 62
     7
 10
15.1152583147
 20
20.115467859199999
 30
0.0
  0
VERTEX
  5
B5C
  8
0
  6
CONTINUOUS
 62
     7
 10
14.8739128744
 20
20.136795443600001
 30
0.0
  0
VERTEX
  5
B5D
  8
0
  6
CONTINUOUS
 62
     7
 10
14.632359101800001
 20
20.155619279
 30
0.0
  0
VERTEX
  5
B5E
  8
0
  6
CONTINUOUS
 62
     7
 10
14.390622863400001
 20
20.1719373498
 30
0.0
  0
VERTEX
  5
B5F
  8
0
  6
CONTINUOUS
 62
     7
 10
14.148730044900001
 20
20.185747908500002
 30
0.0
  0
VERTEX
  5
B60
  8
0
  6
CONTINUOUS
 62
     7
 10
13.906706548800001
 20
20.197049476299998
 30
0.0
  0
VERTEX
  5
B61
  8
0
  6
CONTINUOUS
 62
     7
 10
13.6645782918
 20
20.205840843099999
 30
0.0
  0
VERTEX
  5
B62
  8
0
  6
CONTINUOUS
 62
     7
 10
13.422371201600001
 20
20.212121067199998
 30
0.0
  0
VERTEX
  5
B63
  8
0
  6
CONTINUOUS
 62
     7
 10
13.1801112145
 20
20.215889476400001
 30
0.0
  0
VERTEX
  5
B64
  8
0
  6
CONTINUOUS
 62
     7
 10
12.9378242724
 20
20.217145667
 30
0.0
  0
SEQEND
  5
B65
  8
0
  6
CONTINUOUS
 62
     7
  0
POLYLINE
  5
489
  8
0
  6
DASHED
 62
     7
 66
     1
 10
0.0
 20
0.0
 30
0.0
  0
VERTEX
  5
B66
  8
0
  6
DASHED
 62
     7
 10
17.877610774600001
 20
20.577961318100002
 30
0.0
  0
VERTEX
  5
B67
  8
0
  6
DASHED
 62
     7
 10
17.64552827
 20
20.6255993778
 30
0.0
  0
VERTEX
  5
B68
  8
0
  6
DASHED
 62
     7
 10
17.412986330100001
 20
20.670943234999999
 30
0.0
  0
VERTEX
  5
B69
  8
0
  6
DASHED
 62
     7
 10
17.180007675799999
 20
20.713988459300001
 30
0.0
  0
VERTEX
  5
B6A
  8
0
  6
DASHED
 62
     7
 10
16.946615071
 20
20.754730844899999
 30
0.0
  0
VERTEX
  5
B6B
  8
0
  6
DASHED
 62
     7
 10
16.712831319599999
 20
20.793166411000001
 30
0.0
  0
VERTEX
  5
B6C
  8
0
  6
DASHED
 62
     7
 10
16.478679264099998
 20
20.829291401999999
 30
0.0
  0
VERTEX
  5
B6D
  8
0
  6
DASHED
 62
     7
 10
16.2441817827
 20
20.863102288499999
 30
0.0
  0
VERTEX
  5
B6E
  8
0
  6
DASHED
 62
     7
 10
16.0093617876
 20
20.8945957667
 30
0.0
  0
VERTEX
  5
B6F
  8
0
  6
DASHED
 62
     7
 10
15.7742422224
 20
20.923768759600001
 30
0.0
  0
VERTEX
  5
B70
  8
0
  6
DASHED
 62
     7
 10
15.538846059899999
 20
20.950618416800001
 30
0.0
  0
VERTEX
  5
B71
  8
0
  6
DASHED
 62
     7
 10
15.3031963
 20
20.975142114800001
 30
0.0
  0
VERTEX
  5
B72
  8
0
  6
DASHED
 62
     7
 10
15.067315967400001
 20
20.997337457499999
 30
0.0
  0
VERTEX
  5
B73
  8
0
  6
DASHED
 62
     7
 10
14.8312281093
 20
21.017202276199999
 30
0.0
  0
VERTEX
  5
B74
  8
0
  6
DASHED
 62
     7
 10
14.5949557932
 20
21.034734630100001
 30
0.0
  0
VERTEX
  5
B75
  8
0
  6
DASHED
 62
     7
 10
14.3585221045
 20
21.049932806000001
 30
0.0
  0
VERTEX
  5
B76
  8
0
  6
DASHED
 62
     7
 10
14.1219501445
 20
21.062795319100001
 30
0.0
  0
VERTEX
  5
B77
  8
0
  6
DASHED
 62
     7
 10
13.885263028100001
 20
21.073320912500002
 30
0.0
  0
VERTEX
  5
B78
  8
0
  6
DASHED
 62
     7
 10
13.648483881100001
 20
21.081508557799999
 30
0.0
  0
VERTEX
  5
B79
  8
0
  6
DASHED
 62
     7
 10
13.411635838700001
 20
21.087357455100001
 30
0.0
  0
VERTEX
  5
B7A
  8
0
  6
DASHED
 62
     7
 10
13.1747420426
 20
21.0908670329
 30
0.0
  0
VERTEX
  5
B7B
  8
0
  6
DASHED
 62
     7
 10
12.9378256391
 20
21.092036948200001
 30
0.0
  0
SEQEND
  5
B7C
  8
0
  6
DASHED
 62
     7
  0
POLYLINE
  5
48A
  8
0
  6
DASHED
 62
     7
 66
     1
 10
0.0
 20
0.0
 30
0.0
  0
VERTEX
  5
B7D
  8
0
  6
DASHED
 62
     7
 10
20.687353744799999
 20
19.497753929999998
 30
0.0
  0
VERTEX
  5
B7E
  8
0
  6
DASHED
 62
     7
 10
20.657003894199999
 20
19.513304313300001
 30
0.0
  0
VERTEX
  5
B7F
  8
0
  6
DASHED
 62
     7
 10
20.6256643388
 20
19.5267489535
 30
0.0
  0
VERTEX
  5
B80
  8
0
  6
DASHED
 62
     7
 10
20.593480973199998
 20
19.538025261800001
 30
0.0
  0
VERTEX
  5
B81
  8
0
  6
DASHED
 62
     7
 10
20.560603620399998
 20
19.547080743799999
 30
0.0
  0
VERTEX
  5
B82
  8
0
  6
DASHED
 62
     7
 10
20.5271853339
 20
19.5538732437
 30
0.0
  0
VERTEX
  5
B83
  8
0
  6
DASHED
 62
     7
 10
20.493381685399999
 20
19.5583711403
 30
0.0
  0
VERTEX
  5
B84
  8
0
  6
DASHED
 62
     7
 10
20.459350040699999
 20
19.560553494699999
 30
0.0
  0
VERTEX
  5
B85
  8
0
  6
DASHED
 62
     7
 10
20.425248827000001
 20
19.560410147500001
 30
0.0
  0
VERTEX
  5
B86
  8
0
  6
DASHED
 62
     7
 10
20.391236795200001
 20
19.557941765799999
 30
0.0
  0
VERTEX
  5
B87
  8
0
  6
DASHED
 62
     7
 10
20.357472281100002
 20
19.553159840799999
 30
0.0
  0
SEQEND
  5
B88
  8
0
  6
DASHED
 62
     7
  0
POLYLINE
  5
48B
  8
0
  6
DASHED
 62
     7
 66
     1
 10
0.0
 20
0.0
 30
0.0
  0
VERTEX
  5
B89
  8
0
  6
DASHED
 62
     7
 10
19.662335423199998
 20
19.917666050000001
 30
0.0
  0
VERTEX
  5
B8A
  8
0
  6
DASHED
 62
     7
 10
19.550101562599998
 20
19.977750092099999
 30
0.0
  0
VERTEX
  5
B8B
  8
0
  6
DASHED
 62
     7
 10
19.436707483999999
 20
20.0356254139
 30
0.0
  0
VERTEX
  5
B8C
  8
0
  6
DASHED
 62
     7
 10
19.322197407000001
 20
20.091269445999998
 30
0.0
  0
VERTEX
  5
B8D
  8
0
  6
DASHED
 62
     7
 10
19.206615986500001
 20
20.1446604892
 30
0.0
  0
VERTEX
  5
B8E
  8
0
  6
DASHED
 62
     7
 10
19.090008295099999
 20
20.195777722999999
 30
0.0
  0
VERTEX
  5
B8F
  8
0
  6
DASHED
 62
     7
 10
18.9724198057
 20
20.244601213399999
 30
0.0
  0
VERTEX
  5
B90
  8
0
  6
DASHED
 62
     7
 10
18.8538963737
 20
20.291111920900001
 30
0.0
  0
VERTEX
  5
B91
  8
0
  6
DASHED
 62
     7
 10
18.734484218799999
 20
20.3352917082
 30
0.0
  0
VERTEX
  5
B92
  8
0
  6
DASHED
 62
     7
 10
18.6142299077
 20
20.377123346600001
 30
0.0
  0
VERTEX
  5
B93
  8
0
  6
DASHED
 62
     7
 10
18.4931803351
 20
20.4165905232
 30
0.0
  0
VERTEX
  5
B94
  8
0
  6
DASHED
 62
     7
 10
18.371382706199999
 20
20.453677847400002
 30
0.0
  0
VERTEX
  5
B95
  8
0
  6
DASHED
 62
     7
 10
18.248884517699999
 20
20.488370856300001
 30
0.0
  0
VERTEX
  5
B96
  8
0
  6
DASHED
 62
     7
 10
18.125733539500001
 20
20.520656021000001
 30
0.0
  0
VERTEX
  5
B97
  8
0
  6
DASHED
 62
     7
 10
18.0019777961
 20
20.550520751299999
 30
0.0
  0
VERTEX
  5
B98
  8
0
  6
DASHED
 62
     7
 10
17.8776655478
 20
20.577953400999998
 30
0.0
  0
SEQEND
  5
B99
  8
0
  6
DASHED
 62
     7
  0
POLYLINE
  5
48C
  8
0
  6
DASHED
 62
     7
 66
     1
 10
0.0
 20
0.0
 30
0.0
  0
VERTEX
  5
B9A
  8
0
  6
DASHED
 62
     7
 10
19.662341031899999
 20
19.917661657099998
 30
0.0
  0
VERTEX
  5
B9B
  8
0
  6
DASHED
 62
     7
 10
19.691617213299999
 20
19.892701800400001
 30
0.0
  0
VERTEX
  5
B9C
  8
0
  6
DASHED
 62
     7
 10
19.7217858104
 20
19.867924777700001
 30
0.0
  0
VERTEX
  5
B9D
  8
0
  6
DASHED
 62
     7
 10
19.752719067400001
 20
19.843435512999999
 30
0.0
  0
VERTEX
  5
B9E
  8
0
  6
DASHED
 62
     7
 10
19.784285990600001
 20
19.819337711500001
 30
0.0
  0
VERTEX
  5
B9F
  8
0
  6
DASHED
 62
     7
 10
19.816352902599998
 20
19.7957334209
 30
0.0
  0
VERTEX
  5
BA0
  8
0
  6
DASHED
 62
     7
 10
19.848784008700001
 20
19.772722598800001
 30
0.0
  0
VERTEX
  5
BA1
  8
0
  6
DASHED
 62
     7
 10
19.881441972299999
 20
19.7504026899
 30
0.0
  0
VERTEX
  5
BA2
  8
0
  6
DASHED
 62
     7
 10
19.914188495600001
 20
19.7288682127
 30
0.0
  0
VERTEX
  5
BA3
  8
0
  6
DASHED
 62
     7
 10
19.946884906099999
 20
19.708210359999999
 30
0.0
  0
VERTEX
  5
BA4
  8
0
  6
DASHED
 62
     7
 10
19.979392743599998
 20
19.688516612099999
 30
0.0
  0
VERTEX
  5
BA5
  8
0
  6
DASHED
 62
     7
 10
20.011574346100002
 20
19.669870366600001
 30
0.0
  0
VERTEX
  5
BA6
  8
0
  6
DASHED
 62
     7
 10
20.043293433399999
 20
19.652350585299999
 30
0.0
  0
VERTEX
  5
BA7
  8
0
  6
DASHED
 62
     7
 10
20.074415683800002
 20
19.636031459600002
 30
0.0
  0
VERTEX
  5
BA8
  8
0
  6
DASHED
 62
     7
 10
20.1048093032
 20
19.620982096700001
 30
0.0
  0
VERTEX
  5
BA9
  8
0
  6
DASHED
 62
     7
 10
20.134345582800002
 20
19.607266226299998
 30
0.0
  0
VERTEX
  5
BAA
  8
0
  6
DASHED
 62
     7
 10
20.162899444600001
 20
19.594941931600001
 30
0.0
  0
VERTEX
  5
BAB
  8
0
  6
DASHED
 62
     7
 10
20.1903499708
 20
19.5840614024
 30
0.0
  0
VERTEX
  5
BAC
  8
0
  6
DASHED
 62
     7
 10
20.2165809159
 20
19.574670714900002
 30
0.0
  0
VERTEX
  5
BAD
  8
0
  6
DASHED
 62
     7
 10
20.241481199100001
 20
19.5668096361
 30
0.0
  0
VERTEX
  5
BAE
  8
0
  6
DASHED
 62
     7
 10
20.264945374500002
 20
19.560511455499999
 30
0.0
  0
VERTEX
  5
BAF
  8
0
  6
DASHED
 62
     7
 10
20.2868740776
 20
19.5558028441
 30
0.0
  0
VERTEX
  5
BB0
  8
0
  6
DASHED
 62
     7
 10
20.307174446499999
 20
19.552703741599998
 30
0.0
  0
VERTEX
  5
BB1
  8
0
  6
DASHED
 62
     7
 10
20.325760514599999
 20
19.5512272719
 30
0.0
  0
VERTEX
  5
BB2
  8
0
  6
DASHED
 62
     7
 10
20.342553575
 20
19.551379687499999
 30
0.0
  0
VERTEX
  5
BB3
  8
0
  6
DASHED
 62
     7
 10
20.357482513699999
 20
19.553160342799998
 30
0.0
  0
SEQEND
  5
BB4
  8
0
  6
DASHED
 62
     7
  0
POLYLINE
  5
48D
  8
0
  6
DASHED
 62
     7
 66
     1
 10
0.0
 20
0.0
 30
0.0
  0
VERTEX
  5
BB5
  8
0
  6
DASHED
 62
     7
 10
21.5341242567
 20
18.867258442400001
 30
0.0
  0
VERTEX
  5
BB6
  8
0
  6
DASHED
 62
     7
 10
21.4643861771
 20
18.9335931876
 30
0.0
  0
VERTEX
  5
BB7
  8
0
  6
DASHED
 62
     7
 10
21.3930688666
 20
18.998232290200001
 30
0.0
  0
VERTEX
  5
BB8
  8
0
  6
DASHED
 62
     7
 10
21.3202142821
 20
19.0611377225
 30
0.0
  0
VERTEX
  5
BB9
  8
0
  6
DASHED
 62
     7
 10
21.245865284400001
 20
19.122272476599999
 30
0.0
  0
VERTEX
  5
BBA
  8
0
  6
DASHED
 62
     7
 10
21.1700656137
 20
19.181600586399998
 30
0.0
  0
VERTEX
  5
BBB
  8
0
  6
DASHED
 62
     7
 10
21.092859863800001
 20
19.239087148599999
 30
0.0
  0
VERTEX
  5
BBC
  8
0
  6
DASHED
 62
     7
 10
21.014293455299999
 20
19.2946983434
 30
0.0
  0
VERTEX
  5
BBD
  8
0
  6
DASHED
 62
     7
 10
20.934412609700001
 20
19.348401454200001
 30
0.0
  0
VERTEX
  5
BBE
  8
0
  6
DASHED
 62
     7
 10
20.853264321600001
 20
19.400164886900001
 30
0.0
  0
VERTEX
  5
BBF
  8
0
  6
DASHED
 62
     7
 10
20.770896331199999
 20
19.449958188699998
 30
0.0
  0
VERTEX
  5
BC0
  8
0
  6
DASHED
 62
     7
 10
20.687357096300001
 20
19.4977520658
 30
0.0
  0
SEQEND
  5
BC1
  8
0
  6
DASHED
 62
     7
  0
POLYLINE
  5
48E
  8
0
  6
CONTINUOUS
 62
     7
 66
     1
 10
0.0
 20
0.0
 30
0.0
  0
VERTEX
  5
BC2
  8
0
  6
CONTINUOUS
 62
     7
 10
8.1266464504999991
 20
19.716450956399999
 30
0.0
  0
VERTEX
  5
BC3
  8
0
  6
CONTINUOUS
 62
     7
 10
8.0142761057000005
 20
19.691653724599998
 30
0.0
  0
VERTEX
  5
BC4
  8
0
  6
CONTINUOUS
 62
     7
 10
7.9024145134000001
 20
19.664659888100001
 30
0.0
  0
VERTEX
  5
BC5
  8
0
  6
CONTINUOUS
 62
     7
 10
7.7911044061999988
 20
19.635479758999999
 30
0.0
  0
VERTEX
  5
BC6
  8
0
  6
CONTINUOUS
 62
     7
 10
7.6803883064000003
 20
19.6041244846
 30
0.0
  0
VERTEX
  5
BC7
  8
0
  6
CONTINUOUS
 62
     7
 10
7.5703085090000002
 20
19.570606043000002
 30
0.0
  0
VERTEX
  5
BC8
  8
0
  6
CONTINUOUS
 62
     7
 10
7.460907065999999
 20
19.5349372387
 30
0.0
  0
VERTEX
  5
BC9
  8
0
  6
CONTINUOUS
 62
     7
 10
7.3522257704999987
 20
19.497131697699999
 30
0.0
  0
VERTEX
  5
BCA
  8
0
  6
CONTINUOUS
 62
     7
 10
7.2443061400999991
 20
19.457203862299998
 30
0.0
  0
VERTEX
  5
BCB
  8
0
  6
CONTINUOUS
 62
     7
 10
7.1371894017999988
 20
19.415168985400001
 30
0.0
  0
VERTEX
  5
BCC
  8
0
  6
CONTINUOUS
 62
     7
 10
7.0309164756999998
 20
19.371043125099991
 30
0.0
  0
VERTEX
  5
BCD
  8
0
  6
CONTINUOUS
 62
     7
 10
6.9255279595000001
 20
19.3248431381
 30
0.0
  0
VERTEX
  5
BCE
  8
0
  6
CONTINUOUS
 62
     7
 10
6.8210641133000003
 20
19.276586673200001
 30
0.0
  0
VERTEX
  5
BCF
  8
0
  6
CONTINUOUS
 62
     7
 10
6.7175648435999991
 20
19.2262921654
 30
0.0
  0
VERTEX
  5
BD0
  8
0
  6
CONTINUOUS
 62
     7
 10
6.6150696887000002
 20
19.173978827700001
 30
0.0
  0
VERTEX
  5
BD1
  8
0
  6
CONTINUOUS
 62
     7
 10
6.5136178032999998
 20
19.119666644599999
 30
0.0
  0
SEQEND
  5
BD2
  8
0
  6
CONTINUOUS
 62
     7
  0
POLYLINE
  5
48F
  8
0
  6
DASHED
 62
     7
 66
     1
 10
0.0
 20
0.0
 30
0.0
  0
VERTEX
  5
BD3
  8
0
  6
DASHED
 62
     7
 10
12.9378250847
 20
21.092036948200001
 30
0.0
  0
VERTEX
  5
BD4
  8
0
  6
DASHED
 62
     7
 10
12.700907970499999
 20
21.090867081799999
 30
0.0
  0
VERTEX
  5
BD5
  8
0
  6
DASHED
 62
     7
 10
12.4640136743
 20
21.0873575538
 30
0.0
  0
VERTEX
  5
BD6
  8
0
  6
DASHED
 62
     7
 10
12.227165315800001
 20
21.081508706800001
 30
0.0
  0
VERTEX
  5
BD7
  8
0
  6
DASHED
 62
     7
 10
11.9903860097
 20
21.073321111599999
 30
0.0
  0
VERTEX
  5
BD8
  8
0
  6
DASHED
 62
     7
 10
11.7536988642
 20
21.0627955673
 30
0.0
  0
VERTEX
  5
BD9
  8
0
  6
DASHED
 62
     7
 10
11.5171269787
 20
21.049933101000001
 30
0.0
  0
VERTEX
  5
BDA
  8
0
  6
DASHED
 62
     7
 10
11.280693441
 20
21.0347349681
 30
0.0
  0
VERTEX
  5
BDB
  8
0
  6
DASHED
 62
     7
 10
11.0444213257
 20
21.0172026519
 30
0.0
  0
VERTEX
  5
BDC
  8
0
  6
DASHED
 62
     7
 10
10.8083336913
 20
20.997337863199999
 30
0.0
  0
VERTEX
  5
BDD
  8
0
  6
DASHED
 62
     7
 10
10.572453578699999
 20
20.975142541
 30
0.0
  0
VERTEX
  5
BDE
  8
0
  6
DASHED
 62
     7
 10
10.3368040082
 20
20.9506188511
 30
0.0
  0
VERTEX
  5
BDF
  8
0
  6
DASHED
 62
     7
 10
10.101407977899999
 20
20.923769187200001
 30
0.0
  0
VERTEX
  5
BE0
  8
0
  6
DASHED
 62
     7
 10
9.8662884608999981
 20
20.8945961694
 30
0.0
  0
VERTEX
  5
BE1
  8
0
  6
DASHED
 62
     7
 10
9.6314684033999995
 20
20.8631026449
 30
0.0
  0
VERTEX
  5
BE2
  8
0
  6
DASHED
 62
     7
 10
9.3969707224000008
 20
20.8292916873
 30
0.0
  0
VERTEX
  5
BE3
  8
0
  6
DASHED
 62
     7
 10
9.1628183034999982
 20
20.793166596300001
 30
0.0
  0
VERTEX
  5
BE4
  8
0
  6
DASHED
 62
     7
 10
8.9290339983999996
 20
20.7547308975
 30
0.0
  0
VERTEX
  5
BE5
  8
0
  6
DASHED
 62
     7
 10
8.6956406231999992
 20
20.713988342
 30
0.0
  0
VERTEX
  5
BE6
  8
0
  6
DASHED
 62
     7
 10
8.4626609555999988
 20
20.670942906000001
 30
0.0
  0
VERTEX
  5
BE7
  8
0
  6
DASHED
 62
     7
 10
8.2301177329000001
 20
20.6255987905
 30
0.0
  0
VERTEX
  5
BE8
  8
0
  6
DASHED
 62
     7
 10
7.9980336498999991
 20
20.5779604208
 30
0.0
  0
SEQEND
  5
BE9
  8
0
  6
DASHED
 62
     7
  0
POLYLINE
  5
493
  8
0
  6
DASHED
 62
     7
 66
     1
 10
0.0
 20
0.0
 30
0.0
  0
VERTEX
  5
BEA
  8
0
  6
DASHED
 62
     7
 10
7.997968994799999
 20
20.5779520297
 30
0.0
  0
VERTEX
  5
BEB
  8
0
  6
DASHED
 62
     7
 10
7.8736531225000004
 20
20.5505185281
 30
0.0
  0
VERTEX
  5
BEC
  8
0
  6
DASHED
 62
     7
 10
7.7498955398999989
 20
20.5206534384
 30
0.0
  0
VERTEX
  5
BED
  8
0
  6
DASHED
 62
     7
 10
7.6267442233000002
 20
20.488368338299999
 30
0.0
  0
VERTEX
  5
BEE
  8
0
  6
DASHED
 62
     7
 10
7.5042469144000004
 20
20.453675743400002
 30
0.0
  0
VERTEX
  5
BEF
  8
0
  6
DASHED
 62
     7
 10
7.3824511011
 20
20.416589103100002
 30
0.0
  0
VERTEX
  5
BF0
  8
0
  6
DASHED
 62
     7
 10
7.2614039994999997
 20
20.377122794400002
 30
0.0
  0
VERTEX
  5
BF1
  8
0
  6
DASHED
 62
     7
 10
7.1411525353999989
 20
20.3352921171
 30
0.0
  0
VERTEX
  5
BF2
  8
0
  6
DASHED
 62
     7
 10
7.0217433261000002
 20
20.2911132875
 30
0.0
  0
VERTEX
  5
BF3
  8
0
  6
DASHED
 62
     7
 10
6.9032226624000002
 20
20.2446034323
 30
0.0
  0
VERTEX
  5
BF4
  8
0
  6
DASHED
 62
     7
 10
6.7856364907
 20
20.195780581600001
 30
0.0
  0
VERTEX
  5
BF5
  8
0
  6
DASHED
 62
     7
 10
6.6690303951000001
 20
20.144663662500001
 30
0.0
  0
VERTEX
  5
BF6
  8
0
  6
DASHED
 62
     7
 10
6.5534495797999996
 20
20.0912724911
 30
0.0
  0
VERTEX
  5
BF7
  8
0
  6
DASHED
 62
     7
 10
6.4389388514999988
 20
20.035627765499999
 30
0.0
  0
VERTEX
  5
BF8
  8
0
  6
DASHED
 62
     7
 10
6.3255426019999996
 20
19.977751057100001
 30
0.0
  0
VERTEX
  5
BF9
  8
0
  6
DASHED
 62
     7
 10
6.2133047911999988
 20
19.917664802800001
 30
0.0
  0
SEQEND
  5
BFA
  8
0
  6
DASHED
 62
     7
  0
CIRCLE
  5
4BC
  8
0
  6
CONTINUOUS
 62
     2
 10
15.4230437968
 20
3.2021973417999998
 30
0.0
 40
0.0437681822
  0
CIRCLE
  5
4BD
  8
DRAFT_ENT
  6
CONTINUOUS
 62
     2
 10
14.485223447699999
 20
18.960116963400001
 30
0.0
 40
0.1862854049
  0
CIRCLE
  5
4BE
  8
DRAFT_ENT
  6
CONTINUOUS
 62
     2
 10
14.485223447699999
 20
18.960116963400001
 30
0.0
 40
0.0779808993
  0
ARC
  5
4BF
  8
DRAFT_ENT
  6
CONTINUOUS
 62
     2
 10
15.5896179182
 20
19.034534831199998
 30
0.0
 40
0.1093854061
 50
294.4500166359
 51
90.0
  0
ARC
  5
4C0
  8
DRAFT_ENT
  6
CONTINUOUS
 62
     2
 10
15.5727666034
 20
19.0212966677
 30
0.0
 40
0.0335073408
 50
266.1604009902
 51
89.999891051199995
  0
CIRCLE
  5
4C1
  8
DRAFT_ENT
  6
CONTINUOUS
 62
     2
 10
15.822525753500001
 20
18.777719695599998
 30
0.0
 40
0.0408486778
  0
ARC
  5
4C2
  8
DRAFT_ENT
  6
CONTINUOUS
 62
     2
 10
15.827771587899999
 20
18.787903484099999
 30
0.0
 40
0.010519658
 50
270.0
 51
90.0
  0
CIRCLE
  5
4C3
  8
DRAFT_ENT
  6
CONTINUOUS
 62
     7
 10
15.902926794800001
 20
8.4520183317999997
 30
0.0
 40
0.0807841983
  0
CIRCLE
  5
4C4
  8
NOTE
  6
CONTINUOUS
 62
     2
 10
16.829428308977882
 20
16.73043607301722
 30
0.0
 40
0.1470382097261194
  0
CIRCLE
  5
4C5
  8
0
  6
CONTINUOUS
 62
     2
 10
17.447545642745041
 20
16.2006137644658
 30
0.0
 40
0.1483130767864268
  0
ENDSEC
  0
EOF
